   0
SECTION
   2
HEADER
   9
$ACADVER
   1
AC1015
   9
$DWGCODEPAGE
   3
ANSI_932
   9
$LIMMIN
  10
0.0
  20
0.0
   9
$LIMMAX
  10
 2520.0000000000
  20
 1782.0000000000
   9
$EXTMIN
  10
0.0
  20
0.0
  30
0.0
   9
$EXTMAX
  10
 2520.0000000000
  20
 1782.0000000000
  30
0.0
   9
$LTSCALE
  40
 50.400000000000
   9
$HANDSEED
   5
2D0
   0
ENDSEC
   0
SECTION
   2
TABLES
  0
TABLE
  2
VPORT
  5
8
100
AcDbSymbolTable
 70
     1
  0
VPORT
  5
2CF
100
AcDbSymbolTableRecord
100
AcDbViewportTableRecord
  2
*ACTIVE
 70
     0
 10
0.0
 20
0.0
 11
1.0
 21
1.0
  12
 1260.0000000000
  22
 891.00000000000
 13
0.0
 23
0.0
 14
1.0
 24
1.0
 15
0.0
 25
0.0
 16
0.0
 26
0.0
 36
1.0
 17
0.0
 27
0.0
 37
0.0
  40
 2520.0000000000
  41
 1.4787878787879
 42
50.0
 43
0.0
 44
0.0
 50
0.0
 51
0.0
 71
     0
 72
   100
 73
     1
 74
     1
 75
     0
 76
     0
 77
     0
 78
     0
  0
ENDTAB
  0
TABLE
  2
LTYPE
  5
5
100
AcDbSymbolTable
 70
    25
  0
LTYPE
  5
12
100
AcDbSymbolTableRecord
100
AcDbLinetypeTableRecord
  2
BYBLOCK
 70
     0
  3

 72
    65
 73
     0
 40
0.0
  0
LTYPE
  5
13
100
AcDbSymbolTableRecord
100
AcDbLinetypeTableRecord
  2
BYLAYER
 70
     0
  3

 72
    65
 73
     0
 40
0.0
  0
LTYPE
  5
14
100
AcDbSymbolTableRecord
100
AcDbLinetypeTableRecord
  2
CONTINUOUS
 70
     0
  3
Solid line
 72
    65
 73
     0
 40
0.0
  0
LTYPE
  5
20
100
AcDbSymbolTableRecord
100
AcDbLinetypeTableRecord
  2
BORDER
 70
     0
  3
__ __ . __ __ . __ __ . __ __ . __ __ . __ __ .
 72
    65
 73
     6
 40
1.75
 49
0.5
 74
     0
 49
-0.25
 74
     0
 49
0.5
 74
     0
 49
-0.25
 74
     0
 49
0.0
 74
     0
 49
-0.25
 74
     0
  0
LTYPE
  5
21
100
AcDbSymbolTableRecord
100
AcDbLinetypeTableRecord
  2
BORDER2
 70
     0
  3
__.__.__.__.__.__.__.__.__.__.__.__.__.__.__.__
 72
    65
 73
     6
 40
0.875
 49
0.25
 74
     0
 49
-0.125
 74
     0
 49
0.25
 74
     0
 49
-0.125
 74
     0
 49
0.0
 74
     0
 49
-0.125
 74
     0
  0
LTYPE
  5
22
100
AcDbSymbolTableRecord
100
AcDbLinetypeTableRecord
  2
BORDERX2
 70
     0
  3
____  ____  .  ____  ____  .  ____  ____  .  __
 72
    65
 73
     6
 40
3.5
 49
1.0
 74
     0
 49
-0.5
 74
     0
 49
1.0
 74
     0
 49
-0.5
 74
     0
 49
0.0
 74
     0
 49
-0.5
 74
     0
  0
LTYPE
  5
23
100
AcDbSymbolTableRecord
100
AcDbLinetypeTableRecord
  2
CENTER
 70
     0
  3
____ _ ____ _ ____ _ ____ _ ____ _ ____ _ ____ 
 72
    65
 73
     4
 40
2.0
 49
1.25
 74
     0
 49
-0.25
 74
     0
 49
0.25
 74
     0
 49
-0.25
 74
     0
  0
LTYPE
  5
24
100
AcDbSymbolTableRecord
100
AcDbLinetypeTableRecord
  2
CENTER2
 70
     0
  3
___ _ ___ _ ___ _ ___ _ ___ _ ___ _ ___ _ ___ _
 72
    65
 73
     4
 40
1.125
 49
0.75
 74
     0
 49
-0.125
 74
     0
 49
0.125
 74
     0
 49
-0.125
 74
     0
  0
LTYPE
  5
25
100
AcDbSymbolTableRecord
100
AcDbLinetypeTableRecord
  2
CENTERX2
 70
     0
  3
________  __  ________  __  ________  __  _____
 72
    65
 73
     4
 40
4.0
 49
2.5
 74
     0
 49
-0.5
 74
     0
 49
0.5
 74
     0
 49
-0.5
 74
     0
  0
LTYPE
  5
26
100
AcDbSymbolTableRecord
100
AcDbLinetypeTableRecord
  2
DASHDOT
 70
     0
  3
__ . __ . __ . __ . __ . __ . __ . __ . __ . __
 72
    65
 73
     4
 40
1.0
 49
0.5
 74
     0
 49
-0.25
 74
     0
 49
0.0
 74
     0
 49
-0.25
 74
     0
  0
LTYPE
  5
27
100
AcDbSymbolTableRecord
100
AcDbLinetypeTableRecord
  2
DASHDOT2
 70
     0
  3
_._._._._._._._._._._._._._._._._._._._._._._._
 72
    65
 73
     4
 40
0.5
 49
0.25
 74
     0
 49
-0.125
 74
     0
 49
0.0
 74
     0
 49
-0.125
 74
     0
  0
LTYPE
  5
28
100
AcDbSymbolTableRecord
100
AcDbLinetypeTableRecord
  2
DASHDOTX2
 70
     0
  3
____  .  ____  .  ____  .  ____  .  ____  .  __
 72
    65
 73
     4
 40
2.0
 49
1.0
 74
     0
 49
-0.5
 74
     0
 49
0.0
 74
     0
 49
-0.5
 74
     0
  0
LTYPE
  5
29
100
AcDbSymbolTableRecord
100
AcDbLinetypeTableRecord
  2
DASHED
 70
     0
  3
__ __ __ __ __ __ __ __ __ __ __ __ __ __ __ __
 72
    65
 73
     2
 40
0.75
 49
0.5
 74
     0
 49
-0.25
 74
     0
  0
LTYPE
  5
2A
100
AcDbSymbolTableRecord
100
AcDbLinetypeTableRecord
  2
DASHED2
 70
     0
  3
_ _ _ _ _ _ _ _ _ _ _ _ _ _ _ _ _ _ _ _ _ _ _ _
 72
    65
 73
     2
 40
0.375
 49
0.25
 74
     0
 49
-0.125
 74
     0
  0
LTYPE
  5
2B
100
AcDbSymbolTableRecord
100
AcDbLinetypeTableRecord
  2
DASHEDX2
 70
     0
  3
____  ____  ____  ____  ____  ____  ____  ____ 
 72
    65
 73
     2
 40
1.5
 49
1.0
 74
     0
 49
-0.5
 74
     0
  0
LTYPE
  5
2C
100
AcDbSymbolTableRecord
100
AcDbLinetypeTableRecord
  2
DIVIDE
 70
     0
  3
____ . . ____ . . ____ . . ____ . . ____ . . __
 72
    65
 73
     6
 40
1.25
 49
0.5
 74
     0
 49
-0.25
 74
     0
 49
0.0
 74
     0
 49
-0.25
 74
     0
 49
0.0
 74
     0
 49
-0.25
 74
     0
  0
LTYPE
  5
2D
100
AcDbSymbolTableRecord
100
AcDbLinetypeTableRecord
  2
DIVIDE2
 70
     0
  3
__..__..__..__..__..__..__..__..__..__..__..__.
 72
    65
 73
     6
 40
0.625
 49
0.25
 74
     0
 49
-0.125
 74
     0
 49
0.0
 74
     0
 49
-0.125
 74
     0
 49
0.0
 74
     0
 49
-0.125
 74
     0
  0
LTYPE
  5
2E
100
AcDbSymbolTableRecord
100
AcDbLinetypeTableRecord
  2
DIVIDEX2
 70
     0
  3
________  .  .  ________  .  .  ________  .  . 
 72
    65
 73
     6
 40
2.5
 49
1.0
 74
     0
 49
-0.5
 74
     0
 49
0.0
 74
     0
 49
-0.5
 74
     0
 49
0.0
 74
     0
 49
-0.5
 74
     0
  0
LTYPE
  5
2F
100
AcDbSymbolTableRecord
100
AcDbLinetypeTableRecord
  2
DOT
 70
     0
  3
. . . . . . . . . . . . . . . . . . . . . . . .
 72
    65
 73
     2
 40
0.25
 49
0.0
 74
     0
 49
-0.25
 74
     0
  0
LTYPE
  5
30
100
AcDbSymbolTableRecord
100
AcDbLinetypeTableRecord
  2
DOT2
 70
     0
  3
...............................................
 72
    65
 73
     2
 40
0.125
 49
0.0
 74
     0
 49
-0.125
 74
     0
  0
LTYPE
  5
31
100
AcDbSymbolTableRecord
100
AcDbLinetypeTableRecord
  2
DOTX2
 70
     0
  3
.  .  .  .  .  .  .  .  .  .  .  .  .  .  .  . 
 72
    65
 73
     2
 40
0.5
 49
0.0
 74
     0
 49
-0.5
 74
     0
  0
LTYPE
  5
32
100
AcDbSymbolTableRecord
100
AcDbLinetypeTableRecord
  2
HIDDEN
 70
     0
  3
__ __ __ __ __ __ __ __ __ __ __ __ __ __ __ __
 72
    65
 73
     2
 40
0.375
 49
0.25
 74
     0
 49
-0.125
 74
     0
  0
LTYPE
  5
33
100
AcDbSymbolTableRecord
100
AcDbLinetypeTableRecord
  2
HIDDEN2
 70
     0
  3
_ _ _ _ _ _ _ _ _ _ _ _ _ _ _ _ _ _ _ _ _ _ _ _
 72
    65
 73
     2
 40
0.1875
 49
0.125
 74
     0
 49
-0.0625
 74
     0
  0
LTYPE
  5
34
100
AcDbSymbolTableRecord
100
AcDbLinetypeTableRecord
  2
HIDDENX2
 70
     0
  3
____ ____ ____ ____ ____ ____ ____ ____ ____ __
 72
    65
 73
     2
 40
0.75
 49
0.5
 74
     0
 49
-0.25
 74
     0
  0
LTYPE
  5
35
100
AcDbSymbolTableRecord
100
AcDbLinetypeTableRecord
  2
PHANTOM
 70
     0
  3
______  __  __  ______  __  __  ______  __  __ 
 72
    65
 73
     6
 40
2.5
 49
1.25
 74
     0
 49
-0.25
 74
     0
 49
0.25
 74
     0
 49
-0.25
 74
     0
 49
0.25
 74
     0
 49
-0.25
 74
     0
  0
LTYPE
  5
36
100
AcDbSymbolTableRecord
100
AcDbLinetypeTableRecord
  2
PHANTOM2
 70
     0
  3
___ _ _ ___ _ _ ___ _ _ ___ _ _ ___ _ _ ___ _ _
 72
    65
 73
     6
 40
1.25
 49
0.625
 74
     0
 49
-0.125
 74
     0
 49
0.125
 74
     0
 49
-0.125
 74
     0
 49
0.125
 74
     0
 49
-0.125
 74
     0
  0
LTYPE
  5
37
100
AcDbSymbolTableRecord
100
AcDbLinetypeTableRecord
  2
PHANTOMX2
 70
     0
  3
____________    ____    ____    ____________   
 72
    65
 73
     6
 40
5.0
 49
2.5
 74
     0
 49
-0.5
 74
     0
 49
0.5
 74
     0
 49
-0.5
 74
     0
 49
0.5
 74
     0
 49
-0.5
 74
     0
  0
ENDTAB
   0
TABLE
   2
LAYER
   5
2
 100
AcDbSymbolTable
  70
5
   0
LAYER
   5
E
 100
AcDbSymbolTableRecord
 100
AcDbLayerTableRecord
   2
0
  70
0
  62
7
   6
CONTINUOUS
 390
30
   0
LAYER
   5
39
 100
AcDbSymbolTableRecord
 100
AcDbLayerTableRecord
   2
LEVEL001
  70
0
  62
7
   6
CONTINUOUS
 390
30
   0
LAYER
   5
3A
 100
AcDbSymbolTableRecord
 100
AcDbLayerTableRecord
   2
LEVEL002
  70
0
  62
7
   6
CONTINUOUS
 390
30
   0
LAYER
   5
3B
 100
AcDbSymbolTableRecord
 100
AcDbLayerTableRecord
   2
LEVEL012
  70
0
  62
7
   6
CONTINUOUS
 390
30
   0
LAYER
   5
3C
 100
AcDbSymbolTableRecord
 100
AcDbLayerTableRecord
   2
LEVEL065
  70
0
  62
7
   6
CONTINUOUS
 390
30
   0
ENDTAB
  0
TABLE
  2
STYLE
  5
3
100
AcDbSymbolTable
  70
4
  0
STYLE
  5
F
100
AcDbSymbolTableRecord
100
AcDbTextStyleTableRecord
  2
STANDARD
 70
     0
 40
0.0
 41
1.0
 50
0.0
 71
     0
 42
0.2
  3
TXT
  4
BIGFONT
  0
STYLE
  5
38
100
AcDbSymbolTableRecord
100
AcDbTextStyleTableRecord
  2
STANDARD1
 70
     4
 40
0.0
 41
1.0
 50
0.0
 71
     0
 42
0.2
  3
TXT
  4
BIGFONT
   0
STYLE
   5
3D
 100
AcDbSymbolTableRecord
 100
AcDbTextStyleTableRecord
   2
GMM001
  70
0
  40
0.0
  41
 0.80000000000000
  50
0.0
  71
     0
  42
1.0
   3
txt.shx
   4
bigfont.shx
   0
STYLE
   5
3E
 100
AcDbSymbolTableRecord
 100
AcDbTextStyleTableRecord
   2
GMM002
  70
0
  40
0.0
  41
 1.0000000000000
  50
0.0
  71
     0
  42
1.0
   3
txt.shx
   4
bigfont.shx
   0
ENDTAB
  0
TABLE
  2
VIEW
  5
6
100
AcDbSymbolTable
 70
     0
  0
ENDTAB
  0
TABLE
  2
UCS
  5
7
100
AcDbSymbolTable
 70
     0
  0
ENDTAB
  0
TABLE
  2
APPID
  5
9
100
AcDbSymbolTable
 70
     1
  0
APPID
  5
10
100
AcDbSymbolTableRecord
100
AcDbRegAppTableRecord
  2
ACAD
 70
     0
  0
ENDTAB
   0
TABLE
   2
DIMSTYLE
   5
A
 100
AcDbSymbolTable
  70
13
 100
AcDbDimStyleTable
  0
DIMSTYLE
105
1D
100
AcDbSymbolTableRecord
100
AcDbDimStyleTableRecord
  2
STANDARD
 70
     0
  3

  4

  5

  6

  7

 40
1.0
 41
0.18
 42
0.0625
 43
0.38
 44
0.18
 45
0.0
 46
0.0
 47
0.0
 48
0.0
140
0.18
141
0.09
142
0.0
143
25.4
144
1.0
145
0.0
146
1.0
147
0.09
 71
     0
 72
     0
 73
     1
 74
     1
 75
     0
 76
     0
 77
     0
 78
     0
170
     0
171
     2
172
     0
173
     0
174
     0
175
     0
176
     0
177
     0
178
     0
270
     2
271
     4
272
     4
273
     2
274
     2
340
F
275
     0
280
     0
281
     0
282
     0
283
     1
284
     0
285
     0
286
     0
287
     3
288
     0
   0
DIMSTYLE
 105
3F
 100
AcDbSymbolTableRecord
 100
AcDbDimStyleTableRecord
   2
GMM001
  70
0
   3
扉厚<>
   4

   5

   6

   7

  40
 1.0000000000000
  41
 12.000000000000
  42
 6.0000000000000
  43
 48.000000000000
  44
0.0
  45
0.0
  46
0.0
  47
0.0
  48
0.0
 140
 18.000000000000
 141
 6.0000000000000
 142
0.0
 143
 0.39400000000000E-1
 144
 1.0000000000000
 145
0.0
 146
 0.83333333333333
 147
 6.0000000000000
  71
0
  72
0
  73
0
  74
0
  75
1
  76
1
  77
3
  78
8
 170
0
 171
2
 172
1
 173
1
 174
0
 175
0
 176
8
 177
8
 178
8
 270
2
 271
6
 272
0
 273
2
 274
2
 340
3E
 275
1
 280
0
 281
0
 282
0
 283
1
 284
0
 285
0
 286
0
 287
3
 288
1
   0
DIMSTYLE
 105
40
 100
AcDbSymbolTableRecord
 100
AcDbDimStyleTableRecord
   2
GMM002
  70
0
   3

   4

   5

   6

   7

  40
 1.0000000000000
  41
 12.000000000000
  42
 6.0000000000000
  43
 48.000000000000
  44
 6.0000000000000
  45
0.0
  46
0.0
  47
0.0
  48
0.0
 140
 18.000000000000
 141
 6.0000000000000
 142
0.0
 143
 0.39400000000000E-1
 144
 1.0000000000000
 145
0.0
 146
 0.83333333333333
 147
 6.0019200557642
  71
0
  72
0
  73
0
  74
0
  75
0
  76
0
  77
3
  78
8
 170
0
 171
2
 172
1
 173
1
 174
0
 175
0
 176
8
 177
8
 178
8
 270
2
 271
6
 272
0
 273
2
 274
2
 340
3E
 275
1
 280
0
 281
0
 282
0
 283
1
 284
0
 285
0
 286
0
 287
3
 288
1
   0
DIMSTYLE
 105
41
 100
AcDbSymbolTableRecord
 100
AcDbDimStyleTableRecord
   2
GMM003
  70
0
   3

   4

   5

   6

   7

  40
 1.0000000000000
  41
 12.000000000000
  42
 6.0000000000000
  43
 48.000000000000
  44
 6.0000000000000
  45
0.0
  46
0.0
  47
0.0
  48
0.0
 140
 18.000000000000
 141
 6.0000000000000
 142
0.0
 143
 0.39400000000000E-1
 144
 1.0000000000000
 145
0.0
 146
 0.83333333333333
 147
 6.0000000000000
  71
0
  72
0
  73
0
  74
0
  75
0
  76
0
  77
3
  78
8
 170
0
 171
2
 172
1
 173
1
 174
0
 175
0
 176
8
 177
8
 178
8
 270
2
 271
6
 272
0
 273
2
 274
2
 340
3E
 275
1
 280
0
 281
0
 282
0
 283
1
 284
0
 285
0
 286
0
 287
3
 288
0
   0
DIMSTYLE
 105
42
 100
AcDbSymbolTableRecord
 100
AcDbDimStyleTableRecord
   2
GMM004
  70
0
   3

   4

   5

   6

   7

  40
 1.0000000000000
  41
 12.000000000000
  42
 6.0000000000000
  43
 48.000000000000
  44
0.0
  45
0.0
  46
0.0
  47
0.0
  48
0.0
 140
 18.000000000000
 141
 6.0000000000000
 142
0.0
 143
 0.39400000000000E-1
 144
 1.0000000000000
 145
0.0
 146
 0.83333333333333
 147
 6.0000000000000
  71
0
  72
0
  73
0
  74
0
  75
1
  76
1
  77
3
  78
8
 170
0
 171
2
 172
1
 173
1
 174
0
 175
0
 176
8
 177
8
 178
8
 270
2
 271
6
 272
0
 273
2
 274
2
 340
3E
 275
1
 280
0
 281
0
 282
0
 283
1
 284
0
 285
0
 286
0
 287
3
 288
0
   0
DIMSTYLE
 105
43
 100
AcDbSymbolTableRecord
 100
AcDbDimStyleTableRecord
   2
GMM005
  70
0
   3

   4

   5

   6

   7
_NONE
  40
 1.0000000000000
  41
 12.000000000000
  42
 6.0000000000000
  43
 48.000000000000
  44
 6.0000000000000
  45
0.0
  46
0.0
  47
0.0
  48
0.0
 140
 18.000000000000
 141
 6.0000000000000
 142
0.0
 143
 0.39400000000000E-1
 144
 1.0000000000000
 145
0.0
 146
 0.83333333333333
 147
 6.9673502711380
  71
0
  72
0
  73
0
  74
0
  75
0
  76
0
  77
3
  78
8
 170
0
 171
2
 172
1
 173
1
 174
0
 175
0
 176
8
 177
8
 178
8
 270
2
 271
6
 272
0
 273
2
 274
2
 340
3E
 275
1
 280
0
 281
0
 282
0
 283
1
 284
0
 285
0
 286
0
 287
3
 288
1
   0
DIMSTYLE
 105
44
 100
AcDbSymbolTableRecord
 100
AcDbDimStyleTableRecord
   2
GMM006
  70
0
   3

   4

   5

   6

   7

  40
 1.0000000000000
  41
 12.000000000000
  42
 6.0000000000000
  43
 48.000000000000
  44
 6.0000000000000
  45
0.0
  46
0.0
  47
0.0
  48
0.0
 140
 18.000000000000
 141
 6.0000000000000
 142
0.0
 143
 0.39400000000000E-1
 144
 1.0000000000000
 145
0.0
 146
 0.83333333333333
 147
 5.7713637939532
  71
0
  72
0
  73
0
  74
0
  75
0
  76
0
  77
3
  78
8
 170
0
 171
2
 172
1
 173
1
 174
0
 175
0
 176
8
 177
8
 178
8
 270
2
 271
6
 272
0
 273
2
 274
2
 340
3E
 275
1
 280
0
 281
0
 282
0
 283
1
 284
0
 285
0
 286
0
 287
3
 288
1
   0
DIMSTYLE
 105
45
 100
AcDbSymbolTableRecord
 100
AcDbDimStyleTableRecord
   2
GMM007
  70
0
   3

   4

   5

   6

   7

  40
 1.0000000000000
  41
 12.000000000000
  42
 6.0000000000000
  43
 48.000000000000
  44
 6.0000000000000
  45
0.0
  46
0.0
  47
0.0
  48
0.0
 140
 18.000000000000
 141
 6.0000000000000
 142
0.0
 143
 0.39400000000000E-1
 144
 1.0000000000000
 145
0.0
 146
 0.83333333333333
 147
 3.9757878977221
  71
0
  72
0
  73
0
  74
0
  75
0
  76
0
  77
3
  78
8
 170
0
 171
2
 172
1
 173
1
 174
0
 175
0
 176
8
 177
8
 178
8
 270
2
 271
6
 272
0
 273
2
 274
2
 340
3E
 275
1
 280
0
 281
0
 282
0
 283
1
 284
0
 285
0
 286
0
 287
3
 288
1
   0
DIMSTYLE
 105
46
 100
AcDbSymbolTableRecord
 100
AcDbDimStyleTableRecord
   2
GMM008
  70
0
   3

   4

   5

   6
_NONE
   7
_NONE
  40
 1.0000000000000
  41
 12.000000000000
  42
 6.0000000000000
  43
 48.000000000000
  44
 6.0000000000000
  45
0.0
  46
0.0
  47
0.0
  48
0.0
 140
 18.000000000000
 141
 6.0000000000000
 142
0.0
 143
 0.39400000000000E-1
 144
 1.0000000000000
 145
0.0
 146
 0.83333333333333
 147
 4.9155285537145
  71
0
  72
0
  73
0
  74
0
  75
0
  76
0
  77
3
  78
8
 170
0
 171
2
 172
1
 173
1
 174
0
 175
0
 176
8
 177
8
 178
8
 270
2
 271
6
 272
0
 273
2
 274
2
 340
3E
 275
1
 280
0
 281
0
 282
0
 283
1
 284
0
 285
0
 286
0
 287
5
 288
1
   0
DIMSTYLE
 105
47
 100
AcDbSymbolTableRecord
 100
AcDbDimStyleTableRecord
   2
GMM009
  70
0
   3

   4

   5

   6
_DOT
   7
_NONE
  40
 1.0000000000000
  41
 3.2000000000000
  42
 6.0000000000000
  43
 48.000000000000
  44
 6.0000000000000
  45
0.0
  46
0.0
  47
0.0
  48
0.0
 140
 18.000000000000
 141
 6.0000000000000
 142
0.0
 143
 0.39400000000000E-1
 144
 1.0000000000000
 145
0.0
 146
 0.83333333333333
 147
 6.0000000000000
  71
0
  72
0
  73
0
  74
0
  75
0
  76
0
  77
3
  78
8
 170
0
 171
2
 172
1
 173
1
 174
0
 175
0
 176
8
 177
8
 178
8
 270
2
 271
6
 272
0
 273
2
 274
2
 340
3E
 275
1
 280
0
 281
0
 282
0
 283
1
 284
0
 285
0
 286
0
 287
3
 288
0
   0
DIMSTYLE
 105
48
 100
AcDbSymbolTableRecord
 100
AcDbDimStyleTableRecord
   2
GMM010
  70
0
   3

   4

   5

   6
_DOT
   7

  40
 1.0000000000000
  41
 12.000000000000
  42
 6.0000000000000
  43
 48.000000000000
  44
 6.0000000000000
  45
0.0
  46
0.0
  47
0.0
  48
0.0
 140
 18.000000000000
 141
 6.0000000000000
 142
0.0
 143
 0.39400000000000E-1
 144
 1.0000000000000
 145
0.0
 146
 0.83333333333333
 147
 6.9292585308315
  71
0
  72
0
  73
0
  74
0
  75
0
  76
0
  77
3
  78
8
 170
0
 171
2
 172
1
 173
1
 174
0
 175
0
 176
8
 177
8
 178
8
 270
2
 271
6
 272
0
 273
2
 274
2
 340
3E
 275
1
 280
0
 281
0
 282
0
 283
1
 284
0
 285
0
 286
0
 287
3
 288
1
   0
DIMSTYLE
 105
49
 100
AcDbSymbolTableRecord
 100
AcDbDimStyleTableRecord
   2
GMM011
  70
0
   3

   4

   5

   6

   7

  40
 1.0000000000000
  41
 12.000000000000
  42
 6.0000000000000
  43
 48.000000000000
  44
 6.0000000000000
  45
0.0
  46
0.0
  47
0.0
  48
0.0
 140
 18.000000000000
 141
 6.0000000000000
 142
0.0
 143
 0.39400000000000E-1
 144
 1.0000000000000
 145
0.0
 146
 0.83333333333333
 147
 6.1530638189670
  71
0
  72
0
  73
0
  74
0
  75
0
  76
0
  77
3
  78
8
 170
0
 171
2
 172
1
 173
1
 174
0
 175
0
 176
8
 177
8
 178
8
 270
2
 271
6
 272
0
 273
2
 274
2
 340
3E
 275
1
 280
0
 281
0
 282
0
 283
1
 284
0
 285
0
 286
0
 287
3
 288
1
   0
ENDTAB
  0
TABLE
  2
BLOCK_RECORD
  5
1
100
AcDbSymbolTable
 70
     0
  0
BLOCK_RECORD
  5
18
100
AcDbSymbolTableRecord
100
AcDbBlockTableRecord
  2
*MODEL_SPACE
  0
BLOCK_RECORD
  5
15
100
AcDbSymbolTableRecord
100
AcDbBlockTableRecord
  2
*PAPER_SPACE
   0
BLOCK_RECORD
   5
4A
 100
AcDbSymbolTableRecord
 100
AcDbBlockTableRecord
   2
*D1
   0
BLOCK_RECORD
   5
4B
 100
AcDbSymbolTableRecord
 100
AcDbBlockTableRecord
   2
*D2
   0
BLOCK_RECORD
   5
4C
 100
AcDbSymbolTableRecord
 100
AcDbBlockTableRecord
   2
*D3
   0
BLOCK_RECORD
   5
4D
 100
AcDbSymbolTableRecord
 100
AcDbBlockTableRecord
   2
*D4
   0
BLOCK_RECORD
   5
4E
 100
AcDbSymbolTableRecord
 100
AcDbBlockTableRecord
   2
*D5
   0
BLOCK_RECORD
   5
4F
 100
AcDbSymbolTableRecord
 100
AcDbBlockTableRecord
   2
*D6
   0
BLOCK_RECORD
   5
50
 100
AcDbSymbolTableRecord
 100
AcDbBlockTableRecord
   2
*D7
   0
BLOCK_RECORD
   5
51
 100
AcDbSymbolTableRecord
 100
AcDbBlockTableRecord
   2
*D8
   0
BLOCK_RECORD
   5
52
 100
AcDbSymbolTableRecord
 100
AcDbBlockTableRecord
   2
*D9
   0
BLOCK_RECORD
   5
53
 100
AcDbSymbolTableRecord
 100
AcDbBlockTableRecord
   2
*D10
   0
BLOCK_RECORD
   5
54
 100
AcDbSymbolTableRecord
 100
AcDbBlockTableRecord
   2
*D11
   0
BLOCK_RECORD
   5
55
 100
AcDbSymbolTableRecord
 100
AcDbBlockTableRecord
   2
*D12
   0
BLOCK_RECORD
   5
56
 100
AcDbSymbolTableRecord
 100
AcDbBlockTableRecord
   2
*D13
   0
BLOCK_RECORD
   5
57
 100
AcDbSymbolTableRecord
 100
AcDbBlockTableRecord
   2
*D14
   0
BLOCK_RECORD
   5
58
 100
AcDbSymbolTableRecord
 100
AcDbBlockTableRecord
   2
*D15
   0
BLOCK_RECORD
   5
59
 100
AcDbSymbolTableRecord
 100
AcDbBlockTableRecord
   2
*D16
   0
BLOCK_RECORD
   5
5A
 100
AcDbSymbolTableRecord
 100
AcDbBlockTableRecord
   2
*D17
   0
BLOCK_RECORD
   5
5B
 100
AcDbSymbolTableRecord
 100
AcDbBlockTableRecord
   2
_ARCHTICK
   0
BLOCK_RECORD
   5
5C
 100
AcDbSymbolTableRecord
 100
AcDbBlockTableRecord
   2
_BOXBLANK
   0
BLOCK_RECORD
   5
5D
 100
AcDbSymbolTableRecord
 100
AcDbBlockTableRecord
   2
_BOXFILLED
   0
BLOCK_RECORD
   5
5E
 100
AcDbSymbolTableRecord
 100
AcDbBlockTableRecord
   2
_CLOSED
   0
BLOCK_RECORD
   5
5F
 100
AcDbSymbolTableRecord
 100
AcDbBlockTableRecord
   2
_CLOSEDBLANK
   0
BLOCK_RECORD
   5
60
 100
AcDbSymbolTableRecord
 100
AcDbBlockTableRecord
   2
_DATUMBLANK
   0
BLOCK_RECORD
   5
61
 100
AcDbSymbolTableRecord
 100
AcDbBlockTableRecord
   2
_DATUMFILLED
   0
BLOCK_RECORD
   5
62
 100
AcDbSymbolTableRecord
 100
AcDbBlockTableRecord
   2
_DOT
   0
BLOCK_RECORD
   5
63
 100
AcDbSymbolTableRecord
 100
AcDbBlockTableRecord
   2
_DOTBLANK
   0
BLOCK_RECORD
   5
64
 100
AcDbSymbolTableRecord
 100
AcDbBlockTableRecord
   2
_DOTSMALL
   0
BLOCK_RECORD
   5
65
 100
AcDbSymbolTableRecord
 100
AcDbBlockTableRecord
   2
_INTEGRAL
   0
BLOCK_RECORD
   5
66
 100
AcDbSymbolTableRecord
 100
AcDbBlockTableRecord
   2
_NONE
   0
BLOCK_RECORD
   5
67
 100
AcDbSymbolTableRecord
 100
AcDbBlockTableRecord
   2
_OBLIQUE
   0
BLOCK_RECORD
   5
68
 100
AcDbSymbolTableRecord
 100
AcDbBlockTableRecord
   2
_OPEN
   0
BLOCK_RECORD
   5
69
 100
AcDbSymbolTableRecord
 100
AcDbBlockTableRecord
   2
_OPEN30
   0
BLOCK_RECORD
   5
6A
 100
AcDbSymbolTableRecord
 100
AcDbBlockTableRecord
   2
_OPEN90
   0
BLOCK_RECORD
   5
6B
 100
AcDbSymbolTableRecord
 100
AcDbBlockTableRecord
   2
_ORIGIN
   0
ENDTAB
   0
ENDSEC
  0
SECTION
  2
BLOCKS
  0
BLOCK
  5
19
100
AcDbEntity
  8
0
100
AcDbBlockBegin
  2
*MODEL_SPACE
 70
     0
 10
0.0
 20
0.0
 30
0.0
  3
*MODEL_SPACE
  1

  0
ENDBLK
  5
1A
100
AcDbEntity
  8
0
100
AcDbBlockEnd
  0
BLOCK
  5
16
100
AcDbEntity
 67
     1
  8
0
100
AcDbBlockBegin
  2
*PAPER_SPACE
 70
     0
 10
0.0
 20
0.0
 30
0.0
  3
*PAPER_SPACE
  1

  0
ENDBLK
  5
17
100
AcDbEntity
 67
     1
  8
0
100
AcDbBlockEnd
   0
BLOCK
   5
6C
 100
AcDbEntity
   8
0
 100
AcDbBlockBegin
   2
_ARCHTICK
  70
0
  10
0.0
  20
0.0
  30
0.0
   3
_ARCHTICK
   0
POLYLINE
   5
6D
 100
AcDbEntity
   8
0
 370
-2
   6
BYBLOCK
  62
0
 100
AcDb2dPolyline
  66
1
  10
0.0
  20
0.0
  30
0.0
  70
1
  40
 0.15000000000000
  41
 0.15000000000000
   0
VERTEX
   5
6E
 100
AcDbEntity
   8
0
   6
BYBLOCK
  62
0
 100
AcDbVertex
 100
AcDb2dVertex
  10
-0.50000000000000
  20
-0.50000000000000
  30
0.0
  40
 0.15000000000000
  41
 0.15000000000000
   0
VERTEX
   5
6F
 100
AcDbEntity
   8
0
   6
BYBLOCK
  62
0
 100
AcDbVertex
 100
AcDb2dVertex
  10
 0.50000000000000
  20
 0.50000000000000
  30
0.0
  40
 0.15000000000000
  41
 0.15000000000000
   0
SEQEND
   5
70
 100
AcDbEntity
   8
0
   6
BYBLOCK
  62
0
   0
ENDBLK
   5
71
 100
AcDbEntity
   8
0
 100
AcDbBlockEnd
   0
BLOCK
   5
72
 100
AcDbEntity
   8
0
 100
AcDbBlockBegin
   2
_OBLIQUE
  70
0
  10
0.0
  20
0.0
  30
0.0
   3
_OBLIQUE
   0
LINE
   5
73
 100
AcDbEntity
   8
0
 370
-2
 100
AcDbLine
   6
BYBLOCK
  62
0
  10
-0.50000000000000
  20
-0.50000000000000
  30
0.0
  11
 0.50000000000000
  21
 0.50000000000000
  31
0.0
   0
ENDBLK
   5
74
 100
AcDbEntity
   8
0
 100
AcDbBlockEnd
   0
BLOCK
   5
75
 100
AcDbEntity
   8
0
 100
AcDbBlockBegin
   2
_BOXBLANK
  70
0
  10
0.0
  20
0.0
  30
0.0
   3
_BOXBLANK
   0
LINE
   5
76
 100
AcDbEntity
   8
0
 370
-2
 100
AcDbLine
   6
BYBLOCK
  62
0
  10
-0.50000000000000
  20
-0.50000000000000
  30
0.0
  11
 0.50000000000000
  21
-0.50000000000000
  31
0.0
   0
LINE
   5
77
 100
AcDbEntity
   8
0
 370
-2
 100
AcDbLine
   6
BYBLOCK
  62
0
  10
 0.50000000000000
  20
-0.50000000000000
  30
0.0
  11
 0.50000000000000
  21
 0.50000000000000
  31
0.0
   0
LINE
   5
78
 100
AcDbEntity
   8
0
 370
-2
 100
AcDbLine
   6
BYBLOCK
  62
0
  10
 0.50000000000000
  20
 0.50000000000000
  30
0.0
  11
-0.50000000000000
  21
 0.50000000000000
  31
0.0
   0
LINE
   5
79
 100
AcDbEntity
   8
0
 370
-2
 100
AcDbLine
   6
BYBLOCK
  62
0
  10
-0.50000000000000
  20
 0.50000000000000
  30
0.0
  11
-0.50000000000000
  21
-0.50000000000000
  31
0.0
   0
LINE
   5
7A
 100
AcDbEntity
   8
0
 370
-2
 100
AcDbLine
   6
BYBLOCK
  62
0
  10
-0.50000000000000
  20
0.0
  30
0.0
  11
-1.0000000000000
  21
0.0
  31
0.0
   0
ENDBLK
   5
7B
 100
AcDbEntity
   8
0
 100
AcDbBlockEnd
   0
BLOCK
   5
7C
 100
AcDbEntity
   8
0
 100
AcDbBlockBegin
   2
_BOXFILLED
  70
0
  10
0.0
  20
0.0
  30
0.0
   3
_BOXFILLED
   0
SOLID
   5
7D
 100
AcDbEntity
   8
0
 100
AcDbTrace
   6
BYBLOCK
  62
0
  10
-0.50000000000000
  20
 0.50000000000000
  30
0.0
  11
 0.50000000000000
  21
 0.50000000000000
  31
0.0
  12
-0.50000000000000
  22
-0.50000000000000
  32
0.0
  13
 0.50000000000000
  23
-0.50000000000000
  33
0.0
   0
LINE
   5
7E
 100
AcDbEntity
   8
0
 370
-2
 100
AcDbLine
   6
BYBLOCK
  62
0
  10
-0.50000000000000
  20
0.0
  30
0.0
  11
-1.0000000000000
  21
0.0
  31
0.0
   0
ENDBLK
   5
7F
 100
AcDbEntity
   8
0
 100
AcDbBlockEnd
   0
BLOCK
   5
80
 100
AcDbEntity
   8
0
 100
AcDbBlockBegin
   2
_CLOSED
  70
0
  10
0.0
  20
0.0
  30
0.0
   3
_CLOSED
   0
LINE
   5
81
 100
AcDbEntity
   8
0
 370
-2
 100
AcDbLine
   6
BYBLOCK
  62
0
  10
-1.0000000000000
  20
 0.16666666666667
  30
0.0
  11
0.0
  21
0.0
  31
0.0
   0
LINE
   5
82
 100
AcDbEntity
   8
0
 370
-2
 100
AcDbLine
   6
BYBLOCK
  62
0
  10
0.0
  20
0.0
  30
0.0
  11
-1.0000000000000
  21
-0.16666666666667
  31
0.0
   0
LINE
   5
83
 100
AcDbEntity
   8
0
 370
-2
 100
AcDbLine
   6
BYBLOCK
  62
0
  10
-1.0000000000000
  20
 0.16666666666667
  30
0.0
  11
-1.0000000000000
  21
-0.16666666666667
  31
0.0
   0
LINE
   5
84
 100
AcDbEntity
   8
0
 370
-2
 100
AcDbLine
   6
BYBLOCK
  62
0
  10
0.0
  20
0.0
  30
0.0
  11
-1.0000000000000
  21
0.0
  31
0.0
   0
ENDBLK
   5
85
 100
AcDbEntity
   8
0
 100
AcDbBlockEnd
   0
BLOCK
   5
86
 100
AcDbEntity
   8
0
 100
AcDbBlockBegin
   2
_OPEN
  70
0
  10
0.0
  20
0.0
  30
0.0
   3
_OPEN
   0
LINE
   5
87
 100
AcDbEntity
   8
0
 370
-2
 100
AcDbLine
   6
BYBLOCK
  62
0
  10
-1.0000000000000
  20
 0.16666666666667
  30
0.0
  11
0.0
  21
0.0
  31
0.0
   0
LINE
   5
88
 100
AcDbEntity
   8
0
 370
-2
 100
AcDbLine
   6
BYBLOCK
  62
0
  10
0.0
  20
0.0
  30
0.0
  11
-1.0000000000000
  21
-0.16666666666667
  31
0.0
   0
LINE
   5
89
 100
AcDbEntity
   8
0
 370
-2
 100
AcDbLine
   6
BYBLOCK
  62
0
  10
0.0
  20
0.0
  30
0.0
  11
-1.0000000000000
  21
0.0
  31
0.0
   0
ENDBLK
   5
8A
 100
AcDbEntity
   8
0
 100
AcDbBlockEnd
   0
BLOCK
   5
8B
 100
AcDbEntity
   8
0
 100
AcDbBlockBegin
   2
_OPEN30
  70
0
  10
0.0
  20
0.0
  30
0.0
   3
_OPEN30
   0
LINE
   5
8C
 100
AcDbEntity
   8
0
 370
-2
 100
AcDbLine
   6
BYBLOCK
  62
0
  10
-1.0000000000000
  20
 0.26794919243110
  30
0.0
  11
0.0
  21
0.0
  31
0.0
   0
LINE
   5
8D
 100
AcDbEntity
   8
0
 370
-2
 100
AcDbLine
   6
BYBLOCK
  62
0
  10
0.0
  20
0.0
  30
0.0
  11
-1.0000000000000
  21
-0.26794919243110
  31
0.0
   0
LINE
   5
8E
 100
AcDbEntity
   8
0
 370
-2
 100
AcDbLine
   6
BYBLOCK
  62
0
  10
0.0
  20
0.0
  30
0.0
  11
-1.0000000000000
  21
0.0
  31
0.0
   0
ENDBLK
   5
8F
 100
AcDbEntity
   8
0
 100
AcDbBlockEnd
   0
BLOCK
   5
90
 100
AcDbEntity
   8
0
 100
AcDbBlockBegin
   2
_OPEN90
  70
0
  10
0.0
  20
0.0
  30
0.0
   3
_OPEN90
   0
LINE
   5
91
 100
AcDbEntity
   8
0
 370
-2
 100
AcDbLine
   6
BYBLOCK
  62
0
  10
-0.50000000000000
  20
 0.50000000000000
  30
0.0
  11
0.0
  21
0.0
  31
0.0
   0
LINE
   5
92
 100
AcDbEntity
   8
0
 370
-2
 100
AcDbLine
   6
BYBLOCK
  62
0
  10
0.0
  20
0.0
  30
0.0
  11
-0.50000000000000
  21
-0.50000000000000
  31
0.0
   0
LINE
   5
93
 100
AcDbEntity
   8
0
 370
-2
 100
AcDbLine
   6
BYBLOCK
  62
0
  10
0.0
  20
0.0
  30
0.0
  11
-1.0000000000000
  21
0.0
  31
0.0
   0
ENDBLK
   5
94
 100
AcDbEntity
   8
0
 100
AcDbBlockEnd
   0
BLOCK
   5
95
 100
AcDbEntity
   8
0
 100
AcDbBlockBegin
   2
_CLOSEDBLANK
  70
0
  10
0.0
  20
0.0
  30
0.0
   3
_CLOSEDBLANK
   0
LINE
   5
96
 100
AcDbEntity
   8
0
 370
-2
 100
AcDbLine
   6
BYBLOCK
  62
0
  10
-1.0000000000000
  20
 0.16666666666667
  30
0.0
  11
0.0
  21
0.0
  31
0.0
   0
LINE
   5
97
 100
AcDbEntity
   8
0
 370
-2
 100
AcDbLine
   6
BYBLOCK
  62
0
  10
0.0
  20
0.0
  30
0.0
  11
-1.0000000000000
  21
-0.16666666666667
  31
0.0
   0
LINE
   5
98
 100
AcDbEntity
   8
0
 370
-2
 100
AcDbLine
   6
BYBLOCK
  62
0
  10
-1.0000000000000
  20
 0.16666666666667
  30
0.0
  11
-1.0000000000000
  21
-0.16666666666667
  31
0.0
   0
ENDBLK
   5
99
 100
AcDbEntity
   8
0
 100
AcDbBlockEnd
   0
BLOCK
   5
9A
 100
AcDbEntity
   8
0
 100
AcDbBlockBegin
   2
_DOT
  70
0
  10
0.0
  20
0.0
  30
0.0
   3
_DOT
   0
POLYLINE
   5
9B
 100
AcDbEntity
   8
0
 370
-2
   6
BYBLOCK
  62
0
 100
AcDb2dPolyline
  66
1
  10
0.0
  20
0.0
  30
0.0
  70
1
  40
 0.50000000000000
  41
 0.50000000000000
   0
VERTEX
   5
9C
 100
AcDbEntity
   8
0
   6
BYBLOCK
  62
0
 100
AcDbVertex
 100
AcDb2dVertex
  10
-0.25000000000000
  20
0.0
  30
0.0
  42
 1.0000000000000
  40
 0.50000000000000
  41
 0.50000000000000
   0
VERTEX
   5
9D
 100
AcDbEntity
   8
0
   6
BYBLOCK
  62
0
 100
AcDbVertex
 100
AcDb2dVertex
  10
 0.25000000000000
  20
0.0
  30
0.0
  42
 1.0000000000000
  40
 0.50000000000000
  41
 0.50000000000000
   0
SEQEND
   5
9E
 100
AcDbEntity
   8
0
   6
BYBLOCK
  62
0
   0
LINE
   5
9F
 100
AcDbEntity
   8
0
 370
-2
 100
AcDbLine
   6
BYBLOCK
  62
0
  10
-0.50000000000000
  20
0.0
  30
0.0
  11
-1.0000000000000
  21
0.0
  31
0.0
   0
ENDBLK
   5
A0
 100
AcDbEntity
   8
0
 100
AcDbBlockEnd
   0
BLOCK
   5
A1
 100
AcDbEntity
   8
0
 100
AcDbBlockBegin
   2
_DOTSMALL
  70
0
  10
0.0
  20
0.0
  30
0.0
   3
_DOTSMALL
   0
POLYLINE
   5
A2
 100
AcDbEntity
   8
0
 370
-2
   6
BYBLOCK
  62
0
 100
AcDb2dPolyline
  66
1
  10
0.0
  20
0.0
  30
0.0
  70
1
  40
 0.50000000000000
  41
 0.50000000000000
   0
VERTEX
   5
A3
 100
AcDbEntity
   8
0
   6
BYBLOCK
  62
0
 100
AcDbVertex
 100
AcDb2dVertex
  10
-0.62500000000000E-1
  20
0.0
  30
0.0
  42
 1.0000000000000
  40
 0.50000000000000
  41
 0.50000000000000
   0
VERTEX
   5
A4
 100
AcDbEntity
   8
0
   6
BYBLOCK
  62
0
 100
AcDbVertex
 100
AcDb2dVertex
  10
 0.62500000000000E-1
  20
0.0
  30
0.0
  42
 1.0000000000000
  40
 0.50000000000000
  41
 0.50000000000000
   0
SEQEND
   5
A5
 100
AcDbEntity
   8
0
   6
BYBLOCK
  62
0
   0
ENDBLK
   5
A6
 100
AcDbEntity
   8
0
 100
AcDbBlockEnd
   0
BLOCK
   5
A7
 100
AcDbEntity
   8
0
 100
AcDbBlockBegin
   2
_DATUMBLANK
  70
0
  10
0.0
  20
0.0
  30
0.0
   3
_DATUMBLANK
   0
LINE
   5
A8
 100
AcDbEntity
   8
0
 370
-2
 100
AcDbLine
   6
BYBLOCK
  62
0
  10
0.0
  20
 0.57735027000000
  30
0.0
  11
-1.0000000000000
  21
0.0
  31
0.0
   0
LINE
   5
A9
 100
AcDbEntity
   8
0
 370
-2
 100
AcDbLine
   6
BYBLOCK
  62
0
  10
-1.0000000000000
  20
0.0
  30
0.0
  11
0.0
  21
-0.57735027000000
  31
0.0
   0
LINE
   5
AA
 100
AcDbEntity
   8
0
 370
-2
 100
AcDbLine
   6
BYBLOCK
  62
0
  10
0.0
  20
-0.57735027000000
  30
0.0
  11
0.0
  21
 0.57735027000000
  31
0.0
   0
ENDBLK
   5
AB
 100
AcDbEntity
   8
0
 100
AcDbBlockEnd
   0
BLOCK
   5
AC
 100
AcDbEntity
   8
0
 100
AcDbBlockBegin
   2
_DATUMFILLED
  70
0
  10
0.0
  20
0.0
  30
0.0
   3
_DATUMFILLED
   0
SOLID
   5
AD
 100
AcDbEntity
   8
0
 100
AcDbTrace
   6
BYBLOCK
  62
0
  10
0.0
  20
 0.57735027000000
  30
0.0
  11
-1.0000000000000
  21
0.0
  31
0.0
  12
0.0
  22
-0.57735027000000
  32
0.0
  13
0.0
  23
-0.57735027000000
  33
0.0
   0
ENDBLK
   5
AE
 100
AcDbEntity
   8
0
 100
AcDbBlockEnd
   0
BLOCK
   5
AF
 100
AcDbEntity
   8
0
 100
AcDbBlockBegin
   2
_ORIGIN
  70
0
  10
0.0
  20
0.0
  30
0.0
   3
_ORIGIN
   0
CIRCLE
   5
B0
 100
AcDbEntity
   8
0
 370
-2
 100
AcDbCircle
   6
BYBLOCK
  62
0
  10
0.0
  20
0.0
  30
0.0
  40
 0.50000000000000
   0
LINE
   5
B1
 100
AcDbEntity
   8
0
 370
-2
 100
AcDbLine
   6
BYBLOCK
  62
0
  10
0.0
  20
0.0
  30
0.0
  11
-1.0000000000000
  21
0.0
  31
0.0
   0
ENDBLK
   5
B2
 100
AcDbEntity
   8
0
 100
AcDbBlockEnd
   0
BLOCK
   5
B3
 100
AcDbEntity
   8
0
 100
AcDbBlockBegin
   2
_NONE
  70
0
  10
0.0
  20
0.0
  30
0.0
   3
_NONE
   0
CIRCLE
   5
B4
 100
AcDbEntity
   8
0
 370
-2
 100
AcDbCircle
   6
BYBLOCK
  62
0
  10
0.0
  20
0.0
  30
0.0
  40
 0.25000000000000
   0
ENDBLK
   5
B5
 100
AcDbEntity
   8
0
 100
AcDbBlockEnd
   0
BLOCK
   5
B6
 100
AcDbEntity
   8
0
 100
AcDbBlockBegin
   2
_DOTBLANK
  70
0
  10
0.0
  20
0.0
  30
0.0
   3
_DOTBLANK
   0
CIRCLE
   5
B7
 100
AcDbEntity
   8
0
 370
-2
 100
AcDbCircle
   6
BYBLOCK
  62
0
  10
0.0
  20
0.0
  30
0.0
  40
 0.50000000000000
   0
LINE
   5
B8
 100
AcDbEntity
   8
0
 370
-2
 100
AcDbLine
   6
BYBLOCK
  62
0
  10
-0.50000000000000
  20
0.0
  30
0.0
  11
-1.0000000000000
  21
0.0
  31
0.0
   0
ENDBLK
   5
B9
 100
AcDbEntity
   8
0
 100
AcDbBlockEnd
   0
BLOCK
   5
BA
 100
AcDbEntity
   8
0
 100
AcDbBlockBegin
   2
_INTEGRAL
  70
0
  10
0.0
  20
0.0
  30
0.0
   3
_INTEGRAL
   0
ARC
   5
BB
 100
AcDbEntity
   8
0
 370
-2
   6
BYBLOCK
  62
0
 100
AcDbCircle
  10
 0.44488800000000
  20
-0.91335000000000E-1
  30
0.0
  40
 0.45416700000000
 100
AcDbArc
  50
 102.00000000000
  51
 168.00000000000
   0
ARC
   5
BC
 100
AcDbEntity
   8
0
 370
-2
   6
BYBLOCK
  62
0
 100
AcDbCircle
  10
-0.44488800000000
  20
 0.91335000000000E-1
  30
0.0
  40
 0.45416700000000
 100
AcDbArc
  50
 282.00000000000
  51
 348.00000000000
   0
ENDBLK
   5
BD
 100
AcDbEntity
   8
0
 100
AcDbBlockEnd
   0
BLOCK
   5
BE
 100
AcDbEntity
   8
0
 100
AcDbBlockBegin
   2
*D1
  70
65
  10
0.0
  20
0.0
  30
0.0
   3
*D1
   0
LINE
   5
BF
 100
AcDbEntity
   8
LEVEL001
 370
15
 100
AcDbLine
   6
CONTINUOUS
  62
8
  10
 797.91719107474
  20
 702.71552539636
  30
0.0
  11
 797.91719107474
  21
 719.21552539636
  31
0.0
   0
LINE
   5
C0
 100
AcDbEntity
   8
LEVEL001
 370
15
 100
AcDbLine
   6
CONTINUOUS
  62
8
  10
 797.91719107474
  20
 814.18821510304
  30
0.0
  11
 797.91719107474
  21
 719.21552539636
  31
0.0
   0
SOLID
   5
C1
 100
AcDbEntity
   8
LEVEL001
 100
AcDbTrace
   6
CONTINUOUS
  62
8
  10
 797.91719107474
  20
 702.71552539636
  30
0.0
  11
 800.03311484324
  21
 714.71552539636
  31
0.0
  12
 795.80126730624
  22
 714.71552539636
  32
0.0
  13
 795.80126730624
  23
 714.71552539636
  33
0.0
   0
SOLID
   5
C2
 100
AcDbEntity
   8
LEVEL001
 100
AcDbTrace
   6
CONTINUOUS
  62
8
  10
 797.91719107474
  20
 735.71552539636
  30
0.0
  11
 795.80126730624
  21
 723.71552539636
  31
0.0
  12
 800.03311484324
  22
 723.71552539636
  32
0.0
  13
 800.03311484324
  23
 723.71552539636
  33
0.0
   0
MTEXT
   5
C3
 100
AcDbEntity
   8
LEVEL001
 370
15
  62
8
 100
AcDbMText
  10
 791.91719107474
  20
 742.18821510304
  30
0.0
  40
 18.000000000000
  41
0.0
  71
7
  72
1
   1
\A1;扉厚33
   7
GMM002
  11
0.0
  21
 1.0000000000000
  31
0.0
   0
ENDBLK
   5
C4
 100
AcDbEntity
   8
0
 100
AcDbBlockEnd
   0
BLOCK
   5
C5
 100
AcDbEntity
   8
0
 100
AcDbBlockBegin
   2
*D2
  70
65
  10
0.0
  20
0.0
  30
0.0
   3
*D2
   0
LINE
   5
C6
 100
AcDbEntity
   8
LEVEL001
 370
15
 100
AcDbLine
   6
CONTINUOUS
  62
8
  10
 1808.5110292567
  20
 613.21552539636
  30
0.0
  11
 1808.5110292567
  21
 342.21552539636
  31
0.0
   0
LINE
   5
C7
 100
AcDbEntity
   8
LEVEL001
 370
15
 100
AcDbLine
   6
CONTINUOUS
  62
8
  10
 1818.5110292567
  20
 695.90898043129
  30
0.0
  11
 1818.5110292567
  21
 342.21552539636
  31
0.0
   0
LINE
   5
C8
 100
AcDbEntity
   8
LEVEL001
 370
15
 100
AcDbLine
   6
CONTINUOUS
  62
8
  10
 1793.5110292567
  20
 348.21552539636
  30
0.0
  11
 1813.5110292567
  21
 348.21552539636
  31
0.0
   0
LINE
   5
C9
 100
AcDbEntity
   8
LEVEL001
 370
15
 100
AcDbLine
   6
CONTINUOUS
  62
8
  10
 1934.1165300018
  20
 348.21552539636
  30
0.0
  11
 1813.5110292567
  21
 348.21552539636
  31
0.0
   0
SOLID
   5
CA
 100
AcDbEntity
   8
LEVEL001
 100
AcDbTrace
   6
CONTINUOUS
  62
8
  10
 1808.5110292567
  20
 348.21552539636
  30
0.0
  11
 1796.5110292567
  21
 350.33144916486
  31
0.0
  12
 1796.5110292567
  22
 346.09960162785
  32
0.0
  13
 1796.5110292567
  23
 346.09960162785
  33
0.0
   0
SOLID
   5
CB
 100
AcDbEntity
   8
LEVEL001
 100
AcDbTrace
   6
CONTINUOUS
  62
8
  10
 1818.5110292567
  20
 348.21552539636
  30
0.0
  11
 1830.5110292567
  21
 346.09960162785
  31
0.0
  12
 1830.5110292567
  22
 350.33144916486
  32
0.0
  13
 1830.5110292567
  23
 350.33144916486
  33
0.0
   0
MTEXT
   5
CC
 100
AcDbEntity
   8
LEVEL001
 370
15
  62
8
 100
AcDbMText
  10
 1826.1165300018
  20
 354.21744545212
  30
0.0
  40
 18.000000000000
  41
0.0
  71
7
  72
1
   1
\A1;10(堀込)
   7
GMM002
   0
ENDBLK
   5
CD
 100
AcDbEntity
   8
0
 100
AcDbBlockEnd
   0
BLOCK
   5
CE
 100
AcDbEntity
   8
0
 100
AcDbBlockBegin
   2
*D3
  70
65
  10
0.0
  20
0.0
  30
0.0
   3
*D3
   0
LINE
   5
CF
 100
AcDbEntity
   8
LEVEL001
 370
15
 100
AcDbLine
   6
CONTINUOUS
  62
8
  10
 1794.4470130805
  20
 720.08965127181
  30
0.0
  11
 1906.4221181337
  21
 736.57897123810
  31
0.0
   0
LINE
   5
D0
 100
AcDbEntity
   8
LEVEL001
 370
15
 100
AcDbLine
   6
CONTINUOUS
  62
8
  10
 1731.9470130805
  20
 1144.5124946710
  30
0.0
  11
 1843.9221181334
  21
 1161.0018146372
  31
0.0
   0
LINE
   5
D1
 100
AcDbEntity
   8
LEVEL001
 370
15
 100
AcDbLine
   6
CONTINUOUS
  62
8
  10
 1900.4861343099
  20
 735.70484536397
  30
0.0
  11
 1869.2361343097
  21
 947.91626706354
  31
0.0
   0
LINE
   5
D2
 100
AcDbEntity
   8
LEVEL001
 370
15
 100
AcDbLine
   6
CONTINUOUS
  62
8
  10
 1837.9861343096
  20
 1160.1276887631
  30
0.0
  11
 1869.2361343097
  21
 947.91626706354
  31
0.0
   0
SOLID
   5
D3
 100
AcDbEntity
   8
LEVEL001
 100
AcDbTrace
   6
CONTINUOUS
  62
8
  10
 1900.4861343099
  20
 735.70484536397
  30
0.0
  11
 1900.8312307720
  21
 747.88507696382
  31
0.0
  12
 1896.6445343513
  22
 747.26854905924
  32
0.0
  13
 1896.6445343513
  23
 747.26854905924
  33
0.0
   0
SOLID
   5
D4
 100
AcDbEntity
   8
LEVEL001
 100
AcDbTrace
   6
CONTINUOUS
  62
8
  10
 1837.9861343096
  20
 1160.1276887631
  30
0.0
  11
 1837.6410378475
  21
 1147.9474571633
  31
0.0
  12
 1841.8277342682
  22
 1148.5639850678
  32
0.0
  13
 1841.8277342682
  23
 1148.5639850678
  33
0.0
   0
MTEXT
   5
D5
 100
AcDbEntity
   8
LEVEL001
 370
15
  62
8
 100
AcDbMText
  10
 1875.1721181335
  20
 948.79039293767
  30
0.0
  40
 18.000000000000
  41
0.0
  71
8
  72
1
   1
\A1;A
   7
GMM002
  11
 0.14568764568867
  21
-0.98933063729660
  31
0.0
   0
ENDBLK
   5
D6
 100
AcDbEntity
   8
0
 100
AcDbBlockEnd
   0
BLOCK
   5
D7
 100
AcDbEntity
   8
0
 100
AcDbBlockBegin
   2
*D4
  70
65
  10
0.0
  20
0.0
  30
0.0
   3
*D4
   0
LINE
   5
D8
 100
AcDbEntity
   8
LEVEL001
 370
15
 100
AcDbLine
   6
CONTINUOUS
  62
8
  10
 1748.5110292567
  20
 408.21552539636
  30
0.0
  11
 1965.7694666913
  21
 408.21552539636
  31
0.0
   0
LINE
   5
D9
 100
AcDbEntity
   8
LEVEL001
 370
15
 100
AcDbLine
   6
CONTINUOUS
  62
8
  10
 1748.5110292567
  20
 1541.2155253964
  30
0.0
  11
 1965.7694666913
  21
 1541.2155253964
  31
0.0
   0
LINE
   5
DA
 100
AcDbEntity
   8
LEVEL001
 370
15
 100
AcDbLine
   6
CONTINUOUS
  62
8
  10
 1959.7694666913
  20
 408.21552539636
  30
0.0
  11
 1959.7694666913
  21
 974.71552539636
  31
0.0
   0
LINE
   5
DB
 100
AcDbEntity
   8
LEVEL001
 370
15
 100
AcDbLine
   6
CONTINUOUS
  62
8
  10
 1959.7694666913
  20
 1541.2155253964
  30
0.0
  11
 1959.7694666913
  21
 974.71552539636
  31
0.0
   0
SOLID
   5
DC
 100
AcDbEntity
   8
LEVEL001
 100
AcDbTrace
   6
CONTINUOUS
  62
8
  10
 1959.7694666913
  20
 408.21552539636
  30
0.0
  11
 1961.8853904598
  21
 420.21552539636
  31
0.0
  12
 1957.6535429228
  22
 420.21552539636
  32
0.0
  13
 1957.6535429228
  23
 420.21552539636
  33
0.0
   0
SOLID
   5
DD
 100
AcDbEntity
   8
LEVEL001
 100
AcDbTrace
   6
CONTINUOUS
  62
8
  10
 1959.7694666913
  20
 1541.2155253964
  30
0.0
  11
 1957.6535429228
  21
 1529.2155253964
  31
0.0
  12
 1961.8853904598
  22
 1529.2155253964
  32
0.0
  13
 1961.8853904598
  23
 1529.2155253964
  33
0.0
   0
MTEXT
   5
DE
 100
AcDbEntity
   8
LEVEL001
 370
15
  62
8
 100
AcDbMText
  10
 1953.7694666913
  20
 974.71552539636
  30
0.0
  40
 18.000000000000
  41
0.0
  71
8
  72
1
   1
\A1;扉幅(DW)
   7
GMM002
  11
0.0
  21
 1.0000000000000
  31
0.0
   0
ENDBLK
   5
DF
 100
AcDbEntity
   8
0
 100
AcDbBlockEnd
   0
BLOCK
   5
E0
 100
AcDbEntity
   8
0
 100
AcDbBlockBegin
   2
*D5
  70
65
  10
0.0
  20
0.0
  30
0.0
   3
*D5
   0
LINE
   5
E1
 100
AcDbEntity
   8
LEVEL001
 370
15
 100
AcDbLine
   6
CONTINUOUS
  62
8
  10
 934.51102925672
  20
 725.21552539636
  30
0.0
  11
 934.51102925672
  21
 1627.2155253964
  31
0.0
   0
LINE
   5
E2
 100
AcDbEntity
   8
LEVEL001
 370
15
 100
AcDbLine
   6
CONTINUOUS
  62
8
  10
 934.51102925672
  20
 1621.2155253964
  30
0.0
  11
 1147.0110292567
  21
 1621.2155253964
  31
0.0
   0
LINE
   5
E3
 100
AcDbEntity
   8
LEVEL001
 370
15
 100
AcDbLine
   6
CONTINUOUS
  62
8
  10
 1359.5110292567
  20
 1621.2155253964
  30
0.0
  11
 1147.0110292567
  21
 1621.2155253964
  31
0.0
   0
SOLID
   5
E4
 100
AcDbEntity
   8
LEVEL001
 100
AcDbTrace
   6
CONTINUOUS
  62
8
  10
 934.51102925672
  20
 1621.2155253964
  30
0.0
  11
 946.51102925672
  21
 1619.0996016279
  31
0.0
  12
 946.51102925672
  22
 1623.3314491649
  32
0.0
  13
 946.51102925672
  23
 1623.3314491649
  33
0.0
   0
SOLID
   5
E5
 100
AcDbEntity
   8
LEVEL001
 100
AcDbTrace
   6
CONTINUOUS
  62
8
  10
 1359.5110292567
  20
 1621.2155253964
  30
0.0
  11
 1347.5110292567
  21
 1623.3314491649
  31
0.0
  12
 1347.5110292567
  22
 1619.0996016279
  32
0.0
  13
 1347.5110292567
  23
 1619.0996016279
  33
0.0
   0
MTEXT
   5
E6
 100
AcDbEntity
   8
LEVEL001
 370
15
  62
8
 100
AcDbMText
  10
 1147.0110292567
  20
 1627.2155253964
  30
0.0
  40
 18.000000000000
  41
0.0
  71
8
  72
1
   1
\A1;B
   7
GMM002
   0
ENDBLK
   5
E7
 100
AcDbEntity
   8
0
 100
AcDbBlockEnd
   0
BLOCK
   5
E8
 100
AcDbEntity
   8
0
 100
AcDbBlockBegin
   2
*D6
  70
65
  10
0.0
  20
0.0
  30
0.0
   3
*D6
   0
LINE
   5
E9
 100
AcDbEntity
   8
LEVEL001
 370
15
 100
AcDbLine
   6
CONTINUOUS
  62
8
  10
 1359.5110292567
  20
 1587.2155253964
  30
0.0
  11
 1359.5110292567
  21
 1627.2155253964
  31
0.0
   0
LINE
   5
EA
 100
AcDbEntity
   8
LEVEL001
 370
15
 100
AcDbLine
   6
CONTINUOUS
  62
8
  10
 1788.5110292567
  20
 1587.2155253964
  30
0.0
  11
 1788.5110292567
  21
 1627.2155253964
  31
0.0
   0
LINE
   5
EB
 100
AcDbEntity
   8
LEVEL001
 370
15
 100
AcDbLine
   6
CONTINUOUS
  62
8
  10
 1359.5110292567
  20
 1621.2155253964
  30
0.0
  11
 1574.0110292567
  21
 1621.2155253964
  31
0.0
   0
LINE
   5
EC
 100
AcDbEntity
   8
LEVEL001
 370
15
 100
AcDbLine
   6
CONTINUOUS
  62
8
  10
 1788.5110292567
  20
 1621.2155253964
  30
0.0
  11
 1574.0110292567
  21
 1621.2155253964
  31
0.0
   0
SOLID
   5
ED
 100
AcDbEntity
   8
LEVEL001
 100
AcDbTrace
   6
CONTINUOUS
  62
8
  10
 1359.5110292567
  20
 1621.2155253964
  30
0.0
  11
 1371.5110292567
  21
 1619.0996016279
  31
0.0
  12
 1371.5110292567
  22
 1623.3314491649
  32
0.0
  13
 1371.5110292567
  23
 1623.3314491649
  33
0.0
   0
SOLID
   5
EE
 100
AcDbEntity
   8
LEVEL001
 100
AcDbTrace
   6
CONTINUOUS
  62
8
  10
 1788.5110292567
  20
 1621.2155253964
  30
0.0
  11
 1776.5110292567
  21
 1623.3314491649
  31
0.0
  12
 1776.5110292567
  22
 1619.0996016279
  32
0.0
  13
 1776.5110292567
  23
 1619.0996016279
  33
0.0
   0
MTEXT
   5
EF
 100
AcDbEntity
   8
LEVEL001
 370
15
  62
8
 100
AcDbMText
  10
 1574.0110292567
  20
 1627.2155253964
  30
0.0
  40
 18.000000000000
  41
0.0
  71
8
  72
1
   1
\A1;A
   7
GMM002
   0
ENDBLK
   5
F0
 100
AcDbEntity
   8
0
 100
AcDbBlockEnd
   0
BLOCK
   5
F1
 100
AcDbEntity
   8
0
 100
AcDbBlockBegin
   2
*D7
  70
65
  10
0.0
  20
0.0
  30
0.0
   3
*D7
   0
LINE
   5
F2
 100
AcDbEntity
   8
LEVEL001
 370
15
 100
AcDbLine
   6
CONTINUOUS
  62
8
  10
 619.51102925672
  20
 875.21552539636
  30
0.0
  11
 619.51102925672
  21
 1667.2155253964
  31
0.0
   0
LINE
   5
F3
 100
AcDbEntity
   8
LEVEL001
 370
15
 100
AcDbLine
   6
CONTINUOUS
  62
8
  10
 1808.5110292567
  20
 875.21552539636
  30
0.0
  11
 1808.5110292567
  21
 1667.2155253964
  31
0.0
   0
LINE
   5
F4
 100
AcDbEntity
   8
LEVEL001
 370
15
 100
AcDbLine
   6
CONTINUOUS
  62
8
  10
 619.51102925672
  20
 1661.2155253964
  30
0.0
  11
 1214.0110292567
  21
 1661.2155253964
  31
0.0
   0
LINE
   5
F5
 100
AcDbEntity
   8
LEVEL001
 370
15
 100
AcDbLine
   6
CONTINUOUS
  62
8
  10
 1808.5110292567
  20
 1661.2155253964
  30
0.0
  11
 1214.0110292567
  21
 1661.2155253964
  31
0.0
   0
SOLID
   5
F6
 100
AcDbEntity
   8
LEVEL001
 100
AcDbTrace
   6
CONTINUOUS
  62
8
  10
 619.51102925672
  20
 1661.2155253964
  30
0.0
  11
 631.51102925672
  21
 1659.0996016279
  31
0.0
  12
 631.51102925672
  22
 1663.3314491649
  32
0.0
  13
 631.51102925672
  23
 1663.3314491649
  33
0.0
   0
SOLID
   5
F7
 100
AcDbEntity
   8
LEVEL001
 100
AcDbTrace
   6
CONTINUOUS
  62
8
  10
 1808.5110292567
  20
 1661.2155253964
  30
0.0
  11
 1796.5110292567
  21
 1663.3314491649
  31
0.0
  12
 1796.5110292567
  22
 1659.0996016279
  32
0.0
  13
 1796.5110292567
  23
 1659.0996016279
  33
0.0
   0
MTEXT
   5
F8
 100
AcDbEntity
   8
LEVEL001
 370
15
  62
8
 100
AcDbMText
  10
 1214.0110292567
  20
 1667.2155253964
  30
0.0
  40
 18.000000000000
  41
0.0
  71
8
  72
1
   1
\A1;枠内寸法(W)=DW+56
   7
GMM002
   0
ENDBLK
   5
F9
 100
AcDbEntity
   8
0
 100
AcDbBlockEnd
   0
BLOCK
   5
FA
 100
AcDbEntity
   8
0
 100
AcDbBlockBegin
   2
*D8
  70
65
  10
0.0
  20
0.0
  30
0.0
   3
*D8
   0
LINE
   5
FB
 100
AcDbEntity
   8
LEVEL001
 370
15
 100
AcDbLine
   6
CONTINUOUS
  62
8
  10
 1709.5110292567
  20
 348.21552539636
  30
0.0
  11
 1759.0110292567
  21
 348.21552539636
  31
0.0
   0
LINE
   5
FC
 100
AcDbEntity
   8
LEVEL001
 370
15
 100
AcDbLine
   6
CONTINUOUS
  62
8
  10
 1808.5110292567
  20
 348.21552539636
  30
0.0
  11
 1759.0110292567
  21
 348.21552539636
  31
0.0
   0
SOLID
   5
FD
 100
AcDbEntity
   8
LEVEL001
 100
AcDbTrace
   6
CONTINUOUS
  62
8
  10
 1709.5110292567
  20
 348.21552539636
  30
0.0
  11
 1721.5110292567
  21
 346.09960162785
  31
0.0
  12
 1721.5110292567
  22
 350.33144916486
  32
0.0
  13
 1721.5110292567
  23
 350.33144916486
  33
0.0
   0
SOLID
   5
FE
 100
AcDbEntity
   8
LEVEL001
 100
AcDbTrace
   6
CONTINUOUS
  62
8
  10
 1808.5110292567
  20
 348.21552539636
  30
0.0
  11
 1796.5110292567
  21
 350.33144916486
  31
0.0
  12
 1796.5110292567
  22
 346.09960162785
  32
0.0
  13
 1796.5110292567
  23
 346.09960162785
  33
0.0
   0
MTEXT
   5
FF
 100
AcDbEntity
   8
LEVEL001
 370
15
  62
8
 100
AcDbMText
  10
 1759.0110292567
  20
 354.21552539636
  30
0.0
  40
 18.000000000000
  41
0.0
  71
8
  72
1
   1
\A1;99
   7
GMM002
   0
ENDBLK
   5
100
 100
AcDbEntity
   8
0
 100
AcDbBlockEnd
   0
BLOCK
   5
101
 100
AcDbEntity
   8
0
 100
AcDbBlockBegin
   2
*D9
  70
65
  10
0.0
  20
0.0
  30
0.0
   3
*D9
   0
LINE
   5
102
 100
AcDbEntity
   8
LEVEL001
 370
15
 100
AcDbLine
   6
CONTINUOUS
  62
8
  10
 619.51102925672
  20
 613.21552539636
  30
0.0
  11
 619.51102925672
  21
 342.21552539636
  31
0.0
   0
LINE
   5
103
 100
AcDbEntity
   8
LEVEL001
 370
15
 100
AcDbLine
   6
CONTINUOUS
  62
8
  10
 464.39926582684
  20
 348.21552539636
  30
0.0
  11
 621.51102925672
  21
 348.21552539636
  31
0.0
   0
LINE
   5
104
 100
AcDbEntity
   8
LEVEL001
 370
15
 100
AcDbLine
   6
CONTINUOUS
  62
8
  10
 623.51102925672
  20
 348.21552539636
  30
0.0
  11
 621.51102925672
  21
 348.21552539636
  31
0.0
   0
SOLID
   5
105
 100
AcDbEntity
   8
LEVEL001
 100
AcDbTrace
   6
CONTINUOUS
  62
8
  10
 619.51102925672
  20
 348.21552539636
  30
0.0
  11
 607.51102925672
  21
 350.33144916486
  31
0.0
  12
 607.51102925672
  22
 346.09960162785
  32
0.0
  13
 607.51102925672
  23
 346.09960162785
  33
0.0
   0
MTEXT
   5
106
 100
AcDbEntity
   8
LEVEL001
 370
15
  62
8
 100
AcDbMText
  10
 614.39926582684
  20
 355.18287566749
  30
0.0
  40
 18.000000000000
  41
0.0
  71
9
  72
1
   1
\A1;4(クリアランス)
   7
GMM002
   0
ENDBLK
   5
107
 100
AcDbEntity
   8
0
 100
AcDbBlockEnd
   0
BLOCK
   5
108
 100
AcDbEntity
   8
0
 100
AcDbBlockBegin
   2
*D10
  70
65
  10
0.0
  20
0.0
  30
0.0
   3
*D10
   0
LINE
   5
109
 100
AcDbEntity
   8
LEVEL001
 370
15
 100
AcDbLine
   6
CONTINUOUS
  62
8
  10
 623.51102925672
  20
 696.71552539636
  30
0.0
  11
 623.51102925672
  21
 342.21552539636
  31
0.0
   0
LINE
   5
10A
 100
AcDbEntity
   8
LEVEL001
 370
15
 100
AcDbLine
   6
CONTINUOUS
  62
8
  10
 1709.5110292567
  20
 402.21552539636
  30
0.0
  11
 1709.5110292567
  21
 342.21552539636
  31
0.0
   0
LINE
   5
10B
 100
AcDbEntity
   8
LEVEL001
 370
15
 100
AcDbLine
   6
CONTINUOUS
  62
8
  10
 623.51102925672
  20
 348.21552539636
  30
0.0
  11
 1166.5110292567
  21
 348.21552539636
  31
0.0
   0
LINE
   5
10C
 100
AcDbEntity
   8
LEVEL001
 370
15
 100
AcDbLine
   6
CONTINUOUS
  62
8
  10
 1709.5110292567
  20
 348.21552539636
  30
0.0
  11
 1166.5110292567
  21
 348.21552539636
  31
0.0
   0
SOLID
   5
10D
 100
AcDbEntity
   8
LEVEL001
 100
AcDbTrace
   6
CONTINUOUS
  62
8
  10
 623.51102925672
  20
 348.21552539636
  30
0.0
  11
 635.51102925672
  21
 346.09960162785
  31
0.0
  12
 635.51102925672
  22
 350.33144916486
  32
0.0
  13
 635.51102925672
  23
 350.33144916486
  33
0.0
   0
SOLID
   5
10E
 100
AcDbEntity
   8
LEVEL001
 100
AcDbTrace
   6
CONTINUOUS
  62
8
  10
 1709.5110292567
  20
 348.21552539636
  30
0.0
  11
 1697.5110292567
  21
 350.33144916486
  31
0.0
  12
 1697.5110292567
  22
 346.09960162785
  32
0.0
  13
 1697.5110292567
  23
 346.09960162785
  33
0.0
   0
MTEXT
   5
10F
 100
AcDbEntity
   8
LEVEL001
 370
15
  62
8
 100
AcDbMText
  10
 1166.5110292567
  20
 354.21552539636
  30
0.0
  40
 18.000000000000
  41
0.0
  71
8
  72
1
   1
\A1;開口寸法(OW)
   7
GMM002
   0
ENDBLK
   5
110
 100
AcDbEntity
   8
0
 100
AcDbBlockEnd
   0
BLOCK
   5
111
 100
AcDbEntity
   8
0
 100
AcDbBlockBegin
   2
*D11
  70
65
  10
0.0
  20
0.0
  30
0.0
   3
*D11
   0
LINE
   5
112
 100
AcDbEntity
   8
LEVEL001
 370
15
 100
AcDbLine
   6
CONTINUOUS
  62
8
  10
 619.51102925672
  20
 875.21552539636
  30
0.0
  11
 619.51102925672
  21
 905.21552539636
  31
0.0
   0
LINE
   5
113
 100
AcDbEntity
   8
LEVEL001
 370
15
 100
AcDbLine
   6
CONTINUOUS
  62
8
  10
 629.51102925672
  20
 760.21552539636
  30
0.0
  11
 629.51102925672
  21
 905.21552539636
  31
0.0
   0
LINE
   5
114
 100
AcDbEntity
   8
LEVEL001
 370
15
 100
AcDbLine
   6
CONTINUOUS
  62
8
  10
 492.98242259146
  20
 899.21552539636
  30
0.0
  11
 624.51102925672
  21
 899.21552539636
  31
0.0
   0
LINE
   5
115
 100
AcDbEntity
   8
LEVEL001
 370
15
 100
AcDbLine
   6
CONTINUOUS
  62
8
  10
 644.51102925672
  20
 899.21552539636
  30
0.0
  11
 624.51102925672
  21
 899.21552539636
  31
0.0
   0
SOLID
   5
116
 100
AcDbEntity
   8
LEVEL001
 100
AcDbTrace
   6
CONTINUOUS
  62
8
  10
 619.51102925672
  20
 899.21552539636
  30
0.0
  11
 607.51102925672
  21
 901.33144916486
  31
0.0
  12
 607.51102925672
  22
 897.09960162785
  32
0.0
  13
 607.51102925672
  23
 897.09960162785
  33
0.0
   0
SOLID
   5
117
 100
AcDbEntity
   8
LEVEL001
 100
AcDbTrace
   6
CONTINUOUS
  62
8
  10
 629.51102925672
  20
 899.21552539636
  30
0.0
  11
 641.51102925672
  21
 897.09960162785
  31
0.0
  12
 641.51102925672
  22
 901.33144916486
  32
0.0
  13
 641.51102925672
  23
 901.33144916486
  33
0.0
   0
MTEXT
   5
118
 100
AcDbEntity
   8
LEVEL001
 370
15
  62
8
 100
AcDbMText
  10
 609.98242259146
  20
 904.98688919031
  30
0.0
  40
 18.000000000000
  41
0.0
  71
9
  72
1
   1
\A1;10(戸当り)
   7
GMM002
   0
ENDBLK
   5
119
 100
AcDbEntity
   8
0
 100
AcDbBlockEnd
   0
BLOCK
   5
11A
 100
AcDbEntity
   8
0
 100
AcDbBlockBegin
   2
*D12
  70
65
  10
0.0
  20
0.0
  30
0.0
   3
*D12
   0
LINE
   5
11B
 100
AcDbEntity
   8
LEVEL001
 370
15
 100
AcDbLine
   6
CONTINUOUS
  62
8
  10
 619.51102925672
  20
 875.21552539636
  30
0.0
  11
 619.51102925672
  21
 1587.2155253964
  31
0.0
   0
LINE
   5
11C
 100
AcDbEntity
   8
LEVEL001
 370
15
 100
AcDbLine
   6
CONTINUOUS
  62
8
  10
 623.51102925672
  20
 741.71552539636
  30
0.0
  11
 623.51102925672
  21
 1587.2155253964
  31
0.0
   0
LINE
   5
11D
 100
AcDbEntity
   8
LEVEL001
 370
15
 100
AcDbLine
   6
CONTINUOUS
  62
8
  10
 478.64311417551
  20
 1581.2155253964
  30
0.0
  11
 621.51102925672
  21
 1581.2155253964
  31
0.0
   0
LINE
   5
11E
 100
AcDbEntity
   8
LEVEL001
 370
15
 100
AcDbLine
   6
CONTINUOUS
  62
8
  10
 638.51102925672
  20
 1581.2155253964
  30
0.0
  11
 621.51102925672
  21
 1581.2155253964
  31
0.0
   0
SOLID
   5
11F
 100
AcDbEntity
   8
LEVEL001
 100
AcDbTrace
   6
CONTINUOUS
  62
8
  10
 619.51102925672
  20
 1581.2155253964
  30
0.0
  11
 607.51102925672
  21
 1583.3314491649
  31
0.0
  12
 607.51102925672
  22
 1579.0996016279
  32
0.0
  13
 607.51102925672
  23
 1579.0996016279
  33
0.0
   0
SOLID
   5
120
 100
AcDbEntity
   8
LEVEL001
 100
AcDbTrace
   6
CONTINUOUS
  62
8
  10
 623.51102925672
  20
 1581.2155253964
  30
0.0
  11
 635.51102925672
  21
 1579.0996016279
  31
0.0
  12
 635.51102925672
  22
 1583.3314491649
  32
0.0
  13
 635.51102925672
  23
 1583.3314491649
  33
0.0
   0
MTEXT
   5
121
 100
AcDbEntity
   8
LEVEL001
 370
15
  62
8
 100
AcDbMText
  10
 600.14311417551
  20
 1585.1913132941
  30
0.0
  40
 18.000000000000
  41
0.0
  71
9
  72
1
   1
\A1;4(クリアランス)
   7
GMM002
   0
ENDBLK
   5
122
 100
AcDbEntity
   8
0
 100
AcDbBlockEnd
   0
BLOCK
   5
123
 100
AcDbEntity
   8
0
 100
AcDbBlockBegin
   2
*D13
  70
65
  10
0.0
  20
0.0
  30
0.0
   3
*D13
   0
LINE
   5
124
 100
AcDbEntity
   8
LEVEL001
 370
15
 100
AcDbLine
   6
CONTINUOUS
  62
8
  10
 1359.5110292567
  20
 725.21552539636
  30
0.0
  11
 1359.5110292567
  21
 1587.2155253964
  31
0.0
   0
LINE
   5
125
 100
AcDbEntity
   8
LEVEL001
 370
15
 100
AcDbLine
   6
CONTINUOUS
  62
8
  10
 1359.5110292567
  20
 1581.2155253964
  30
0.0
  11
 1558.0110292567
  21
 1581.2155253964
  31
0.0
   0
LINE
   5
126
 100
AcDbEntity
   8
LEVEL001
 370
15
 100
AcDbLine
   6
CONTINUOUS
  62
8
  10
 1756.5110292567
  20
 1581.2155253964
  30
0.0
  11
 1558.0110292567
  21
 1581.2155253964
  31
0.0
   0
SOLID
   5
127
 100
AcDbEntity
   8
LEVEL001
 100
AcDbTrace
   6
CONTINUOUS
  62
8
  10
 1359.5110292567
  20
 1581.2155253964
  30
0.0
  11
 1371.5110292567
  21
 1579.0996016279
  31
0.0
  12
 1371.5110292567
  22
 1583.3314491649
  32
0.0
  13
 1371.5110292567
  23
 1583.3314491649
  33
0.0
   0
SOLID
   5
128
 100
AcDbEntity
   8
LEVEL001
 100
AcDbTrace
   6
CONTINUOUS
  62
8
  10
 1756.5110292567
  20
 1581.2155253964
  30
0.0
  11
 1744.5110292567
  21
 1583.3314491649
  31
0.0
  12
 1744.5110292567
  22
 1579.0996016279
  32
0.0
  13
 1744.5110292567
  23
 1579.0996016279
  33
0.0
   0
MTEXT
   5
129
 100
AcDbEntity
   8
LEVEL001
 370
15
  62
8
 100
AcDbMText
  10
 1558.0110292567
  20
 1587.2155253964
  30
0.0
  40
 18.000000000000
  41
0.0
  71
8
  72
1
   1
\A1;A-32
   7
GMM002
   0
ENDBLK
   5
12A
 100
AcDbEntity
   8
0
 100
AcDbBlockEnd
   0
BLOCK
   5
12B
 100
AcDbEntity
   8
0
 100
AcDbBlockBegin
   2
*D14
  70
65
  10
0.0
  20
0.0
  30
0.0
   3
*D14
   0
LINE
   5
12C
 100
AcDbEntity
   8
LEVEL001
 370
15
 100
AcDbLine
   6
CONTINUOUS
  62
8
  10
 1756.5110292567
  20
 741.71552539636
  30
0.0
  11
 1756.5110292567
  21
 1587.2155253964
  31
0.0
   0
LINE
   5
12D
 100
AcDbEntity
   8
LEVEL001
 370
15
 100
AcDbLine
   6
CONTINUOUS
  62
8
  10
 1756.5110292567
  20
 1581.2155253964
  30
0.0
  11
 1758.5110292567
  21
 1581.2155253964
  31
0.0
   0
LINE
   5
12E
 100
AcDbEntity
   8
LEVEL001
 370
15
 100
AcDbLine
   6
CONTINUOUS
  62
8
  10
 1760.5110292567
  20
 1581.2155253964
  30
0.0
  11
 1758.5110292567
  21
 1581.2155253964
  31
0.0
   0
MTEXT
   5
12F
 100
AcDbEntity
   8
LEVEL001
 370
15
  62
8
 100
AcDbMText
  10
 1615.4160610355
  20
 1552.1144696129
  30
0.0
  40
 18.000000000000
  41
0.0
  71
7
  72
1
   1
\A1;4(クリアランス)
   7
GMM002
   0
ENDBLK
   5
130
 100
AcDbEntity
   8
0
 100
AcDbBlockEnd
   0
BLOCK
   5
131
 100
AcDbEntity
   8
0
 100
AcDbBlockBegin
   2
*D15
  70
65
  10
0.0
  20
0.0
  30
0.0
   3
*D15
   0
LINE
   5
132
 100
AcDbEntity
   8
LEVEL001
 370
15
 100
AcDbLine
   6
CONTINUOUS
  62
8
  10
 1760.5110292567
  20
 737.71552539636
  30
0.0
  11
 1760.5110292567
  21
 1587.2155253964
  31
0.0
   0
LINE
   5
133
 100
AcDbEntity
   8
LEVEL001
 370
15
 100
AcDbLine
   6
CONTINUOUS
  62
8
  10
 1760.5110292567
  20
 1581.2155253964
  30
0.0
  11
 1774.5110292567
  21
 1581.2155253964
  31
0.0
   0
LINE
   5
134
 100
AcDbEntity
   8
LEVEL001
 370
15
 100
AcDbLine
   6
CONTINUOUS
  62
8
  10
 1788.5110292567
  20
 1581.2155253964
  30
0.0
  11
 1774.5110292567
  21
 1581.2155253964
  31
0.0
   0
INSERT
   5
135
 100
AcDbEntity
   8
LEVEL001
   6
CONTINUOUS
  62
8
 100
AcDbBlockReference
   2
_DOT
  10
 1760.5110292567
  20
 1581.2155253964
  30
0.0
  41
 3.2000000000000
  42
 3.2000000000000
  43
 3.2000000000000
  50
 180.00000000000
   0
MTEXT
   5
136
 100
AcDbEntity
   8
LEVEL001
 370
15
  62
8
 100
AcDbMText
  10
 1774.5110292567
  20
 1587.2155253964
  30
0.0
  40
 18.000000000000
  41
0.0
  71
8
  72
1
   1
\A1;28
   7
GMM002
   0
ENDBLK
   5
137
 100
AcDbEntity
   8
0
 100
AcDbBlockEnd
   0
BLOCK
   5
138
 100
AcDbEntity
   8
0
 100
AcDbBlockBegin
   2
*D16
  70
65
  10
0.0
  20
0.0
  30
0.0
   3
*D16
   0
LINE
   5
139
 100
AcDbEntity
   8
LEVEL001
 370
15
 100
AcDbLine
   6
CONTINUOUS
  62
8
  10
 1788.5110292567
  20
 1433.7196385911
  30
0.0
  11
 1788.5110292567
  21
 1587.2155253964
  31
0.0
   0
LINE
   5
13A
 100
AcDbEntity
   8
LEVEL001
 370
15
 100
AcDbLine
   6
CONTINUOUS
  62
8
  10
 1808.5110292567
  20
 875.21552539636
  30
0.0
  11
 1808.5110292567
  21
 1587.2155253964
  31
0.0
   0
LINE
   5
13B
 100
AcDbEntity
   8
LEVEL001
 370
15
 100
AcDbLine
   6
CONTINUOUS
  62
8
  10
 1788.5110292567
  20
 1581.2155253964
  30
0.0
  11
 1798.5110292567
  21
 1581.2155253964
  31
0.0
   0
LINE
   5
13C
 100
AcDbEntity
   8
LEVEL001
 370
15
 100
AcDbLine
   6
CONTINUOUS
  62
8
  10
 1847.5593358893
  20
 1581.2155253964
  30
0.0
  11
 1798.5110292567
  21
 1581.2155253964
  31
0.0
   0
INSERT
   5
13D
 100
AcDbEntity
   8
LEVEL001
   6
CONTINUOUS
  62
8
 100
AcDbBlockReference
   2
_DOT
  10
 1788.5110292567
  20
 1581.2155253964
  30
0.0
  41
 3.2000000000000
  42
 3.2000000000000
  43
 3.2000000000000
  50
 180.00000000000
   0
SOLID
   5
13E
 100
AcDbEntity
   8
LEVEL001
 100
AcDbTrace
   6
CONTINUOUS
  62
8
  10
 1808.5110292567
  20
 1581.2155253964
  30
0.0
  11
 1820.5110292567
  21
 1579.0996016279
  31
0.0
  12
 1820.5110292567
  22
 1583.3314491649
  32
0.0
  13
 1820.5110292567
  23
 1583.3314491649
  33
0.0
   0
MTEXT
   5
13F
 100
AcDbEntity
   8
LEVEL001
 370
15
  62
8
 100
AcDbMText
  10
 1814.5593358893
  20
 1588.1447839272
  30
0.0
  40
 18.000000000000
  41
0.0
  71
7
  72
1
   1
\A1;20
   7
GMM002
   0
ENDBLK
   5
140
 100
AcDbEntity
   8
0
 100
AcDbBlockEnd
   0
BLOCK
   5
141
 100
AcDbEntity
   8
0
 100
AcDbBlockBegin
   2
*D17
  70
65
  10
0.0
  20
0.0
  30
0.0
   3
*D17
   0
LINE
   5
142
 100
AcDbEntity
   8
LEVEL001
 370
15
 100
AcDbLine
   6
CONTINUOUS
  62
8
  10
 1819.5158915666
  20
 701.73786109446
  30
0.0
  11
 1881.9787217129
  21
 701.73786109446
  31
0.0
   0
LINE
   5
143
 100
AcDbEntity
   8
LEVEL001
 370
15
 100
AcDbLine
   6
CONTINUOUS
  62
8
  10
 1819.5158915666
  20
 736.73786109446
  30
0.0
  11
 1881.9787217129
  21
 736.73786109446
  31
0.0
   0
LINE
   5
144
 100
AcDbEntity
   8
LEVEL001
 370
15
 100
AcDbLine
   6
CONTINUOUS
  62
8
  10
 1875.9787217129
  20
 592.66290693192
  30
0.0
  11
 1875.9787217129
  21
 719.23786109446
  31
0.0
   0
LINE
   5
145
 100
AcDbEntity
   8
LEVEL001
 370
15
 100
AcDbLine
   6
CONTINUOUS
  62
8
  10
 1875.9787217129
  20
 736.73786109446
  30
0.0
  11
 1875.9787217129
  21
 719.23786109446
  31
0.0
   0
SOLID
   5
146
 100
AcDbEntity
   8
LEVEL001
 100
AcDbTrace
   6
CONTINUOUS
  62
8
  10
 1875.9787217129
  20
 701.73786109446
  30
0.0
  11
 1878.0946454814
  21
 713.73786109446
  31
0.0
  12
 1873.8627979444
  22
 713.73786109446
  32
0.0
  13
 1873.8627979444
  23
 713.73786109446
  33
0.0
   0
SOLID
   5
147
 100
AcDbEntity
   8
LEVEL001
 100
AcDbTrace
   6
CONTINUOUS
  62
8
  10
 1875.9787217129
  20
 736.73786109446
  30
0.0
  11
 1873.8627979444
  21
 724.73786109446
  31
0.0
  12
 1878.0946454814
  22
 724.73786109446
  32
0.0
  13
 1878.0946454814
  23
 724.73786109446
  33
0.0
   0
MTEXT
   5
148
 100
AcDbEntity
   8
LEVEL001
 370
15
  62
8
 100
AcDbMText
  10
 1869.8256578940
  20
 700.66290693192
  30
0.0
  40
 18.000000000000
  41
0.0
  71
9
  72
1
   1
\A1;35(堀込)
   7
GMM002
  11
0.0
  21
 1.0000000000000
  31
0.0
   0
ENDBLK
   5
149
 100
AcDbEntity
   8
0
 100
AcDbBlockEnd
   0
ENDSEC
   0
SECTION
   2
ENTITIES
   0
LINE
   5
14A
 100
AcDbEntity
   8
LEVEL002
 370
30
 100
AcDbLine
   6
CONTINUOUS
  62
7
  10
 1256.9999999992
  20
 252.00000000007
  30
0.0
  11
 1256.9999999992
  21
 72.000000000066
  31
0.0
   0
LINE
   5
14B
 100
AcDbEntity
   8
LEVEL002
 370
30
 100
AcDbLine
   6
CONTINUOUS
  62
7
  10
 1466.9999999992
  20
 72.000000000066
  30
0.0
  11
 1466.9999999992
  21
 252.00000000007
  31
0.0
   0
LINE
   5
14C
 100
AcDbEntity
   8
LEVEL002
 370
30
 100
AcDbLine
   6
CONTINUOUS
  62
7
  10
 1976.9999999992
  20
 252.00000000007
  30
0.0
  11
 1976.9999999992
  21
 72.000000000066
  31
0.0
   0
LINE
   5
14D
 100
AcDbEntity
   8
LEVEL002
 370
30
 100
AcDbLine
   6
CONTINUOUS
  62
7
  10
 1100.9999999992
  20
 216.00000000007
  30
0.0
  11
 1466.9999999992
  21
 216.00000000007
  31
0.0
   0
LINE
   5
14E
 100
AcDbEntity
   8
LEVEL002
 370
30
 100
AcDbLine
   6
CONTINUOUS
  62
7
  10
 1100.9999999992
  20
 180.00000000007
  30
0.0
  11
 1466.9999999992
  21
 180.00000000007
  31
0.0
   0
LINE
   5
14F
 100
AcDbEntity
   8
LEVEL002
 370
30
 100
AcDbLine
   6
CONTINUOUS
  62
7
  10
 1100.9999999992
  20
 144.00000000007
  30
0.0
  11
 1466.9999999992
  21
 144.00000000007
  31
0.0
   0
LINE
   5
150
 100
AcDbEntity
   8
LEVEL002
 370
30
 100
AcDbLine
   6
CONTINUOUS
  62
7
  10
 1100.9999999992
  20
 108.00000000007
  30
0.0
  11
 1466.9999999992
  21
 108.00000000007
  31
0.0
   0
LINE
   5
151
 100
AcDbEntity
   8
LEVEL002
 370
30
 100
AcDbLine
   6
CONTINUOUS
  62
7
  10
 1466.9999999992
  20
 162.00000000007
  30
0.0
  11
 1976.9999999992
  21
 162.00000000007
  31
0.0
   0
LINE
   5
152
 100
AcDbEntity
   8
LEVEL002
 370
30
 100
AcDbLine
   6
CONTINUOUS
  62
7
  10
 1466.9999999992
  20
 132.00000000007
  30
0.0
  11
 1976.9999999992
  21
 132.00000000007
  31
0.0
   0
LINE
   5
153
 100
AcDbEntity
   8
LEVEL002
 370
30
 100
AcDbLine
   6
CONTINUOUS
  62
7
  10
 1976.9999999992
  20
 192.00000000007
  30
0.0
  11
 2426.9999999992
  21
 192.00000000007
  31
0.0
   0
LINE
   5
154
 100
AcDbEntity
   8
LEVEL002
 370
30
 100
AcDbLine
   6
CONTINUOUS
  62
7
  10
 1976.9999999992
  20
 132.00000000007
  30
0.0
  11
 2426.9999999992
  21
 132.00000000007
  31
0.0
   0
LINE
   5
155
 100
AcDbEntity
   8
LEVEL002
 370
30
 100
AcDbLine
   6
CONTINUOUS
  62
7
  10
 1688.9999999992
  20
 72.000000000066
  30
0.0
  11
 1688.9999999992
  21
 162.00000000007
  31
0.0
   0
LINE
   5
156
 100
AcDbEntity
   8
LEVEL002
 370
30
 100
AcDbLine
   6
CONTINUOUS
  62
7
  10
 1760.9999999992
  20
 162.00000000007
  30
0.0
  11
 1760.9999999992
  21
 72.000000000066
  31
0.0
   0
LINE
   5
157
 100
AcDbEntity
   8
LEVEL002
 370
30
 100
AcDbLine
   6
CONTINUOUS
  62
7
  10
 1832.9999999992
  20
 72.000000000066
  30
0.0
  11
 1832.9999999992
  21
 162.00000000007
  31
0.0
   0
LINE
   5
158
 100
AcDbEntity
   8
LEVEL002
 370
30
 100
AcDbLine
   6
CONTINUOUS
  62
7
  10
 1904.9999999992
  20
 162.00000000007
  30
0.0
  11
 1904.9999999992
  21
 72.000000000066
  31
0.0
   0
LINE
   5
159
 100
AcDbEntity
   8
LEVEL002
 370
30
 100
AcDbLine
   6
CONTINUOUS
  62
7
  10
 1136.9999999992
  20
 216.00000000007
  30
0.0
  11
 1136.9999999992
  21
 72.000000000066
  31
0.0
   0
LINE
   5
15A
 100
AcDbEntity
   8
LEVEL002
 370
30
 100
AcDbLine
   6
CONTINUOUS
  62
7
  10
 1100.9999999992
  20
 72.000000000066
  30
0.0
  11
 1118.9999999992
  21
 108.00000000007
  31
0.0
   0
LINE
   5
15B
 100
AcDbEntity
   8
LEVEL002
 370
30
 100
AcDbLine
   6
CONTINUOUS
  62
7
  10
 1118.9999999992
  20
 108.00000000007
  30
0.0
  11
 1136.9999999992
  21
 72.000000000066
  31
0.0
   0
LINE
   5
15C
 100
AcDbEntity
   8
LEVEL002
 370
30
 100
AcDbLine
   6
CONTINUOUS
  62
7
  10
 1136.9999999992
  20
 108.00000000007
  30
0.0
  11
 1118.9999999992
  21
 144.00000000007
  31
0.0
   0
LINE
   5
15D
 100
AcDbEntity
   8
LEVEL002
 370
30
 100
AcDbLine
   6
CONTINUOUS
  62
7
  10
 1118.9999999992
  20
 144.00000000007
  30
0.0
  11
 1100.9999999992
  21
 108.00000000007
  31
0.0
   0
LINE
   5
15E
 100
AcDbEntity
   8
LEVEL002
 370
30
 100
AcDbLine
   6
CONTINUOUS
  62
7
  10
 1100.9999999992
  20
 144.00000000007
  30
0.0
  11
 1118.9999999992
  21
 180.00000000007
  31
0.0
   0
LINE
   5
15F
 100
AcDbEntity
   8
LEVEL002
 370
30
 100
AcDbLine
   6
CONTINUOUS
  62
7
  10
 1118.9999999992
  20
 180.00000000007
  30
0.0
  11
 1136.9999999992
  21
 144.00000000007
  31
0.0
   0
LINE
   5
160
 100
AcDbEntity
   8
LEVEL002
 370
30
 100
AcDbLine
   6
CONTINUOUS
  62
7
  10
 1136.9999999992
  20
 180.00000000007
  30
0.0
  11
 1118.9999999992
  21
 216.00000000007
  31
0.0
   0
LINE
   5
161
 100
AcDbEntity
   8
LEVEL002
 370
30
 100
AcDbLine
   6
CONTINUOUS
  62
7
  10
 1118.9999999992
  20
 216.00000000007
  30
0.0
  11
 1100.9999999992
  21
 180.00000000007
  31
0.0
   0
LINE
   5
162
 100
AcDbEntity
   8
LEVEL002
 370
30
 100
AcDbLine
   6
CONTINUOUS
  62
7
  10
 1496.9999999992
  20
 84.000000000066
  30
0.0
  11
 1532.9999999992
  21
 120.00000000007
  31
0.0
   0
LINE
   5
163
 100
AcDbEntity
   8
LEVEL002
 370
30
 100
AcDbLine
   6
CONTINUOUS
  62
7
  10
 1568.9999999992
  20
 84.000000000066
  30
0.0
  11
 1604.9999999992
  21
 120.00000000007
  31
0.0
   0
LINE
   5
164
 100
AcDbEntity
   8
LEVEL002
 370
30
 100
AcDbLine
   6
CONTINUOUS
  62
7
  10
 1640.9999999992
  20
 84.000000000066
  30
0.0
  11
 1676.9999999992
  21
 120.00000000007
  31
0.0
   0
LINE
   5
165
 100
AcDbEntity
   8
LEVEL001
 370
15
 100
AcDbLine
   6
DASHDOT
  62
8
  10
0.0
  20
0.0
  30
0.0
  11
 2520.0000000000
  21
0.0
  31
0.0
   0
LINE
   5
166
 100
AcDbEntity
   8
LEVEL001
 370
15
 100
AcDbLine
   6
DASHDOT
  62
8
  10
 2520.0000000000
  20
0.0
  30
0.0
  11
 2520.0000000000
  21
 1782.0000000000
  31
0.0
   0
LINE
   5
167
 100
AcDbEntity
   8
LEVEL001
 370
15
 100
AcDbLine
   6
DASHDOT
  62
8
  10
 2520.0000000000
  20
 1782.0000000000
  30
0.0
  11
0.0
  21
 1782.0000000000
  31
0.0
   0
LINE
   5
168
 100
AcDbEntity
   8
LEVEL001
 370
15
 100
AcDbLine
   6
DASHDOT
  62
8
  10
0.0
  20
 1782.0000000000
  30
0.0
  11
0.0
  21
0.0
  31
0.0
   0
LINE
   5
169
 100
AcDbEntity
   8
LEVEL002
 370
25
 100
AcDbLine
   6
CONTINUOUS
  62
1
  10
 1675.1674342097
  20
 212.99210526322
  30
0.0
  11
 1646.3674342097
  21
 212.99210526322
  31
0.0
   0
LINE
   5
16A
 100
AcDbEntity
   8
LEVEL002
 370
25
 100
AcDbLine
   6
CONTINUOUS
  62
1
  10
 1646.3674342097
  20
 212.99210526322
  30
0.0
  11
 1646.3674342097
  21
 169.79210526322
  31
0.0
   0
LINE
   5
16B
 100
AcDbEntity
   8
LEVEL002
 370
25
 100
AcDbLine
   6
CONTINUOUS
  62
1
  10
 1646.3674342097
  20
 169.79210526322
  30
0.0
  11
 1660.7674342097
  21
 169.79210526322
  31
0.0
   0
LINE
   5
16C
 100
AcDbEntity
   8
LEVEL002
 370
25
 100
AcDbLine
   6
CONTINUOUS
  62
1
  10
 1660.7674342097
  20
 169.79210526322
  30
0.0
  11
 1660.7674342097
  21
 176.99210526322
  31
0.0
   0
LINE
   5
16D
 100
AcDbEntity
   8
LEVEL002
 370
25
 100
AcDbLine
   6
CONTINUOUS
  62
1
  10
 1660.7674342097
  20
 176.99210526322
  30
0.0
  11
 1675.1674342097
  21
 176.99210526322
  31
0.0
   0
ARC
   5
16E
 100
AcDbEntity
   8
LEVEL002
 370
25
   6
CONTINUOUS
  62
1
 100
AcDbCircle
  10
 1675.1674342097
  20
 194.99210526322
  30
0.0
  40
 18.000000000000
 100
AcDbArc
  50
 270.00000000000
  51
 90.000000000000
   0
LINE
   5
16F
 100
AcDbEntity
   8
LEVEL002
 370
25
 100
AcDbLine
   6
CONTINUOUS
  62
1
  10
 1660.7674342097
  20
 191.39210526322
  30
0.0
  11
 1675.1674342097
  21
 191.39210526322
  31
0.0
   0
ARC
   5
170
 100
AcDbEntity
   8
LEVEL002
 370
25
   6
CONTINUOUS
  62
1
 100
AcDbCircle
  10
 1675.1674342097
  20
 194.99210526322
  30
0.0
  40
 3.6000000000000
 100
AcDbArc
  50
 270.00000000000
  51
 90.000000000000
   0
LINE
   5
171
 100
AcDbEntity
   8
LEVEL002
 370
25
 100
AcDbLine
   6
CONTINUOUS
  62
1
  10
 1675.1674342097
  20
 198.59210526322
  30
0.0
  11
 1660.7674342097
  21
 198.59210526322
  31
0.0
   0
LINE
   5
172
 100
AcDbEntity
   8
LEVEL002
 370
25
 100
AcDbLine
   6
CONTINUOUS
  62
1
  10
 1660.7674342097
  20
 198.59210526322
  30
0.0
  11
 1660.7674342097
  21
 191.39210526322
  31
0.0
   0
LINE
   5
173
 100
AcDbEntity
   8
LEVEL002
 370
25
 100
AcDbLine
   6
CONTINUOUS
  62
1
  10
 1682.3674342097
  20
 169.79210526322
  30
0.0
  11
 1711.1674342097
  21
 212.99210526322
  31
0.0
   0
LINE
   5
174
 100
AcDbEntity
   8
LEVEL002
 370
25
 100
AcDbLine
   6
CONTINUOUS
  62
1
  10
 1711.1674342097
  20
 212.99210526322
  30
0.0
  11
 1747.1674342097
  21
 212.99210526322
  31
0.0
   0
LINE
   5
175
 100
AcDbEntity
   8
LEVEL002
 370
25
 100
AcDbLine
   6
CONTINUOUS
  62
1
  10
 1747.1674342097
  20
 212.99210526322
  30
0.0
  11
 1747.1674342097
  21
 184.19210526322
  31
0.0
   0
LINE
   5
176
 100
AcDbEntity
   8
LEVEL002
 370
25
 100
AcDbLine
   6
CONTINUOUS
  62
1
  10
 1747.1674342097
  20
 184.19210526322
  30
0.0
  11
 1768.7674342097
  21
 184.19210526322
  31
0.0
   0
LINE
   5
177
 100
AcDbEntity
   8
LEVEL002
 370
25
 100
AcDbLine
   6
CONTINUOUS
  62
1
  10
 1768.7674342097
  20
 184.19210526322
  30
0.0
  11
 1768.7674342097
  21
 198.59210526322
  31
0.0
   0
LINE
   5
178
 100
AcDbEntity
   8
LEVEL002
 370
25
 100
AcDbLine
   6
CONTINUOUS
  62
1
  10
 1768.7674342097
  20
 198.59210526322
  30
0.0
  11
 1754.3674342097
  21
 198.59210526322
  31
0.0
   0
LINE
   5
179
 100
AcDbEntity
   8
LEVEL002
 370
25
 100
AcDbLine
   6
CONTINUOUS
  62
1
  10
 1754.3674342097
  20
 198.59210526322
  30
0.0
  11
 1754.3674342097
  21
 212.99210526322
  31
0.0
   0
LINE
   5
17A
 100
AcDbEntity
   8
LEVEL002
 370
25
 100
AcDbLine
   6
CONTINUOUS
  62
1
  10
 1754.3674342097
  20
 212.99210526322
  30
0.0
  11
 1840.7674342097
  21
 212.99210526322
  31
0.0
   0
LINE
   5
17B
 100
AcDbEntity
   8
LEVEL002
 370
25
 100
AcDbLine
   6
CONTINUOUS
  62
1
  10
 1840.7674342097
  20
 212.99210526322
  30
0.0
  11
 1840.7674342097
  21
 198.59210526322
  31
0.0
   0
LINE
   5
17C
 100
AcDbEntity
   8
LEVEL002
 370
25
 100
AcDbLine
   6
CONTINUOUS
  62
1
  10
 1840.7674342097
  20
 198.59210526322
  30
0.0
  11
 1811.9674342097
  21
 198.59210526322
  31
0.0
   0
LINE
   5
17D
 100
AcDbEntity
   8
LEVEL002
 370
25
 100
AcDbLine
   6
CONTINUOUS
  62
1
  10
 1811.9674342097
  20
 198.59210526322
  30
0.0
  11
 1811.9674342097
  21
 194.99210526322
  31
0.0
   0
LINE
   5
17E
 100
AcDbEntity
   8
LEVEL002
 370
25
 100
AcDbLine
   6
CONTINUOUS
  62
1
  10
 1811.9674342097
  20
 194.99210526322
  30
0.0
  11
 1837.1674342097
  21
 194.99210526322
  31
0.0
   0
LINE
   5
17F
 100
AcDbEntity
   8
LEVEL002
 370
25
 100
AcDbLine
   6
CONTINUOUS
  62
1
  10
 1837.1674342097
  20
 194.99210526322
  30
0.0
  11
 1837.1674342097
  21
 187.79210526322
  31
0.0
   0
LINE
   5
180
 100
AcDbEntity
   8
LEVEL002
 370
25
 100
AcDbLine
   6
CONTINUOUS
  62
1
  10
 1837.1674342097
  20
 187.79210526322
  30
0.0
  11
 1811.9674342097
  21
 187.79210526322
  31
0.0
   0
LINE
   5
181
 100
AcDbEntity
   8
LEVEL002
 370
25
 100
AcDbLine
   6
CONTINUOUS
  62
1
  10
 1811.9674342097
  20
 187.79210526322
  30
0.0
  11
 1811.9674342097
  21
 184.19210526322
  31
0.0
   0
LINE
   5
182
 100
AcDbEntity
   8
LEVEL002
 370
25
 100
AcDbLine
   6
CONTINUOUS
  62
1
  10
 1811.9674342097
  20
 184.19210526322
  30
0.0
  11
 1840.7674342097
  21
 184.19210526322
  31
0.0
   0
LINE
   5
183
 100
AcDbEntity
   8
LEVEL002
 370
25
 100
AcDbLine
   6
CONTINUOUS
  62
1
  10
 1840.7674342097
  20
 184.19210526322
  30
0.0
  11
 1840.7674342097
  21
 169.79210526322
  31
0.0
   0
LINE
   5
184
 100
AcDbEntity
   8
LEVEL002
 370
25
 100
AcDbLine
   6
CONTINUOUS
  62
1
  10
 1840.7674342097
  20
 169.79210526322
  30
0.0
  11
 1797.5674342097
  21
 169.79210526322
  31
0.0
   0
LINE
   5
185
 100
AcDbEntity
   8
LEVEL002
 370
25
 100
AcDbLine
   6
CONTINUOUS
  62
1
  10
 1797.5674342097
  20
 169.79210526322
  30
0.0
  11
 1797.5674342097
  21
 198.59210526322
  31
0.0
   0
LINE
   5
186
 100
AcDbEntity
   8
LEVEL002
 370
25
 100
AcDbLine
   6
CONTINUOUS
  62
1
  10
 1797.5674342097
  20
 198.59210526322
  30
0.0
  11
 1783.1674342097
  21
 198.59210526322
  31
0.0
   0
LINE
   5
187
 100
AcDbEntity
   8
LEVEL002
 370
25
 100
AcDbLine
   6
CONTINUOUS
  62
1
  10
 1783.1674342097
  20
 198.59210526322
  30
0.0
  11
 1783.1674342097
  21
 169.79210526322
  31
0.0
   0
LINE
   5
188
 100
AcDbEntity
   8
LEVEL002
 370
25
 100
AcDbLine
   6
CONTINUOUS
  62
1
  10
 1783.1674342097
  20
 169.79210526322
  30
0.0
  11
 1732.7674342097
  21
 169.79210526322
  31
0.0
   0
LINE
   5
189
 100
AcDbEntity
   8
LEVEL002
 370
25
 100
AcDbLine
   6
CONTINUOUS
  62
1
  10
 1732.7674342097
  20
 169.79210526322
  30
0.0
  11
 1732.7674342097
  21
 212.99210526322
  31
0.0
   0
LINE
   5
18A
 100
AcDbEntity
   8
LEVEL002
 370
25
 100
AcDbLine
   6
CONTINUOUS
  62
1
  10
 1732.7674342097
  20
 212.99210526322
  30
0.0
  11
 1703.9674342097
  21
 169.79210526322
  31
0.0
   0
LINE
   5
18B
 100
AcDbEntity
   8
LEVEL002
 370
25
 100
AcDbLine
   6
CONTINUOUS
  62
1
  10
 1703.9674342097
  20
 169.79210526322
  30
0.0
  11
 1682.3674342097
  21
 169.79210526322
  31
0.0
   0
LINE
   5
18C
 100
AcDbEntity
   8
LEVEL002
 370
25
 100
AcDbLine
   6
CONTINUOUS
  62
1
  10
 1727.9674342097
  20
 197.13878220211
  30
0.0
  11
 1709.7363162505
  21
 169.79210526322
  31
0.0
   0
LINE
   5
18D
 100
AcDbEntity
   8
LEVEL002
 370
25
 100
AcDbLine
   6
CONTINUOUS
  62
1
  10
 1709.7363162505
  20
 169.79210526322
  30
0.0
  11
 1727.9674342097
  21
 169.79210526322
  31
0.0
   0
LINE
   5
18E
 100
AcDbEntity
   8
LEVEL002
 370
25
 100
AcDbLine
   6
CONTINUOUS
  62
1
  10
 1727.9674342097
  20
 169.79210526322
  30
0.0
  11
 1727.9674342097
  21
 197.13878220211
  31
0.0
   0
ARC
   5
18F
 100
AcDbEntity
   8
LEVEL002
 370
25
   6
CONTINUOUS
  62
1
 100
AcDbCircle
  10
 1862.3674342097
  20
 191.39210526322
  30
0.0
  40
 21.600000000000
 100
AcDbArc
  50
 90.000000000000
  51
 270.00000000000
   0
ARC
   5
190
 100
AcDbEntity
   8
LEVEL002
 370
25
   6
CONTINUOUS
  62
1
 100
AcDbCircle
  10
 1862.3674342097
  20
 191.39210526322
  30
0.0
  40
 7.2000000000000
 100
AcDbArc
  50
 90.000000000000
  51
 270.00000000000
   0
LINE
   5
191
 100
AcDbEntity
   8
LEVEL002
 370
25
 100
AcDbLine
   6
CONTINUOUS
  62
1
  10
 1862.3674342097
  20
 212.99210526322
  30
0.0
  11
 1883.9674342097
  21
 212.99210526322
  31
0.0
   0
LINE
   5
192
 100
AcDbEntity
   8
LEVEL002
 370
25
 100
AcDbLine
   6
CONTINUOUS
  62
1
  10
 1883.9674342097
  20
 212.99210526322
  30
0.0
  11
 1883.9674342097
  21
 198.59210526322
  31
0.0
   0
LINE
   5
193
 100
AcDbEntity
   8
LEVEL002
 370
25
 100
AcDbLine
   6
CONTINUOUS
  62
1
  10
 1883.9674342097
  20
 198.59210526322
  30
0.0
  11
 1862.3674342097
  21
 198.59210526322
  31
0.0
   0
LINE
   5
194
 100
AcDbEntity
   8
LEVEL002
 370
25
 100
AcDbLine
   6
CONTINUOUS
  62
1
  10
 1646.3674342097
  20
 212.99210526322
  30
0.0
  11
 1646.3674342097
  21
 169.79210526322
  31
0.0
   0
LINE
   5
195
 100
AcDbEntity
   8
LEVEL002
 370
25
 100
AcDbLine
   6
CONTINUOUS
  62
1
  10
 1646.3674342097
  20
 169.79210526322
  30
0.0
  11
 1660.7674342097
  21
 169.79210526322
  31
0.0
   0
LINE
   5
196
 100
AcDbEntity
   8
LEVEL002
 370
25
 100
AcDbLine
   6
CONTINUOUS
  62
1
  10
 1660.7674342097
  20
 169.79210526322
  30
0.0
  11
 1660.7674342097
  21
 176.99210526322
  31
0.0
   0
LINE
   5
197
 100
AcDbEntity
   8
LEVEL002
 370
25
 100
AcDbLine
   6
CONTINUOUS
  62
1
  10
 1660.7674342097
  20
 176.99210526322
  30
0.0
  11
 1675.1674342097
  21
 176.99210526322
  31
0.0
   0
ARC
   5
198
 100
AcDbEntity
   8
LEVEL002
 370
25
   6
CONTINUOUS
  62
1
 100
AcDbCircle
  10
 1675.1674342097
  20
 194.99210526322
  30
0.0
  40
 18.000000000000
 100
AcDbArc
  50
 270.00000000000
  51
 90.000000000000
   0
LINE
   5
199
 100
AcDbEntity
   8
LEVEL002
 370
25
 100
AcDbLine
   6
CONTINUOUS
  62
1
  10
 1675.1674342097
  20
 212.99210526322
  30
0.0
  11
 1646.3674342097
  21
 212.99210526322
  31
0.0
   0
LINE
   5
19A
 100
AcDbEntity
   8
LEVEL002
 370
25
 100
AcDbLine
   6
CONTINUOUS
  62
1
  10
 1660.7674342097
  20
 198.59210526322
  30
0.0
  11
 1660.7674342097
  21
 191.39210526322
  31
0.0
   0
LINE
   5
19B
 100
AcDbEntity
   8
LEVEL002
 370
25
 100
AcDbLine
   6
CONTINUOUS
  62
1
  10
 1660.7674342097
  20
 191.39210526322
  30
0.0
  11
 1675.1674342097
  21
 191.39210526322
  31
0.0
   0
ARC
   5
19C
 100
AcDbEntity
   8
LEVEL002
 370
25
   6
CONTINUOUS
  62
1
 100
AcDbCircle
  10
 1675.1674342097
  20
 194.99210526322
  30
0.0
  40
 3.6000000000000
 100
AcDbArc
  50
 270.00000000000
  51
 90.000000000000
   0
LINE
   5
19D
 100
AcDbEntity
   8
LEVEL002
 370
25
 100
AcDbLine
   6
CONTINUOUS
  62
1
  10
 1675.1674342097
  20
 198.59210526322
  30
0.0
  11
 1660.7674342097
  21
 198.59210526322
  31
0.0
   0
LINE
   5
19E
 100
AcDbEntity
   8
LEVEL002
 370
25
 100
AcDbLine
   6
CONTINUOUS
  62
1
  10
 1711.1674342097
  20
 212.99210526322
  30
0.0
  11
 1682.3674342097
  21
 169.79210526322
  31
0.0
   0
LINE
   5
19F
 100
AcDbEntity
   8
LEVEL002
 370
25
 100
AcDbLine
   6
CONTINUOUS
  62
1
  10
 1682.3674342097
  20
 169.79210526322
  30
0.0
  11
 1703.9674342097
  21
 169.79210526322
  31
0.0
   0
LINE
   5
1A0
 100
AcDbEntity
   8
LEVEL002
 370
25
 100
AcDbLine
   6
CONTINUOUS
  62
1
  10
 1703.9674342097
  20
 169.79210526322
  30
0.0
  11
 1732.7674342097
  21
 212.99210526322
  31
0.0
   0
LINE
   5
1A1
 100
AcDbEntity
   8
LEVEL002
 370
25
 100
AcDbLine
   6
CONTINUOUS
  62
1
  10
 1732.7674342097
  20
 212.99210526322
  30
0.0
  11
 1711.1674342097
  21
 212.99210526322
  31
0.0
   0
LINE
   5
1A2
 100
AcDbEntity
   8
LEVEL002
 370
25
 100
AcDbLine
   6
CONTINUOUS
  62
1
  10
 1727.9674342097
  20
 169.79210526322
  30
0.0
  11
 1727.9674342097
  21
 197.13878220211
  31
0.0
   0
LINE
   5
1A3
 100
AcDbEntity
   8
LEVEL002
 370
25
 100
AcDbLine
   6
CONTINUOUS
  62
1
  10
 1727.9674342097
  20
 197.13878220211
  30
0.0
  11
 1709.7363162505
  21
 169.79210526322
  31
0.0
   0
LINE
   5
1A4
 100
AcDbEntity
   8
LEVEL002
 370
25
 100
AcDbLine
   6
CONTINUOUS
  62
1
  10
 1709.7363162505
  20
 169.79210526322
  30
0.0
  11
 1727.9674342097
  21
 169.79210526322
  31
0.0
   0
LINE
   5
1A5
 100
AcDbEntity
   8
LEVEL002
 370
25
 100
AcDbLine
   6
CONTINUOUS
  62
1
  10
 1732.7674342097
  20
 169.79210526322
  30
0.0
  11
 1783.1674342097
  21
 169.79210526322
  31
0.0
   0
LINE
   5
1A6
 100
AcDbEntity
   8
LEVEL002
 370
25
 100
AcDbLine
   6
CONTINUOUS
  62
1
  10
 1783.1674342097
  20
 169.79210526322
  30
0.0
  11
 1783.1674342097
  21
 198.59210526322
  31
0.0
   0
LINE
   5
1A7
 100
AcDbEntity
   8
LEVEL002
 370
25
 100
AcDbLine
   6
CONTINUOUS
  62
1
  10
 1783.1674342097
  20
 198.59210526322
  30
0.0
  11
 1797.5674342097
  21
 198.59210526322
  31
0.0
   0
LINE
   5
1A8
 100
AcDbEntity
   8
LEVEL002
 370
25
 100
AcDbLine
   6
CONTINUOUS
  62
1
  10
 1797.5674342097
  20
 198.59210526322
  30
0.0
  11
 1797.5674342097
  21
 169.79210526322
  31
0.0
   0
LINE
   5
1A9
 100
AcDbEntity
   8
LEVEL002
 370
25
 100
AcDbLine
   6
CONTINUOUS
  62
1
  10
 1797.5674342097
  20
 169.79210526322
  30
0.0
  11
 1840.7674342097
  21
 169.79210526322
  31
0.0
   0
LINE
   5
1AA
 100
AcDbEntity
   8
LEVEL002
 370
25
 100
AcDbLine
   6
CONTINUOUS
  62
1
  10
 1840.7674342097
  20
 169.79210526322
  30
0.0
  11
 1840.7674342097
  21
 184.19210526322
  31
0.0
   0
LINE
   5
1AB
 100
AcDbEntity
   8
LEVEL002
 370
25
 100
AcDbLine
   6
CONTINUOUS
  62
1
  10
 1840.7674342097
  20
 184.19210526322
  30
0.0
  11
 1811.9674342097
  21
 184.19210526322
  31
0.0
   0
LINE
   5
1AC
 100
AcDbEntity
   8
LEVEL002
 370
25
 100
AcDbLine
   6
CONTINUOUS
  62
1
  10
 1811.9674342097
  20
 184.19210526322
  30
0.0
  11
 1811.9674342097
  21
 187.79210526322
  31
0.0
   0
LINE
   5
1AD
 100
AcDbEntity
   8
LEVEL002
 370
25
 100
AcDbLine
   6
CONTINUOUS
  62
1
  10
 1811.9674342097
  20
 187.79210526322
  30
0.0
  11
 1837.1674342097
  21
 187.79210526322
  31
0.0
   0
LINE
   5
1AE
 100
AcDbEntity
   8
LEVEL002
 370
25
 100
AcDbLine
   6
CONTINUOUS
  62
1
  10
 1837.1674342097
  20
 187.79210526322
  30
0.0
  11
 1837.1674342097
  21
 194.99210526322
  31
0.0
   0
LINE
   5
1AF
 100
AcDbEntity
   8
LEVEL002
 370
25
 100
AcDbLine
   6
CONTINUOUS
  62
1
  10
 1837.1674342097
  20
 194.99210526322
  30
0.0
  11
 1811.9674342097
  21
 194.99210526322
  31
0.0
   0
LINE
   5
1B0
 100
AcDbEntity
   8
LEVEL002
 370
25
 100
AcDbLine
   6
CONTINUOUS
  62
1
  10
 1811.9674342097
  20
 194.99210526322
  30
0.0
  11
 1811.9674342097
  21
 198.59210526322
  31
0.0
   0
LINE
   5
1B1
 100
AcDbEntity
   8
LEVEL002
 370
25
 100
AcDbLine
   6
CONTINUOUS
  62
1
  10
 1811.9674342097
  20
 198.59210526322
  30
0.0
  11
 1840.7674342097
  21
 198.59210526322
  31
0.0
   0
LINE
   5
1B2
 100
AcDbEntity
   8
LEVEL002
 370
25
 100
AcDbLine
   6
CONTINUOUS
  62
1
  10
 1840.7674342097
  20
 198.59210526322
  30
0.0
  11
 1840.7674342097
  21
 212.99210526322
  31
0.0
   0
LINE
   5
1B3
 100
AcDbEntity
   8
LEVEL002
 370
25
 100
AcDbLine
   6
CONTINUOUS
  62
1
  10
 1840.7674342097
  20
 212.99210526322
  30
0.0
  11
 1754.3674342097
  21
 212.99210526322
  31
0.0
   0
LINE
   5
1B4
 100
AcDbEntity
   8
LEVEL002
 370
25
 100
AcDbLine
   6
CONTINUOUS
  62
1
  10
 1754.3674342097
  20
 212.99210526322
  30
0.0
  11
 1754.3674342097
  21
 198.59210526322
  31
0.0
   0
LINE
   5
1B5
 100
AcDbEntity
   8
LEVEL002
 370
25
 100
AcDbLine
   6
CONTINUOUS
  62
1
  10
 1754.3674342097
  20
 198.59210526322
  30
0.0
  11
 1768.7674342097
  21
 198.59210526322
  31
0.0
   0
LINE
   5
1B6
 100
AcDbEntity
   8
LEVEL002
 370
25
 100
AcDbLine
   6
CONTINUOUS
  62
1
  10
 1768.7674342097
  20
 198.59210526322
  30
0.0
  11
 1768.7674342097
  21
 184.19210526322
  31
0.0
   0
LINE
   5
1B7
 100
AcDbEntity
   8
LEVEL002
 370
25
 100
AcDbLine
   6
CONTINUOUS
  62
1
  10
 1768.7674342097
  20
 184.19210526322
  30
0.0
  11
 1747.1674342097
  21
 184.19210526322
  31
0.0
   0
LINE
   5
1B8
 100
AcDbEntity
   8
LEVEL002
 370
25
 100
AcDbLine
   6
CONTINUOUS
  62
1
  10
 1747.1674342097
  20
 184.19210526322
  30
0.0
  11
 1747.1674342097
  21
 212.99210526322
  31
0.0
   0
LINE
   5
1B9
 100
AcDbEntity
   8
LEVEL002
 370
25
 100
AcDbLine
   6
CONTINUOUS
  62
1
  10
 1747.1674342097
  20
 212.99210526322
  30
0.0
  11
 1732.7674342097
  21
 212.99210526322
  31
0.0
   0
LINE
   5
1BA
 100
AcDbEntity
   8
LEVEL002
 370
25
 100
AcDbLine
   6
CONTINUOUS
  62
1
  10
 1732.7674342097
  20
 212.99210526322
  30
0.0
  11
 1732.7674342097
  21
 169.79210526322
  31
0.0
   0
LINE
   5
1BB
 100
AcDbEntity
   8
LEVEL002
 370
25
 100
AcDbLine
   6
CONTINUOUS
  62
1
  10
 1862.3674342097
  20
 169.79210526322
  30
0.0
  11
 1883.9674342097
  21
 169.79210526322
  31
0.0
   0
LINE
   5
1BC
 100
AcDbEntity
   8
LEVEL002
 370
25
 100
AcDbLine
   6
CONTINUOUS
  62
1
  10
 1883.9674342097
  20
 169.79210526322
  30
0.0
  11
 1883.9674342097
  21
 184.19210526322
  31
0.0
   0
LINE
   5
1BD
 100
AcDbEntity
   8
LEVEL002
 370
25
 100
AcDbLine
   6
CONTINUOUS
  62
1
  10
 1883.9674342097
  20
 184.19210526322
  30
0.0
  11
 1862.3674342097
  21
 184.19210526322
  31
0.0
   0
ARC
   5
1BE
 100
AcDbEntity
   8
LEVEL002
 370
25
   6
CONTINUOUS
  62
1
 100
AcDbCircle
  10
 1862.3674342097
  20
 191.39210526322
  30
0.0
  40
 7.2000000000000
 100
AcDbArc
  50
 90.000000000000
  51
 270.00000000000
   0
LINE
   5
1BF
 100
AcDbEntity
   8
LEVEL002
 370
25
 100
AcDbLine
   6
CONTINUOUS
  62
1
  10
 1862.3674342097
  20
 198.59210526322
  30
0.0
  11
 1883.9674342097
  21
 198.59210526322
  31
0.0
   0
LINE
   5
1C0
 100
AcDbEntity
   8
LEVEL002
 370
25
 100
AcDbLine
   6
CONTINUOUS
  62
1
  10
 1883.9674342097
  20
 198.59210526322
  30
0.0
  11
 1883.9674342097
  21
 212.99210526322
  31
0.0
   0
LINE
   5
1C1
 100
AcDbEntity
   8
LEVEL002
 370
25
 100
AcDbLine
   6
CONTINUOUS
  62
1
  10
 1883.9674342097
  20
 212.99210526322
  30
0.0
  11
 1862.3674342097
  21
 212.99210526322
  31
0.0
   0
ARC
   5
1C2
 100
AcDbEntity
   8
LEVEL002
 370
25
   6
CONTINUOUS
  62
1
 100
AcDbCircle
  10
 1862.3674342097
  20
 191.39210526322
  30
0.0
  40
 21.600000000000
 100
AcDbArc
  50
 90.000000000000
  51
 270.00000000000
   0
LINE
   5
1C3
 100
AcDbEntity
   8
LEVEL002
 370
25
 100
AcDbLine
   6
CONTINUOUS
  62
1
  10
 1631.9674342097
  20
 179.39210526322
  30
0.0
  11
 1613.9674342097
  21
 208.19210526322
  31
0.0
   0
LINE
   5
1C4
 100
AcDbEntity
   8
LEVEL002
 370
25
 100
AcDbLine
   6
CONTINUOUS
  62
1
  10
 1613.9674342097
  20
 208.19210526322
  30
0.0
  11
 1631.9674342097
  21
 208.19210526322
  31
0.0
   0
LINE
   5
1C5
 100
AcDbEntity
   8
LEVEL002
 370
25
 100
AcDbLine
   6
CONTINUOUS
  62
1
  10
 1631.9674342097
  20
 208.19210526322
  30
0.0
  11
 1631.9674342097
  21
 179.39210526322
  31
0.0
   0
LINE
   5
1C6
 100
AcDbEntity
   8
LEVEL002
 370
25
 100
AcDbLine
   6
CONTINUOUS
  62
1
  10
 1613.9674342097
  20
 208.19210526322
  30
0.0
  11
 1631.9674342097
  21
 179.39210526322
  31
0.0
   0
LINE
   5
1C7
 100
AcDbEntity
   8
LEVEL002
 370
25
 100
AcDbLine
   6
CONTINUOUS
  62
1
  10
 1631.9674342097
  20
 179.39210526322
  30
0.0
  11
 1631.9674342097
  21
 208.19210526322
  31
0.0
   0
LINE
   5
1C8
 100
AcDbEntity
   8
LEVEL002
 370
25
 100
AcDbLine
   6
CONTINUOUS
  62
1
  10
 1631.9674342097
  20
 208.19210526322
  30
0.0
  11
 1613.9674342097
  21
 208.19210526322
  31
0.0
   0
LINE
   5
1C9
 100
AcDbEntity
   8
LEVEL002
 370
25
 100
AcDbLine
   6
CONTINUOUS
  62
1
  10
 1574.7674342098
  20
 246.59210526322
  30
0.0
  11
 1549.1674342097
  21
 208.19210526322
  31
0.0
   0
LINE
   5
1CA
 100
AcDbEntity
   8
LEVEL002
 370
25
 100
AcDbLine
   6
CONTINUOUS
  62
1
  10
 1549.1674342097
  20
 208.19210526322
  30
0.0
  11
 1574.7674342098
  21
 169.79210526322
  31
0.0
   0
LINE
   5
1CB
 100
AcDbEntity
   8
LEVEL002
 370
25
 100
AcDbLine
   6
CONTINUOUS
  62
1
  10
 1596.3674342098
  20
 169.79210526322
  30
0.0
  11
 1570.7674342097
  21
 208.19210526322
  31
0.0
   0
LINE
   5
1CC
 100
AcDbEntity
   8
LEVEL002
 370
25
 100
AcDbLine
   6
CONTINUOUS
  62
1
  10
 1570.7674342097
  20
 208.19210526322
  30
0.0
  11
 1596.3674342098
  21
 246.59210526322
  31
0.0
   0
LINE
   5
1CD
 100
AcDbEntity
   8
LEVEL002
 370
25
 100
AcDbLine
   6
CONTINUOUS
  62
1
  10
 1607.1674342098
  20
 246.59210526322
  30
0.0
  11
 1581.5674342097
  21
 208.19210526322
  31
0.0
   0
LINE
   5
1CE
 100
AcDbEntity
   8
LEVEL002
 370
25
 100
AcDbLine
   6
CONTINUOUS
  62
1
  10
 1581.5674342097
  20
 208.19210526322
  30
0.0
  11
 1607.1674342098
  21
 169.79210526322
  31
0.0
   0
LINE
   5
1CF
 100
AcDbEntity
   8
LEVEL002
 370
25
 100
AcDbLine
   6
CONTINUOUS
  62
1
  10
 1628.7674342098
  20
 169.79210526322
  30
0.0
  11
 1603.1674342097
  21
 208.19210526322
  31
0.0
   0
LINE
   5
1D0
 100
AcDbEntity
   8
LEVEL002
 370
25
 100
AcDbLine
   6
CONTINUOUS
  62
1
  10
 1603.1674342097
  20
 208.19210526322
  30
0.0
  11
 1628.7674342098
  21
 246.59210526322
  31
0.0
   0
LINE
   5
1D1
 100
AcDbEntity
   8
LEVEL002
 370
25
 100
AcDbLine
   6
CONTINUOUS
  62
1
  10
 1574.7674342098
  20
 169.79210526322
  30
0.0
  11
 1549.1674342097
  21
 208.19210526322
  31
0.0
   0
LINE
   5
1D2
 100
AcDbEntity
   8
LEVEL002
 370
25
 100
AcDbLine
   6
CONTINUOUS
  62
1
  10
 1549.1674342097
  20
 208.19210526322
  30
0.0
  11
 1574.7674342098
  21
 246.59210526322
  31
0.0
   0
LINE
   5
1D3
 100
AcDbEntity
   8
LEVEL002
 370
25
 100
AcDbLine
   6
CONTINUOUS
  62
1
  10
 1574.7674342098
  20
 246.59210526322
  30
0.0
  11
 1596.3674342098
  21
 246.59210526322
  31
0.0
   0
LINE
   5
1D4
 100
AcDbEntity
   8
LEVEL002
 370
25
 100
AcDbLine
   6
CONTINUOUS
  62
1
  10
 1596.3674342098
  20
 246.59210526322
  30
0.0
  11
 1570.7674342097
  21
 208.19210526322
  31
0.0
   0
LINE
   5
1D5
 100
AcDbEntity
   8
LEVEL002
 370
25
 100
AcDbLine
   6
CONTINUOUS
  62
1
  10
 1570.7674342097
  20
 208.19210526322
  30
0.0
  11
 1596.3674342098
  21
 169.79210526322
  31
0.0
   0
LINE
   5
1D6
 100
AcDbEntity
   8
LEVEL002
 370
25
 100
AcDbLine
   6
CONTINUOUS
  62
1
  10
 1596.3674342098
  20
 169.79210526322
  30
0.0
  11
 1574.7674342098
  21
 169.79210526322
  31
0.0
   0
LINE
   5
1D7
 100
AcDbEntity
   8
LEVEL002
 370
25
 100
AcDbLine
   6
CONTINUOUS
  62
1
  10
 1607.1674342098
  20
 169.79210526322
  30
0.0
  11
 1581.5674342097
  21
 208.19210526322
  31
0.0
   0
LINE
   5
1D8
 100
AcDbEntity
   8
LEVEL002
 370
25
 100
AcDbLine
   6
CONTINUOUS
  62
1
  10
 1581.5674342097
  20
 208.19210526322
  30
0.0
  11
 1607.1674342098
  21
 246.59210526322
  31
0.0
   0
LINE
   5
1D9
 100
AcDbEntity
   8
LEVEL002
 370
25
 100
AcDbLine
   6
CONTINUOUS
  62
1
  10
 1607.1674342098
  20
 246.59210526322
  30
0.0
  11
 1628.7674342098
  21
 246.59210526322
  31
0.0
   0
LINE
   5
1DA
 100
AcDbEntity
   8
LEVEL002
 370
25
 100
AcDbLine
   6
CONTINUOUS
  62
1
  10
 1628.7674342098
  20
 246.59210526322
  30
0.0
  11
 1603.1674342097
  21
 208.19210526322
  31
0.0
   0
LINE
   5
1DB
 100
AcDbEntity
   8
LEVEL002
 370
25
 100
AcDbLine
   6
CONTINUOUS
  62
1
  10
 1603.1674342097
  20
 208.19210526322
  30
0.0
  11
 1628.7674342098
  21
 169.79210526322
  31
0.0
   0
LINE
   5
1DC
 100
AcDbEntity
   8
LEVEL002
 370
25
 100
AcDbLine
   6
CONTINUOUS
  62
1
  10
 1628.7674342098
  20
 169.79210526322
  30
0.0
  11
 1607.1674342098
  21
 169.79210526322
  31
0.0
   0
HATCH
   5
1DD
 100
AcDbEntity
   8
LEVEL002
  62
1
 100
AcDbHatch
  10
0.0
  20
0.0
  30
0.0
 210
0.0
 220
0.0
 230
 1.0000000000000
   2
SOLID
  70
1
  71
1
  91
1
  92
1
  93
6
  72
1
  10
 1570.7674342097
  20
 208.19210526322
  11
 1596.3674342098
  21
 246.59210526322
  72
1
  10
 1596.3674342098
  20
 246.59210526322
  11
 1574.7674342098
  21
 246.59210526322
  72
1
  10
 1574.7674342098
  20
 246.59210526322
  11
 1549.1674342097
  21
 208.19210526322
  72
1
  10
 1549.1674342097
  20
 208.19210526322
  11
 1574.7674342098
  21
 169.79210526322
  72
1
  10
 1574.7674342098
  20
 169.79210526322
  11
 1596.3674342098
  21
 169.79210526322
  72
1
  10
 1596.3674342098
  20
 169.79210526322
  11
 1570.7674342097
  21
 208.19210526322
  97
1
 330

  75
0
  76
1
  98
1
  10
0.0
  20
0.0
   0
HATCH
   5
1DE
 100
AcDbEntity
   8
LEVEL002
  62
1
 100
AcDbHatch
  10
0.0
  20
0.0
  30
0.0
 210
0.0
 220
0.0
 230
 1.0000000000000
   2
SOLID
  70
1
  71
1
  91
1
  92
1
  93
6
  72
1
  10
 1603.1674342097
  20
 208.19210526322
  11
 1628.7674342098
  21
 246.59210526322
  72
1
  10
 1628.7674342098
  20
 246.59210526322
  11
 1607.1674342098
  21
 246.59210526322
  72
1
  10
 1607.1674342098
  20
 246.59210526322
  11
 1581.5674342097
  21
 208.19210526322
  72
1
  10
 1581.5674342097
  20
 208.19210526322
  11
 1607.1674342098
  21
 169.79210526322
  72
1
  10
 1607.1674342098
  20
 169.79210526322
  11
 1628.7674342098
  21
 169.79210526322
  72
1
  10
 1628.7674342098
  20
 169.79210526322
  11
 1603.1674342097
  21
 208.19210526322
  97
1
 330

  75
0
  76
1
  98
1
  10
0.0
  20
0.0
   0
HATCH
   5
1DF
 100
AcDbEntity
   8
LEVEL002
  62
1
 100
AcDbHatch
  10
0.0
  20
0.0
  30
0.0
 210
0.0
 220
0.0
 230
 1.0000000000000
   2
SOLID
  70
1
  71
1
  91
1
  92
1
  93
3
  72
1
  10
 1631.9674342097
  20
 208.19210526322
  11
 1613.9674342097
  21
 208.19210526322
  72
1
  10
 1613.9674342097
  20
 208.19210526322
  11
 1631.9674342097
  21
 179.39210526322
  72
1
  10
 1631.9674342097
  20
 179.39210526322
  11
 1631.9674342097
  21
 208.19210526322
  97
1
 330

  75
0
  76
1
  98
1
  10
0.0
  20
0.0
   0
HATCH
   5
1E0
 100
AcDbEntity
   8
LEVEL002
  62
1
 100
AcDbHatch
  10
0.0
  20
0.0
  30
0.0
 210
0.0
 220
0.0
 230
 1.0000000000000
   2
SOLID
  70
1
  71
1
  91
2
  92
1
  93
6
  72
1
  10
 1675.1674342097
  20
 212.99210526322
  11
 1646.3674342097
  21
 212.99210526322
  72
1
  10
 1646.3674342097
  20
 212.99210526322
  11
 1646.3674342097
  21
 169.79210526322
  72
1
  10
 1646.3674342097
  20
 169.79210526322
  11
 1660.7674342097
  21
 169.79210526322
  72
1
  10
 1660.7674342097
  20
 169.79210526322
  11
 1660.7674342097
  21
 176.99210526322
  72
1
  10
 1660.7674342097
  20
 176.99210526322
  11
 1675.1674342097
  21
 176.99210526322
  72
2
  10
 1675.1674342097
  20
 194.99210526322
  40
 18.000000000000
  50
 270.00000000000
  51
 90.000000000000
  73
1
  97
1
 330

  92
16
  93
4
  72
1
  10
 1660.7674342097
  20
 198.59210526322
  11
 1675.1674342097
  21
 198.59210526322
  72
2
  10
 1675.1674342097
  20
 194.99210526322
  40
 3.6000000000000
  50
 270.00000000000
  51
 90.000000000000
  73
0
  72
1
  10
 1675.1674342097
  20
 191.39210526322
  11
 1660.7674342097
  21
 191.39210526322
  72
1
  10
 1660.7674342097
  20
 191.39210526322
  11
 1660.7674342097
  21
 198.59210526322
  97
1
 330

  75
0
  76
1
  98
1
  10
0.0
  20
0.0
   0
HATCH
   5
1E1
 100
AcDbEntity
   8
LEVEL002
  62
1
 100
AcDbHatch
  10
0.0
  20
0.0
  30
0.0
 210
0.0
 220
0.0
 230
 1.0000000000000
   2
SOLID
  70
1
  71
1
  91
1
  92
1
  93
4
  72
1
  10
 1732.7674342097
  20
 212.99210526322
  11
 1711.1674342097
  21
 212.99210526322
  72
1
  10
 1711.1674342097
  20
 212.99210526322
  11
 1682.3674342097
  21
 169.79210526322
  72
1
  10
 1682.3674342097
  20
 169.79210526322
  11
 1703.9674342097
  21
 169.79210526322
  72
1
  10
 1703.9674342097
  20
 169.79210526322
  11
 1732.7674342097
  21
 212.99210526322
  97
1
 330

  75
0
  76
1
  98
1
  10
0.0
  20
0.0
   0
HATCH
   5
1E2
 100
AcDbEntity
   8
LEVEL002
  62
1
 100
AcDbHatch
  10
0.0
  20
0.0
  30
0.0
 210
0.0
 220
0.0
 230
 1.0000000000000
   2
SOLID
  70
1
  71
1
  91
1
  92
1
  93
3
  72
1
  10
 1727.9674342097
  20
 197.13878220211
  11
 1709.7363162505
  21
 169.79210526322
  72
1
  10
 1709.7363162505
  20
 169.79210526322
  11
 1727.9674342097
  21
 169.79210526322
  72
1
  10
 1727.9674342097
  20
 169.79210526322
  11
 1727.9674342097
  21
 197.13878220211
  97
1
 330

  75
0
  76
1
  98
1
  10
0.0
  20
0.0
   0
HATCH
   5
1E3
 100
AcDbEntity
   8
LEVEL002
  62
1
 100
AcDbHatch
  10
0.0
  20
0.0
  30
0.0
 210
0.0
 220
0.0
 230
 1.0000000000000
   2
SOLID
  70
1
  71
1
  91
1
  92
1
  93
22
  72
1
  10
 1783.1674342097
  20
 198.59210526322
  11
 1797.5674342097
  21
 198.59210526322
  72
1
  10
 1797.5674342097
  20
 198.59210526322
  11
 1797.5674342097
  21
 169.79210526322
  72
1
  10
 1797.5674342097
  20
 169.79210526322
  11
 1840.7674342097
  21
 169.79210526322
  72
1
  10
 1840.7674342097
  20
 169.79210526322
  11
 1840.7674342097
  21
 184.19210526322
  72
1
  10
 1840.7674342097
  20
 184.19210526322
  11
 1811.9674342097
  21
 184.19210526322
  72
1
  10
 1811.9674342097
  20
 184.19210526322
  11
 1811.9674342097
  21
 187.79210526322
  72
1
  10
 1811.9674342097
  20
 187.79210526322
  11
 1837.1674342097
  21
 187.79210526322
  72
1
  10
 1837.1674342097
  20
 187.79210526322
  11
 1837.1674342097
  21
 194.99210526322
  72
1
  10
 1837.1674342097
  20
 194.99210526322
  11
 1811.9674342097
  21
 194.99210526322
  72
1
  10
 1811.9674342097
  20
 194.99210526322
  11
 1811.9674342097
  21
 198.59210526322
  72
1
  10
 1811.9674342097
  20
 198.59210526322
  11
 1840.7674342097
  21
 198.59210526322
  72
1
  10
 1840.7674342097
  20
 198.59210526322
  11
 1840.7674342097
  21
 212.99210526322
  72
1
  10
 1840.7674342097
  20
 212.99210526322
  11
 1754.3674342097
  21
 212.99210526322
  72
1
  10
 1754.3674342097
  20
 212.99210526322
  11
 1754.3674342097
  21
 198.59210526322
  72
1
  10
 1754.3674342097
  20
 198.59210526322
  11
 1768.7674342097
  21
 198.59210526322
  72
1
  10
 1768.7674342097
  20
 198.59210526322
  11
 1768.7674342097
  21
 184.19210526322
  72
1
  10
 1768.7674342097
  20
 184.19210526322
  11
 1747.1674342097
  21
 184.19210526322
  72
1
  10
 1747.1674342097
  20
 184.19210526322
  11
 1747.1674342097
  21
 212.99210526322
  72
1
  10
 1747.1674342097
  20
 212.99210526322
  11
 1732.7674342097
  21
 212.99210526322
  72
1
  10
 1732.7674342097
  20
 212.99210526322
  11
 1732.7674342097
  21
 169.79210526322
  72
1
  10
 1732.7674342097
  20
 169.79210526322
  11
 1783.1674342097
  21
 169.79210526322
  72
1
  10
 1783.1674342097
  20
 169.79210526322
  11
 1783.1674342097
  21
 198.59210526322
  97
1
 330

  75
0
  76
1
  98
1
  10
0.0
  20
0.0
   0
HATCH
   5
1E4
 100
AcDbEntity
   8
LEVEL002
  62
1
 100
AcDbHatch
  10
0.0
  20
0.0
  30
0.0
 210
0.0
 220
0.0
 230
 1.0000000000000
   2
SOLID
  70
1
  71
1
  91
1
  92
1
  93
8
  72
2
  10
 1862.3674342097
  20
 191.39210526322
  40
 7.2000000000000
  50
 90.000000000000
  51
 270.00000000000
  73
0
  72
1
  10
 1862.3674342097
  20
 198.59210526322
  11
 1883.9674342097
  21
 198.59210526322
  72
1
  10
 1883.9674342097
  20
 198.59210526322
  11
 1883.9674342097
  21
 212.99210526322
  72
1
  10
 1883.9674342097
  20
 212.99210526322
  11
 1862.3674342097
  21
 212.99210526322
  72
2
  10
 1862.3674342097
  20
 191.39210526322
  40
 21.600000000000
  50
 90.000000000000
  51
 270.00000000000
  73
1
  72
1
  10
 1862.3674342097
  20
 169.79210526322
  11
 1883.9674342097
  21
 169.79210526322
  72
1
  10
 1883.9674342097
  20
 169.79210526322
  11
 1883.9674342097
  21
 184.19210526322
  72
1
  10
 1883.9674342097
  20
 184.19210526322
  11
 1862.3674342097
  21
 184.19210526322
  97
1
 330

  75
0
  76
1
  98
1
  10
0.0
  20
0.0
   0
MTEXT
   5
1E6
 100
AcDbEntity
   8
LEVEL002
 370
25
  62
1
 100
AcDbMText
  10
 1328.9999999992
  20
 234.00000000007
  30
0.0
  40
 18.000000000000
  41
0.0
  71
5
  72
1
   1
\T1.000000;年
   7
GMM001
  44
 0.79999984000003
   0
MTEXT
   5
1E8
 100
AcDbEntity
   8
LEVEL002
 370
25
  62
1
 100
AcDbMText
  10
 1391.9999999992
  20
 234.00000000007
  30
0.0
  40
 18.000000000000
  41
0.0
  71
5
  72
1
   1
\T1.000000;月
   7
GMM001
  44
 0.79999984000003
   0
MTEXT
   5
1EA
 100
AcDbEntity
   8
LEVEL002
 370
25
  62
1
 100
AcDbMText
  10
 1454.9999999992
  20
 234.00000000007
  30
0.0
  40
 18.000000000000
  41
0.0
  71
5
  72
1
   1
\T1.000000;日
   7
GMM001
  44
 0.79999984000003
   0
MTEXT
   5
1EC
 100
AcDbEntity
   8
LEVEL002
 370
25
  62
1
 100
AcDbMText
  10
 1988.9999999992
  20
 237.00000000007
  30
0.0
  40
 18.000000000000
  41
0.0
  71
5
  72
1
   1
\T1.000000;品
   7
GMM001
  44
 0.79999984000003
   0
MTEXT
   5
1EE
 100
AcDbEntity
   8
LEVEL002
 370
25
  62
1
 100
AcDbMText
  10
 2030.9999999992
  20
 237.00000000007
  30
0.0
  40
 18.000000000000
  41
0.0
  71
5
  72
1
   1
\T1.000000;名
   7
GMM001
  44
 0.79999984000003
   0
MTEXT
   5
1F0
 100
AcDbEntity
   8
LEVEL002
 370
25
  62
1
 100
AcDbMText
  10
 1178.9999999877
  20
 233.99999999765
  30
0.0
  40
 18.000000000000
  41
0.0
  71
5
  72
1
   1
\T1.000000;設計年月日
   7
GMM001
  44
 0.79999984000003
   0
MTEXT
   5
1F2
 100
AcDbEntity
   8
LEVEL002
 370
25
  62
1
 100
AcDbMText
  10
 1577.9999999957
  20
 147.00000000398
  30
0.0
  40
 18.000000000000
  41
0.0
  71
5
  72
1
   1
\T1.000000;縮尺
   7
GMM001
  44
 0.79999984000003
   0
MTEXT
   5
1F4
 100
AcDbEntity
   8
LEVEL002
 370
25
  62
1
 100
AcDbMText
  10
 1796.9999999992
  20
 147.00000000007
  30
0.0
  40
 16.800000000000
  41
0.0
  71
5
  72
1
   1
\T1.000000;担　当
   7
GMM001
  44
 0.79999984000003
   0
MTEXT
   5
1F6
 100
AcDbEntity
   8
LEVEL002
 370
25
  62
1
 100
AcDbMText
  10
 1868.9999999992
  20
 147.00000000007
  30
0.0
  40
 16.800000000000
  41
0.0
  71
5
  72
1
   1
\T1.000000;検　図
   7
GMM001
  44
 0.79999984000003
   0
MTEXT
   5
1F8
 100
AcDbEntity
   8
LEVEL002
 370
25
  62
1
 100
AcDbMText
  10
 1940.9999999992
  20
 147.00000000007
  30
0.0
  40
 16.800000000000
  41
0.0
  71
5
  72
1
   1
\T1.000000;製　図
   7
GMM001
  44
 0.79999984000003
   0
MTEXT
   5
1FA
 100
AcDbEntity
   8
LEVEL002
 370
25
  62
1
 100
AcDbMText
  10
 1646.3674342097
  20
 220.19210526322
  30
0.0
  40
 18.240000000000
  41
0.0
  71
7
  72
1
   1
\T1.000000;ケージーパルテック株式会社
   7
GMM001
  44
 0.79999984000003
   0
LINE
   5
1FB
 100
AcDbEntity
   8
LEVEL002
 370
50
 100
AcDbLine
   6
CONTINUOUS
  62
4
  10
 2426.9999999992
  20
 72.000000000066
  30
0.0
  11
 2426.9999999992
  21
 1710.0000000001
  31
0.0
   0
LINE
   5
1FC
 100
AcDbEntity
   8
LEVEL002
 370
50
 100
AcDbLine
   6
CONTINUOUS
  62
4
  10
 2426.9999999992
  20
 1710.0000000001
  30
0.0
  11
 92.999999999226
  21
 1710.0000000001
  31
0.0
   0
LINE
   5
1FD
 100
AcDbEntity
   8
LEVEL002
 370
50
 100
AcDbLine
   6
CONTINUOUS
  62
4
  10
 92.999999999226
  20
 72.000000000066
  30
0.0
  11
 2426.9999999992
  21
 72.000000000066
  31
0.0
   0
LINE
   5
1FE
 100
AcDbEntity
   8
LEVEL002
 370
50
 100
AcDbLine
   6
CONTINUOUS
  62
4
  10
 92.999999999226
  20
 1710.0000000001
  30
0.0
  11
 92.999999999226
  21
 72.000000000066
  31
0.0
   0
LINE
   5
1FF
 100
AcDbEntity
   8
LEVEL002
 370
50
 100
AcDbLine
   6
CONTINUOUS
  62
4
  10
 1100.9999999992
  20
 72.000000000066
  30
0.0
  11
 1100.9999999992
  21
 252.00000000007
  31
0.0
   0
LINE
   5
200
 100
AcDbEntity
   8
LEVEL002
 370
50
 100
AcDbLine
   6
CONTINUOUS
  62
4
  10
 1100.9999999992
  20
 252.00000000007
  30
0.0
  11
 2426.9999999992
  21
 252.00000000007
  31
0.0
   0
CIRCLE
   5
201
 100
AcDbEntity
   8
LEVEL001
 370
15
 100
AcDbCircle
   6
CONTINUOUS
  62
2
  10
 1788.5110292567
  20
 719.21552539635
  30
0.0
  40
 2.5999999999999
   0
ARC
   5
202
 100
AcDbEntity
   8
LEVEL001
 370
15
   6
CONTINUOUS
  62
8
 100
AcDbCircle
  10
 1788.5110292571
  20
 719.21552539639
  30
0.0
  40
 23.999999999999
 100
AcDbArc
  50
 234.94456468970
  51
 321.80963780529
   0
LINE
   5
203
 100
AcDbEntity
   8
LEVEL001
 370
15
 100
AcDbLine
   6
CONTINUOUS
  62
8
  10
 1807.3740909872
  20
 704.37689668059
  30
0.0
  11
 1801.1199498075
  21
 746.84730280129
  31
0.0
   0
LINE
   5
204
 100
AcDbEntity
   8
LEVEL001
 370
15
 100
AcDbLine
   6
CONTINUOUS
  62
8
  10
 1768.4720387767
  20
 742.03961049368
  30
0.0
  11
 1774.7261799564
  21
 699.56920437299
  31
0.0
   0
ARC
   5
205
 100
AcDbEntity
   8
LEVEL001
 370
15
   6
CONTINUOUS
  62
8
 100
AcDbCircle
  10
 1798.6466232143
  20
 746.48308368707
  30
0.0
  40
 2.4999999999999
 100
AcDbArc
  50
 8.3771012474970
  51
 98.377101247513
   0
ARC
   5
206
 100
AcDbEntity
   8
LEVEL001
 370
15
   6
CONTINUOUS
  62
8
 100
AcDbCircle
  10
 1770.9453653700
  20
 742.40382960792
  30
0.0
  40
 2.4999999999999
 100
AcDbArc
  50
 98.377101247345
  51
 188.37710123793
   0
LINE
   5
207
 100
AcDbEntity
   8
LEVEL001
 370
15
 100
AcDbLine
   6
CONTINUOUS
  62
8
  10
 1770.5811462558
  20
 744.87715620114
  30
0.0
  11
 1798.2824041001
  21
 748.95641028032
  31
0.0
   0
CIRCLE
   5
208
 100
AcDbEntity
   8
LEVEL001
 370
15
 100
AcDbCircle
   6
CONTINUOUS
  62
8
  10
 1788.5110292567
  20
 719.21552539636
  30
0.0
  40
 2.5999999999999
   0
LINE
   5
209
 100
AcDbEntity
   8
LEVEL001
 370
15
 100
AcDbLine
   6
DASHDOT
  62
8
  10
 1788.5110292567
  20
 1439.3767943686
  30
0.0
  11
 1788.5110292567
  21
 652.36342274027
  31
0.0
   0
LINE
   5
20A
 100
AcDbEntity
   8
LEVEL001
 370
15
 100
AcDbLine
   6
CONTINUOUS
  62
8
  10
 1711.8233007212
  20
 1154.1839061921
  30
0.0
  11
 1736.5565666536
  21
 1157.8260973342
  31
0.0
   0
CIRCLE
   5
20B
 100
AcDbEntity
   8
LEVEL001
 370
15
 100
AcDbCircle
   6
CONTINUOUS
  62
2
  10
 1359.5110292567
  20
 719.21552539655
  30
0.0
  40
 3.9999999999998
   0
LINE
   5
20C
 100
AcDbEntity
   8
LEVEL001
 370
15
 100
AcDbLine
   6
DASHDOT
  62
8
  10
 1374.1288497786
  20
 830.24889574532
  30
0.0
  11
 1798.1702875198
  21
 716.62733494522
  31
0.0
   0
LINE
   5
20D
 100
AcDbEntity
   8
LEVEL001
 370
15
 100
AcDbLine
   6
DASHDOT
  62
8
  10
 1416.9861310331
  20
 933.71552539642
  30
0.0
  11
 1797.1712832948
  21
 714.21552539622
  31
0.0
   0
LINE
   5
20E
 100
AcDbEntity
   8
LEVEL001
 370
15
 100
AcDbLine
   6
DASHDOT
  62
8
  10
 1476.3233853628
  20
 1031.4031692903
  30
0.0
  11
 1795.5820970688
  21
 712.14445758434
  31
0.0
   0
LINE
   5
20F
 100
AcDbEntity
   8
LEVEL001
 370
15
 100
AcDbLine
   6
DASHDOT
  62
8
  10
 1574.0110292567
  20
 1090.7404236201
  30
0.0
  11
 1793.5110292569
  21
 710.55527135835
  31
0.0
   0
LINE
   5
210
 100
AcDbEntity
   8
LEVEL001
 370
15
 100
AcDbLine
   6
CONTINUOUS
  62
5
  10
 1451.7223484045
  20
 899.22680421664
  30
0.0
  11
 1399.7608241775
  21
 929.22680421664
  31
0.0
   0
LINE
   5
211
 100
AcDbEntity
   8
LEVEL001
 370
15
 100
AcDbLine
   6
CONTINUOUS
  62
5
  10
 1399.7608241775
  20
 929.22680421664
  30
0.0
  11
 1412.2608241775
  21
 950.87743931125
  31
0.0
   0
LINE
   5
212
 100
AcDbEntity
   8
LEVEL001
 370
15
 100
AcDbLine
   6
CONTINUOUS
  62
5
  10
 1412.2608241775
  20
 950.87743931125
  30
0.0
  11
 1464.2223484045
  21
 920.87743931125
  31
0.0
   0
CIRCLE
   5
213
 100
AcDbEntity
   8
LEVEL001
 370
15
 100
AcDbCircle
   6
CONTINUOUS
  62
5
  10
 1416.8361417248
  20
 933.80212176395
  30
0.0
  40
 3.9999999999998
   0
LINE
   5
214
 100
AcDbEntity
   8
LEVEL001
 370
15
 100
AcDbLine
   6
CONTINUOUS
  62
8
  10
 1485.1622201276
  20
 1040.2420040552
  30
0.0
  11
 1527.5886269988
  21
 997.81559718399
  31
0.0
   0
LINE
   5
215
 100
AcDbEntity
   8
LEVEL001
 370
15
 100
AcDbLine
   6
CONTINUOUS
  62
8
  10
 1509.9109574692
  20
 980.13792765433
  30
0.0
  11
 1467.4845505980
  21
 1022.5643345255
  31
0.0
   0
CIRCLE
   5
216
 100
AcDbEntity
   8
LEVEL001
 370
15
 100
AcDbCircle
   6
CONTINUOUS
  62
8
  10
 1485.1622201276
  20
 1022.5643345255
  30
0.0
  40
 3.9999999999998
   0
LINE
   5
217
 100
AcDbEntity
   8
LEVEL001
 370
15
 100
AcDbLine
   6
CONTINUOUS
  62
8
  10
 1467.4845505980
  20
 1022.5643345255
  30
0.0
  11
 1485.1622201276
  21
 1040.2420040552
  31
0.0
   0
LINE
   5
218
 100
AcDbEntity
   8
LEVEL001
 370
15
 100
AcDbLine
   6
CONTINUOUS
  62
8
  10
 1578.5863468040
  20
 1107.8157411674
  30
0.0
  11
 1608.5863468040
  21
 1055.8542169403
  31
0.0
   0
LINE
   5
219
 100
AcDbEntity
   8
LEVEL001
 370
15
 100
AcDbLine
   6
CONTINUOUS
  62
8
  10
 1586.9357117094
  20
 1043.3542169403
  30
0.0
  11
 1556.9357117094
  21
 1095.3157411674
  31
0.0
   0
LINE
   5
21A
 100
AcDbEntity
   8
LEVEL001
 370
15
 100
AcDbLine
   6
CONTINUOUS
  62
8
  10
 1556.9357117094
  20
 1095.3157411674
  30
0.0
  11
 1578.5863468040
  21
 1107.8157411674
  31
0.0
   0
CIRCLE
   5
21B
 100
AcDbEntity
   8
LEVEL001
 370
15
 100
AcDbCircle
   6
CONTINUOUS
  62
8
  10
 1574.0110292567
  20
 1090.7404236201
  30
0.0
  40
 3.9999999999998
   0
CIRCLE
   5
21C
 100
AcDbEntity
   8
LEVEL001
 370
15
 100
AcDbCircle
   6
CONTINUOUS
  62
8
  10
 1726.0110292567
  20
 1143.6383687969
  30
0.0
  40
 3.9999999999998
   0
LINE
   5
21D
 100
AcDbEntity
   8
LEVEL001
 370
15
 100
AcDbLine
   6
CONTINUOUS
  62
8
  10
 1772.0651422117
  20
 745.09568766967
  30
0.0
  11
 1711.8233007210
  21
 1154.1839061921
  31
0.0
   0
LINE
   5
21E
 100
AcDbEntity
   8
LEVEL001
 370
15
 100
AcDbLine
   6
CONTINUOUS
  62
8
  10
 1736.5565666534
  20
 1157.8260973342
  30
0.0
  11
 1796.7984081441
  21
 748.73787881179
  31
0.0
   0
LINE
   5
21F
 100
AcDbEntity
   8
LEVEL001
 370
15
 100
AcDbLine
   6
CONTINUOUS
  62
2
  10
 903.51102925672
  20
 725.81552539636
  30
0.0
  11
 965.51102925672
  21
 725.81552539636
  31
0.0
   0
LINE
   5
220
 100
AcDbEntity
   8
LEVEL001
 370
15
 100
AcDbLine
   6
CONTINUOUS
  62
2
  10
 965.51102925672
  20
 725.81552539636
  30
0.0
  11
 965.51102925672
  21
 712.61552539636
  31
0.0
   0
LINE
   5
221
 100
AcDbEntity
   8
LEVEL001
 370
15
 100
AcDbLine
   6
CONTINUOUS
  62
2
  10
 965.51102925672
  20
 712.61552539636
  30
0.0
  11
 903.51102925672
  21
 712.61552539636
  31
0.0
   0
LINE
   5
222
 100
AcDbEntity
   8
LEVEL001
 370
15
 100
AcDbLine
   6
CONTINUOUS
  62
2
  10
 903.51102925672
  20
 712.61552539636
  30
0.0
  11
 903.51102925672
  21
 725.81552539636
  31
0.0
   0
LINE
   5
223
 100
AcDbEntity
   8
LEVEL001
 370
15
 100
AcDbLine
   6
CONTINUOUS
  62
2
  10
 907.01102925672
  20
 726.81552539636
  30
0.0
  11
 929.01102925672
  21
 726.81552539636
  31
0.0
   0
LINE
   5
224
 100
AcDbEntity
   8
LEVEL001
 370
15
 100
AcDbLine
   6
CONTINUOUS
  62
2
  10
 929.01102925672
  20
 733.81552539636
  30
0.0
  11
 907.01102925672
  21
 733.81552539636
  31
0.0
   0
ARC
   5
225
 100
AcDbEntity
   8
LEVEL001
 370
15
   6
CONTINUOUS
  62
2
 100
AcDbCircle
  10
 906.43517332981
  20
 730.31552539636
  30
0.0
  40
 3.5470565330397
 100
AcDbArc
  50
 279.34318258824
  51
 80.656817411821
   0
ARC
   5
226
 100
AcDbEntity
   8
LEVEL001
 370
15
   6
CONTINUOUS
  62
2
 100
AcDbCircle
  10
 929.58688518368
  20
 730.31552539636
  30
0.0
  40
 3.5470565330397
 100
AcDbArc
  50
 99.343182589012
  51
 260.65681740069
   0
LINE
   5
227
 100
AcDbEntity
   8
LEVEL001
 370
15
 100
AcDbLine
   6
CONTINUOUS
  62
2
  10
 907.01102925672
  20
 711.61552539636
  30
0.0
  11
 929.01102925672
  21
 711.61552539636
  31
0.0
   0
LINE
   5
228
 100
AcDbEntity
   8
LEVEL001
 370
15
 100
AcDbLine
   6
CONTINUOUS
  62
2
  10
 929.01102925672
  20
 704.61552539636
  30
0.0
  11
 907.01102925672
  21
 704.61552539636
  31
0.0
   0
ARC
   5
229
 100
AcDbEntity
   8
LEVEL001
 370
15
   6
CONTINUOUS
  62
2
 100
AcDbCircle
  10
 906.43517332977
  20
 708.11552539636
  30
0.0
  40
 3.5470565330397
 100
AcDbArc
  50
 279.34318258877
  51
 80.656817411197
   0
ARC
   5
22A
 100
AcDbEntity
   8
LEVEL001
 370
15
   6
CONTINUOUS
  62
2
 100
AcDbCircle
  10
 929.58688518364
  20
 708.11552539636
  30
0.0
  40
 3.5470565330397
 100
AcDbArc
  50
 99.343182588356
  51
 260.65681740134
   0
LINE
   5
22B
 100
AcDbEntity
   8
LEVEL001
 370
15
 100
AcDbLine
   6
CONTINUOUS
  62
2
  10
 940.01102925672
  20
 726.81552539636
  30
0.0
  11
 962.01102925672
  21
 726.81552539636
  31
0.0
   0
LINE
   5
22C
 100
AcDbEntity
   8
LEVEL001
 370
15
 100
AcDbLine
   6
CONTINUOUS
  62
2
  10
 962.01102925672
  20
 733.81552539636
  30
0.0
  11
 940.01102925672
  21
 733.81552539636
  31
0.0
   0
ARC
   5
22D
 100
AcDbEntity
   8
LEVEL001
 370
15
   6
CONTINUOUS
  62
2
 100
AcDbCircle
  10
 939.43517332980
  20
 730.31552539636
  30
0.0
  40
 3.5470565330397
 100
AcDbArc
  50
 279.34318258845
  51
 80.656817411554
   0
ARC
   5
22E
 100
AcDbEntity
   8
LEVEL001
 370
15
   6
CONTINUOUS
  62
2
 100
AcDbCircle
  10
 962.58688518364
  20
 730.31552539636
  30
0.0
  40
 3.5470565330397
 100
AcDbArc
  50
 99.343182588297
  51
 260.65681740143
   0
LINE
   5
22F
 100
AcDbEntity
   8
LEVEL001
 370
15
 100
AcDbLine
   6
CONTINUOUS
  62
2
  10
 940.01102925672
  20
 711.61552539636
  30
0.0
  11
 962.01102925672
  21
 711.61552539636
  31
0.0
   0
LINE
   5
230
 100
AcDbEntity
   8
LEVEL001
 370
15
 100
AcDbLine
   6
CONTINUOUS
  62
2
  10
 962.01102925672
  20
 704.61552539636
  30
0.0
  11
 940.01102925672
  21
 704.61552539636
  31
0.0
   0
ARC
   5
231
 100
AcDbEntity
   8
LEVEL001
 370
15
   6
CONTINUOUS
  62
2
 100
AcDbCircle
  10
 939.43517332982
  20
 708.11552539636
  30
0.0
  40
 3.5470565330397
 100
AcDbArc
  50
 279.34318258806
  51
 80.656817412000
   0
ARC
   5
232
 100
AcDbEntity
   8
LEVEL001
 370
15
   6
CONTINUOUS
  62
2
 100
AcDbCircle
  10
 962.58688518369
  20
 708.11552539636
  30
0.0
  40
 3.5470565330397
 100
AcDbArc
  50
 99.343182589042
  51
 260.65681740066
   0
CIRCLE
   5
233
 100
AcDbEntity
   8
LEVEL001
 370
15
 100
AcDbCircle
   6
CONTINUOUS
  62
2
  10
 934.51102925671
  20
 719.21552539636
  30
0.0
  40
 6.4999999999996
   0
LINE
   5
234
 100
AcDbEntity
   8
LEVEL001
 370
30
 100
AcDbLine
   6
CONTINUOUS
  62
7
  10
 584.51102925672
  20
 619.21552539636
  30
0.0
  11
 619.51102925671
  21
 619.21552539636
  31
0.0
   0
LINE
   5
235
 100
AcDbEntity
   8
LEVEL001
 370
30
 100
AcDbLine
   6
CONTINUOUS
  62
7
  10
 619.51102925671
  20
 619.21552539636
  30
0.0
  11
 619.51102925671
  21
 869.21552539636
  31
0.0
   0
LINE
   5
236
 100
AcDbEntity
   8
LEVEL001
 370
30
 100
AcDbLine
   6
CONTINUOUS
  62
7
  10
 619.51102925671
  20
 869.21552539636
  30
0.0
  11
 584.51102925672
  21
 869.21552539636
  31
0.0
   0
LINE
   5
237
 100
AcDbEntity
   8
LEVEL001
 370
30
 100
AcDbLine
   6
CONTINUOUS
  62
7
  10
 584.51102925672
  20
 869.21552539636
  30
0.0
  11
 584.51102925672
  21
 619.21552539636
  31
0.0
   0
LINE
   5
238
 100
AcDbEntity
   8
LEVEL001
 370
30
 100
AcDbLine
   6
CONTINUOUS
  62
7
  10
 1756.5110292567
  20
 735.71552539636
  30
0.0
  11
 623.51102925672
  21
 735.71552539636
  31
0.0
   0
LINE
   5
239
 100
AcDbEntity
   8
LEVEL001
 370
30
 100
AcDbLine
   6
CONTINUOUS
  62
7
  10
 623.51102925672
  20
 735.71552539636
  30
0.0
  11
 623.51102925672
  21
 702.71552539636
  31
0.0
   0
LINE
   5
23A
 100
AcDbEntity
   8
LEVEL001
 370
30
 100
AcDbLine
   6
CONTINUOUS
  62
7
  10
 619.51102925671
  20
 754.21552539636
  30
0.0
  11
 629.51102925672
  21
 754.21552539636
  31
0.0
   0
LINE
   5
23B
 100
AcDbEntity
   8
LEVEL001
 370
30
 100
AcDbLine
   6
CONTINUOUS
  62
7
  10
 629.51102925672
  20
 754.21552539636
  30
0.0
  11
 629.51102925672
  21
 744.21552539636
  31
0.0
   0
LINE
   5
23C
 100
AcDbEntity
   8
LEVEL001
 370
30
 100
AcDbLine
   6
CONTINUOUS
  62
7
  10
 629.51102925672
  20
 744.21552539636
  30
0.0
  11
 619.51102925671
  21
 744.21552539636
  31
0.0
   0
LINE
   5
23D
 100
AcDbEntity
   8
LEVEL001
 370
30
 100
AcDbLine
   6
CONTINUOUS
  62
7
  10
 1709.5110292567
  20
 1541.2155253964
  30
0.0
  11
 1709.5110292567
  21
 408.21552539636
  31
0.0
   0
LINE
   5
23E
 100
AcDbEntity
   8
LEVEL001
 370
30
 100
AcDbLine
   6
CONTINUOUS
  62
7
  10
 1742.5110292567
  20
 408.21552539636
  30
0.0
  11
 1742.5110292567
  21
 1541.2155253964
  31
0.0
   0
LINE
   5
23F
 100
AcDbEntity
   8
LEVEL001
 370
30
 100
AcDbLine
   6
CONTINUOUS
  62
7
  10
 1742.5110292567
  20
 1541.2155253964
  30
0.0
  11
 1709.5110292567
  21
 1541.2155253964
  31
0.0
   0
ARC
   5
240
 100
AcDbEntity
   8
LEVEL001
 370
15
   6
DASHDOT
  62
8
 100
AcDbCircle
  10
 1788.5110292567
  20
 719.21552539654
  30
0.0
  40
 428.99999999998
 100
AcDbArc
  50
 98.377101247643
  51
 179.99999998973
   0
ARC
   5
241
 100
AcDbEntity
   8
LEVEL065
 370
15
   6
CONTINUOUS
  62
2
 100
AcDbCircle
  10
 1788.5110292567
  20
 719.21552539638
  30
0.0
  40
 23.999999999999
 100
AcDbArc
  50
 316.56746344221
  51
 43.432536557742
   0
LINE
   5
242
 100
AcDbEntity
   8
LEVEL065
 370
15
 100
AcDbLine
   6
CONTINUOUS
  62
2
  10
 1805.9394543146
  20
 735.71552539636
  30
0.0
  11
 1763.0110292567
  21
 735.71552539636
  31
0.0
   0
LINE
   5
243
 100
AcDbEntity
   8
LEVEL065
 370
15
 100
AcDbLine
   6
CONTINUOUS
  62
2
  10
 1763.0110292567
  20
 702.71552539636
  30
0.0
  11
 1805.9394543146
  21
 702.71552539636
  31
0.0
   0
ARC
   5
244
 100
AcDbEntity
   8
LEVEL065
 370
15
   6
CONTINUOUS
  62
2
 100
AcDbCircle
  10
 1763.0110292567
  20
 733.21552539641
  30
0.0
  40
 2.4999999999999
 100
AcDbArc
  50
 89.999999999958
  51
 179.99999999087
   0
ARC
   5
245
 100
AcDbEntity
   8
LEVEL065
 370
15
   6
CONTINUOUS
  62
2
 100
AcDbCircle
  10
 1763.0110292567
  20
 705.21552539635
  30
0.0
  40
 2.4999999999999
 100
AcDbArc
  50
 179.99999999991
  51
 269.99999998870
   0
LINE
   5
246
 100
AcDbEntity
   8
LEVEL065
 370
15
 100
AcDbLine
   6
CONTINUOUS
  62
2
  10
 1760.5110292567
  20
 705.21552539636
  30
0.0
  11
 1760.5110292567
  21
 733.21552539636
  31
0.0
   0
LINE
   5
247
 100
AcDbEntity
   8
LEVEL001
 370
15
 100
AcDbLine
   6
CONTINUOUS
  62
2
  10
 1347.0110292567
  20
 706.71552539655
  30
0.0
  11
 1347.0110292567
  21
 731.71552539655
  31
0.0
   0
LINE
   5
248
 100
AcDbEntity
   8
LEVEL001
 370
15
 100
AcDbLine
   6
CONTINUOUS
  62
2
  10
 1760.5110292567
  20
 706.71552539636
  30
0.0
  11
 1347.0110292567
  21
 706.71552539636
  31
0.0
   0
LINE
   5
249
 100
AcDbEntity
   8
LEVEL001
 370
15
 100
AcDbLine
   6
CONTINUOUS
  62
2
  10
 1347.0110292567
  20
 731.71552539636
  30
0.0
  11
 1760.5110292567
  21
 731.71552539636
  31
0.0
   0
LINE
   5
24A
 100
AcDbEntity
   8
LEVEL001
 370
30
 100
AcDbLine
   6
CONTINUOUS
  62
7
  10
 1756.5110292567
  20
 702.71552539636
  30
0.0
  11
 1756.5110292567
  21
 706.71552539636
  31
0.0
   0
LINE
   5
24B
 100
AcDbEntity
   8
LEVEL001
 370
30
 100
AcDbLine
   6
CONTINUOUS
  62
7
  10
 1756.5110292567
  20
 731.71552539636
  30
0.0
  11
 1756.5110292567
  21
 735.71552539636
  31
0.0
   0
LINE
   5
24C
 100
AcDbEntity
   8
LEVEL001
 370
15
 100
AcDbLine
   6
CONTINUOUS
  62
5
  10
 1751.3851539098
  20
 1148.3280681313
  30
0.0
  11
 773.27604298550
  21
 576.49630342520
  31
0.0
   0
LINE
   5
24D
 100
AcDbEntity
   8
LEVEL001
 370
15
 100
AcDbLine
   6
CONTINUOUS
  62
5
  10
 773.27604298550
  20
 576.49630342520
  30
0.0
  11
 789.93133710314
  21
 548.00768854391
  31
0.0
   0
LINE
   5
24E
 100
AcDbEntity
   8
LEVEL001
 370
15
 100
AcDbLine
   6
CONTINUOUS
  62
5
  10
 789.93133710314
  20
 548.00768854391
  30
0.0
  11
 1768.0404480275
  21
 1119.8394532500
  31
0.0
   0
LINE
   5
24F
 100
AcDbEntity
   8
LEVEL001
 370
15
 100
AcDbLine
   6
CONTINUOUS
  62
5
  10
 1751.3851539098
  20
 1148.3280681313
  30
0.0
  11
 1768.0404480275
  21
 1119.8394532500
  31
0.0
   0
LINE
   5
250
 100
AcDbEntity
   8
LEVEL001
 370
30
 100
AcDbLine
   6
CONTINUOUS
  62
7
  10
 1838.5110292567
  20
 869.21552539636
  30
0.0
  11
 1808.5110292567
  21
 869.21552539636
  31
0.0
   0
LINE
   5
251
 100
AcDbEntity
   8
LEVEL001
 370
30
 100
AcDbLine
   6
CONTINUOUS
  62
7
  10
 1838.5110292567
  20
 619.21552539636
  30
0.0
  11
 1838.5110292567
  21
 869.21552539636
  31
0.0
   0
LINE
   5
252
 100
AcDbEntity
   8
LEVEL001
 370
30
 100
AcDbLine
   6
CONTINUOUS
  62
7
  10
 1808.5110292567
  20
 619.21552539636
  30
0.0
  11
 1838.5110292567
  21
 619.21552539636
  31
0.0
   0
LINE
   5
253
 100
AcDbEntity
   8
LEVEL012
 370
30
 100
AcDbLine
   6
CONTINUOUS
  62
7
  10
 1813.5158915666
  20
 701.73786109446
  30
0.0
  11
 1808.5158915666
  21
 701.73786109446
  31
0.0
   0
ARC
   5
254
 100
AcDbEntity
   8
LEVEL012
 370
30
   6
CONTINUOUS
  62
7
 100
AcDbCircle
  10
 1813.5158915666
  20
 706.73786109446
  30
0.0
  40
 4.9999999999997
 100
AcDbArc
  50
 270.00000000006
  51
 0.23449593555494E-10
   0
LINE
   5
255
 100
AcDbEntity
   8
LEVEL012
 370
30
 100
AcDbLine
   6
CONTINUOUS
  62
7
  10
 1808.5158915666
  20
 736.73786109446
  30
0.0
  11
 1813.5158915666
  21
 736.73786109446
  31
0.0
   0
LINE
   5
256
 100
AcDbEntity
   8
LEVEL012
 370
30
 100
AcDbLine
   6
CONTINUOUS
  62
7
  10
 1818.5158915666
  20
 731.73786109446
  30
0.0
  11
 1818.5158915666
  21
 706.73786109446
  31
0.0
   0
ARC
   5
257
 100
AcDbEntity
   8
LEVEL012
 370
30
   6
CONTINUOUS
  62
7
 100
AcDbCircle
  10
 1813.5158915666
  20
 731.73786109446
  30
0.0
  40
 4.9999999999997
 100
AcDbArc
  50
0.0
  51
 90.000000000542
   0
LINE
   5
258
 100
AcDbEntity
   8
LEVEL012
 370
30
 100
AcDbLine
   6
CONTINUOUS
  62
7
  10
 1808.5158915666
  20
 767.23786109446
  30
0.0
  11
 1808.5158915666
  21
 736.73786109446
  31
0.0
   0
LINE
   5
259
 100
AcDbEntity
   8
LEVEL001
 370
30
 100
AcDbLine
   6
CONTINUOUS
  62
7
  10
 1808.5110292567
  20
 869.21552539636
  30
0.0
  11
 1808.5110292567
  21
 736.73786109446
  31
0.0
   0
LINE
   5
25A
 100
AcDbEntity
   8
LEVEL012
 370
30
 100
AcDbLine
   6
CONTINUOUS
  62
7
  10
 1808.5158915666
  20
 701.73786109446
  30
0.0
  11
 1808.5158915666
  21
 619.21552539636
  31
0.0
   0
LINE
   5
25B
 100
AcDbEntity
   8
LEVEL001
 370
30
 100
AcDbLine
   6
CONTINUOUS
  62
7
  10
 1709.5110292567
  20
 408.21552539636
  30
0.0
  11
 1742.5110292567
  21
 408.21552539636
  31
0.0
   0
LINE
   5
25C
 100
AcDbEntity
   8
LEVEL001
 370
30
 100
AcDbLine
   6
CONTINUOUS
  62
7
  10
 623.51102925672
  20
 702.71552539636
  30
0.0
  11
 1756.5110292567
  21
 702.71552539636
  31
0.0
   0
ARC
   5
25D
 100
AcDbEntity
   8
LEVEL001
 370
15
   6
CONTINUOUS
  62
2
 100
AcDbCircle
  10
 1788.5110292567
  20
 719.21552539638
  30
0.0
  40
 23.999999999999
 100
AcDbArc
  50
 316.56746344221
  51
 43.432536557742
   0
LINE
   5
25E
 100
AcDbEntity
   8
LEVEL001
 370
15
 100
AcDbLine
   6
CONTINUOUS
  62
2
  10
 1805.9394543146
  20
 735.71552539636
  30
0.0
  11
 1763.0110292567
  21
 735.71552539636
  31
0.0
   0
LINE
   5
25F
 100
AcDbEntity
   8
LEVEL001
 370
15
 100
AcDbLine
   6
CONTINUOUS
  62
2
  10
 1763.0110292567
  20
 702.71552539636
  30
0.0
  11
 1805.9394543146
  21
 702.71552539636
  31
0.0
   0
ARC
   5
260
 100
AcDbEntity
   8
LEVEL001
 370
15
   6
CONTINUOUS
  62
2
 100
AcDbCircle
  10
 1763.0110292567
  20
 733.21552539641
  30
0.0
  40
 2.4999999999999
 100
AcDbArc
  50
 89.999999999958
  51
 179.99999999087
   0
ARC
   5
261
 100
AcDbEntity
   8
LEVEL001
 370
15
   6
CONTINUOUS
  62
2
 100
AcDbCircle
  10
 1763.0110292567
  20
 705.21552539635
  30
0.0
  40
 2.4999999999999
 100
AcDbArc
  50
 179.99999999991
  51
 269.99999998870
   0
LINE
   5
262
 100
AcDbEntity
   8
LEVEL001
 370
15
 100
AcDbLine
   6
CONTINUOUS
  62
2
  10
 1760.5110292567
  20
 705.21552539636
  30
0.0
  11
 1760.5110292567
  21
 733.21552539636
  31
0.0
   0
LINE
   5
263
 100
AcDbEntity
   8
LEVEL001
 370
30
 100
AcDbLine
   6
CONTINUOUS
  62
7
  10
 1813.5158915666
  20
 701.73786109446
  30
0.0
  11
 1808.5158915666
  21
 701.73786109446
  31
0.0
   0
ARC
   5
264
 100
AcDbEntity
   8
LEVEL001
 370
30
   6
CONTINUOUS
  62
7
 100
AcDbCircle
  10
 1813.5158915666
  20
 706.73786109446
  30
0.0
  40
 4.9999999999997
 100
AcDbArc
  50
 270.00000000006
  51
 0.23449593555494E-10
   0
LINE
   5
265
 100
AcDbEntity
   8
LEVEL001
 370
30
 100
AcDbLine
   6
CONTINUOUS
  62
7
  10
 1808.5158915666
  20
 736.73786109446
  30
0.0
  11
 1813.5158915666
  21
 736.73786109446
  31
0.0
   0
LINE
   5
266
 100
AcDbEntity
   8
LEVEL001
 370
30
 100
AcDbLine
   6
CONTINUOUS
  62
7
  10
 1818.5158915666
  20
 731.73786109446
  30
0.0
  11
 1818.5158915666
  21
 706.73786109446
  31
0.0
   0
ARC
   5
267
 100
AcDbEntity
   8
LEVEL001
 370
30
   6
CONTINUOUS
  62
7
 100
AcDbCircle
  10
 1813.5158915666
  20
 731.73786109446
  30
0.0
  40
 4.9999999999997
 100
AcDbArc
  50
0.0
  51
 90.000000000542
   0
LINE
   5
268
 100
AcDbEntity
   8
LEVEL001
 370
30
 100
AcDbLine
   6
CONTINUOUS
  62
7
  10
 1808.5158915666
  20
 767.23786109446
  30
0.0
  11
 1808.5158915666
  21
 736.73786109446
  31
0.0
   0
LINE
   5
269
 100
AcDbEntity
   8
LEVEL001
 370
30
 100
AcDbLine
   6
CONTINUOUS
  62
7
  10
 1808.5158915666
  20
 701.73786109446
  30
0.0
  11
 1808.5158915666
  21
 619.21552539636
  31
0.0
   0
LINE
   5
26A
 100
AcDbEntity
   8
LEVEL001
 370
30
 100
AcDbLine
   6
CONTINUOUS
  62
7
  10
 1709.5110292567
  20
 548.21552539636
  30
0.0
  11
 1699.5110292567
  21
 548.21552539636
  31
0.0
   0
LINE
   5
26B
 100
AcDbEntity
   8
LEVEL001
 370
30
 100
AcDbLine
   6
CONTINUOUS
  62
7
  10
 1699.5110292567
  20
 548.21552539636
  30
0.0
  11
 1699.5110292567
  21
 498.21552539636
  31
0.0
   0
LINE
   5
26C
 100
AcDbEntity
   8
LEVEL001
 370
30
 100
AcDbLine
   6
CONTINUOUS
  62
7
  10
 1699.5110292567
  20
 498.21552539636
  30
0.0
  11
 1709.5110292567
  21
 498.21552539636
  31
0.0
   0
LINE
   5
26D
 100
AcDbEntity
   8
LEVEL001
 370
30
 100
AcDbLine
   6
CONTINUOUS
  62
7
  10
 1742.5110292567
  20
 548.21552539636
  30
0.0
  11
 1752.5110292567
  21
 548.21552539636
  31
0.0
   0
LINE
   5
26E
 100
AcDbEntity
   8
LEVEL001
 370
30
 100
AcDbLine
   6
CONTINUOUS
  62
7
  10
 1752.5110292567
  20
 548.21552539636
  30
0.0
  11
 1752.5110292567
  21
 498.21552539636
  31
0.0
   0
LINE
   5
26F
 100
AcDbEntity
   8
LEVEL001
 370
30
 100
AcDbLine
   6
CONTINUOUS
  62
7
  10
 1752.5110292567
  20
 498.21552539636
  30
0.0
  11
 1742.5110292567
  21
 498.21552539636
  31
0.0
   0
LINE
   5
270
 100
AcDbEntity
   8
LEVEL001
 370
30
 100
AcDbLine
   6
CONTINUOUS
  62
7
  10
 1655.5110292567
  20
 598.21552539636
  30
0.0
  11
 1655.5110292567
  21
 508.21552539636
  31
0.0
   0
LINE
   5
271
 100
AcDbEntity
   8
LEVEL001
 370
30
 100
AcDbLine
   6
CONTINUOUS
  62
7
  10
 1645.5110292567
  20
 508.21552539636
  30
0.0
  11
 1645.5110292567
  21
 598.21552539636
  31
0.0
   0
ARC
   5
272
 100
AcDbEntity
   8
LEVEL001
 370
30
   6
CONTINUOUS
  62
7
 100
AcDbCircle
  10
 1650.5110292567
  20
 598.21552539636
  30
0.0
  40
 4.9999999999997
 100
AcDbArc
  50
0.0
  51
 180.00000000000
   0
ARC
   5
273
 100
AcDbEntity
   8
LEVEL001
 370
30
   6
CONTINUOUS
  62
7
 100
AcDbCircle
  10
 1650.5110292567
  20
 508.21552539591
  30
0.0
  40
 4.9999999999997
 100
AcDbArc
  50
 179.99999999486
  51
0.0
   0
LINE
   5
274
 100
AcDbEntity
   8
LEVEL001
 370
30
 100
AcDbLine
   6
CONTINUOUS
  62
7
  10
 1699.5110292567
  20
 513.21552539636
  30
0.0
  11
 1655.5110292567
  21
 513.21552539636
  31
0.0
   0
LINE
   5
275
 100
AcDbEntity
   8
LEVEL001
 370
30
 100
AcDbLine
   6
CONTINUOUS
  62
7
  10
 1655.5110292567
  20
 533.21552539636
  30
0.0
  11
 1699.5110292567
  21
 533.21552539636
  31
0.0
   0
ARC
   5
276
 100
AcDbEntity
   8
LEVEL001
 370
30
   6
CONTINUOUS
  62
7
 100
AcDbCircle
  10
 1801.5110292567
  20
 598.21552539636
  30
0.0
  40
 4.9999999999997
 100
AcDbArc
  50
0.0
  51
 180.00000000000
   0
LINE
   5
277
 100
AcDbEntity
   8
LEVEL001
 370
30
 100
AcDbLine
   6
CONTINUOUS
  62
7
  10
 1796.5110292567
  20
 598.21552539636
  30
0.0
  11
 1796.5110292567
  21
 508.21552539636
  31
0.0
   0
LINE
   5
278
 100
AcDbEntity
   8
LEVEL001
 370
30
 100
AcDbLine
   6
CONTINUOUS
  62
7
  10
 1806.5110292567
  20
 508.21552539636
  30
0.0
  11
 1806.5110292567
  21
 598.21552539636
  31
0.0
   0
ARC
   5
279
 100
AcDbEntity
   8
LEVEL001
 370
30
   6
CONTINUOUS
  62
7
 100
AcDbCircle
  10
 1801.5110292567
  20
 508.21552539591
  30
0.0
  40
 4.9999999999997
 100
AcDbArc
  50
 179.99999999486
  51
0.0
   0
LINE
   5
27A
 100
AcDbEntity
   8
LEVEL001
 370
30
 100
AcDbLine
   6
CONTINUOUS
  62
7
  10
 1752.5110292567
  20
 513.21552539636
  30
0.0
  11
 1796.5110292567
  21
 513.21552539636
  31
0.0
   0
LINE
   5
27B
 100
AcDbEntity
   8
LEVEL001
 370
30
 100
AcDbLine
   6
CONTINUOUS
  62
7
  10
 1796.5110292567
  20
 533.21552539636
  30
0.0
  11
 1752.5110292567
  21
 533.21552539636
  31
0.0
   0
LINE
   5
27C
 100
AcDbEntity
   8
LEVEL001
 370
15
 100
AcDbLine
   6
DASHDOT
  62
8
  10
 1854.8121821757
  20
 719.21552539636
  30
0.0
  11
 521.53424358108
  21
 719.21552539636
  31
0.0
   0
LINE
   5
27D
 100
AcDbEntity
   8
LEVEL001
 370
15
 100
AcDbLine
   6
DASHDOT
  62
8
  10
 1788.5110292569
  20
 719.21552539625
  30
0.0
  11
 1726.0110292567
  21
 1143.6383687969
  31
0.0
   0
LINE
   5
27E
 100
AcDbEntity
   8
LEVEL001
 370
15
 100
AcDbLine
   6
DASHDOT
  62
8
  10
 934.51102925671
  20
 696.80077172271
  30
0.0
  11
 934.51102925671
  21
 741.63027907000
  31
0.0
   0
LINE
   5
27F
 100
AcDbEntity
   8
LEVEL001
 370
15
 100
AcDbLine
   6
DASHDOT
  62
8
  10
 1359.5110292567
  20
 696.80077172271
  30
0.0
  11
 1359.5110292567
  21
 741.63027907000
  31
0.0
   0
LINE
   5
280
 100
AcDbEntity
   8
LEVEL001
 370
30
 100
AcDbLine
   6
CONTINUOUS
  62
7
  10
 699.51102925672
  20
 735.71552539636
  30
0.0
  11
 699.51102925672
  21
 745.71552539636
  31
0.0
   0
LINE
   5
281
 100
AcDbEntity
   8
LEVEL001
 370
30
 100
AcDbLine
   6
CONTINUOUS
  62
7
  10
 699.51102925672
  20
 745.71552539636
  30
0.0
  11
 649.51102925671
  21
 745.71552539636
  31
0.0
   0
LINE
   5
282
 100
AcDbEntity
   8
LEVEL001
 370
30
 100
AcDbLine
   6
CONTINUOUS
  62
7
  10
 649.51102925671
  20
 745.71552539636
  30
0.0
  11
 649.51102925671
  21
 735.71552539636
  31
0.0
   0
LINE
   5
283
 100
AcDbEntity
   8
LEVEL001
 370
30
 100
AcDbLine
   6
CONTINUOUS
  62
7
  10
 749.51102925672
  20
 789.71552539636
  30
0.0
  11
 659.51102925672
  21
 789.71552539636
  31
0.0
   0
LINE
   5
284
 100
AcDbEntity
   8
LEVEL001
 370
30
 100
AcDbLine
   6
CONTINUOUS
  62
7
  10
 659.51102925672
  20
 799.71552539636
  30
0.0
  11
 749.51102925672
  21
 799.71552539636
  31
0.0
   0
ARC
   5
285
 100
AcDbEntity
   8
LEVEL001
 370
30
   6
CONTINUOUS
  62
7
 100
AcDbCircle
  10
 659.51102925627
  20
 794.71552539636
  30
0.0
  40
 4.9999999999997
 100
AcDbArc
  50
 89.999999994852
  51
 269.99999999485
   0
ARC
   5
286
 100
AcDbEntity
   8
LEVEL001
 370
30
   6
CONTINUOUS
  62
7
 100
AcDbCircle
  10
 749.51102925672
  20
 794.71552539636
  30
0.0
  40
 4.9999999999997
 100
AcDbArc
  50
 270.00000000000
  51
 90.000000000000
   0
LINE
   5
287
 100
AcDbEntity
   8
LEVEL001
 370
30
 100
AcDbLine
   6
CONTINUOUS
  62
7
  10
 664.51102925671
  20
 745.71552539636
  30
0.0
  11
 664.51102925671
  21
 789.71552539636
  31
0.0
   0
LINE
   5
288
 100
AcDbEntity
   8
LEVEL001
 370
30
 100
AcDbLine
   6
CONTINUOUS
  62
7
  10
 684.51102925672
  20
 789.71552539636
  30
0.0
  11
 684.51102925672
  21
 745.71552539636
  31
0.0
   0
LINE
   5
289
 100
AcDbEntity
   8
LEVEL001
 370
30
 100
AcDbLine
   6
CONTINUOUS
  62
7
  10
 699.51102925672
  20
 702.71552539636
  30
0.0
  11
 699.51102925672
  21
 692.71552539636
  31
0.0
   0
LINE
   5
28A
 100
AcDbEntity
   8
LEVEL001
 370
30
 100
AcDbLine
   6
CONTINUOUS
  62
7
  10
 699.51102925672
  20
 692.71552539636
  30
0.0
  11
 649.51102925671
  21
 692.71552539636
  31
0.0
   0
LINE
   5
28B
 100
AcDbEntity
   8
LEVEL001
 370
30
 100
AcDbLine
   6
CONTINUOUS
  62
7
  10
 649.51102925671
  20
 692.71552539636
  30
0.0
  11
 649.51102925671
  21
 702.71552539636
  31
0.0
   0
LINE
   5
28C
 100
AcDbEntity
   8
LEVEL001
 370
30
 100
AcDbLine
   6
CONTINUOUS
  62
7
  10
 664.51102925671
  20
 692.71552539636
  30
0.0
  11
 664.51102925671
  21
 648.71552539636
  31
0.0
   0
LINE
   5
28D
 100
AcDbEntity
   8
LEVEL001
 370
30
 100
AcDbLine
   6
CONTINUOUS
  62
7
  10
 684.51102925672
  20
 648.71552539636
  30
0.0
  11
 684.51102925672
  21
 692.71552539636
  31
0.0
   0
ARC
   5
28E
 100
AcDbEntity
   8
LEVEL001
 370
30
   6
CONTINUOUS
  62
7
 100
AcDbCircle
  10
 749.51102925672
  20
 643.71552539636
  30
0.0
  40
 4.9999999999997
 100
AcDbArc
  50
 270.00000000000
  51
 90.000000000000
   0
LINE
   5
28F
 100
AcDbEntity
   8
LEVEL001
 370
30
 100
AcDbLine
   6
CONTINUOUS
  62
7
  10
 749.51102925672
  20
 648.71552539636
  30
0.0
  11
 659.51102925672
  21
 648.71552539636
  31
0.0
   0
LINE
   5
290
 100
AcDbEntity
   8
LEVEL001
 370
30
 100
AcDbLine
   6
CONTINUOUS
  62
7
  10
 659.51102925672
  20
 638.71552539636
  30
0.0
  11
 749.51102925672
  21
 638.71552539636
  31
0.0
   0
ARC
   5
291
 100
AcDbEntity
   8
LEVEL001
 370
30
   6
CONTINUOUS
  62
7
 100
AcDbCircle
  10
 659.51102925627
  20
 643.71552539636
  30
0.0
  40
 4.9999999999997
 100
AcDbArc
  50
 89.999999994852
  51
 269.99999999485
   0
LINE
   5
292
 100
AcDbEntity
   8
LEVEL001
 370
15
 100
AcDbLine
   6
CONTINUOUS
  62
15
  10
 1751.4478690147
  20
 1317.4842483186
  30
0.0
  11
 957.90762952656
  21
 508.79216333620
  31
0.0
   0
LINE
   5
293
 100
AcDbEntity
   8
LEVEL001
 370
15
 100
AcDbLine
   6
CONTINUOUS
  62
15
  10
 957.90762952656
  20
 508.79216333620
  30
0.0
  11
 981.46176792412
  21
 485.67934082684
  31
0.0
   0
LINE
   5
294
 100
AcDbEntity
   8
LEVEL001
 370
15
 100
AcDbLine
   6
CONTINUOUS
  62
15
  10
 981.46176792412
  20
 485.67934082684
  30
0.0
  11
 1775.0020074122
  21
 1294.3714258092
  31
0.0
   0
LINE
   5
295
 100
AcDbEntity
   8
LEVEL001
 370
15
 100
AcDbLine
   6
CONTINUOUS
  62
15
  10
 1751.4478690147
  20
 1317.4842483186
  30
0.0
  11
 1775.0020074122
  21
 1294.3714258092
  31
0.0
   0
LINE
   5
296
 100
AcDbEntity
   8
LEVEL001
 370
20
 100
AcDbLine
   6
CONTINUOUS
  62
6
  10
 1752.3738192605
  20
 1445.8009327479
  30
0.0
  11
 1202.1790368252
  21
 455.35926289498
  31
0.0
   0
LINE
   5
297
 100
AcDbEntity
   8
LEVEL001
 370
20
 100
AcDbLine
   6
CONTINUOUS
  62
6
  10
 1202.1790368252
  20
 455.35926289498
  30
0.0
  11
 1231.0268524520
  21
 439.33417214444
  31
0.0
   0
LINE
   5
298
 100
AcDbEntity
   8
LEVEL001
 370
20
 100
AcDbLine
   6
CONTINUOUS
  62
6
  10
 1231.0268524520
  20
 439.33417214444
  30
0.0
  11
 1781.2216348872
  21
 1429.7758419974
  31
0.0
   0
LINE
   5
299
 100
AcDbEntity
   8
LEVEL001
 370
20
 100
AcDbLine
   6
CONTINUOUS
  62
6
  10
 1752.3738192605
  20
 1445.8009327479
  30
0.0
  11
 1781.2216348872
  21
 1429.7758419974
  31
0.0
   0
DIMENSION
   5
29A
 100
AcDbEntity
   8
LEVEL001
 370
15
   6
CONTINUOUS
  62
8
 100
AcDbDimension
   2
*D1
  10
 797.91719107474
  20
 735.71552539636
  30
0.0
  11
 797.91719107474
  21
 742.18821510304
  31
0.0
  70
128
   3
GMM001
 100
AcDbAlignedDimension
  13
 797.91719107474
  23
 702.71552539636
  33
0.0
  14
 797.91719107474
  24
 735.71552539636
  34
0.0
  50
 90.000000000000
 100
AcDbRotatedDimension
   0
DIMENSION
   5
29B
 100
AcDbEntity
   8
LEVEL001
 370
15
   6
CONTINUOUS
  62
8
 100
AcDbDimension
   2
*D2
  10
 1818.5110292567
  20
 348.21552539636
  30
0.0
  11
 1826.1165300018
  21
 348.21552539636
  31
0.0
  70
128
   1
\A1;10(堀込)
   3
GMM002
 100
AcDbAlignedDimension
  13
 1808.5110292567
  23
 619.21552539636
  33
0.0
  14
 1818.5110292567
  24
 701.90898043129
  34
0.0
 100
AcDbRotatedDimension
   0
DIMENSION
   5
29C
 100
AcDbEntity
   8
LEVEL001
 370
15
   6
CONTINUOUS
  62
8
 100
AcDbDimension
   2
*D3
  10
 1837.9861343096
  20
 1160.1276887631
  30
0.0
  11
 1869.2361343097
  21
 947.91626706354
  31
0.0
  70
0
   1
\A1;A
   3
GMM003
 100
AcDbAlignedDimension
  13
 1788.5110292567
  23
 719.21552539769
  33
0.0
  14
 1726.0110292567
  24
 1143.6383687969
  34
0.0
  50
 98.377101247702
 100
AcDbRotatedDimension
   0
DIMENSION
   5
29D
 100
AcDbEntity
   8
LEVEL001
 370
15
   6
CONTINUOUS
  62
8
 100
AcDbDimension
   2
*D4
  10
 1959.7694666913
  20
 1541.2155253964
  30
0.0
  11
 1959.7694666913
  21
 974.71552539636
  31
0.0
  70
0
   1
\A1;扉幅(DW)
   3
GMM003
 100
AcDbAlignedDimension
  13
 1742.5110292567
  23
 408.21552539636
  33
0.0
  14
 1742.5110292567
  24
 1541.2155253964
  34
0.0
  50
 90.000000000000
 100
AcDbRotatedDimension
   0
DIMENSION
   5
29E
 100
AcDbEntity
   8
LEVEL001
 370
15
   6
CONTINUOUS
  62
8
 100
AcDbDimension
   2
*D5
  10
 1359.5110292567
  20
 1621.2155253964
  30
0.0
  11
 1147.0110292567
  21
 1621.2155253964
  31
0.0
  70
0
   1
\A1;B
   3
GMM003
 100
AcDbAlignedDimension
  13
 934.51102925672
  23
 719.21552539636
  33
0.0
  14
 1359.5110292567
  24
 1581.2155253964
  34
0.0
 100
AcDbRotatedDimension
   0
DIMENSION
   5
29F
 100
AcDbEntity
   8
LEVEL001
 370
15
   6
CONTINUOUS
  62
8
 100
AcDbDimension
   2
*D6
  10
 1788.5110292567
  20
 1621.2155253964
  30
0.0
  11
 1574.0110292567
  21
 1621.2155253964
  31
0.0
  70
0
   1
\A1;A
   3
GMM003
 100
AcDbAlignedDimension
  13
 1359.5110292567
  23
 1581.2155253964
  33
0.0
  14
 1788.5110292567
  24
 1581.2155253964
  34
0.0
 100
AcDbRotatedDimension
   0
DIMENSION
   5
2A0
 100
AcDbEntity
   8
LEVEL001
 370
15
   6
CONTINUOUS
  62
8
 100
AcDbDimension
   2
*D7
  10
 1808.5110292567
  20
 1661.2155253964
  30
0.0
  11
 1214.0110292567
  21
 1661.2155253964
  31
0.0
  70
0
   1
\A1;枠内寸法(W)=DW+56
   3
GMM003
 100
AcDbAlignedDimension
  13
 619.51102925672
  23
 869.21552539636
  33
0.0
  14
 1808.5110292567
  24
 869.21552539636
  34
0.0
 100
AcDbRotatedDimension
   0
DIMENSION
   5
2A1
 100
AcDbEntity
   8
LEVEL001
 370
15
   6
CONTINUOUS
  62
8
 100
AcDbDimension
   2
*D8
  10
 1808.5110292567
  20
 348.21552539636
  30
0.0
  11
 1759.0110292567
  21
 348.21552539636
  31
0.0
  70
0
   3
GMM004
 100
AcDbAlignedDimension
  13
 1709.5110292567
  23
 348.21552539636
  33
0.0
  14
 1808.5110292567
  24
 348.21552539636
  34
0.0
 100
AcDbRotatedDimension
   0
DIMENSION
   5
2A2
 100
AcDbEntity
   8
LEVEL001
 370
15
   6
CONTINUOUS
  62
8
 100
AcDbDimension
   2
*D9
  10
 623.51102925672
  20
 348.21552539636
  30
0.0
  11
 614.39926582684
  21
 348.21552539636
  31
0.0
  70
128
   1
\A1;4(クリアランス)
   3
GMM005
 100
AcDbAlignedDimension
  13
 619.51102925672
  23
 619.21552539636
  33
0.0
  14
 623.51102925672
  24
 702.71552539636
  34
0.0
 100
AcDbRotatedDimension
   0
DIMENSION
   5
2A3
 100
AcDbEntity
   8
LEVEL001
 370
15
   6
CONTINUOUS
  62
8
 100
AcDbDimension
   2
*D10
  10
 1709.5110292567
  20
 348.21552539636
  30
0.0
  11
 1166.5110292567
  21
 348.21552539636
  31
0.0
  70
0
   1
\A1;開口寸法(OW)
   3
GMM003
 100
AcDbAlignedDimension
  13
 623.51102925672
  23
 702.71552539636
  33
0.0
  14
 1709.5110292567
  24
 408.21552539636
  34
0.0
 100
AcDbRotatedDimension
   0
DIMENSION
   5
2A4
 100
AcDbEntity
   8
LEVEL001
 370
15
   6
CONTINUOUS
  62
8
 100
AcDbDimension
   2
*D11
  10
 629.51102925672
  20
 899.21552539636
  30
0.0
  11
 609.98242259146
  21
 899.21552539636
  31
0.0
  70
128
   1
\A1;10(戸当り)
   3
GMM006
 100
AcDbAlignedDimension
  13
 619.51102925672
  23
 869.21552539636
  33
0.0
  14
 629.51102925672
  24
 754.21552539636
  34
0.0
 100
AcDbRotatedDimension
   0
DIMENSION
   5
2A5
 100
AcDbEntity
   8
LEVEL001
 370
15
   6
CONTINUOUS
  62
8
 100
AcDbDimension
   2
*D12
  10
 623.51102925672
  20
 1581.2155253964
  30
0.0
  11
 600.14311417551
  21
 1581.2155253964
  31
0.0
  70
128
   1
\A1;4(クリアランス)
   3
GMM007
 100
AcDbAlignedDimension
  13
 619.51102925672
  23
 869.21552539636
  33
0.0
  14
 623.51102925672
  24
 735.71552539636
  34
0.0
 100
AcDbRotatedDimension
   0
DIMENSION
   5
2A6
 100
AcDbEntity
   8
LEVEL001
 370
15
   6
CONTINUOUS
  62
8
 100
AcDbDimension
   2
*D13
  10
 1756.5110292567
  20
 1581.2155253964
  30
0.0
  11
 1558.0110292567
  21
 1581.2155253964
  31
0.0
  70
0
   1
\A1;A-32
   3
GMM003
 100
AcDbAlignedDimension
  13
 1359.5110292567
  23
 719.21552539636
  33
0.0
  14
 1756.5110292567
  24
 735.71552539636
  34
0.0
 100
AcDbRotatedDimension
   0
DIMENSION
   5
2A7
 100
AcDbEntity
   8
LEVEL001
 370
15
   6
CONTINUOUS
  62
8
 100
AcDbDimension
   2
*D14
  10
 1760.5110292567
  20
 1581.2155253964
  30
0.0
  11
 1615.4160610355
  21
 1552.1144696129
  31
0.0
  70
128
   1
\A1;4(クリアランス)
   3
GMM008
 100
AcDbAlignedDimension
  13
 1756.5110292567
  23
 735.71552539636
  33
0.0
  14
 1760.5110292567
  24
 731.71552539636
  34
0.0
 100
AcDbRotatedDimension
   0
DIMENSION
   5
2A8
 100
AcDbEntity
   8
LEVEL001
 370
15
   6
CONTINUOUS
  62
8
 100
AcDbDimension
   2
*D15
  10
 1788.5110292567
  20
 1581.2155253964
  30
0.0
  11
 1774.5110292567
  21
 1581.2155253964
  31
0.0
  70
0
   3
GMM009
 100
AcDbAlignedDimension
  13
 1760.5110292567
  23
 731.71552539636
  33
0.0
  14
 1788.5110292567
  24
 1427.7196385911
  34
0.0
 100
AcDbRotatedDimension
   0
DIMENSION
   5
2A9
 100
AcDbEntity
   8
LEVEL001
 370
15
   6
CONTINUOUS
  62
8
 100
AcDbDimension
   2
*D16
  10
 1808.5110292567
  20
 1581.2155253964
  30
0.0
  11
 1814.5593358893
  21
 1581.2155253964
  31
0.0
  70
128
   3
GMM010
 100
AcDbAlignedDimension
  13
 1788.5110292567
  23
 1427.7196385911
  33
0.0
  14
 1808.5110292567
  24
 869.21552539636
  34
0.0
 100
AcDbRotatedDimension
   0
DIMENSION
   5
2AA
 100
AcDbEntity
   8
LEVEL001
 370
15
   6
CONTINUOUS
  62
8
 100
AcDbDimension
   2
*D17
  10
 1875.9787217129
  20
 736.73786109446
  30
0.0
  11
 1875.9787217129
  21
 700.66290693192
  31
0.0
  70
128
   1
\A1;35(堀込)
   3
GMM011
 100
AcDbAlignedDimension
  13
 1813.5158915666
  23
 701.73786109446
  33
0.0
  14
 1813.5158915666
  24
 736.73786109446
  34
0.0
  50
 90.000000000000
 100
AcDbRotatedDimension
   0
MTEXT
   5
2AC
 100
AcDbEntity
   8
LEVEL001
 370
15
  62
8
 100
AcDbMText
  10
 1494.3044998072
  20
 102.39450809245
  30
0.0
  40
 18.000000000000
  41
0.0
  71
7
  72
1
   1
\T1.000000;１
   7
GMM002
  44
 0.79999984000003
   0
MTEXT
   5
2AE
 100
AcDbEntity
   8
LEVEL001
 370
15
  62
8
 100
AcDbMText
  10
 1514.5231254159
  20
 79.886981471445
  30
0.0
  40
 18.000000000000
  41
0.0
  71
7
  72
1
   1
\T1.000000;６
   7
GMM002
  44
 0.79999984000003
   0
MTEXT
   5
2B0
 100
AcDbEntity
   8
LEVEL001
 370
15
  62
8
 100
AcDbMText
  10
 1494.3044998072
  20
 102.39450809245
  30
0.0
  40
 18.000000000000
  41
0.0
  71
7
  72
1
   1
\T1.000000;１
   7
GMM002
  44
 0.79999984000003
   0
MTEXT
   5
2B2
 100
AcDbEntity
   8
LEVEL001
 370
15
  62
8
 100
AcDbMText
  10
 1514.5231254159
  20
 79.886981471445
  30
0.0
  40
 18.000000000000
  41
0.0
  71
7
  72
1
   1
\T1.000000;６
   7
GMM002
  44
 0.79999984000003
   0
MTEXT
   5
2B4
 100
AcDbEntity
   8
LEVEL002
 370
25
  62
1
 100
AcDbMText
  10
 1988.9999999992
  20
 177.00000000007
  30
0.0
  40
 18.000000000000
  41
0.0
  71
5
  72
1
   1
\T1.000000;仕
   7
GMM001
  44
 0.79999984000003
   0
MTEXT
   5
2B6
 100
AcDbEntity
   8
LEVEL002
 370
25
  62
1
 100
AcDbMText
  10
 2030.9999999992
  20
 177.00000000007
  30
0.0
  40
 18.000000000000
  41
0.0
  71
5
  72
1
   1
\T1.000000;様
   7
GMM001
  44
 0.79999984000003
   0
MTEXT
   5
2B8
 100
AcDbEntity
   8
LEVEL002
 370
25
  62
1
 100
AcDbMText
  10
 1988.9999999992
  20
 117.00000000007
  30
0.0
  40
 18.000000000000
  41
0.0
  71
5
  72
1
   1
\T1.000000;名
   7
GMM001
  44
 0.79999984000003
   0
MTEXT
   5
2BA
 100
AcDbEntity
   8
LEVEL002
 370
25
  62
1
 100
AcDbMText
  10
 2030.9999999992
  20
 117.00000000007
  30
0.0
  40
 18.000000000000
  41
0.0
  71
5
  72
1
   1
\T1.000000;称
   7
GMM001
  44
 0.79999984000003
   0
MTEXT
   5
2BC
 100
AcDbEntity
   8
LEVEL001
 370
15
  62
8
 100
AcDbMText
  10
 2105.9999999992
  20
 90.000000000066
  30
0.0
  40
 24.000000000000
  41
0.0
  71
7
  72
1
   1
\T1.000000;扉の軌道と納まり
   7
GMM002
  44
 0.79999984000003
   0
MTEXT
   5
2BE
 100
AcDbEntity
   8
LEVEL001
 370
15
  62
8
 100
AcDbMText
  10
 2033.9999999992
  20
 210.00000000007
  30
0.0
  40
 24.000000000000
  41
0.0
  71
7
  72
1
   1
\T1.000000;ロールスライドドア（右吊元）
   7
GMM002
  44
 0.79999984000003
   0
MTEXT
   5
2C0
 100
AcDbEntity
   8
LEVEL001
 370
15
  62
8
 100
AcDbMText
  10
 1290.4430164446
  20
 234.00000000006
  30
0.0
  40
 18.000000000000
  41
0.0
  71
5
  72
1
   1
\T0.833333;２００９
   7
GMM002
  44
 0.79999984000003
   0
MTEXT
   5
2C2
 100
AcDbEntity
   8
LEVEL001
 370
15
  62
8
 100
AcDbMText
  10
 1361.9999999992
  20
 234.00000000006
  30
0.0
  40
 18.000000000000
  41
0.0
  71
5
  72
1
   1
\T0.833333;０３
   7
GMM002
  44
 0.79999984000003
   0
MTEXT
   5
2C4
 100
AcDbEntity
   8
LEVEL001
 370
15
  62
8
 100
AcDbMText
  10
 1427.5780278862
  20
 234.00000000006
  30
0.0
  40
 18.000000000000
  41
0.0
  71
5
  72
1
   1
\T0.833333;１１
   7
GMM002
  44
 0.79999984000003
   0
LINE
   5
2C5
 100
AcDbEntity
   8
LEVEL001
 370
5
 100
AcDbLine
   6
CONTINUOUS
  62
12
  10
 1416.7750884636
  20
 805.88091827433
  30
0.0
  11
 1358.8195388862
  21
 821.41006098048
  31
0.0
   0
LINE
   5
2C6
 100
AcDbEntity
   8
LEVEL001
 370
5
 100
AcDbLine
   6
CONTINUOUS
  62
12
  10
 1365.2900150138
  20
 845.55820663771
  30
0.0
  11
 1423.2455645911
  21
 830.02906393156
  31
0.0
   0
LINE
   5
2C7
 100
AcDbEntity
   8
LEVEL001
 370
5
 100
AcDbLine
   6
CONTINUOUS
  62
12
  10
 1358.8195388862
  20
 821.41006098048
  30
0.0
  11
 1365.2900150138
  21
 845.55820663771
  31
0.0
   0
CIRCLE
   5
2C8
 100
AcDbEntity
   8
LEVEL001
 370
5
 100
AcDbCircle
   6
CONTINUOUS
  62
12
  10
 1374.1288497786
  20
 830.24889574532
  30
0.0
  40
 3.9999999999998
   0
LINE
   5
2C9
 100
AcDbEntity
   8
LEVEL001
 370
5
 100
AcDbLine
   6
CONTINUOUS
  62
12
  10
 1753.0302620872
  20
 949.89407847569
  30
0.0
  11
 659.37955292237
  21
 653.89217587494
  31
0.0
   0
LINE
   5
2CA
 100
AcDbEntity
   8
LEVEL001
 370
5
 100
AcDbLine
   6
CONTINUOUS
  62
12
  10
 659.37955292237
  20
 653.89217587494
  30
0.0
  11
 668.00096756123
  21
 622.03827172451
  31
0.0
   0
LINE
   5
2CB
 100
AcDbEntity
   8
LEVEL001
 370
5
 100
AcDbLine
   6
CONTINUOUS
  62
12
  10
 668.00096756123
  20
 622.03827172451
  30
0.0
  11
 1761.6516767260
  21
 918.04017432526
  31
0.0
   0
LINE
   5
2CC
 100
AcDbEntity
   8
LEVEL001
 370
5
 100
AcDbLine
   6
CONTINUOUS
  62
12
  10
 1753.0302620872
  20
 949.89407847569
  30
0.0
  11
 1761.6516767260
  21
 918.04017432526
  31
0.0
   0
MTEXT
   5
2CE
 100
AcDbEntity
   8
LEVEL001
 370
15
  62
8
 100
AcDbMText
  10
 2129.9999999992
  20
 150.00000000007
  30
0.0
  40
 24.000000000000
  41
0.0
  71
7
  72
1
   1
\T1.000000;縦枠掘込仕様
   7
GMM002
  44
 0.79999984000003
   0
ENDSEC
  0
SECTION
  2
OBJECTS
  0
DICTIONARY
  5
C
100
AcDbDictionary
  3
ACAD_GROUP
350
D
  3
ACAD_MLINESTYLE
350
1B
  3
DWGPROPS
350
1C
  0
DICTIONARY
  5
D
102
{ACAD_REACTORS
330
C
102
}
100
AcDbDictionary
  0
DICTIONARY
  5
1B
102
{ACAD_REACTORS
330
C
102
}
100
AcDbDictionary
  3
STANDARD
350
1D
  0
MLINESTYLE
  5
1D
102
{ACAD_REACTORS
330
1B
102
}
100
AcDbMlineStyle
  2
STANDARD
 70
     0
  3

 62
   256
 51
90.0
 52
90.0
 71
     2
 49
0.5
 62
   256
  6
BYLAYER
 49
-0.5
 62
   256
  6
BYLAYER
   0
XRECORD
   5
1C
 102
{ACAD_REACTORS
 330
C
 102
}
 330
C
 100
AcDbXrecord
 280
1
   1
DWGPROPS COOKIE
   2
 
   3
 
   4
ﾊﾙﾅ
   6
 
   7
軌道図
   8
ﾊﾙﾅ
   9

 300
 = 
 301
 = 
 302
 = 
 303
 = 
 304
 = 
 305
 = 
 306
 = 
 307
 = 
 308
 = 
 309
 = 
  40
0.0
  41
 2454901.5000000
  42
 2460215.5000000
   1

  90
10
   0
ENDSEC
   0
EOF
