   0
SECTION
   2
HEADER
   9
$ACADVER
   1
AC1015
   9
$DWGCODEPAGE
   3
ANSI_932
   9
$LIMMIN
  10
0.0
  20
0.0
   9
$LIMMAX
  10
 4200.0000000000
  20
 2970.0000000000
   9
$EXTMIN
  10
0.0
  20
0.0
  30
0.0
   9
$EXTMAX
  10
 4200.0000000000
  20
 2970.0000000000
  30
0.0
   9
$LTSCALE
  40
 84.000000000000
   9
$HANDSEED
   5
3A4
   0
ENDSEC
   0
SECTION
   2
TABLES
  0
TABLE
  2
VPORT
  5
8
100
AcDbSymbolTable
 70
     1
  0
VPORT
  5
3A3
100
AcDbSymbolTableRecord
100
AcDbViewportTableRecord
  2
*ACTIVE
 70
     0
 10
0.0
 20
0.0
 11
1.0
 21
1.0
  12
 2100.0000000000
  22
 1485.0000000000
 13
0.0
 23
0.0
 14
1.0
 24
1.0
 15
0.0
 25
0.0
 16
0.0
 26
0.0
 36
1.0
 17
0.0
 27
0.0
 37
0.0
  40
 4200.0000000000
  41
 1.4787878787879
 42
50.0
 43
0.0
 44
0.0
 50
0.0
 51
0.0
 71
     0
 72
   100
 73
     1
 74
     1
 75
     0
 76
     0
 77
     0
 78
     0
  0
ENDTAB
  0
TABLE
  2
LTYPE
  5
5
100
AcDbSymbolTable
 70
    25
  0
LTYPE
  5
12
100
AcDbSymbolTableRecord
100
AcDbLinetypeTableRecord
  2
BYBLOCK
 70
     0
  3

 72
    65
 73
     0
 40
0.0
  0
LTYPE
  5
13
100
AcDbSymbolTableRecord
100
AcDbLinetypeTableRecord
  2
BYLAYER
 70
     0
  3

 72
    65
 73
     0
 40
0.0
  0
LTYPE
  5
14
100
AcDbSymbolTableRecord
100
AcDbLinetypeTableRecord
  2
CONTINUOUS
 70
     0
  3
Solid line
 72
    65
 73
     0
 40
0.0
  0
LTYPE
  5
20
100
AcDbSymbolTableRecord
100
AcDbLinetypeTableRecord
  2
BORDER
 70
     0
  3
__ __ . __ __ . __ __ . __ __ . __ __ . __ __ .
 72
    65
 73
     6
 40
1.75
 49
0.5
 74
     0
 49
-0.25
 74
     0
 49
0.5
 74
     0
 49
-0.25
 74
     0
 49
0.0
 74
     0
 49
-0.25
 74
     0
  0
LTYPE
  5
21
100
AcDbSymbolTableRecord
100
AcDbLinetypeTableRecord
  2
BORDER2
 70
     0
  3
__.__.__.__.__.__.__.__.__.__.__.__.__.__.__.__
 72
    65
 73
     6
 40
0.875
 49
0.25
 74
     0
 49
-0.125
 74
     0
 49
0.25
 74
     0
 49
-0.125
 74
     0
 49
0.0
 74
     0
 49
-0.125
 74
     0
  0
LTYPE
  5
22
100
AcDbSymbolTableRecord
100
AcDbLinetypeTableRecord
  2
BORDERX2
 70
     0
  3
____  ____  .  ____  ____  .  ____  ____  .  __
 72
    65
 73
     6
 40
3.5
 49
1.0
 74
     0
 49
-0.5
 74
     0
 49
1.0
 74
     0
 49
-0.5
 74
     0
 49
0.0
 74
     0
 49
-0.5
 74
     0
  0
LTYPE
  5
23
100
AcDbSymbolTableRecord
100
AcDbLinetypeTableRecord
  2
CENTER
 70
     0
  3
____ _ ____ _ ____ _ ____ _ ____ _ ____ _ ____ 
 72
    65
 73
     4
 40
2.0
 49
1.25
 74
     0
 49
-0.25
 74
     0
 49
0.25
 74
     0
 49
-0.25
 74
     0
  0
LTYPE
  5
24
100
AcDbSymbolTableRecord
100
AcDbLinetypeTableRecord
  2
CENTER2
 70
     0
  3
___ _ ___ _ ___ _ ___ _ ___ _ ___ _ ___ _ ___ _
 72
    65
 73
     4
 40
1.125
 49
0.75
 74
     0
 49
-0.125
 74
     0
 49
0.125
 74
     0
 49
-0.125
 74
     0
  0
LTYPE
  5
25
100
AcDbSymbolTableRecord
100
AcDbLinetypeTableRecord
  2
CENTERX2
 70
     0
  3
________  __  ________  __  ________  __  _____
 72
    65
 73
     4
 40
4.0
 49
2.5
 74
     0
 49
-0.5
 74
     0
 49
0.5
 74
     0
 49
-0.5
 74
     0
  0
LTYPE
  5
26
100
AcDbSymbolTableRecord
100
AcDbLinetypeTableRecord
  2
DASHDOT
 70
     0
  3
__ . __ . __ . __ . __ . __ . __ . __ . __ . __
 72
    65
 73
     4
 40
1.0
 49
0.5
 74
     0
 49
-0.25
 74
     0
 49
0.0
 74
     0
 49
-0.25
 74
     0
  0
LTYPE
  5
27
100
AcDbSymbolTableRecord
100
AcDbLinetypeTableRecord
  2
DASHDOT2
 70
     0
  3
_._._._._._._._._._._._._._._._._._._._._._._._
 72
    65
 73
     4
 40
0.5
 49
0.25
 74
     0
 49
-0.125
 74
     0
 49
0.0
 74
     0
 49
-0.125
 74
     0
  0
LTYPE
  5
28
100
AcDbSymbolTableRecord
100
AcDbLinetypeTableRecord
  2
DASHDOTX2
 70
     0
  3
____  .  ____  .  ____  .  ____  .  ____  .  __
 72
    65
 73
     4
 40
2.0
 49
1.0
 74
     0
 49
-0.5
 74
     0
 49
0.0
 74
     0
 49
-0.5
 74
     0
  0
LTYPE
  5
29
100
AcDbSymbolTableRecord
100
AcDbLinetypeTableRecord
  2
DASHED
 70
     0
  3
__ __ __ __ __ __ __ __ __ __ __ __ __ __ __ __
 72
    65
 73
     2
 40
0.75
 49
0.5
 74
     0
 49
-0.25
 74
     0
  0
LTYPE
  5
2A
100
AcDbSymbolTableRecord
100
AcDbLinetypeTableRecord
  2
DASHED2
 70
     0
  3
_ _ _ _ _ _ _ _ _ _ _ _ _ _ _ _ _ _ _ _ _ _ _ _
 72
    65
 73
     2
 40
0.375
 49
0.25
 74
     0
 49
-0.125
 74
     0
  0
LTYPE
  5
2B
100
AcDbSymbolTableRecord
100
AcDbLinetypeTableRecord
  2
DASHEDX2
 70
     0
  3
____  ____  ____  ____  ____  ____  ____  ____ 
 72
    65
 73
     2
 40
1.5
 49
1.0
 74
     0
 49
-0.5
 74
     0
  0
LTYPE
  5
2C
100
AcDbSymbolTableRecord
100
AcDbLinetypeTableRecord
  2
DIVIDE
 70
     0
  3
____ . . ____ . . ____ . . ____ . . ____ . . __
 72
    65
 73
     6
 40
1.25
 49
0.5
 74
     0
 49
-0.25
 74
     0
 49
0.0
 74
     0
 49
-0.25
 74
     0
 49
0.0
 74
     0
 49
-0.25
 74
     0
  0
LTYPE
  5
2D
100
AcDbSymbolTableRecord
100
AcDbLinetypeTableRecord
  2
DIVIDE2
 70
     0
  3
__..__..__..__..__..__..__..__..__..__..__..__.
 72
    65
 73
     6
 40
0.625
 49
0.25
 74
     0
 49
-0.125
 74
     0
 49
0.0
 74
     0
 49
-0.125
 74
     0
 49
0.0
 74
     0
 49
-0.125
 74
     0
  0
LTYPE
  5
2E
100
AcDbSymbolTableRecord
100
AcDbLinetypeTableRecord
  2
DIVIDEX2
 70
     0
  3
________  .  .  ________  .  .  ________  .  . 
 72
    65
 73
     6
 40
2.5
 49
1.0
 74
     0
 49
-0.5
 74
     0
 49
0.0
 74
     0
 49
-0.5
 74
     0
 49
0.0
 74
     0
 49
-0.5
 74
     0
  0
LTYPE
  5
2F
100
AcDbSymbolTableRecord
100
AcDbLinetypeTableRecord
  2
DOT
 70
     0
  3
. . . . . . . . . . . . . . . . . . . . . . . .
 72
    65
 73
     2
 40
0.25
 49
0.0
 74
     0
 49
-0.25
 74
     0
  0
LTYPE
  5
30
100
AcDbSymbolTableRecord
100
AcDbLinetypeTableRecord
  2
DOT2
 70
     0
  3
...............................................
 72
    65
 73
     2
 40
0.125
 49
0.0
 74
     0
 49
-0.125
 74
     0
  0
LTYPE
  5
31
100
AcDbSymbolTableRecord
100
AcDbLinetypeTableRecord
  2
DOTX2
 70
     0
  3
.  .  .  .  .  .  .  .  .  .  .  .  .  .  .  . 
 72
    65
 73
     2
 40
0.5
 49
0.0
 74
     0
 49
-0.5
 74
     0
  0
LTYPE
  5
32
100
AcDbSymbolTableRecord
100
AcDbLinetypeTableRecord
  2
HIDDEN
 70
     0
  3
__ __ __ __ __ __ __ __ __ __ __ __ __ __ __ __
 72
    65
 73
     2
 40
0.375
 49
0.25
 74
     0
 49
-0.125
 74
     0
  0
LTYPE
  5
33
100
AcDbSymbolTableRecord
100
AcDbLinetypeTableRecord
  2
HIDDEN2
 70
     0
  3
_ _ _ _ _ _ _ _ _ _ _ _ _ _ _ _ _ _ _ _ _ _ _ _
 72
    65
 73
     2
 40
0.1875
 49
0.125
 74
     0
 49
-0.0625
 74
     0
  0
LTYPE
  5
34
100
AcDbSymbolTableRecord
100
AcDbLinetypeTableRecord
  2
HIDDENX2
 70
     0
  3
____ ____ ____ ____ ____ ____ ____ ____ ____ __
 72
    65
 73
     2
 40
0.75
 49
0.5
 74
     0
 49
-0.25
 74
     0
  0
LTYPE
  5
35
100
AcDbSymbolTableRecord
100
AcDbLinetypeTableRecord
  2
PHANTOM
 70
     0
  3
______  __  __  ______  __  __  ______  __  __ 
 72
    65
 73
     6
 40
2.5
 49
1.25
 74
     0
 49
-0.25
 74
     0
 49
0.25
 74
     0
 49
-0.25
 74
     0
 49
0.25
 74
     0
 49
-0.25
 74
     0
  0
LTYPE
  5
36
100
AcDbSymbolTableRecord
100
AcDbLinetypeTableRecord
  2
PHANTOM2
 70
     0
  3
___ _ _ ___ _ _ ___ _ _ ___ _ _ ___ _ _ ___ _ _
 72
    65
 73
     6
 40
1.25
 49
0.625
 74
     0
 49
-0.125
 74
     0
 49
0.125
 74
     0
 49
-0.125
 74
     0
 49
0.125
 74
     0
 49
-0.125
 74
     0
  0
LTYPE
  5
37
100
AcDbSymbolTableRecord
100
AcDbLinetypeTableRecord
  2
PHANTOMX2
 70
     0
  3
____________    ____    ____    ____________   
 72
    65
 73
     6
 40
5.0
 49
2.5
 74
     0
 49
-0.5
 74
     0
 49
0.5
 74
     0
 49
-0.5
 74
     0
 49
0.5
 74
     0
 49
-0.5
 74
     0
  0
ENDTAB
   0
TABLE
   2
LAYER
   5
2
 100
AcDbSymbolTable
  70
3
   0
LAYER
   5
E
 100
AcDbSymbolTableRecord
 100
AcDbLayerTableRecord
   2
0
  70
0
  62
7
   6
CONTINUOUS
 390
30
   0
LAYER
   5
39
 100
AcDbSymbolTableRecord
 100
AcDbLayerTableRecord
   2
LEVEL001
  70
0
  62
7
   6
CONTINUOUS
 390
30
   0
LAYER
   5
3A
 100
AcDbSymbolTableRecord
 100
AcDbLayerTableRecord
   2
LEVEL002
  70
0
  62
7
   6
CONTINUOUS
 390
30
   0
ENDTAB
  0
TABLE
  2
STYLE
  5
3
100
AcDbSymbolTable
  70
5
  0
STYLE
  5
F
100
AcDbSymbolTableRecord
100
AcDbTextStyleTableRecord
  2
STANDARD
 70
     0
 40
0.0
 41
1.0
 50
0.0
 71
     0
 42
0.2
  3
TXT
  4
BIGFONT
  0
STYLE
  5
38
100
AcDbSymbolTableRecord
100
AcDbTextStyleTableRecord
  2
STANDARD1
 70
     4
 40
0.0
 41
1.0
 50
0.0
 71
     0
 42
0.2
  3
TXT
  4
BIGFONT
   0
STYLE
   5
3B
 100
AcDbSymbolTableRecord
 100
AcDbTextStyleTableRecord
   2
GMM001
  70
0
  40
0.0
  41
 0.80000000000000
  50
0.0
  71
     0
  42
1.0
   3
txt.shx
   4
bigfont.shx
   0
STYLE
   5
3C
 100
AcDbSymbolTableRecord
 100
AcDbTextStyleTableRecord
   2
GMM002
  70
0
  40
0.0
  41
 1.0000000000000
  50
0.0
  71
     0
  42
1.0
   3
txt.shx
   4
bigfont.shx
   0
STYLE
   5
3D
 100
AcDbSymbolTableRecord
 100
AcDbTextStyleTableRecord
   2
GMM003
  70
0
  40
0.0
  41
 1.0714285714286
  50
0.0
  71
     0
  42
1.0
   3
txt.shx
   4
bigfont.shx
   0
ENDTAB
  0
TABLE
  2
VIEW
  5
6
100
AcDbSymbolTable
 70
     0
  0
ENDTAB
  0
TABLE
  2
UCS
  5
7
100
AcDbSymbolTable
 70
     0
  0
ENDTAB
  0
TABLE
  2
APPID
  5
9
100
AcDbSymbolTable
 70
     1
  0
APPID
  5
10
100
AcDbSymbolTableRecord
100
AcDbRegAppTableRecord
  2
ACAD
 70
     0
  0
ENDTAB
   0
TABLE
   2
DIMSTYLE
   5
A
 100
AcDbSymbolTable
  70
4
 100
AcDbDimStyleTable
  0
DIMSTYLE
105
1D
100
AcDbSymbolTableRecord
100
AcDbDimStyleTableRecord
  2
STANDARD
 70
     0
  3

  4

  5

  6

  7

 40
1.0
 41
0.18
 42
0.0625
 43
0.38
 44
0.18
 45
0.0
 46
0.0
 47
0.0
 48
0.0
140
0.18
141
0.09
142
0.0
143
25.4
144
1.0
145
0.0
146
1.0
147
0.09
 71
     0
 72
     0
 73
     1
 74
     1
 75
     0
 76
     0
 77
     0
 78
     0
170
     0
171
     2
172
     0
173
     0
174
     0
175
     0
176
     0
177
     0
178
     0
270
     2
271
     4
272
     4
273
     2
274
     2
340
F
275
     0
280
     0
281
     0
282
     0
283
     1
284
     0
285
     0
286
     0
287
     3
288
     0
   0
DIMSTYLE
 105
3E
 100
AcDbSymbolTableRecord
 100
AcDbDimStyleTableRecord
   2
GMM001
  70
0
   3

   4

   5

   6
_DOT
   7
_DOT
  40
 1.0000000000000
  41
 4.0000000000000
  42
 10.000000000000
  43
 80.000000000000
  44
 10.000000000000
  45
0.0
  46
0.0
  47
0.0
  48
0.0
 140
 30.000000000000
 141
 10.000000000000
 142
0.0
 143
 0.39400000000000E-1
 144
 1.0000000000000
 145
0.0
 146
 0.83333333333333
 147
 10.000000000000
  71
0
  72
0
  73
0
  74
0
  75
0
  76
0
  77
3
  78
8
 170
0
 171
2
 172
1
 173
1
 174
0
 175
0
 176
8
 177
8
 178
8
 270
2
 271
6
 272
0
 273
2
 274
2
 340
3C
 275
1
 280
0
 281
0
 282
0
 283
1
 284
0
 285
0
 286
0
 287
3
 288
0
   0
DIMSTYLE
 105
3F
 100
AcDbSymbolTableRecord
 100
AcDbDimStyleTableRecord
   2
GMM002
  70
0
   3

   4

   5

   6

   7

  40
 1.0000000000000
  41
 20.000000000000
  42
 10.000000000000
  43
 80.000000000000
  44
 10.000000000000
  45
0.0
  46
0.0
  47
0.0
  48
0.0
 140
 30.000000000000
 141
 10.000000000000
 142
0.0
 143
 0.39400000000000E-1
 144
 1.0000000000000
 145
0.0
 146
 0.83333333333333
 147
0.0
  71
0
  72
0
  73
0
  74
0
  75
0
  76
0
  77
1
  78
8
 170
0
 171
2
 172
1
 173
1
 174
0
 175
0
 176
8
 177
8
 178
8
 270
2
 271
6
 272
0
 273
2
 274
2
 340
3C
 275
1
 280
0
 281
0
 282
0
 283
1
 284
0
 285
0
 286
0
 287
3
 288
0
   0
ENDTAB
  0
TABLE
  2
BLOCK_RECORD
  5
1
100
AcDbSymbolTable
 70
     0
  0
BLOCK_RECORD
  5
18
100
AcDbSymbolTableRecord
100
AcDbBlockTableRecord
  2
*MODEL_SPACE
  0
BLOCK_RECORD
  5
15
100
AcDbSymbolTableRecord
100
AcDbBlockTableRecord
  2
*PAPER_SPACE
   0
BLOCK_RECORD
   5
40
 100
AcDbSymbolTableRecord
 100
AcDbBlockTableRecord
   2
*D1
   0
BLOCK_RECORD
   5
41
 100
AcDbSymbolTableRecord
 100
AcDbBlockTableRecord
   2
*D2
   0
BLOCK_RECORD
   5
42
 100
AcDbSymbolTableRecord
 100
AcDbBlockTableRecord
   2
*D3
   0
BLOCK_RECORD
   5
43
 100
AcDbSymbolTableRecord
 100
AcDbBlockTableRecord
   2
*D4
   0
BLOCK_RECORD
   5
44
 100
AcDbSymbolTableRecord
 100
AcDbBlockTableRecord
   2
*D5
   0
BLOCK_RECORD
   5
45
 100
AcDbSymbolTableRecord
 100
AcDbBlockTableRecord
   2
*D6
   0
BLOCK_RECORD
   5
46
 100
AcDbSymbolTableRecord
 100
AcDbBlockTableRecord
   2
*D7
   0
BLOCK_RECORD
   5
47
 100
AcDbSymbolTableRecord
 100
AcDbBlockTableRecord
   2
*D8
   0
BLOCK_RECORD
   5
48
 100
AcDbSymbolTableRecord
 100
AcDbBlockTableRecord
   2
*D11
   0
BLOCK_RECORD
   5
49
 100
AcDbSymbolTableRecord
 100
AcDbBlockTableRecord
   2
_ARCHTICK
   0
BLOCK_RECORD
   5
4A
 100
AcDbSymbolTableRecord
 100
AcDbBlockTableRecord
   2
_BOXBLANK
   0
BLOCK_RECORD
   5
4B
 100
AcDbSymbolTableRecord
 100
AcDbBlockTableRecord
   2
_BOXFILLED
   0
BLOCK_RECORD
   5
4C
 100
AcDbSymbolTableRecord
 100
AcDbBlockTableRecord
   2
_CLOSED
   0
BLOCK_RECORD
   5
4D
 100
AcDbSymbolTableRecord
 100
AcDbBlockTableRecord
   2
_CLOSEDBLANK
   0
BLOCK_RECORD
   5
4E
 100
AcDbSymbolTableRecord
 100
AcDbBlockTableRecord
   2
_DATUMBLANK
   0
BLOCK_RECORD
   5
4F
 100
AcDbSymbolTableRecord
 100
AcDbBlockTableRecord
   2
_DATUMFILLED
   0
BLOCK_RECORD
   5
50
 100
AcDbSymbolTableRecord
 100
AcDbBlockTableRecord
   2
_DOT
   0
BLOCK_RECORD
   5
51
 100
AcDbSymbolTableRecord
 100
AcDbBlockTableRecord
   2
_DOTBLANK
   0
BLOCK_RECORD
   5
52
 100
AcDbSymbolTableRecord
 100
AcDbBlockTableRecord
   2
_DOTSMALL
   0
BLOCK_RECORD
   5
53
 100
AcDbSymbolTableRecord
 100
AcDbBlockTableRecord
   2
_INTEGRAL
   0
BLOCK_RECORD
   5
54
 100
AcDbSymbolTableRecord
 100
AcDbBlockTableRecord
   2
_NONE
   0
BLOCK_RECORD
   5
55
 100
AcDbSymbolTableRecord
 100
AcDbBlockTableRecord
   2
_OBLIQUE
   0
BLOCK_RECORD
   5
56
 100
AcDbSymbolTableRecord
 100
AcDbBlockTableRecord
   2
_OPEN
   0
BLOCK_RECORD
   5
57
 100
AcDbSymbolTableRecord
 100
AcDbBlockTableRecord
   2
_OPEN30
   0
BLOCK_RECORD
   5
58
 100
AcDbSymbolTableRecord
 100
AcDbBlockTableRecord
   2
_OPEN90
   0
BLOCK_RECORD
   5
59
 100
AcDbSymbolTableRecord
 100
AcDbBlockTableRecord
   2
_ORIGIN
   0
ENDTAB
   0
ENDSEC
  0
SECTION
  2
BLOCKS
  0
BLOCK
  5
19
100
AcDbEntity
  8
0
100
AcDbBlockBegin
  2
*MODEL_SPACE
 70
     0
 10
0.0
 20
0.0
 30
0.0
  3
*MODEL_SPACE
  1

  0
ENDBLK
  5
1A
100
AcDbEntity
  8
0
100
AcDbBlockEnd
  0
BLOCK
  5
16
100
AcDbEntity
 67
     1
  8
0
100
AcDbBlockBegin
  2
*PAPER_SPACE
 70
     0
 10
0.0
 20
0.0
 30
0.0
  3
*PAPER_SPACE
  1

  0
ENDBLK
  5
17
100
AcDbEntity
 67
     1
  8
0
100
AcDbBlockEnd
   0
BLOCK
   5
5A
 100
AcDbEntity
   8
0
 100
AcDbBlockBegin
   2
_ARCHTICK
  70
0
  10
0.0
  20
0.0
  30
0.0
   3
_ARCHTICK
   0
POLYLINE
   5
5B
 100
AcDbEntity
   8
0
 370
-2
   6
BYBLOCK
  62
0
 100
AcDb2dPolyline
  66
1
  10
0.0
  20
0.0
  30
0.0
  70
1
  40
 0.15000000000000
  41
 0.15000000000000
   0
VERTEX
   5
5C
 100
AcDbEntity
   8
0
   6
BYBLOCK
  62
0
 100
AcDbVertex
 100
AcDb2dVertex
  10
-0.50000000000000
  20
-0.50000000000000
  30
0.0
  40
 0.15000000000000
  41
 0.15000000000000
   0
VERTEX
   5
5D
 100
AcDbEntity
   8
0
   6
BYBLOCK
  62
0
 100
AcDbVertex
 100
AcDb2dVertex
  10
 0.50000000000000
  20
 0.50000000000000
  30
0.0
  40
 0.15000000000000
  41
 0.15000000000000
   0
SEQEND
   5
5E
 100
AcDbEntity
   8
0
   6
BYBLOCK
  62
0
   0
ENDBLK
   5
5F
 100
AcDbEntity
   8
0
 100
AcDbBlockEnd
   0
BLOCK
   5
60
 100
AcDbEntity
   8
0
 100
AcDbBlockBegin
   2
_OBLIQUE
  70
0
  10
0.0
  20
0.0
  30
0.0
   3
_OBLIQUE
   0
LINE
   5
61
 100
AcDbEntity
   8
0
 370
-2
 100
AcDbLine
   6
BYBLOCK
  62
0
  10
-0.50000000000000
  20
-0.50000000000000
  30
0.0
  11
 0.50000000000000
  21
 0.50000000000000
  31
0.0
   0
ENDBLK
   5
62
 100
AcDbEntity
   8
0
 100
AcDbBlockEnd
   0
BLOCK
   5
63
 100
AcDbEntity
   8
0
 100
AcDbBlockBegin
   2
_BOXBLANK
  70
0
  10
0.0
  20
0.0
  30
0.0
   3
_BOXBLANK
   0
LINE
   5
64
 100
AcDbEntity
   8
0
 370
-2
 100
AcDbLine
   6
BYBLOCK
  62
0
  10
-0.50000000000000
  20
-0.50000000000000
  30
0.0
  11
 0.50000000000000
  21
-0.50000000000000
  31
0.0
   0
LINE
   5
65
 100
AcDbEntity
   8
0
 370
-2
 100
AcDbLine
   6
BYBLOCK
  62
0
  10
 0.50000000000000
  20
-0.50000000000000
  30
0.0
  11
 0.50000000000000
  21
 0.50000000000000
  31
0.0
   0
LINE
   5
66
 100
AcDbEntity
   8
0
 370
-2
 100
AcDbLine
   6
BYBLOCK
  62
0
  10
 0.50000000000000
  20
 0.50000000000000
  30
0.0
  11
-0.50000000000000
  21
 0.50000000000000
  31
0.0
   0
LINE
   5
67
 100
AcDbEntity
   8
0
 370
-2
 100
AcDbLine
   6
BYBLOCK
  62
0
  10
-0.50000000000000
  20
 0.50000000000000
  30
0.0
  11
-0.50000000000000
  21
-0.50000000000000
  31
0.0
   0
LINE
   5
68
 100
AcDbEntity
   8
0
 370
-2
 100
AcDbLine
   6
BYBLOCK
  62
0
  10
-0.50000000000000
  20
0.0
  30
0.0
  11
-1.0000000000000
  21
0.0
  31
0.0
   0
ENDBLK
   5
69
 100
AcDbEntity
   8
0
 100
AcDbBlockEnd
   0
BLOCK
   5
6A
 100
AcDbEntity
   8
0
 100
AcDbBlockBegin
   2
_BOXFILLED
  70
0
  10
0.0
  20
0.0
  30
0.0
   3
_BOXFILLED
   0
SOLID
   5
6B
 100
AcDbEntity
   8
0
 100
AcDbTrace
   6
BYBLOCK
  62
0
  10
-0.50000000000000
  20
 0.50000000000000
  30
0.0
  11
 0.50000000000000
  21
 0.50000000000000
  31
0.0
  12
-0.50000000000000
  22
-0.50000000000000
  32
0.0
  13
 0.50000000000000
  23
-0.50000000000000
  33
0.0
   0
LINE
   5
6C
 100
AcDbEntity
   8
0
 370
-2
 100
AcDbLine
   6
BYBLOCK
  62
0
  10
-0.50000000000000
  20
0.0
  30
0.0
  11
-1.0000000000000
  21
0.0
  31
0.0
   0
ENDBLK
   5
6D
 100
AcDbEntity
   8
0
 100
AcDbBlockEnd
   0
BLOCK
   5
6E
 100
AcDbEntity
   8
0
 100
AcDbBlockBegin
   2
_CLOSED
  70
0
  10
0.0
  20
0.0
  30
0.0
   3
_CLOSED
   0
LINE
   5
6F
 100
AcDbEntity
   8
0
 370
-2
 100
AcDbLine
   6
BYBLOCK
  62
0
  10
-1.0000000000000
  20
 0.16666666666667
  30
0.0
  11
0.0
  21
0.0
  31
0.0
   0
LINE
   5
70
 100
AcDbEntity
   8
0
 370
-2
 100
AcDbLine
   6
BYBLOCK
  62
0
  10
0.0
  20
0.0
  30
0.0
  11
-1.0000000000000
  21
-0.16666666666667
  31
0.0
   0
LINE
   5
71
 100
AcDbEntity
   8
0
 370
-2
 100
AcDbLine
   6
BYBLOCK
  62
0
  10
-1.0000000000000
  20
 0.16666666666667
  30
0.0
  11
-1.0000000000000
  21
-0.16666666666667
  31
0.0
   0
LINE
   5
72
 100
AcDbEntity
   8
0
 370
-2
 100
AcDbLine
   6
BYBLOCK
  62
0
  10
0.0
  20
0.0
  30
0.0
  11
-1.0000000000000
  21
0.0
  31
0.0
   0
ENDBLK
   5
73
 100
AcDbEntity
   8
0
 100
AcDbBlockEnd
   0
BLOCK
   5
74
 100
AcDbEntity
   8
0
 100
AcDbBlockBegin
   2
_OPEN
  70
0
  10
0.0
  20
0.0
  30
0.0
   3
_OPEN
   0
LINE
   5
75
 100
AcDbEntity
   8
0
 370
-2
 100
AcDbLine
   6
BYBLOCK
  62
0
  10
-1.0000000000000
  20
 0.16666666666667
  30
0.0
  11
0.0
  21
0.0
  31
0.0
   0
LINE
   5
76
 100
AcDbEntity
   8
0
 370
-2
 100
AcDbLine
   6
BYBLOCK
  62
0
  10
0.0
  20
0.0
  30
0.0
  11
-1.0000000000000
  21
-0.16666666666667
  31
0.0
   0
LINE
   5
77
 100
AcDbEntity
   8
0
 370
-2
 100
AcDbLine
   6
BYBLOCK
  62
0
  10
0.0
  20
0.0
  30
0.0
  11
-1.0000000000000
  21
0.0
  31
0.0
   0
ENDBLK
   5
78
 100
AcDbEntity
   8
0
 100
AcDbBlockEnd
   0
BLOCK
   5
79
 100
AcDbEntity
   8
0
 100
AcDbBlockBegin
   2
_OPEN30
  70
0
  10
0.0
  20
0.0
  30
0.0
   3
_OPEN30
   0
LINE
   5
7A
 100
AcDbEntity
   8
0
 370
-2
 100
AcDbLine
   6
BYBLOCK
  62
0
  10
-1.0000000000000
  20
 0.26794919243110
  30
0.0
  11
0.0
  21
0.0
  31
0.0
   0
LINE
   5
7B
 100
AcDbEntity
   8
0
 370
-2
 100
AcDbLine
   6
BYBLOCK
  62
0
  10
0.0
  20
0.0
  30
0.0
  11
-1.0000000000000
  21
-0.26794919243110
  31
0.0
   0
LINE
   5
7C
 100
AcDbEntity
   8
0
 370
-2
 100
AcDbLine
   6
BYBLOCK
  62
0
  10
0.0
  20
0.0
  30
0.0
  11
-1.0000000000000
  21
0.0
  31
0.0
   0
ENDBLK
   5
7D
 100
AcDbEntity
   8
0
 100
AcDbBlockEnd
   0
BLOCK
   5
7E
 100
AcDbEntity
   8
0
 100
AcDbBlockBegin
   2
_OPEN90
  70
0
  10
0.0
  20
0.0
  30
0.0
   3
_OPEN90
   0
LINE
   5
7F
 100
AcDbEntity
   8
0
 370
-2
 100
AcDbLine
   6
BYBLOCK
  62
0
  10
-0.50000000000000
  20
 0.50000000000000
  30
0.0
  11
0.0
  21
0.0
  31
0.0
   0
LINE
   5
80
 100
AcDbEntity
   8
0
 370
-2
 100
AcDbLine
   6
BYBLOCK
  62
0
  10
0.0
  20
0.0
  30
0.0
  11
-0.50000000000000
  21
-0.50000000000000
  31
0.0
   0
LINE
   5
81
 100
AcDbEntity
   8
0
 370
-2
 100
AcDbLine
   6
BYBLOCK
  62
0
  10
0.0
  20
0.0
  30
0.0
  11
-1.0000000000000
  21
0.0
  31
0.0
   0
ENDBLK
   5
82
 100
AcDbEntity
   8
0
 100
AcDbBlockEnd
   0
BLOCK
   5
83
 100
AcDbEntity
   8
0
 100
AcDbBlockBegin
   2
_CLOSEDBLANK
  70
0
  10
0.0
  20
0.0
  30
0.0
   3
_CLOSEDBLANK
   0
LINE
   5
84
 100
AcDbEntity
   8
0
 370
-2
 100
AcDbLine
   6
BYBLOCK
  62
0
  10
-1.0000000000000
  20
 0.16666666666667
  30
0.0
  11
0.0
  21
0.0
  31
0.0
   0
LINE
   5
85
 100
AcDbEntity
   8
0
 370
-2
 100
AcDbLine
   6
BYBLOCK
  62
0
  10
0.0
  20
0.0
  30
0.0
  11
-1.0000000000000
  21
-0.16666666666667
  31
0.0
   0
LINE
   5
86
 100
AcDbEntity
   8
0
 370
-2
 100
AcDbLine
   6
BYBLOCK
  62
0
  10
-1.0000000000000
  20
 0.16666666666667
  30
0.0
  11
-1.0000000000000
  21
-0.16666666666667
  31
0.0
   0
ENDBLK
   5
87
 100
AcDbEntity
   8
0
 100
AcDbBlockEnd
   0
BLOCK
   5
88
 100
AcDbEntity
   8
0
 100
AcDbBlockBegin
   2
_DOT
  70
0
  10
0.0
  20
0.0
  30
0.0
   3
_DOT
   0
POLYLINE
   5
89
 100
AcDbEntity
   8
0
 370
-2
   6
BYBLOCK
  62
0
 100
AcDb2dPolyline
  66
1
  10
0.0
  20
0.0
  30
0.0
  70
1
  40
 0.50000000000000
  41
 0.50000000000000
   0
VERTEX
   5
8A
 100
AcDbEntity
   8
0
   6
BYBLOCK
  62
0
 100
AcDbVertex
 100
AcDb2dVertex
  10
-0.25000000000000
  20
0.0
  30
0.0
  42
 1.0000000000000
  40
 0.50000000000000
  41
 0.50000000000000
   0
VERTEX
   5
8B
 100
AcDbEntity
   8
0
   6
BYBLOCK
  62
0
 100
AcDbVertex
 100
AcDb2dVertex
  10
 0.25000000000000
  20
0.0
  30
0.0
  42
 1.0000000000000
  40
 0.50000000000000
  41
 0.50000000000000
   0
SEQEND
   5
8C
 100
AcDbEntity
   8
0
   6
BYBLOCK
  62
0
   0
LINE
   5
8D
 100
AcDbEntity
   8
0
 370
-2
 100
AcDbLine
   6
BYBLOCK
  62
0
  10
-0.50000000000000
  20
0.0
  30
0.0
  11
-1.0000000000000
  21
0.0
  31
0.0
   0
ENDBLK
   5
8E
 100
AcDbEntity
   8
0
 100
AcDbBlockEnd
   0
BLOCK
   5
8F
 100
AcDbEntity
   8
0
 100
AcDbBlockBegin
   2
_DOTSMALL
  70
0
  10
0.0
  20
0.0
  30
0.0
   3
_DOTSMALL
   0
POLYLINE
   5
90
 100
AcDbEntity
   8
0
 370
-2
   6
BYBLOCK
  62
0
 100
AcDb2dPolyline
  66
1
  10
0.0
  20
0.0
  30
0.0
  70
1
  40
 0.50000000000000
  41
 0.50000000000000
   0
VERTEX
   5
91
 100
AcDbEntity
   8
0
   6
BYBLOCK
  62
0
 100
AcDbVertex
 100
AcDb2dVertex
  10
-0.62500000000000E-1
  20
0.0
  30
0.0
  42
 1.0000000000000
  40
 0.50000000000000
  41
 0.50000000000000
   0
VERTEX
   5
92
 100
AcDbEntity
   8
0
   6
BYBLOCK
  62
0
 100
AcDbVertex
 100
AcDb2dVertex
  10
 0.62500000000000E-1
  20
0.0
  30
0.0
  42
 1.0000000000000
  40
 0.50000000000000
  41
 0.50000000000000
   0
SEQEND
   5
93
 100
AcDbEntity
   8
0
   6
BYBLOCK
  62
0
   0
ENDBLK
   5
94
 100
AcDbEntity
   8
0
 100
AcDbBlockEnd
   0
BLOCK
   5
95
 100
AcDbEntity
   8
0
 100
AcDbBlockBegin
   2
_DATUMBLANK
  70
0
  10
0.0
  20
0.0
  30
0.0
   3
_DATUMBLANK
   0
LINE
   5
96
 100
AcDbEntity
   8
0
 370
-2
 100
AcDbLine
   6
BYBLOCK
  62
0
  10
0.0
  20
 0.57735027000000
  30
0.0
  11
-1.0000000000000
  21
0.0
  31
0.0
   0
LINE
   5
97
 100
AcDbEntity
   8
0
 370
-2
 100
AcDbLine
   6
BYBLOCK
  62
0
  10
-1.0000000000000
  20
0.0
  30
0.0
  11
0.0
  21
-0.57735027000000
  31
0.0
   0
LINE
   5
98
 100
AcDbEntity
   8
0
 370
-2
 100
AcDbLine
   6
BYBLOCK
  62
0
  10
0.0
  20
-0.57735027000000
  30
0.0
  11
0.0
  21
 0.57735027000000
  31
0.0
   0
ENDBLK
   5
99
 100
AcDbEntity
   8
0
 100
AcDbBlockEnd
   0
BLOCK
   5
9A
 100
AcDbEntity
   8
0
 100
AcDbBlockBegin
   2
_DATUMFILLED
  70
0
  10
0.0
  20
0.0
  30
0.0
   3
_DATUMFILLED
   0
SOLID
   5
9B
 100
AcDbEntity
   8
0
 100
AcDbTrace
   6
BYBLOCK
  62
0
  10
0.0
  20
 0.57735027000000
  30
0.0
  11
-1.0000000000000
  21
0.0
  31
0.0
  12
0.0
  22
-0.57735027000000
  32
0.0
  13
0.0
  23
-0.57735027000000
  33
0.0
   0
ENDBLK
   5
9C
 100
AcDbEntity
   8
0
 100
AcDbBlockEnd
   0
BLOCK
   5
9D
 100
AcDbEntity
   8
0
 100
AcDbBlockBegin
   2
_ORIGIN
  70
0
  10
0.0
  20
0.0
  30
0.0
   3
_ORIGIN
   0
CIRCLE
   5
9E
 100
AcDbEntity
   8
0
 370
-2
 100
AcDbCircle
   6
BYBLOCK
  62
0
  10
0.0
  20
0.0
  30
0.0
  40
 0.50000000000000
   0
LINE
   5
9F
 100
AcDbEntity
   8
0
 370
-2
 100
AcDbLine
   6
BYBLOCK
  62
0
  10
0.0
  20
0.0
  30
0.0
  11
-1.0000000000000
  21
0.0
  31
0.0
   0
ENDBLK
   5
A0
 100
AcDbEntity
   8
0
 100
AcDbBlockEnd
   0
BLOCK
   5
A1
 100
AcDbEntity
   8
0
 100
AcDbBlockBegin
   2
_NONE
  70
0
  10
0.0
  20
0.0
  30
0.0
   3
_NONE
   0
CIRCLE
   5
A2
 100
AcDbEntity
   8
0
 370
-2
 100
AcDbCircle
   6
BYBLOCK
  62
0
  10
0.0
  20
0.0
  30
0.0
  40
 0.25000000000000
   0
ENDBLK
   5
A3
 100
AcDbEntity
   8
0
 100
AcDbBlockEnd
   0
BLOCK
   5
A4
 100
AcDbEntity
   8
0
 100
AcDbBlockBegin
   2
_DOTBLANK
  70
0
  10
0.0
  20
0.0
  30
0.0
   3
_DOTBLANK
   0
CIRCLE
   5
A5
 100
AcDbEntity
   8
0
 370
-2
 100
AcDbCircle
   6
BYBLOCK
  62
0
  10
0.0
  20
0.0
  30
0.0
  40
 0.50000000000000
   0
LINE
   5
A6
 100
AcDbEntity
   8
0
 370
-2
 100
AcDbLine
   6
BYBLOCK
  62
0
  10
-0.50000000000000
  20
0.0
  30
0.0
  11
-1.0000000000000
  21
0.0
  31
0.0
   0
ENDBLK
   5
A7
 100
AcDbEntity
   8
0
 100
AcDbBlockEnd
   0
BLOCK
   5
A8
 100
AcDbEntity
   8
0
 100
AcDbBlockBegin
   2
_INTEGRAL
  70
0
  10
0.0
  20
0.0
  30
0.0
   3
_INTEGRAL
   0
ARC
   5
A9
 100
AcDbEntity
   8
0
 370
-2
   6
BYBLOCK
  62
0
 100
AcDbCircle
  10
 0.44488800000000
  20
-0.91335000000000E-1
  30
0.0
  40
 0.45416700000000
 100
AcDbArc
  50
 102.00000000000
  51
 168.00000000000
   0
ARC
   5
AA
 100
AcDbEntity
   8
0
 370
-2
   6
BYBLOCK
  62
0
 100
AcDbCircle
  10
-0.44488800000000
  20
 0.91335000000000E-1
  30
0.0
  40
 0.45416700000000
 100
AcDbArc
  50
 282.00000000000
  51
 348.00000000000
   0
ENDBLK
   5
AB
 100
AcDbEntity
   8
0
 100
AcDbBlockEnd
   0
BLOCK
   5
AC
 100
AcDbEntity
   8
0
 100
AcDbBlockBegin
   2
*D1
  70
65
  10
0.0
  20
0.0
  30
0.0
   3
*D1
   0
LINE
   5
AD
 100
AcDbEntity
   8
LEVEL001
 370
15
 100
AcDbLine
   6
CONTINUOUS
  62
8
  10
 258.07334707989
  20
 1988.8027184914
  30
0.0
  11
 258.07334707989
  21
 1917.0733318190
  31
0.0
   0
LINE
   5
AE
 100
AcDbEntity
   8
LEVEL001
 370
15
 100
AcDbLine
   6
CONTINUOUS
  62
8
  10
 198.07334707989
  20
 1927.0733318190
  30
0.0
  11
 228.07334707989
  21
 1927.0733318190
  31
0.0
   0
LINE
   5
AF
 100
AcDbEntity
   8
LEVEL001
 370
15
 100
AcDbLine
   6
CONTINUOUS
  62
8
  10
 258.07334707989
  20
 1927.0733318190
  30
0.0
  11
 228.07334707989
  21
 1927.0733318190
  31
0.0
   0
INSERT
   5
B0
 100
AcDbEntity
   8
LEVEL001
   6
CONTINUOUS
  62
8
 100
AcDbBlockReference
   2
_DOT
  10
 198.07334707989
  20
 1927.0733318190
  30
0.0
  41
 4.0000000000000
  42
 4.0000000000000
  43
 4.0000000000000
  50
 180.00000000000
   0
INSERT
   5
B1
 100
AcDbEntity
   8
LEVEL001
   6
CONTINUOUS
  62
8
 100
AcDbBlockReference
   2
_DOT
  10
 258.07334707989
  20
 1927.0733318190
  30
0.0
  41
 4.0000000000000
  42
 4.0000000000000
  43
 4.0000000000000
  50
0.0
   0
MTEXT
   5
B2
 100
AcDbEntity
   8
LEVEL001
 370
15
  62
8
 100
AcDbMText
  10
 228.07334707989
  20
 1937.0733318190
  30
0.0
  40
 30.000000000000
  41
0.0
  71
8
  72
1
   1
\A1;60
   7
GMM002
   0
ENDBLK
   5
B3
 100
AcDbEntity
   8
0
 100
AcDbBlockEnd
   0
BLOCK
   5
B4
 100
AcDbEntity
   8
0
 100
AcDbBlockBegin
   2
*D2
  70
65
  10
0.0
  20
0.0
  30
0.0
   3
*D2
   0
LINE
   5
B5
 100
AcDbEntity
   8
LEVEL001
 370
15
 100
AcDbLine
   6
CONTINUOUS
  62
8
  10
 435.13116404330
  20
 1988.8027184914
  30
0.0
  11
 435.13116404330
  21
 1917.0733318190
  31
0.0
   0
LINE
   5
B6
 100
AcDbEntity
   8
LEVEL001
 370
15
 100
AcDbLine
   6
CONTINUOUS
  62
8
  10
 835.13116404330
  20
 1988.8027184914
  30
0.0
  11
 835.13116404330
  21
 1917.0733318190
  31
0.0
   0
LINE
   5
B7
 100
AcDbEntity
   8
LEVEL001
 370
15
 100
AcDbLine
   6
CONTINUOUS
  62
8
  10
 435.13116404330
  20
 1927.0733318190
  30
0.0
  11
 635.13116404330
  21
 1927.0733318190
  31
0.0
   0
LINE
   5
B8
 100
AcDbEntity
   8
LEVEL001
 370
15
 100
AcDbLine
   6
CONTINUOUS
  62
8
  10
 835.13116404330
  20
 1927.0733318190
  30
0.0
  11
 635.13116404330
  21
 1927.0733318190
  31
0.0
   0
INSERT
   5
B9
 100
AcDbEntity
   8
LEVEL001
   6
CONTINUOUS
  62
8
 100
AcDbBlockReference
   2
_DOT
  10
 435.13116404330
  20
 1927.0733318190
  30
0.0
  41
 4.0000000000000
  42
 4.0000000000000
  43
 4.0000000000000
  50
 180.00000000000
   0
INSERT
   5
BA
 100
AcDbEntity
   8
LEVEL001
   6
CONTINUOUS
  62
8
 100
AcDbBlockReference
   2
_DOT
  10
 835.13116404330
  20
 1927.0733318190
  30
0.0
  41
 4.0000000000000
  42
 4.0000000000000
  43
 4.0000000000000
  50
0.0
   0
MTEXT
   5
BB
 100
AcDbEntity
   8
LEVEL001
 370
15
  62
8
 100
AcDbMText
  10
 635.13116404330
  20
 1937.0733318190
  30
0.0
  40
 30.000000000000
  41
0.0
  71
8
  72
1
   1
\A1;400
   7
GMM002
   0
ENDBLK
   5
BC
 100
AcDbEntity
   8
0
 100
AcDbBlockEnd
   0
BLOCK
   5
BD
 100
AcDbEntity
   8
0
 100
AcDbBlockBegin
   2
*D3
  70
65
  10
0.0
  20
0.0
  30
0.0
   3
*D3
   0
LINE
   5
BE
 100
AcDbEntity
   8
LEVEL001
 370
15
 100
AcDbLine
   6
CONTINUOUS
  62
8
  10
 377.90243411180
  20
 2417.8717985524
  30
0.0
  11
 323.50108606359
  21
 2417.8717985524
  31
0.0
   0
LINE
   5
BF
 100
AcDbEntity
   8
LEVEL001
 370
15
 100
AcDbLine
   6
CONTINUOUS
  62
8
  10
 333.50108606359
  20
 2417.8717985524
  30
0.0
  11
 333.50108606359
  21
 2448.1717985524
  31
0.0
   0
LINE
   5
C0
 100
AcDbEntity
   8
LEVEL001
 370
15
 100
AcDbLine
   6
CONTINUOUS
  62
8
  10
 333.50108606359
  20
 2478.4717985524
  30
0.0
  11
 333.50108606359
  21
 2448.1717985524
  31
0.0
   0
INSERT
   5
C1
 100
AcDbEntity
   8
LEVEL001
   6
CONTINUOUS
  62
8
 100
AcDbBlockReference
   2
_DOT
  10
 333.50108606359
  20
 2417.8717985524
  30
0.0
  41
 4.0000000000000
  42
 4.0000000000000
  43
 4.0000000000000
  50
 270.00000000000
   0
INSERT
   5
C2
 100
AcDbEntity
   8
LEVEL001
   6
CONTINUOUS
  62
8
 100
AcDbBlockReference
   2
_DOT
  10
 333.50108606359
  20
 2478.4717985524
  30
0.0
  41
 4.0000000000000
  42
 4.0000000000000
  43
 4.0000000000000
  50
 90.000000000000
   0
MTEXT
   5
C3
 100
AcDbEntity
   8
LEVEL001
 370
15
  62
8
 100
AcDbMText
  10
 323.50108606359
  20
 2448.1717985524
  30
0.0
  40
 30.000000000000
  41
0.0
  71
8
  72
1
   1
\A1;60
   7
GMM002
  11
0.0
  21
 1.0000000000000
  31
0.0
   0
ENDBLK
   5
C4
 100
AcDbEntity
   8
0
 100
AcDbBlockEnd
   0
BLOCK
   5
C5
 100
AcDbEntity
   8
0
 100
AcDbBlockBegin
   2
*D4
  70
65
  10
0.0
  20
0.0
  30
0.0
   3
*D4
   0
LINE
   5
C6
 100
AcDbEntity
   8
LEVEL001
 370
15
 100
AcDbLine
   6
CONTINUOUS
  62
8
  10
 1703.0733470799
  20
 1988.8027184914
  30
0.0
  11
 1703.0733470799
  21
 1917.0733318190
  31
0.0
   0
LINE
   5
C7
 100
AcDbEntity
   8
LEVEL001
 370
15
 100
AcDbLine
   6
CONTINUOUS
  62
8
  10
 1643.0733470799
  20
 1927.0733318190
  30
0.0
  11
 1673.0733470799
  21
 1927.0733318190
  31
0.0
   0
LINE
   5
C8
 100
AcDbEntity
   8
LEVEL001
 370
15
 100
AcDbLine
   6
CONTINUOUS
  62
8
  10
 1703.0733470799
  20
 1927.0733318190
  30
0.0
  11
 1673.0733470799
  21
 1927.0733318190
  31
0.0
   0
INSERT
   5
C9
 100
AcDbEntity
   8
LEVEL001
   6
CONTINUOUS
  62
8
 100
AcDbBlockReference
   2
_DOT
  10
 1643.0733470799
  20
 1927.0733318190
  30
0.0
  41
 4.0000000000000
  42
 4.0000000000000
  43
 4.0000000000000
  50
 180.00000000000
   0
INSERT
   5
CA
 100
AcDbEntity
   8
LEVEL001
   6
CONTINUOUS
  62
8
 100
AcDbBlockReference
   2
_DOT
  10
 1703.0733470799
  20
 1927.0733318190
  30
0.0
  41
 4.0000000000000
  42
 4.0000000000000
  43
 4.0000000000000
  50
0.0
   0
MTEXT
   5
CB
 100
AcDbEntity
   8
LEVEL001
 370
15
  62
8
 100
AcDbMText
  10
 1673.0733470799
  20
 1937.0733318190
  30
0.0
  40
 30.000000000000
  41
0.0
  71
8
  72
1
   1
\A1;60
   7
GMM002
   0
ENDBLK
   5
CC
 100
AcDbEntity
   8
0
 100
AcDbBlockEnd
   0
BLOCK
   5
CD
 100
AcDbEntity
   8
0
 100
AcDbBlockBegin
   2
*D5
  70
65
  10
0.0
  20
0.0
  30
0.0
   3
*D5
   0
LINE
   5
CE
 100
AcDbEntity
   8
LEVEL001
 370
15
 100
AcDbLine
   6
CONTINUOUS
  62
8
  10
 1822.9024341118
  20
 2417.8717985524
  30
0.0
  11
 1768.5010860636
  21
 2417.8717985524
  31
0.0
   0
LINE
   5
CF
 100
AcDbEntity
   8
LEVEL001
 370
15
 100
AcDbLine
   6
CONTINUOUS
  62
8
  10
 1778.5010860636
  20
 2417.8717985524
  30
0.0
  11
 1778.5010860636
  21
 2448.1717985524
  31
0.0
   0
LINE
   5
D0
 100
AcDbEntity
   8
LEVEL001
 370
15
 100
AcDbLine
   6
CONTINUOUS
  62
8
  10
 1778.5010860636
  20
 2478.4717985524
  30
0.0
  11
 1778.5010860636
  21
 2448.1717985524
  31
0.0
   0
INSERT
   5
D1
 100
AcDbEntity
   8
LEVEL001
   6
CONTINUOUS
  62
8
 100
AcDbBlockReference
   2
_DOT
  10
 1778.5010860636
  20
 2417.8717985524
  30
0.0
  41
 4.0000000000000
  42
 4.0000000000000
  43
 4.0000000000000
  50
 270.00000000000
   0
INSERT
   5
D2
 100
AcDbEntity
   8
LEVEL001
   6
CONTINUOUS
  62
8
 100
AcDbBlockReference
   2
_DOT
  10
 1778.5010860636
  20
 2478.4717985524
  30
0.0
  41
 4.0000000000000
  42
 4.0000000000000
  43
 4.0000000000000
  50
 90.000000000000
   0
MTEXT
   5
D3
 100
AcDbEntity
   8
LEVEL001
 370
15
  62
8
 100
AcDbMText
  10
 1768.5010860636
  20
 2448.1717985524
  30
0.0
  40
 30.000000000000
  41
0.0
  71
8
  72
1
   1
\A1;60
   7
GMM002
  11
0.0
  21
 1.0000000000000
  31
0.0
   0
ENDBLK
   5
D4
 100
AcDbEntity
   8
0
 100
AcDbBlockEnd
   0
BLOCK
   5
D5
 100
AcDbEntity
   8
0
 100
AcDbBlockBegin
   2
*D6
  70
65
  10
0.0
  20
0.0
  30
0.0
   3
*D6
   0
LINE
   5
D6
 100
AcDbEntity
   8
LEVEL001
 370
15
 100
AcDbLine
   6
CONTINUOUS
  62
8
  10
 258.07334707989
  20
 623.80271849149
  30
0.0
  11
 258.07334707989
  21
 552.07333181909
  31
0.0
   0
LINE
   5
D7
 100
AcDbEntity
   8
LEVEL001
 370
15
 100
AcDbLine
   6
CONTINUOUS
  62
8
  10
 198.07334707989
  20
 562.07333181909
  30
0.0
  11
 228.07334707989
  21
 562.07333181909
  31
0.0
   0
LINE
   5
D8
 100
AcDbEntity
   8
LEVEL001
 370
15
 100
AcDbLine
   6
CONTINUOUS
  62
8
  10
 258.07334707989
  20
 562.07333181909
  30
0.0
  11
 228.07334707989
  21
 562.07333181909
  31
0.0
   0
INSERT
   5
D9
 100
AcDbEntity
   8
LEVEL001
   6
CONTINUOUS
  62
8
 100
AcDbBlockReference
   2
_DOT
  10
 198.07334707989
  20
 562.07333181909
  30
0.0
  41
 4.0000000000000
  42
 4.0000000000000
  43
 4.0000000000000
  50
 180.00000000000
   0
INSERT
   5
DA
 100
AcDbEntity
   8
LEVEL001
   6
CONTINUOUS
  62
8
 100
AcDbBlockReference
   2
_DOT
  10
 258.07334707989
  20
 562.07333181909
  30
0.0
  41
 4.0000000000000
  42
 4.0000000000000
  43
 4.0000000000000
  50
0.0
   0
MTEXT
   5
DB
 100
AcDbEntity
   8
LEVEL001
 370
15
  62
8
 100
AcDbMText
  10
 228.07334707989
  20
 572.07333181909
  30
0.0
  40
 30.000000000000
  41
0.0
  71
8
  72
1
   1
\A1;60
   7
GMM002
   0
ENDBLK
   5
DC
 100
AcDbEntity
   8
0
 100
AcDbBlockEnd
   0
BLOCK
   5
DD
 100
AcDbEntity
   8
0
 100
AcDbBlockBegin
   2
*D7
  70
65
  10
0.0
  20
0.0
  30
0.0
   3
*D7
   0
LINE
   5
DE
 100
AcDbEntity
   8
LEVEL001
 370
15
 100
AcDbLine
   6
CONTINUOUS
  62
8
  10
 377.90243411180
  20
 1052.8717985524
  30
0.0
  11
 323.50108606359
  21
 1052.8717985524
  31
0.0
   0
LINE
   5
DF
 100
AcDbEntity
   8
LEVEL001
 370
15
 100
AcDbLine
   6
CONTINUOUS
  62
8
  10
 333.50108606359
  20
 1052.8717985524
  30
0.0
  11
 333.50108606359
  21
 1083.1717985524
  31
0.0
   0
LINE
   5
E0
 100
AcDbEntity
   8
LEVEL001
 370
15
 100
AcDbLine
   6
CONTINUOUS
  62
8
  10
 333.50108606359
  20
 1113.4717985524
  30
0.0
  11
 333.50108606359
  21
 1083.1717985524
  31
0.0
   0
INSERT
   5
E1
 100
AcDbEntity
   8
LEVEL001
   6
CONTINUOUS
  62
8
 100
AcDbBlockReference
   2
_DOT
  10
 333.50108606359
  20
 1052.8717985524
  30
0.0
  41
 4.0000000000000
  42
 4.0000000000000
  43
 4.0000000000000
  50
 270.00000000000
   0
INSERT
   5
E2
 100
AcDbEntity
   8
LEVEL001
   6
CONTINUOUS
  62
8
 100
AcDbBlockReference
   2
_DOT
  10
 333.50108606359
  20
 1113.4717985524
  30
0.0
  41
 4.0000000000000
  42
 4.0000000000000
  43
 4.0000000000000
  50
 90.000000000000
   0
MTEXT
   5
E3
 100
AcDbEntity
   8
LEVEL001
 370
15
  62
8
 100
AcDbMText
  10
 323.50108606359
  20
 1083.1717985524
  30
0.0
  40
 30.000000000000
  41
0.0
  71
8
  72
1
   1
\A1;60
   7
GMM002
  11
0.0
  21
 1.0000000000000
  31
0.0
   0
ENDBLK
   5
E4
 100
AcDbEntity
   8
0
 100
AcDbBlockEnd
   0
BLOCK
   5
E5
 100
AcDbEntity
   8
0
 100
AcDbBlockBegin
   2
*D8
  70
65
  10
0.0
  20
0.0
  30
0.0
   3
*D8
   0
LINE
   5
E6
 100
AcDbEntity
   8
LEVEL001
 370
15
 100
AcDbLine
   6
CONTINUOUS
  62
8
  10
 1880.1311640433
  20
 1988.8027184914
  30
0.0
  11
 1880.1311640433
  21
 1917.0733318190
  31
0.0
   0
LINE
   5
E7
 100
AcDbEntity
   8
LEVEL001
 370
15
 100
AcDbLine
   6
CONTINUOUS
  62
8
  10
 2480.1311640433
  20
 1988.8027184914
  30
0.0
  11
 2480.1311640433
  21
 1917.0733318190
  31
0.0
   0
LINE
   5
E8
 100
AcDbEntity
   8
LEVEL001
 370
15
 100
AcDbLine
   6
CONTINUOUS
  62
8
  10
 1880.1311640433
  20
 1927.0733318190
  30
0.0
  11
 2180.1311640433
  21
 1927.0733318190
  31
0.0
   0
LINE
   5
E9
 100
AcDbEntity
   8
LEVEL001
 370
15
 100
AcDbLine
   6
CONTINUOUS
  62
8
  10
 2480.1311640433
  20
 1927.0733318190
  30
0.0
  11
 2180.1311640433
  21
 1927.0733318190
  31
0.0
   0
INSERT
   5
EA
 100
AcDbEntity
   8
LEVEL001
   6
CONTINUOUS
  62
8
 100
AcDbBlockReference
   2
_DOT
  10
 1880.1311640433
  20
 1927.0733318190
  30
0.0
  41
 4.0000000000000
  42
 4.0000000000000
  43
 4.0000000000000
  50
 180.00000000000
   0
INSERT
   5
EB
 100
AcDbEntity
   8
LEVEL001
   6
CONTINUOUS
  62
8
 100
AcDbBlockReference
   2
_DOT
  10
 2480.1311640433
  20
 1927.0733318190
  30
0.0
  41
 4.0000000000000
  42
 4.0000000000000
  43
 4.0000000000000
  50
0.0
   0
MTEXT
   5
EC
 100
AcDbEntity
   8
LEVEL001
 370
15
  62
8
 100
AcDbMText
  10
 2180.1311640433
  20
 1937.0733318190
  30
0.0
  40
 30.000000000000
  41
0.0
  71
8
  72
1
   1
\A1;600
   7
GMM002
   0
ENDBLK
   5
ED
 100
AcDbEntity
   8
0
 100
AcDbBlockEnd
   0
BLOCK
   5
EE
 100
AcDbEntity
   8
0
 100
AcDbBlockBegin
   2
*D11
  70
65
  10
0.0
  20
0.0
  30
0.0
   3
*D11
   0
LINE
   5
EF
 100
AcDbEntity
   8
LEVEL001
 370
15
 100
AcDbLine
   6
CONTINUOUS
  62
8
  10
 435.13116404330
  20
 623.80271849149
  30
0.0
  11
 435.13116404330
  21
 552.07333181909
  31
0.0
   0
LINE
   5
F0
 100
AcDbEntity
   8
LEVEL001
 370
15
 100
AcDbLine
   6
CONTINUOUS
  62
8
  10
 1235.1311640433
  20
 623.80271849149
  30
0.0
  11
 1235.1311640433
  21
 552.07333181909
  31
0.0
   0
LINE
   5
F1
 100
AcDbEntity
   8
LEVEL001
 370
15
 100
AcDbLine
   6
CONTINUOUS
  62
8
  10
 435.13116404330
  20
 562.07333181909
  30
0.0
  11
 835.13116404330
  21
 562.07333181909
  31
0.0
   0
LINE
   5
F2
 100
AcDbEntity
   8
LEVEL001
 370
15
 100
AcDbLine
   6
CONTINUOUS
  62
8
  10
 1235.1311640433
  20
 562.07333181909
  30
0.0
  11
 835.13116404330
  21
 562.07333181909
  31
0.0
   0
INSERT
   5
F3
 100
AcDbEntity
   8
LEVEL001
   6
CONTINUOUS
  62
8
 100
AcDbBlockReference
   2
_DOT
  10
 435.13116404330
  20
 562.07333181909
  30
0.0
  41
 4.0000000000000
  42
 4.0000000000000
  43
 4.0000000000000
  50
 180.00000000000
   0
INSERT
   5
F4
 100
AcDbEntity
   8
LEVEL001
   6
CONTINUOUS
  62
8
 100
AcDbBlockReference
   2
_DOT
  10
 1235.1311640433
  20
 562.07333181909
  30
0.0
  41
 4.0000000000000
  42
 4.0000000000000
  43
 4.0000000000000
  50
0.0
   0
MTEXT
   5
F5
 100
AcDbEntity
   8
LEVEL001
 370
15
  62
8
 100
AcDbMText
  10
 835.13116404330
  20
 572.07333181909
  30
0.0
  40
 30.000000000000
  41
0.0
  71
8
  72
1
   1
\A1;800
   7
GMM002
   0
ENDBLK
   5
F6
 100
AcDbEntity
   8
0
 100
AcDbBlockEnd
   0
ENDSEC
   0
SECTION
   2
ENTITIES
   0
LINE
   5
F7
 100
AcDbEntity
   8
LEVEL002
 370
30
 100
AcDbLine
   6
CONTINUOUS
  62
7
  10
 3441.5000000000
  20
 2720.7500000000
  30
0.0
  11
 3369.5000000000
  21
 2720.7500000000
  31
0.0
   0
LINE
   5
F8
 100
AcDbEntity
   8
LEVEL002
 370
30
 100
AcDbLine
   6
CONTINUOUS
  62
7
  10
 3369.5000000000
  20
 2720.7500000000
  30
0.0
  11
 3369.5000000000
  21
 2612.7500000000
  31
0.0
   0
LINE
   5
F9
 100
AcDbEntity
   8
LEVEL002
 370
30
 100
AcDbLine
   6
CONTINUOUS
  62
7
  10
 3369.5000000000
  20
 2612.7500000000
  30
0.0
  11
 3405.5000000000
  21
 2612.7500000000
  31
0.0
   0
LINE
   5
FA
 100
AcDbEntity
   8
LEVEL002
 370
30
 100
AcDbLine
   6
CONTINUOUS
  62
7
  10
 3405.5000000000
  20
 2612.7500000000
  30
0.0
  11
 3405.5000000000
  21
 2630.7500000000
  31
0.0
   0
LINE
   5
FB
 100
AcDbEntity
   8
LEVEL002
 370
30
 100
AcDbLine
   6
CONTINUOUS
  62
7
  10
 3405.5000000000
  20
 2630.7500000000
  30
0.0
  11
 3441.5000000000
  21
 2630.7500000000
  31
0.0
   0
ARC
   5
FC
 100
AcDbEntity
   8
LEVEL002
 370
30
   6
CONTINUOUS
  62
7
 100
AcDbCircle
  10
 3441.5000000000
  20
 2675.7500000000
  30
0.0
  40
 45.000000000000
 100
AcDbArc
  50
 270.00000000000
  51
 90.000000000000
   0
LINE
   5
FD
 100
AcDbEntity
   8
LEVEL002
 370
30
 100
AcDbLine
   6
CONTINUOUS
  62
7
  10
 3405.5000000000
  20
 2666.7500000000
  30
0.0
  11
 3441.5000000000
  21
 2666.7500000000
  31
0.0
   0
ARC
   5
FE
 100
AcDbEntity
   8
LEVEL002
 370
30
   6
CONTINUOUS
  62
7
 100
AcDbCircle
  10
 3441.5000000000
  20
 2675.7500000000
  30
0.0
  40
 9.0000000000000
 100
AcDbArc
  50
 270.00000000000
  51
 90.000000000000
   0
LINE
   5
FF
 100
AcDbEntity
   8
LEVEL002
 370
30
 100
AcDbLine
   6
CONTINUOUS
  62
7
  10
 3441.5000000000
  20
 2684.7500000000
  30
0.0
  11
 3405.5000000000
  21
 2684.7500000000
  31
0.0
   0
LINE
   5
100
 100
AcDbEntity
   8
LEVEL002
 370
30
 100
AcDbLine
   6
CONTINUOUS
  62
7
  10
 3405.5000000000
  20
 2684.7500000000
  30
0.0
  11
 3405.5000000000
  21
 2666.7500000000
  31
0.0
   0
LINE
   5
101
 100
AcDbEntity
   8
LEVEL002
 370
30
 100
AcDbLine
   6
CONTINUOUS
  62
7
  10
 3459.5000000000
  20
 2612.7500000000
  30
0.0
  11
 3531.5000000000
  21
 2720.7500000000
  31
0.0
   0
LINE
   5
102
 100
AcDbEntity
   8
LEVEL002
 370
30
 100
AcDbLine
   6
CONTINUOUS
  62
7
  10
 3531.5000000000
  20
 2720.7500000000
  30
0.0
  11
 3621.5000000000
  21
 2720.7500000000
  31
0.0
   0
LINE
   5
103
 100
AcDbEntity
   8
LEVEL002
 370
30
 100
AcDbLine
   6
CONTINUOUS
  62
7
  10
 3621.5000000000
  20
 2720.7500000000
  30
0.0
  11
 3621.5000000000
  21
 2648.7500000000
  31
0.0
   0
LINE
   5
104
 100
AcDbEntity
   8
LEVEL002
 370
30
 100
AcDbLine
   6
CONTINUOUS
  62
7
  10
 3621.5000000000
  20
 2648.7500000000
  30
0.0
  11
 3675.5000000000
  21
 2648.7500000000
  31
0.0
   0
LINE
   5
105
 100
AcDbEntity
   8
LEVEL002
 370
30
 100
AcDbLine
   6
CONTINUOUS
  62
7
  10
 3675.5000000000
  20
 2648.7500000000
  30
0.0
  11
 3675.5000000000
  21
 2684.7500000000
  31
0.0
   0
LINE
   5
106
 100
AcDbEntity
   8
LEVEL002
 370
30
 100
AcDbLine
   6
CONTINUOUS
  62
7
  10
 3675.5000000000
  20
 2684.7500000000
  30
0.0
  11
 3639.5000000000
  21
 2684.7500000000
  31
0.0
   0
LINE
   5
107
 100
AcDbEntity
   8
LEVEL002
 370
30
 100
AcDbLine
   6
CONTINUOUS
  62
7
  10
 3639.5000000000
  20
 2684.7500000000
  30
0.0
  11
 3639.5000000000
  21
 2720.7500000000
  31
0.0
   0
LINE
   5
108
 100
AcDbEntity
   8
LEVEL002
 370
30
 100
AcDbLine
   6
CONTINUOUS
  62
7
  10
 3639.5000000000
  20
 2720.7500000000
  30
0.0
  11
 3855.5000000000
  21
 2720.7500000000
  31
0.0
   0
LINE
   5
109
 100
AcDbEntity
   8
LEVEL002
 370
30
 100
AcDbLine
   6
CONTINUOUS
  62
7
  10
 3855.5000000000
  20
 2720.7500000000
  30
0.0
  11
 3855.5000000000
  21
 2684.7500000000
  31
0.0
   0
LINE
   5
10A
 100
AcDbEntity
   8
LEVEL002
 370
30
 100
AcDbLine
   6
CONTINUOUS
  62
7
  10
 3855.5000000000
  20
 2684.7500000000
  30
0.0
  11
 3783.5000000000
  21
 2684.7500000000
  31
0.0
   0
LINE
   5
10B
 100
AcDbEntity
   8
LEVEL002
 370
30
 100
AcDbLine
   6
CONTINUOUS
  62
7
  10
 3783.5000000000
  20
 2684.7500000000
  30
0.0
  11
 3783.5000000000
  21
 2675.7500000000
  31
0.0
   0
LINE
   5
10C
 100
AcDbEntity
   8
LEVEL002
 370
30
 100
AcDbLine
   6
CONTINUOUS
  62
7
  10
 3783.5000000000
  20
 2675.7500000000
  30
0.0
  11
 3846.5000000000
  21
 2675.7500000000
  31
0.0
   0
LINE
   5
10D
 100
AcDbEntity
   8
LEVEL002
 370
30
 100
AcDbLine
   6
CONTINUOUS
  62
7
  10
 3846.5000000000
  20
 2675.7500000000
  30
0.0
  11
 3846.5000000000
  21
 2657.7500000000
  31
0.0
   0
LINE
   5
10E
 100
AcDbEntity
   8
LEVEL002
 370
30
 100
AcDbLine
   6
CONTINUOUS
  62
7
  10
 3846.5000000000
  20
 2657.7500000000
  30
0.0
  11
 3783.5000000000
  21
 2657.7500000000
  31
0.0
   0
LINE
   5
10F
 100
AcDbEntity
   8
LEVEL002
 370
30
 100
AcDbLine
   6
CONTINUOUS
  62
7
  10
 3783.5000000000
  20
 2657.7500000000
  30
0.0
  11
 3783.5000000000
  21
 2648.7500000000
  31
0.0
   0
LINE
   5
110
 100
AcDbEntity
   8
LEVEL002
 370
30
 100
AcDbLine
   6
CONTINUOUS
  62
7
  10
 3783.5000000000
  20
 2648.7500000000
  30
0.0
  11
 3855.5000000000
  21
 2648.7500000000
  31
0.0
   0
LINE
   5
111
 100
AcDbEntity
   8
LEVEL002
 370
30
 100
AcDbLine
   6
CONTINUOUS
  62
7
  10
 3855.5000000000
  20
 2648.7500000000
  30
0.0
  11
 3855.5000000000
  21
 2612.7500000000
  31
0.0
   0
LINE
   5
112
 100
AcDbEntity
   8
LEVEL002
 370
30
 100
AcDbLine
   6
CONTINUOUS
  62
7
  10
 3855.5000000000
  20
 2612.7500000000
  30
0.0
  11
 3747.5000000000
  21
 2612.7500000000
  31
0.0
   0
LINE
   5
113
 100
AcDbEntity
   8
LEVEL002
 370
30
 100
AcDbLine
   6
CONTINUOUS
  62
7
  10
 3747.5000000000
  20
 2612.7500000000
  30
0.0
  11
 3747.5000000000
  21
 2684.7500000000
  31
0.0
   0
LINE
   5
114
 100
AcDbEntity
   8
LEVEL002
 370
30
 100
AcDbLine
   6
CONTINUOUS
  62
7
  10
 3747.5000000000
  20
 2684.7500000000
  30
0.0
  11
 3711.5000000000
  21
 2684.7500000000
  31
0.0
   0
LINE
   5
115
 100
AcDbEntity
   8
LEVEL002
 370
30
 100
AcDbLine
   6
CONTINUOUS
  62
7
  10
 3711.5000000000
  20
 2684.7500000000
  30
0.0
  11
 3711.5000000000
  21
 2612.7500000000
  31
0.0
   0
LINE
   5
116
 100
AcDbEntity
   8
LEVEL002
 370
30
 100
AcDbLine
   6
CONTINUOUS
  62
7
  10
 3711.5000000000
  20
 2612.7500000000
  30
0.0
  11
 3585.5000000000
  21
 2612.7500000000
  31
0.0
   0
LINE
   5
117
 100
AcDbEntity
   8
LEVEL002
 370
30
 100
AcDbLine
   6
CONTINUOUS
  62
7
  10
 3585.5000000000
  20
 2612.7500000000
  30
0.0
  11
 3585.5000000000
  21
 2720.7500000000
  31
0.0
   0
LINE
   5
118
 100
AcDbEntity
   8
LEVEL002
 370
30
 100
AcDbLine
   6
CONTINUOUS
  62
7
  10
 3585.5000000000
  20
 2720.7500000000
  30
0.0
  11
 3513.5000000000
  21
 2612.7500000000
  31
0.0
   0
LINE
   5
119
 100
AcDbEntity
   8
LEVEL002
 370
30
 100
AcDbLine
   6
CONTINUOUS
  62
7
  10
 3513.5000000000
  20
 2612.7500000000
  30
0.0
  11
 3459.5000000000
  21
 2612.7500000000
  31
0.0
   0
LINE
   5
11A
 100
AcDbEntity
   8
LEVEL002
 370
30
 100
AcDbLine
   6
CONTINUOUS
  62
7
  10
 3573.5000000000
  20
 2681.1166923470
  30
0.0
  11
 3527.9222051020
  21
 2612.7500000000
  31
0.0
   0
LINE
   5
11B
 100
AcDbEntity
   8
LEVEL002
 370
30
 100
AcDbLine
   6
CONTINUOUS
  62
7
  10
 3527.9222051020
  20
 2612.7500000000
  30
0.0
  11
 3573.5000000000
  21
 2612.7500000000
  31
0.0
   0
LINE
   5
11C
 100
AcDbEntity
   8
LEVEL002
 370
30
 100
AcDbLine
   6
CONTINUOUS
  62
7
  10
 3573.5000000000
  20
 2612.7500000000
  30
0.0
  11
 3573.5000000000
  21
 2681.1166923470
  31
0.0
   0
ARC
   5
11D
 100
AcDbEntity
   8
LEVEL002
 370
30
   6
CONTINUOUS
  62
7
 100
AcDbCircle
  10
 3909.5000000000
  20
 2666.7500000000
  30
0.0
  40
 54.000000000000
 100
AcDbArc
  50
 90.000000000000
  51
 270.00000000000
   0
ARC
   5
11E
 100
AcDbEntity
   8
LEVEL002
 370
30
   6
CONTINUOUS
  62
7
 100
AcDbCircle
  10
 3909.5000000000
  20
 2666.7500000000
  30
0.0
  40
 18.000000000000
 100
AcDbArc
  50
 90.000000000000
  51
 270.00000000000
   0
LINE
   5
11F
 100
AcDbEntity
   8
LEVEL002
 370
30
 100
AcDbLine
   6
CONTINUOUS
  62
7
  10
 3909.5000000000
  20
 2720.7500000000
  30
0.0
  11
 3963.5000000000
  21
 2720.7500000000
  31
0.0
   0
LINE
   5
120
 100
AcDbEntity
   8
LEVEL002
 370
30
 100
AcDbLine
   6
CONTINUOUS
  62
7
  10
 3963.5000000000
  20
 2720.7500000000
  30
0.0
  11
 3963.5000000000
  21
 2684.7500000000
  31
0.0
   0
LINE
   5
121
 100
AcDbEntity
   8
LEVEL002
 370
30
 100
AcDbLine
   6
CONTINUOUS
  62
7
  10
 3963.5000000000
  20
 2684.7500000000
  30
0.0
  11
 3909.5000000000
  21
 2684.7500000000
  31
0.0
   0
LINE
   5
122
 100
AcDbEntity
   8
LEVEL002
 370
30
 100
AcDbLine
   6
CONTINUOUS
  62
7
  10
 3369.5000000000
  20
 2720.7500000000
  30
0.0
  11
 3369.5000000000
  21
 2612.7500000000
  31
0.0
   0
LINE
   5
123
 100
AcDbEntity
   8
LEVEL002
 370
30
 100
AcDbLine
   6
CONTINUOUS
  62
7
  10
 3369.5000000000
  20
 2612.7500000000
  30
0.0
  11
 3405.5000000000
  21
 2612.7500000000
  31
0.0
   0
LINE
   5
124
 100
AcDbEntity
   8
LEVEL002
 370
30
 100
AcDbLine
   6
CONTINUOUS
  62
7
  10
 3405.5000000000
  20
 2612.7500000000
  30
0.0
  11
 3405.5000000000
  21
 2630.7500000000
  31
0.0
   0
LINE
   5
125
 100
AcDbEntity
   8
LEVEL002
 370
30
 100
AcDbLine
   6
CONTINUOUS
  62
7
  10
 3405.5000000000
  20
 2630.7500000000
  30
0.0
  11
 3441.5000000000
  21
 2630.7500000000
  31
0.0
   0
ARC
   5
126
 100
AcDbEntity
   8
LEVEL002
 370
30
   6
CONTINUOUS
  62
7
 100
AcDbCircle
  10
 3441.5000000000
  20
 2675.7500000000
  30
0.0
  40
 45.000000000000
 100
AcDbArc
  50
 270.00000000000
  51
 90.000000000000
   0
LINE
   5
127
 100
AcDbEntity
   8
LEVEL002
 370
30
 100
AcDbLine
   6
CONTINUOUS
  62
7
  10
 3441.5000000000
  20
 2720.7500000000
  30
0.0
  11
 3369.5000000000
  21
 2720.7500000000
  31
0.0
   0
LINE
   5
128
 100
AcDbEntity
   8
LEVEL002
 370
30
 100
AcDbLine
   6
CONTINUOUS
  62
7
  10
 3405.5000000000
  20
 2684.7500000000
  30
0.0
  11
 3405.5000000000
  21
 2666.7500000000
  31
0.0
   0
LINE
   5
129
 100
AcDbEntity
   8
LEVEL002
 370
30
 100
AcDbLine
   6
CONTINUOUS
  62
7
  10
 3405.5000000000
  20
 2666.7500000000
  30
0.0
  11
 3441.5000000000
  21
 2666.7500000000
  31
0.0
   0
ARC
   5
12A
 100
AcDbEntity
   8
LEVEL002
 370
30
   6
CONTINUOUS
  62
7
 100
AcDbCircle
  10
 3441.5000000000
  20
 2675.7500000000
  30
0.0
  40
 9.0000000000000
 100
AcDbArc
  50
 270.00000000000
  51
 90.000000000000
   0
LINE
   5
12B
 100
AcDbEntity
   8
LEVEL002
 370
30
 100
AcDbLine
   6
CONTINUOUS
  62
7
  10
 3441.5000000000
  20
 2684.7500000000
  30
0.0
  11
 3405.5000000000
  21
 2684.7500000000
  31
0.0
   0
LINE
   5
12C
 100
AcDbEntity
   8
LEVEL002
 370
30
 100
AcDbLine
   6
CONTINUOUS
  62
7
  10
 3531.5000000000
  20
 2720.7500000000
  30
0.0
  11
 3459.5000000000
  21
 2612.7500000000
  31
0.0
   0
LINE
   5
12D
 100
AcDbEntity
   8
LEVEL002
 370
30
 100
AcDbLine
   6
CONTINUOUS
  62
7
  10
 3459.5000000000
  20
 2612.7500000000
  30
0.0
  11
 3513.5000000000
  21
 2612.7500000000
  31
0.0
   0
LINE
   5
12E
 100
AcDbEntity
   8
LEVEL002
 370
30
 100
AcDbLine
   6
CONTINUOUS
  62
7
  10
 3513.5000000000
  20
 2612.7500000000
  30
0.0
  11
 3585.5000000000
  21
 2720.7500000000
  31
0.0
   0
LINE
   5
12F
 100
AcDbEntity
   8
LEVEL002
 370
30
 100
AcDbLine
   6
CONTINUOUS
  62
7
  10
 3585.5000000000
  20
 2720.7500000000
  30
0.0
  11
 3531.5000000000
  21
 2720.7500000000
  31
0.0
   0
LINE
   5
130
 100
AcDbEntity
   8
LEVEL002
 370
30
 100
AcDbLine
   6
CONTINUOUS
  62
7
  10
 3573.5000000000
  20
 2612.7500000000
  30
0.0
  11
 3573.5000000000
  21
 2681.1166923470
  31
0.0
   0
LINE
   5
131
 100
AcDbEntity
   8
LEVEL002
 370
30
 100
AcDbLine
   6
CONTINUOUS
  62
7
  10
 3573.5000000000
  20
 2681.1166923470
  30
0.0
  11
 3527.9222051020
  21
 2612.7500000000
  31
0.0
   0
LINE
   5
132
 100
AcDbEntity
   8
LEVEL002
 370
30
 100
AcDbLine
   6
CONTINUOUS
  62
7
  10
 3527.9222051020
  20
 2612.7500000000
  30
0.0
  11
 3573.5000000000
  21
 2612.7500000000
  31
0.0
   0
LINE
   5
133
 100
AcDbEntity
   8
LEVEL002
 370
30
 100
AcDbLine
   6
CONTINUOUS
  62
7
  10
 3585.5000000000
  20
 2612.7500000000
  30
0.0
  11
 3711.5000000000
  21
 2612.7500000000
  31
0.0
   0
LINE
   5
134
 100
AcDbEntity
   8
LEVEL002
 370
30
 100
AcDbLine
   6
CONTINUOUS
  62
7
  10
 3711.5000000000
  20
 2612.7500000000
  30
0.0
  11
 3711.5000000000
  21
 2684.7500000000
  31
0.0
   0
LINE
   5
135
 100
AcDbEntity
   8
LEVEL002
 370
30
 100
AcDbLine
   6
CONTINUOUS
  62
7
  10
 3711.5000000000
  20
 2684.7500000000
  30
0.0
  11
 3747.5000000000
  21
 2684.7500000000
  31
0.0
   0
LINE
   5
136
 100
AcDbEntity
   8
LEVEL002
 370
30
 100
AcDbLine
   6
CONTINUOUS
  62
7
  10
 3747.5000000000
  20
 2684.7500000000
  30
0.0
  11
 3747.5000000000
  21
 2612.7500000000
  31
0.0
   0
LINE
   5
137
 100
AcDbEntity
   8
LEVEL002
 370
30
 100
AcDbLine
   6
CONTINUOUS
  62
7
  10
 3747.5000000000
  20
 2612.7500000000
  30
0.0
  11
 3855.5000000000
  21
 2612.7500000000
  31
0.0
   0
LINE
   5
138
 100
AcDbEntity
   8
LEVEL002
 370
30
 100
AcDbLine
   6
CONTINUOUS
  62
7
  10
 3855.5000000000
  20
 2612.7500000000
  30
0.0
  11
 3855.5000000000
  21
 2648.7500000000
  31
0.0
   0
LINE
   5
139
 100
AcDbEntity
   8
LEVEL002
 370
30
 100
AcDbLine
   6
CONTINUOUS
  62
7
  10
 3855.5000000000
  20
 2648.7500000000
  30
0.0
  11
 3783.5000000000
  21
 2648.7500000000
  31
0.0
   0
LINE
   5
13A
 100
AcDbEntity
   8
LEVEL002
 370
30
 100
AcDbLine
   6
CONTINUOUS
  62
7
  10
 3783.5000000000
  20
 2648.7500000000
  30
0.0
  11
 3783.5000000000
  21
 2657.7500000000
  31
0.0
   0
LINE
   5
13B
 100
AcDbEntity
   8
LEVEL002
 370
30
 100
AcDbLine
   6
CONTINUOUS
  62
7
  10
 3783.5000000000
  20
 2657.7500000000
  30
0.0
  11
 3846.5000000000
  21
 2657.7500000000
  31
0.0
   0
LINE
   5
13C
 100
AcDbEntity
   8
LEVEL002
 370
30
 100
AcDbLine
   6
CONTINUOUS
  62
7
  10
 3846.5000000000
  20
 2657.7500000000
  30
0.0
  11
 3846.5000000000
  21
 2675.7500000000
  31
0.0
   0
LINE
   5
13D
 100
AcDbEntity
   8
LEVEL002
 370
30
 100
AcDbLine
   6
CONTINUOUS
  62
7
  10
 3846.5000000000
  20
 2675.7500000000
  30
0.0
  11
 3783.5000000000
  21
 2675.7500000000
  31
0.0
   0
LINE
   5
13E
 100
AcDbEntity
   8
LEVEL002
 370
30
 100
AcDbLine
   6
CONTINUOUS
  62
7
  10
 3783.5000000000
  20
 2675.7500000000
  30
0.0
  11
 3783.5000000000
  21
 2684.7500000000
  31
0.0
   0
LINE
   5
13F
 100
AcDbEntity
   8
LEVEL002
 370
30
 100
AcDbLine
   6
CONTINUOUS
  62
7
  10
 3783.5000000000
  20
 2684.7500000000
  30
0.0
  11
 3855.5000000000
  21
 2684.7500000000
  31
0.0
   0
LINE
   5
140
 100
AcDbEntity
   8
LEVEL002
 370
30
 100
AcDbLine
   6
CONTINUOUS
  62
7
  10
 3855.5000000000
  20
 2684.7500000000
  30
0.0
  11
 3855.5000000000
  21
 2720.7500000000
  31
0.0
   0
LINE
   5
141
 100
AcDbEntity
   8
LEVEL002
 370
30
 100
AcDbLine
   6
CONTINUOUS
  62
7
  10
 3855.5000000000
  20
 2720.7500000000
  30
0.0
  11
 3639.5000000000
  21
 2720.7500000000
  31
0.0
   0
LINE
   5
142
 100
AcDbEntity
   8
LEVEL002
 370
30
 100
AcDbLine
   6
CONTINUOUS
  62
7
  10
 3639.5000000000
  20
 2720.7500000000
  30
0.0
  11
 3639.5000000000
  21
 2684.7500000000
  31
0.0
   0
LINE
   5
143
 100
AcDbEntity
   8
LEVEL002
 370
30
 100
AcDbLine
   6
CONTINUOUS
  62
7
  10
 3639.5000000000
  20
 2684.7500000000
  30
0.0
  11
 3675.5000000000
  21
 2684.7500000000
  31
0.0
   0
LINE
   5
144
 100
AcDbEntity
   8
LEVEL002
 370
30
 100
AcDbLine
   6
CONTINUOUS
  62
7
  10
 3675.5000000000
  20
 2684.7500000000
  30
0.0
  11
 3675.5000000000
  21
 2648.7500000000
  31
0.0
   0
LINE
   5
145
 100
AcDbEntity
   8
LEVEL002
 370
30
 100
AcDbLine
   6
CONTINUOUS
  62
7
  10
 3675.5000000000
  20
 2648.7500000000
  30
0.0
  11
 3621.5000000000
  21
 2648.7500000000
  31
0.0
   0
LINE
   5
146
 100
AcDbEntity
   8
LEVEL002
 370
30
 100
AcDbLine
   6
CONTINUOUS
  62
7
  10
 3621.5000000000
  20
 2648.7500000000
  30
0.0
  11
 3621.5000000000
  21
 2720.7500000000
  31
0.0
   0
LINE
   5
147
 100
AcDbEntity
   8
LEVEL002
 370
30
 100
AcDbLine
   6
CONTINUOUS
  62
7
  10
 3621.5000000000
  20
 2720.7500000000
  30
0.0
  11
 3585.5000000000
  21
 2720.7500000000
  31
0.0
   0
LINE
   5
148
 100
AcDbEntity
   8
LEVEL002
 370
30
 100
AcDbLine
   6
CONTINUOUS
  62
7
  10
 3585.5000000000
  20
 2720.7500000000
  30
0.0
  11
 3585.5000000000
  21
 2612.7500000000
  31
0.0
   0
LINE
   5
149
 100
AcDbEntity
   8
LEVEL002
 370
30
 100
AcDbLine
   6
CONTINUOUS
  62
7
  10
 3909.5000000000
  20
 2612.7500000000
  30
0.0
  11
 3963.5000000000
  21
 2612.7500000000
  31
0.0
   0
LINE
   5
14A
 100
AcDbEntity
   8
LEVEL002
 370
30
 100
AcDbLine
   6
CONTINUOUS
  62
7
  10
 3963.5000000000
  20
 2612.7500000000
  30
0.0
  11
 3963.5000000000
  21
 2648.7500000000
  31
0.0
   0
LINE
   5
14B
 100
AcDbEntity
   8
LEVEL002
 370
30
 100
AcDbLine
   6
CONTINUOUS
  62
7
  10
 3963.5000000000
  20
 2648.7500000000
  30
0.0
  11
 3909.5000000000
  21
 2648.7500000000
  31
0.0
   0
ARC
   5
14C
 100
AcDbEntity
   8
LEVEL002
 370
30
   6
CONTINUOUS
  62
7
 100
AcDbCircle
  10
 3909.5000000000
  20
 2666.7500000000
  30
0.0
  40
 18.000000000000
 100
AcDbArc
  50
 90.000000000000
  51
 270.00000000000
   0
LINE
   5
14D
 100
AcDbEntity
   8
LEVEL002
 370
30
 100
AcDbLine
   6
CONTINUOUS
  62
7
  10
 3909.5000000000
  20
 2684.7500000000
  30
0.0
  11
 3963.5000000000
  21
 2684.7500000000
  31
0.0
   0
LINE
   5
14E
 100
AcDbEntity
   8
LEVEL002
 370
30
 100
AcDbLine
   6
CONTINUOUS
  62
7
  10
 3963.5000000000
  20
 2684.7500000000
  30
0.0
  11
 3963.5000000000
  21
 2720.7500000000
  31
0.0
   0
LINE
   5
14F
 100
AcDbEntity
   8
LEVEL002
 370
30
 100
AcDbLine
   6
CONTINUOUS
  62
7
  10
 3963.5000000000
  20
 2720.7500000000
  30
0.0
  11
 3909.5000000000
  21
 2720.7500000000
  31
0.0
   0
ARC
   5
150
 100
AcDbEntity
   8
LEVEL002
 370
30
   6
CONTINUOUS
  62
7
 100
AcDbCircle
  10
 3909.5000000000
  20
 2666.7500000000
  30
0.0
  40
 54.000000000000
 100
AcDbArc
  50
 90.000000000000
  51
 270.00000000000
   0
MTEXT
   5
152
 100
AcDbEntity
   8
LEVEL002
 370
30
  62
7
 100
AcDbMText
  10
 3369.5000000000
  20
 2738.7500000000
  30
0.0
  40
 37.500000000000
  41
0.0
  71
7
  72
1
   1
\T1.000000;ケージーパルテック株式会社
   7
GMM001
  44
 0.79999984000003
   0
LINE
   5
153
 100
AcDbEntity
   8
LEVEL002
 370
30
 100
AcDbLine
   6
CONTINUOUS
  62
7
  10
 3333.5000000000
  20
 2636.7500000000
  30
0.0
  11
 3288.5000000000
  21
 2708.7500000000
  31
0.0
   0
LINE
   5
154
 100
AcDbEntity
   8
LEVEL002
 370
30
 100
AcDbLine
   6
CONTINUOUS
  62
7
  10
 3288.5000000000
  20
 2708.7500000000
  30
0.0
  11
 3333.5000000000
  21
 2708.7500000000
  31
0.0
   0
LINE
   5
155
 100
AcDbEntity
   8
LEVEL002
 370
30
 100
AcDbLine
   6
CONTINUOUS
  62
7
  10
 3333.5000000000
  20
 2708.7500000000
  30
0.0
  11
 3333.5000000000
  21
 2636.7500000000
  31
0.0
   0
LINE
   5
156
 100
AcDbEntity
   8
LEVEL002
 370
30
 100
AcDbLine
   6
CONTINUOUS
  62
7
  10
 3288.5000000000
  20
 2708.7500000000
  30
0.0
  11
 3333.5000000000
  21
 2636.7500000000
  31
0.0
   0
LINE
   5
157
 100
AcDbEntity
   8
LEVEL002
 370
30
 100
AcDbLine
   6
CONTINUOUS
  62
7
  10
 3333.5000000000
  20
 2636.7500000000
  30
0.0
  11
 3333.5000000000
  21
 2708.7500000000
  31
0.0
   0
LINE
   5
158
 100
AcDbEntity
   8
LEVEL002
 370
30
 100
AcDbLine
   6
CONTINUOUS
  62
7
  10
 3333.5000000000
  20
 2708.7500000000
  30
0.0
  11
 3288.5000000000
  21
 2708.7500000000
  31
0.0
   0
LINE
   5
159
 100
AcDbEntity
   8
LEVEL002
 370
30
 100
AcDbLine
   6
CONTINUOUS
  62
7
  10
 3190.5000000000
  20
 2804.7500000000
  30
0.0
  11
 3126.5000000000
  21
 2708.7500000000
  31
0.0
   0
LINE
   5
15A
 100
AcDbEntity
   8
LEVEL002
 370
30
 100
AcDbLine
   6
CONTINUOUS
  62
7
  10
 3126.5000000000
  20
 2708.7500000000
  30
0.0
  11
 3190.5000000000
  21
 2612.7500000000
  31
0.0
   0
LINE
   5
15B
 100
AcDbEntity
   8
LEVEL002
 370
30
 100
AcDbLine
   6
CONTINUOUS
  62
7
  10
 3244.5000000000
  20
 2612.7500000000
  30
0.0
  11
 3180.5000000000
  21
 2708.7500000000
  31
0.0
   0
LINE
   5
15C
 100
AcDbEntity
   8
LEVEL002
 370
30
 100
AcDbLine
   6
CONTINUOUS
  62
7
  10
 3180.5000000000
  20
 2708.7500000000
  30
0.0
  11
 3244.5000000000
  21
 2804.7500000000
  31
0.0
   0
LINE
   5
15D
 100
AcDbEntity
   8
LEVEL002
 370
30
 100
AcDbLine
   6
CONTINUOUS
  62
7
  10
 3271.5000000000
  20
 2804.7500000000
  30
0.0
  11
 3207.5000000000
  21
 2708.7500000000
  31
0.0
   0
LINE
   5
15E
 100
AcDbEntity
   8
LEVEL002
 370
30
 100
AcDbLine
   6
CONTINUOUS
  62
7
  10
 3207.5000000000
  20
 2708.7500000000
  30
0.0
  11
 3271.5000000000
  21
 2612.7500000000
  31
0.0
   0
LINE
   5
15F
 100
AcDbEntity
   8
LEVEL002
 370
30
 100
AcDbLine
   6
CONTINUOUS
  62
7
  10
 3325.5000000000
  20
 2612.7500000000
  30
0.0
  11
 3261.5000000000
  21
 2708.7500000000
  31
0.0
   0
LINE
   5
160
 100
AcDbEntity
   8
LEVEL002
 370
30
 100
AcDbLine
   6
CONTINUOUS
  62
7
  10
 3261.5000000000
  20
 2708.7500000000
  30
0.0
  11
 3325.5000000000
  21
 2804.7500000000
  31
0.0
   0
LINE
   5
161
 100
AcDbEntity
   8
LEVEL002
 370
30
 100
AcDbLine
   6
CONTINUOUS
  62
7
  10
 3190.5000000000
  20
 2612.7500000000
  30
0.0
  11
 3126.5000000000
  21
 2708.7500000000
  31
0.0
   0
LINE
   5
162
 100
AcDbEntity
   8
LEVEL002
 370
30
 100
AcDbLine
   6
CONTINUOUS
  62
7
  10
 3126.5000000000
  20
 2708.7500000000
  30
0.0
  11
 3190.5000000000
  21
 2804.7500000000
  31
0.0
   0
LINE
   5
163
 100
AcDbEntity
   8
LEVEL002
 370
30
 100
AcDbLine
   6
CONTINUOUS
  62
7
  10
 3190.5000000000
  20
 2804.7500000000
  30
0.0
  11
 3244.5000000000
  21
 2804.7500000000
  31
0.0
   0
LINE
   5
164
 100
AcDbEntity
   8
LEVEL002
 370
30
 100
AcDbLine
   6
CONTINUOUS
  62
7
  10
 3244.5000000000
  20
 2804.7500000000
  30
0.0
  11
 3180.5000000000
  21
 2708.7500000000
  31
0.0
   0
LINE
   5
165
 100
AcDbEntity
   8
LEVEL002
 370
30
 100
AcDbLine
   6
CONTINUOUS
  62
7
  10
 3180.5000000000
  20
 2708.7500000000
  30
0.0
  11
 3244.5000000000
  21
 2612.7500000000
  31
0.0
   0
LINE
   5
166
 100
AcDbEntity
   8
LEVEL002
 370
30
 100
AcDbLine
   6
CONTINUOUS
  62
7
  10
 3244.5000000000
  20
 2612.7500000000
  30
0.0
  11
 3190.5000000000
  21
 2612.7500000000
  31
0.0
   0
LINE
   5
167
 100
AcDbEntity
   8
LEVEL002
 370
30
 100
AcDbLine
   6
CONTINUOUS
  62
7
  10
 3271.5000000000
  20
 2612.7500000000
  30
0.0
  11
 3207.5000000000
  21
 2708.7500000000
  31
0.0
   0
LINE
   5
168
 100
AcDbEntity
   8
LEVEL002
 370
30
 100
AcDbLine
   6
CONTINUOUS
  62
7
  10
 3207.5000000000
  20
 2708.7500000000
  30
0.0
  11
 3271.5000000000
  21
 2804.7500000000
  31
0.0
   0
LINE
   5
169
 100
AcDbEntity
   8
LEVEL002
 370
30
 100
AcDbLine
   6
CONTINUOUS
  62
7
  10
 3271.5000000000
  20
 2804.7500000000
  30
0.0
  11
 3325.5000000000
  21
 2804.7500000000
  31
0.0
   0
LINE
   5
16A
 100
AcDbEntity
   8
LEVEL002
 370
30
 100
AcDbLine
   6
CONTINUOUS
  62
7
  10
 3325.5000000000
  20
 2804.7500000000
  30
0.0
  11
 3261.5000000000
  21
 2708.7500000000
  31
0.0
   0
LINE
   5
16B
 100
AcDbEntity
   8
LEVEL002
 370
30
 100
AcDbLine
   6
CONTINUOUS
  62
7
  10
 3261.5000000000
  20
 2708.7500000000
  30
0.0
  11
 3325.5000000000
  21
 2612.7500000000
  31
0.0
   0
LINE
   5
16C
 100
AcDbEntity
   8
LEVEL002
 370
30
 100
AcDbLine
   6
CONTINUOUS
  62
7
  10
 3325.5000000000
  20
 2612.7500000000
  30
0.0
  11
 3271.5000000000
  21
 2612.7500000000
  31
0.0
   0
LINE
   5
16D
 100
AcDbEntity
   8
LEVEL001
 370
30
 100
AcDbLine
   6
DOT
  62
7
  10
0.0
  20
0.0
  30
0.0
  11
 4200.0000000000
  21
0.0
  31
0.0
   0
LINE
   5
16E
 100
AcDbEntity
   8
LEVEL001
 370
30
 100
AcDbLine
   6
DOT
  62
7
  10
 4200.0000000000
  20
0.0
  30
0.0
  11
 4200.0000000000
  21
 2970.0000000000
  31
0.0
   0
LINE
   5
16F
 100
AcDbEntity
   8
LEVEL001
 370
30
 100
AcDbLine
   6
DOT
  62
7
  10
 4200.0000000000
  20
 2970.0000000000
  30
0.0
  11
0.0
  21
 2970.0000000000
  31
0.0
   0
LINE
   5
170
 100
AcDbEntity
   8
LEVEL001
 370
30
 100
AcDbLine
   6
DOT
  62
7
  10
0.0
  20
 2970.0000000000
  30
0.0
  11
0.0
  21
0.0
  31
0.0
   0
LINE
   5
171
 100
AcDbEntity
   8
LEVEL002
 370
40
 100
AcDbLine
   6
CONTINUOUS
  62
3
  10
 154.99999999950
  20
 2750.0000000000
  30
0.0
  11
 3044.9999999995
  21
 2750.0000000000
  31
0.0
   0
LINE
   5
172
 100
AcDbEntity
   8
LEVEL002
 370
40
 100
AcDbLine
   6
CONTINUOUS
  62
3
  10
 3044.9999999995
  20
 2567.5000000000
  30
0.0
  11
 4044.9999999995
  21
 2567.5000000000
  31
0.0
   0
LINE
   5
173
 100
AcDbEntity
   8
LEVEL002
 370
40
 100
AcDbLine
   6
CONTINUOUS
  62
3
  10
 3044.9999999995
  20
 2367.5000000000
  30
0.0
  11
 4044.9999999995
  21
 2367.5000000000
  31
0.0
   0
LINE
   5
174
 100
AcDbEntity
   8
LEVEL002
 370
40
 100
AcDbLine
   6
CONTINUOUS
  62
3
  10
 3044.9999999995
  20
 2167.5000000000
  30
0.0
  11
 4044.9999999995
  21
 2167.5000000000
  31
0.0
   0
LINE
   5
175
 100
AcDbEntity
   8
LEVEL002
 370
40
 100
AcDbLine
   6
CONTINUOUS
  62
3
  10
 3044.9999999995
  20
 720.00000000010
  30
0.0
  11
 4044.9999999995
  21
 720.00000000010
  31
0.0
   0
LINE
   5
176
 100
AcDbEntity
   8
LEVEL002
 370
40
 100
AcDbLine
   6
CONTINUOUS
  62
3
  10
 3044.9999999995
  20
 520.00000000010
  30
0.0
  11
 4044.9999999995
  21
 520.00000000010
  31
0.0
   0
LINE
   5
177
 100
AcDbEntity
   8
LEVEL002
 370
40
 100
AcDbLine
   6
CONTINUOUS
  62
3
  10
 3044.9999999995
  20
 320.00000000010
  30
0.0
  11
 4044.9999999995
  21
 320.00000000010
  31
0.0
   0
LINE
   5
178
 100
AcDbEntity
   8
LEVEL002
 370
40
 100
AcDbLine
   6
CONTINUOUS
  62
3
  10
 3544.9999999995
  20
 520.00000000010
  30
0.0
  11
 3544.9999999995
  21
 120.00000000010
  31
0.0
   0
LINE
   5
179
 100
AcDbEntity
   8
LEVEL002
 370
40
 100
AcDbLine
   6
CONTINUOUS
  62
3
  10
 3544.9999999995
  20
 386.66666666680
  30
0.0
  11
 4044.9999999995
  21
 386.66666666680
  31
0.0
   0
LINE
   5
17A
 100
AcDbEntity
   8
LEVEL002
 370
40
 100
AcDbLine
   6
CONTINUOUS
  62
3
  10
 3544.9999999995
  20
 453.33333333345
  30
0.0
  11
 4044.9999999995
  21
 453.33333333345
  31
0.0
   0
LINE
   5
17B
 100
AcDbEntity
   8
LEVEL002
 370
50
 100
AcDbLine
   6
CONTINUOUS
  62
4
  10
 4044.9999999995
  20
 2850.0000000000
  30
0.0
  11
 154.99999999950
  21
 2850.0000000000
  31
0.0
   0
LINE
   5
17C
 100
AcDbEntity
   8
LEVEL002
 370
50
 100
AcDbLine
   6
CONTINUOUS
  62
4
  10
 3044.9999999995
  20
 2850.0000000000
  30
0.0
  11
 3044.9999999995
  21
 120.00000000010
  31
0.0
   0
LINE
   5
17D
 100
AcDbEntity
   8
LEVEL002
 370
50
 100
AcDbLine
   6
CONTINUOUS
  62
4
  10
 4044.9999999995
  20
 120.00000000010
  30
0.0
  11
 4044.9999999995
  21
 2850.0000000000
  31
0.0
   0
LINE
   5
17E
 100
AcDbEntity
   8
LEVEL002
 370
50
 100
AcDbLine
   6
CONTINUOUS
  62
4
  10
 154.99999999950
  20
 2850.0000000000
  30
0.0
  11
 154.99999999950
  21
 120.00000000010
  31
0.0
   0
LINE
   5
17F
 100
AcDbEntity
   8
LEVEL002
 370
50
 100
AcDbLine
   6
CONTINUOUS
  62
4
  10
 154.99999999950
  20
 120.00000000010
  30
0.0
  11
 4044.9999999995
  21
 120.00000000010
  31
0.0
   0
HATCH
   5
180
 100
AcDbEntity
   8
LEVEL001
  62
1
 100
AcDbHatch
  10
0.0
  20
0.0
  30
0.0
 210
0.0
 220
0.0
 230
 1.0000000000000
   2
SOLID
  70
1
  71
1
  91
7
  92
1
  93
6
  72
1
  10
 3244.5000000000
  20
 2804.7500000000
  11
 3180.5000000000
  21
 2708.7500000000
  72
1
  10
 3180.5000000000
  20
 2708.7500000000
  11
 3244.5000000000
  21
 2612.7500000000
  72
1
  10
 3244.5000000000
  20
 2612.7500000000
  11
 3190.5000000000
  21
 2612.7500000000
  72
1
  10
 3190.5000000000
  20
 2612.7500000000
  11
 3126.5000000000
  21
 2708.7500000000
  72
1
  10
 3126.5000000000
  20
 2708.7500000000
  11
 3190.5000000000
  21
 2804.7500000000
  72
1
  10
 3190.5000000000
  20
 2804.7500000000
  11
 3244.5000000000
  21
 2804.7500000000
  97
1
 330

  92
16
  93
6
  72
1
  10
 3271.5000000000
  20
 2804.7500000000
  11
 3325.5000000000
  21
 2804.7500000000
  72
1
  10
 3325.5000000000
  20
 2804.7500000000
  11
 3261.5000000000
  21
 2708.7500000000
  72
1
  10
 3261.5000000000
  20
 2708.7500000000
  11
 3325.5000000000
  21
 2612.7500000000
  72
1
  10
 3325.5000000000
  20
 2612.7500000000
  11
 3271.5000000000
  21
 2612.7500000000
  72
1
  10
 3271.5000000000
  20
 2612.7500000000
  11
 3207.5000000000
  21
 2708.7500000000
  72
1
  10
 3207.5000000000
  20
 2708.7500000000
  11
 3271.5000000000
  21
 2804.7500000000
  97
1
 330

  92
16
  93
3
  72
1
  10
 3333.5000000000
  20
 2708.7500000000
  11
 3288.5000000000
  21
 2708.7500000000
  72
1
  10
 3288.5000000000
  20
 2708.7500000000
  11
 3333.5000000000
  21
 2636.7500000000
  72
1
  10
 3333.5000000000
  20
 2636.7500000000
  11
 3333.5000000000
  21
 2708.7500000000
  97
1
 330

  92
16
  93
6
  72
1
  10
 3369.5000000000
  20
 2720.7500000000
  11
 3441.5000000000
  21
 2720.7500000000
  72
2
  10
 3441.5000000000
  20
 2675.7500000000
  40
 45.000000000000
  50
 270.00000000000
  51
 90.000000000000
  73
0
  72
1
  10
 3441.5000000000
  20
 2630.7500000000
  11
 3405.5000000000
  21
 2630.7500000000
  72
1
  10
 3405.5000000000
  20
 2630.7500000000
  11
 3405.5000000000
  21
 2612.7500000000
  72
1
  10
 3405.5000000000
  20
 2612.7500000000
  11
 3369.5000000000
  21
 2612.7500000000
  72
1
  10
 3369.5000000000
  20
 2612.7500000000
  11
 3369.5000000000
  21
 2720.7500000000
  97
1
 330

  92
16
  93
4
  72
1
  10
 3441.5000000000
  20
 2684.7500000000
  11
 3405.5000000000
  21
 2684.7500000000
  72
1
  10
 3405.5000000000
  20
 2684.7500000000
  11
 3405.5000000000
  21
 2666.7500000000
  72
1
  10
 3405.5000000000
  20
 2666.7500000000
  11
 3441.5000000000
  21
 2666.7500000000
  72
2
  10
 3441.5000000000
  20
 2675.7500000000
  40
 9.0000000000000
  50
 270.00000000000
  51
 90.000000000000
  73
1
  97
1
 330

  92
16
  93
4
  72
1
  10
 3459.5000000000
  20
 2612.7500000000
  11
 3531.5000000000
  21
 2720.7500000000
  72
1
  10
 3531.5000000000
  20
 2720.7500000000
  11
 3585.5000000000
  21
 2720.7500000000
  72
1
  10
 3585.5000000000
  20
 2720.7500000000
  11
 3513.5000000000
  21
 2612.7500000000
  72
1
  10
 3513.5000000000
  20
 2612.7500000000
  11
 3459.5000000000
  21
 2612.7500000000
  97
1
 330

  92
16
  93
3
  72
1
  10
 3573.5000000000
  20
 2681.1166923470
  11
 3527.9222051020
  21
 2612.7500000000
  72
1
  10
 3527.9222051020
  20
 2612.7500000000
  11
 3573.5000000000
  21
 2612.7500000000
  72
1
  10
 3573.5000000000
  20
 2612.7500000000
  11
 3573.5000000000
  21
 2681.1166923470
  97
1
 330

  75
0
  76
1
  98
1
  10
0.0
  20
0.0
   0
HATCH
   5
181
 100
AcDbEntity
   8
LEVEL001
  62
1
 100
AcDbHatch
  10
0.0
  20
0.0
  30
0.0
 210
0.0
 220
0.0
 230
 1.0000000000000
   2
SOLID
  70
1
  71
1
  91
1
  92
1
  93
22
  72
1
  10
 3585.5000000000
  20
 2720.7500000000
  11
 3621.5000000000
  21
 2720.7500000000
  72
1
  10
 3621.5000000000
  20
 2720.7500000000
  11
 3621.5000000000
  21
 2648.7500000000
  72
1
  10
 3621.5000000000
  20
 2648.7500000000
  11
 3675.5000000000
  21
 2648.7500000000
  72
1
  10
 3675.5000000000
  20
 2648.7500000000
  11
 3675.5000000000
  21
 2684.7500000000
  72
1
  10
 3675.5000000000
  20
 2684.7500000000
  11
 3639.5000000000
  21
 2684.7500000000
  72
1
  10
 3639.5000000000
  20
 2684.7500000000
  11
 3639.5000000000
  21
 2720.7500000000
  72
1
  10
 3639.5000000000
  20
 2720.7500000000
  11
 3855.5000000000
  21
 2720.7500000000
  72
1
  10
 3855.5000000000
  20
 2720.7500000000
  11
 3855.5000000000
  21
 2684.7500000000
  72
1
  10
 3855.5000000000
  20
 2684.7500000000
  11
 3783.5000000000
  21
 2684.7500000000
  72
1
  10
 3783.5000000000
  20
 2684.7500000000
  11
 3783.5000000000
  21
 2675.7500000000
  72
1
  10
 3783.5000000000
  20
 2675.7500000000
  11
 3846.5000000000
  21
 2675.7500000000
  72
1
  10
 3846.5000000000
  20
 2675.7500000000
  11
 3846.5000000000
  21
 2657.7500000000
  72
1
  10
 3846.5000000000
  20
 2657.7500000000
  11
 3783.5000000000
  21
 2657.7500000000
  72
1
  10
 3783.5000000000
  20
 2657.7500000000
  11
 3783.5000000000
  21
 2648.7500000000
  72
1
  10
 3783.5000000000
  20
 2648.7500000000
  11
 3855.5000000000
  21
 2648.7500000000
  72
1
  10
 3855.5000000000
  20
 2648.7500000000
  11
 3855.5000000000
  21
 2612.7500000000
  72
1
  10
 3855.5000000000
  20
 2612.7500000000
  11
 3747.5000000000
  21
 2612.7500000000
  72
1
  10
 3747.5000000000
  20
 2612.7500000000
  11
 3747.5000000000
  21
 2684.7500000000
  72
1
  10
 3747.5000000000
  20
 2684.7500000000
  11
 3711.5000000000
  21
 2684.7500000000
  72
1
  10
 3711.5000000000
  20
 2684.7500000000
  11
 3711.5000000000
  21
 2612.7500000000
  72
1
  10
 3711.5000000000
  20
 2612.7500000000
  11
 3585.5000000000
  21
 2612.7500000000
  72
1
  10
 3585.5000000000
  20
 2612.7500000000
  11
 3585.5000000000
  21
 2720.7500000000
  97
1
 330

  75
0
  76
1
  98
1
  10
0.0
  20
0.0
   0
HATCH
   5
182
 100
AcDbEntity
   8
LEVEL001
  62
1
 100
AcDbHatch
  10
0.0
  20
0.0
  30
0.0
 210
0.0
 220
0.0
 230
 1.0000000000000
   2
SOLID
  70
1
  71
1
  91
1
  92
1
  93
8
  72
1
  10
 3963.5000000000
  20
 2720.7500000000
  11
 3909.5000000000
  21
 2720.7500000000
  72
2
  10
 3909.5000000000
  20
 2666.7500000000
  40
 54.000000000000
  50
 90.000000000000
  51
 270.00000000000
  73
1
  72
1
  10
 3909.5000000000
  20
 2612.7500000000
  11
 3963.5000000000
  21
 2612.7500000000
  72
1
  10
 3963.5000000000
  20
 2612.7500000000
  11
 3963.5000000000
  21
 2648.7500000000
  72
1
  10
 3963.5000000000
  20
 2648.7500000000
  11
 3909.5000000000
  21
 2648.7500000000
  72
2
  10
 3909.5000000000
  20
 2666.7500000000
  40
 18.000000000000
  50
 90.000000000000
  51
 270.00000000000
  73
0
  72
1
  10
 3909.5000000000
  20
 2684.7500000000
  11
 3963.5000000000
  21
 2684.7500000000
  72
1
  10
 3963.5000000000
  20
 2684.7500000000
  11
 3963.5000000000
  21
 2720.7500000000
  97
1
 330

  75
0
  76
1
  98
1
  10
0.0
  20
0.0
   0
MTEXT
   5
184
 100
AcDbEntity
   8
LEVEL002
 370
15
  62
8
 100
AcDbMText
  10
 3107.9999999995
  20
 282.50000000010
  30
0.0
  40
 30.000000000000
  41
0.0
  71
5
  72
1
   1
\T1.000000;サイズ：
   7
GMM002
  44
 0.79999984000003
   0
MTEXT
   5
186
 100
AcDbEntity
   8
LEVEL002
 370
15
  62
8
 100
AcDbMText
  10
 3092.9999999995
  20
 482.50000000010
  30
0.0
  40
 30.000000000000
  41
0.0
  71
5
  72
1
   1
\T1.000000;縮尺：
   7
GMM002
  44
 0.79999984000003
   0
MTEXT
   5
188
 100
AcDbEntity
   8
LEVEL002
 370
15
  62
8
 100
AcDbMText
  10
 3122.9999999995
  20
 682.50000000010
  30
0.0
  40
 30.000000000000
  41
0.0
  71
5
  72
1
   1
\T1.000000;図面名称：
   7
GMM002
  44
 0.79999984000003
   0
MTEXT
   5
18A
 100
AcDbEntity
   8
LEVEL002
 370
15
  62
8
 100
AcDbMText
  10
 3637.9999999995
  20
 282.50000000010
  30
0.0
  40
 30.000000000000
  41
0.0
  71
5
  72
1
   1
\T1.000000;ファイル名：
   7
GMM002
  44
 0.79999984000003
   0
MTEXT
   5
18C
 100
AcDbEntity
   8
LEVEL002
 370
15
  62
8
 100
AcDbMText
  10
 3622.9999999995
  20
 486.66666666680
  30
0.0
  40
 28.000000000000
  41
0.0
  71
5
  72
1
   1
\T1.000000;作成日付：
   7
GMM003
  44
 0.79999984000003
   0
MTEXT
   5
18E
 100
AcDbEntity
   8
LEVEL002
 370
15
  62
8
 100
AcDbMText
  10
 3622.9999999995
  20
 420.00000000010
  30
0.0
  40
 28.000000000000
  41
0.0
  71
5
  72
1
   1
\T1.000000;変更日付：
   7
GMM003
  44
 0.79999984000003
   0
MTEXT
   5
190
 100
AcDbEntity
   8
LEVEL002
 370
15
  62
8
 100
AcDbMText
  10
 3294.9999999995
  20
 182.50000000010
  30
0.0
  40
 37.500000000000
  41
0.0
  71
5
  72
1
   1
\T1.000000;Ａ３
   7
GMM002
  44
 0.79999984000003
   0
MTEXT
   5
192
 100
AcDbEntity
   8
LEVEL002
 370
15
  62
8
 100
AcDbMText
  10
 3092.9999999995
  20
 2130.0000000000
  30
0.0
  40
 30.000000000000
  41
0.0
  71
5
  72
1
   1
\T1.000000;仕様：
   7
GMM002
  44
 0.79999984000003
   0
MTEXT
   5
194
 100
AcDbEntity
   8
LEVEL002
 370
15
  62
8
 100
AcDbMText
  10
 3092.9999999995
  20
 2330.0000000000
  30
0.0
  40
 30.000000000000
  41
0.0
  71
5
  72
1
   1
\T1.000000;形式：
   7
GMM002
  44
 0.79999984000003
   0
MTEXT
   5
196
 100
AcDbEntity
   8
LEVEL002
 370
15
  62
8
 100
AcDbMText
  10
 3107.9999999995
  20
 2530.0000000000
  30
0.0
  40
 30.000000000000
  41
0.0
  71
5
  72
1
   1
\T1.000000;商品名：
   7
GMM002
  44
 0.79999984000003
   0
MTEXT
   5
198
 100
AcDbEntity
   8
LEVEL002
 370
15
  62
8
 100
AcDbMText
  10
 3468.9999999995
  20
 768.70803459012
  30
0.0
  40
 40.000000000000
  41
0.0
  71
5
  72
1
   1
\T1.000000;　※本製品は予告無しに変更する事があります。
   7
GMM002
  44
 0.79999984000003
   0
MTEXT
   5
19A
 100
AcDbEntity
   8
LEVEL002
 370
15
  62
8
 100
AcDbMText
  10
 3544.9999999995
  20
 582.50000000010
  30
0.0
  40
 37.500000000000
  41
0.0
  71
5
  72
1
   1
\T1.000000;三面図
   7
GMM002
  44
 0.79999984000003
   0
MTEXT
   5
19C
 100
AcDbEntity
   8
LEVEL002
 370
15
  62
8
 100
AcDbMText
  10
 3872.1508456075
  20
 420.00000000010
  30
0.0
  40
 30.000000000000
  41
0.0
  71
5
  72
1
   1
\T1.000000;令和　　年　　月　　日
   7
GMM002
  44
 0.79999984000003
   0
MTEXT
   5
19E
 100
AcDbEntity
   8
LEVEL002
 370
15
  62
8
 100
AcDbMText
  10
 3872.1508456075
  20
 353.33333333345
  30
0.0
  40
 30.000000000000
  41
0.0
  71
5
  72
1
   1
\T1.000000;令和　　年　　月　　日
   7
GMM002
  44
 0.79999984000003
   0
MTEXT
   5
1A0
 100
AcDbEntity
   8
LEVEL002
 370
15
  62
8
 100
AcDbMText
  10
 3294.9999999995
  20
 382.50000000010
  30
0.0
  40
 37.500000000000
  41
0.0
  71
5
  72
1
   1
\T1.000000;Ｓ＝１：１０
   7
GMM002
  44
 0.79999984000003
   0
LINE
   5
1A1
 100
AcDbEntity
   8
LEVEL002
 370
40
 100
AcDbLine
   6
CONTINUOUS
  62
3
  10
 154.99999999950
  20
 1385.0000000001
  30
0.0
  11
 3044.9999999995
  21
 1385.0000000001
  31
0.0
   0
LINE
   5
1A2
 100
AcDbEntity
   8
LEVEL002
 370
40
 100
AcDbLine
   6
CONTINUOUS
  62
3
  10
 154.99999999950
  20
 1485.0000000001
  30
0.0
  11
 3044.9999999995
  21
 1485.0000000001
  31
0.0
   0
LINE
   5
1A3
 100
AcDbEntity
   8
LEVEL001
 370
40
 100
AcDbLine
   6
CONTINUOUS
  62
3
  10
 1599.9999999995
  20
 2850.0000000000
  30
0.0
  11
 1599.9999999995
  21
 120.00000000010
  31
0.0
   0
MTEXT
   5
1A5
 100
AcDbEntity
   8
LEVEL002
 370
15
  62
8
 100
AcDbMText
  10
 3872.1508456075
  20
 486.66666666680
  30
0.0
  40
 30.000000000000
  41
0.0
  71
5
  72
1
   1
\T1.000000;令和０５年０６月１５日
   7
GMM002
  44
 0.79999984000003
   0
MTEXT
   5
1A7
 100
AcDbEntity
   8
LEVEL002
 370
15
  62
8
 100
AcDbMText
  10
 3364.9999999995
  20
 2475.0000000000
  30
0.0
  40
 45.000000000000
  41
0.0
  71
4
  72
1
   1
{\T1.000000;ジャンティサポート}\P{\T1.000000;握りバー（Ｉ型）}
   7
GMM002
  44
 0.79999984000003
   0
MTEXT
   5
1A9
 100
AcDbEntity
   8
LEVEL002
 370
15
  62
8
 100
AcDbMText
  10
 3544.9999999995
  20
 2267.5000000000
  30
0.0
  40
 40.000000000000
  41
0.0
  71
5
  72
1
   1
\T1.000000;ＦＰＩ／ＦＰＩ（Ｍ）タイプ
   7
GMM002
  44
 0.79999984000003
   0
MTEXT
   5
1AB
 100
AcDbEntity
   8
LEVEL001
 370
15
  62
8
 100
AcDbMText
  10
 157.99999999950
  20
 2800.0000000000
  30
0.0
  40
 30.000000000000
  41
0.0
  71
4
  72
1
   1
\W0.500000;\T1.000000; \W1.000000;\T1.000000;　ＦＰＩ４００／ＦＰＩ４００Ｍ
   7
GMM002
  44
 0.79999984000003
   0
MTEXT
   5
1AD
 100
AcDbEntity
   8
LEVEL001
 370
15
  62
8
 100
AcDbMText
  10
 1602.9999999995
  20
 2800.0000000000
  30
0.0
  40
 30.000000000000
  41
0.0
  71
4
  72
1
   1
\W0.500000;\T1.000000; \W1.000000;\T1.000000;　ＦＰＩ６００／ＦＰＩ６００Ｍ
   7
GMM002
  44
 0.79999984000003
   0
MTEXT
   5
1AF
 100
AcDbEntity
   8
LEVEL001
 370
15
  62
8
 100
AcDbMText
  10
 157.99999999950
  20
 1435.0000000001
  30
0.0
  40
 30.000000000000
  41
0.0
  71
4
  72
1
   1
\W0.500000;\T1.000000; \W1.000000;\T1.000000;　ＦＰＩ８００／ＦＰＩ８００Ｍ
   7
GMM002
  44
 0.79999984000003
   0
MTEXT
   5
1B1
 100
AcDbEntity
   8
LEVEL002
 370
15
  62
8
 100
AcDbMText
  10
 3794.9999999995
  20
 200.83333333345
  30
0.0
  40
 25.000000000000
  41
0.0
  71
5
  72
1
   1
\T1.000000;ＦＰＩ－１
   7
GMM002
  44
 0.79999984000003
   0
ARC
   5
1B2
 100
AcDbEntity
   8
LEVEL002
 370
30
   6
CONTINUOUS
  62
7
 100
AcDbCircle
  10
 199.07334704809
  20
 2022.2451443829
  30
0.0
  40
 1.0000000000000
 100
AcDbArc
  50
 179.99999984970
  51
 274.71669260452
   0
LINE
   5
1B3
 100
AcDbEntity
   8
LEVEL002
 370
30
 100
AcDbLine
   6
CONTINUOUS
  62
7
  10
 199.15557591449
  20
 2021.2485309104
  30
0.0
  11
 258.67334707989
  21
 2026.1592381022
  31
0.0
   0
LINE
   5
1B4
 100
AcDbEntity
   8
LEVEL002
 370
30
 100
AcDbLine
   6
CONTINUOUS
  62
7
  10
 198.07334707989
  20
 2022.2451443855
  30
0.0
  11
 198.07334707989
  21
 2068.0733318190
  31
0.0
   0
ARC
   5
1B5
 100
AcDbEntity
   8
LEVEL002
 370
30
   6
CONTINUOUS
  62
7
 100
AcDbCircle
  10
 199.07334707989
  20
 2068.0733318208
  30
0.0
  40
 1.0000000000000
 100
AcDbArc
  50
 85.283309216128
  51
 180.00000010422
   0
LINE
   5
1B6
 100
AcDbEntity
   8
LEVEL002
 370
30
 100
AcDbLine
   6
CONTINUOUS
  62
7
  10
 199.15557591449
  20
 2069.0699452941
  30
0.0
  11
 258.67334707989
  21
 2064.1592381022
  31
0.0
   0
LINE
   5
1B7
 100
AcDbEntity
   8
LEVEL002
 370
30
 100
AcDbLine
   6
CONTINUOUS
  62
7
  10
 249.44394892989
  20
 2059.1316116322
  30
0.0
  11
 271.54862486089
  21
 2059.1316116322
  31
0.0
   0
LINE
   5
1B8
 100
AcDbEntity
   8
LEVEL002
 370
30
 100
AcDbLine
   6
CONTINUOUS
  62
7
  10
 249.44394892989
  20
 2031.1868645722
  30
0.0
  11
 271.54862486089
  21
 2031.1868645722
  31
0.0
   0
LINE
   5
1B9
 100
AcDbEntity
   8
LEVEL002
 370
30
 100
AcDbLine
   6
CONTINUOUS
  62
7
  10
 249.44394892989
  20
 2059.1316116322
  30
0.0
  11
 248.81311685759
  21
 2058.9193398826
  31
0.0
   0
LINE
   5
1BA
 100
AcDbEntity
   8
LEVEL002
 370
30
 100
AcDbLine
   6
CONTINUOUS
  62
7
  10
 248.81311685759
  20
 2058.9193398826
  30
0.0
  11
 248.20145229859
  21
 2058.2889744032
  31
0.0
   0
LINE
   5
1BB
 100
AcDbEntity
   8
LEVEL002
 370
30
 100
AcDbLine
   6
CONTINUOUS
  62
7
  10
 248.20145229859
  20
 2058.2889744032
  30
0.0
  11
 247.62754037099
  21
 2057.2596685304
  31
0.0
   0
LINE
   5
1BC
 100
AcDbEntity
   8
LEVEL002
 370
30
 100
AcDbLine
   6
CONTINUOUS
  62
7
  10
 247.62754037099
  20
 2057.2596685304
  30
0.0
  11
 247.10881909829
  21
 2055.8626972021
  31
0.0
   0
LINE
   5
1BD
 100
AcDbEntity
   8
LEVEL002
 370
30
 100
AcDbLine
   6
CONTINUOUS
  62
7
  10
 247.10881909829
  20
 2055.8626972021
  30
0.0
  11
 246.66104956399
  21
 2054.1405066852
  31
0.0
   0
LINE
   5
1BE
 100
AcDbEntity
   8
LEVEL002
 370
30
 100
AcDbLine
   6
CONTINUOUS
  62
7
  10
 246.66104956399
  20
 2054.1405066852
  30
0.0
  11
 246.29783701859
  21
 2052.1454248672
  31
0.0
   0
LINE
   5
1BF
 100
AcDbEntity
   8
LEVEL002
 370
30
 100
AcDbLine
   6
CONTINUOUS
  62
7
  10
 246.29783701859
  20
 2052.1454248672
  30
0.0
  11
 246.03021749169
  21
 2049.9380712996
  31
0.0
   0
LINE
   5
1C0
 100
AcDbEntity
   8
LEVEL002
 370
30
 100
AcDbLine
   6
CONTINUOUS
  62
7
  10
 246.03021749169
  20
 2049.9380712996
  30
0.0
  11
 245.86632246699
  21
 2047.5855153034
  31
0.0
   0
LINE
   5
1C1
 100
AcDbEntity
   8
LEVEL002
 370
30
 100
AcDbLine
   6
CONTINUOUS
  62
7
  10
 245.86632246699
  20
 2047.5855153034
  30
0.0
  11
 245.81113181209
  21
 2045.1592381022
  31
0.0
   0
LINE
   5
1C2
 100
AcDbEntity
   8
LEVEL002
 370
30
 100
AcDbLine
   6
CONTINUOUS
  62
7
  10
 245.81113181209
  20
 2045.1592381022
  30
0.0
  11
 245.86632246699
  21
 2042.7329609011
  31
0.0
   0
LINE
   5
1C3
 100
AcDbEntity
   8
LEVEL002
 370
30
 100
AcDbLine
   6
CONTINUOUS
  62
7
  10
 245.86632246699
  20
 2042.7329609011
  30
0.0
  11
 246.03021749169
  21
 2040.3804049049
  31
0.0
   0
LINE
   5
1C4
 100
AcDbEntity
   8
LEVEL002
 370
30
 100
AcDbLine
   6
CONTINUOUS
  62
7
  10
 246.03021749169
  20
 2040.3804049049
  30
0.0
  11
 246.29783701859
  21
 2038.1730513372
  31
0.0
   0
LINE
   5
1C5
 100
AcDbEntity
   8
LEVEL002
 370
30
 100
AcDbLine
   6
CONTINUOUS
  62
7
  10
 246.29783701859
  20
 2038.1730513372
  30
0.0
  11
 246.66104956399
  21
 2036.1779695192
  31
0.0
   0
LINE
   5
1C6
 100
AcDbEntity
   8
LEVEL002
 370
30
 100
AcDbLine
   6
CONTINUOUS
  62
7
  10
 246.66104956399
  20
 2036.1779695192
  30
0.0
  11
 247.10881909829
  21
 2034.4557790024
  31
0.0
   0
LINE
   5
1C7
 100
AcDbEntity
   8
LEVEL002
 370
30
 100
AcDbLine
   6
CONTINUOUS
  62
7
  10
 247.10881909829
  20
 2034.4557790024
  30
0.0
  11
 247.62754037099
  21
 2033.0588076741
  31
0.0
   0
LINE
   5
1C8
 100
AcDbEntity
   8
LEVEL002
 370
30
 100
AcDbLine
   6
CONTINUOUS
  62
7
  10
 247.62754037099
  20
 2033.0588076741
  30
0.0
  11
 248.20145229859
  21
 2032.0295018012
  31
0.0
   0
LINE
   5
1C9
 100
AcDbEntity
   8
LEVEL002
 370
30
 100
AcDbLine
   6
CONTINUOUS
  62
7
  10
 248.20145229859
  20
 2032.0295018012
  30
0.0
  11
 248.81311685759
  21
 2031.3991363219
  31
0.0
   0
LINE
   5
1CA
 100
AcDbEntity
   8
LEVEL002
 370
30
 100
AcDbLine
   6
CONTINUOUS
  62
7
  10
 248.81311685759
  20
 2031.3991363219
  30
0.0
  11
 249.44394892989
  21
 2031.1868645722
  31
0.0
   0
ARC
   5
1CB
 100
AcDbEntity
   8
LEVEL002
 370
30
   6
CONTINUOUS
  62
7
 100
AcDbCircle
  10
 258.67334707989
  20
 2045.1592381022
  30
0.0
  40
 19.000000000000
 100
AcDbArc
  50
 270.00000000000
  51
 90.000000000000
   0
LINE
   5
1CC
 100
AcDbEntity
   8
LEVEL002
 370
40
 100
AcDbLine
   6
CONTINUOUS
  62
3
  10
 198.07334707989
  20
 1772.7544541705
  30
0.0
  11
 198.07334707989
  21
 2272.9925494086
  31
0.0
   0
LINE
   5
1CD
 100
AcDbEntity
   8
LEVEL002
 370
15
 100
AcDbLine
   6
DASHDOT
  62
8
  10
 258.07334707989
  20
 1998.8027184914
  30
0.0
  11
 258.07334707989
  21
 2097.0105759023
  31
0.0
   0
DIMENSION
   5
1CE
 100
AcDbEntity
   8
LEVEL001
 370
15
   6
CONTINUOUS
  62
8
 100
AcDbDimension
   2
*D1
  10
 258.07334707989
  20
 1927.0733318190
  30
0.0
  11
 228.07334707989
  21
 1927.0733318190
  31
0.0
  70
0
   3
GMM001
 100
AcDbAlignedDimension
  13
 198.07334707989
  23
 1927.0733318190
  33
0.0
  14
 258.07334707989
  24
 1998.8027184914
  34
0.0
 100
AcDbRotatedDimension
   0
LINE
   5
1CF
 100
AcDbEntity
   8
LEVEL002
 370
15
 100
AcDbLine
   6
DASHDOT
  62
8
  10
 302.08764786675
  20
 2044.0733318190
  30
0.0
  11
 185.29130919390
  21
 2044.0733318190
  31
0.0
   0
LINE
   5
1D0
 100
AcDbEntity
   8
LEVEL002
 370
30
 100
AcDbLine
   6
CONTINUOUS
  62
7
  10
 452.11048758650
  20
 2025.0733318190
  30
0.0
  11
 472.95228027619
  21
 2025.0733318190
  31
0.0
   0
LINE
   5
1D1
 100
AcDbEntity
   8
LEVEL002
 370
30
 100
AcDbLine
   6
CONTINUOUS
  62
7
  10
 452.11048758650
  20
 2063.0733318190
  30
0.0
  11
 472.95228027619
  21
 2063.0733318190
  31
0.0
   0
LINE
   5
1D2
 100
AcDbEntity
   8
LEVEL002
 370
30
 100
AcDbLine
   6
CONTINUOUS
  62
7
  10
 466.63116404319
  20
 2059.0733318190
  30
0.0
  11
 421.73218455769
  21
 2059.0733318190
  31
0.0
   0
LINE
   5
1D3
 100
AcDbEntity
   8
LEVEL002
 370
30
 100
AcDbLine
   6
CONTINUOUS
  62
7
  10
 488.63116404319
  20
 2063.0733318190
  30
0.0
  11
 422.90735874849
  21
 2063.0733318190
  31
0.0
   0
LINE
   5
1D4
 100
AcDbEntity
   8
LEVEL002
 370
30
 100
AcDbLine
   6
CONTINUOUS
  62
7
  10
 466.63116404319
  20
 2029.0733318190
  30
0.0
  11
 421.73218455769
  21
 2029.0733318190
  31
0.0
   0
ARC
   5
1D5
 100
AcDbEntity
   8
LEVEL002
 370
30
   6
CONTINUOUS
  62
7
 100
AcDbCircle
  10
 422.90735874010
  20
 2053.0733318090
  30
0.0
  40
 10.000000000000
 100
AcDbArc
  50
 89.999999952007
  51
 139.99479904036
   0
ARC
   5
1D6
 100
AcDbEntity
   8
LEVEL002
 370
30
   6
CONTINUOUS
  62
7
 100
AcDbCircle
  10
 433.63116404099
  20
 2044.0733318217
  30
0.0
  40
 24.000000000000
 100
AcDbArc
  50
 139.99479911663
  51
 220.00520089331
   0
LINE
   5
1D7
 100
AcDbEntity
   8
LEVEL002
 370
30
 100
AcDbLine
   6
CONTINUOUS
  62
7
  10
 488.63116404319
  20
 2063.0733318190
  30
0.0
  11
 422.90735874849
  21
 2063.0733318190
  31
0.0
   0
ARC
   5
1D8
 100
AcDbEntity
   8
LEVEL002
 370
30
   6
CONTINUOUS
  62
7
 100
AcDbCircle
  10
 421.73218456610
  20
 2049.0733318272
  30
0.0
  40
 10.000000000000
 100
AcDbArc
  50
 90.000000048181
  51
 134.41530866447
   0
ARC
   5
1D9
 100
AcDbEntity
   8
LEVEL002
 370
30
   6
CONTINUOUS
  62
7
 100
AcDbCircle
  10
 426.63116404050
  20
 2044.0733318217
  30
0.0
  40
 17.000000000000
 100
AcDbArc
  50
 134.41530859691
  51
 225.58469141595
   0
LINE
   5
1DA
 100
AcDbEntity
   8
LEVEL002
 370
30
 100
AcDbLine
   6
CONTINUOUS
  62
7
  10
 466.63116404319
  20
 2059.0733318190
  30
0.0
  11
 421.73218455769
  21
 2059.0733318190
  31
0.0
   0
ARC
   5
1DB
 100
AcDbEntity
   8
LEVEL002
 370
30
   6
CONTINUOUS
  62
7
 100
AcDbCircle
  10
 421.73218458280
  20
 2039.0733318190
  30
0.0
  40
 10.000000000000
 100
AcDbArc
  50
 225.58469130006
  51
 269.99999985603
   0
LINE
   5
1DC
 100
AcDbEntity
   8
LEVEL002
 370
30
 100
AcDbLine
   6
CONTINUOUS
  62
7
  10
 466.63116404319
  20
 2029.0733318190
  30
0.0
  11
 421.73218455769
  21
 2029.0733318190
  31
0.0
   0
ARC
   5
1DD
 100
AcDbEntity
   8
LEVEL002
 370
30
   6
CONTINUOUS
  62
7
 100
AcDbCircle
  10
 422.90735872740
  20
 2035.0733318190
  30
0.0
  40
 10.000000000000
 100
AcDbArc
  50
 220.00520096266
  51
 270.00000012093
   0
LINE
   5
1DE
 100
AcDbEntity
   8
LEVEL002
 370
30
 100
AcDbLine
   6
CONTINUOUS
  62
7
  10
 488.63116404319
  20
 2025.0733318190
  30
0.0
  11
 422.90735874849
  21
 2025.0733318190
  31
0.0
   0
LINE
   5
1DF
 100
AcDbEntity
   8
LEVEL002
 370
30
 100
AcDbLine
   6
CONTINUOUS
  62
7
  10
 467.63116404330
  20
 2030.0733318190
  30
0.0
  11
 467.63116404330
  21
 2058.0733318190
  31
0.0
   0
LINE
   5
1E0
 100
AcDbEntity
   8
LEVEL002
 370
30
 100
AcDbLine
   6
CONTINUOUS
  62
7
  10
 467.63116404330
  20
 2020.0733318190
  30
0.0
  11
 426.63116404319
  21
 2020.0733318190
  31
0.0
   0
LINE
   5
1E1
 100
AcDbEntity
   8
LEVEL002
 370
30
 100
AcDbLine
   6
CONTINUOUS
  62
7
  10
 467.63116404330
  20
 2020.0733318190
  30
0.0
  11
 426.63116404319
  21
 2020.0733318190
  31
0.0
   0
LINE
   5
1E2
 100
AcDbEntity
   8
LEVEL002
 370
30
 100
AcDbLine
   6
CONTINUOUS
  62
7
  10
 467.63116404330
  20
 2068.0733318190
  30
0.0
  11
 426.63116404319
  21
 2068.0733318190
  31
0.0
   0
LINE
   5
1E3
 100
AcDbEntity
   8
LEVEL002
 370
30
 100
AcDbLine
   6
CONTINUOUS
  62
7
  10
 467.63116404330
  20
 2068.0733318190
  30
0.0
  11
 426.63116404319
  21
 2068.0733318190
  31
0.0
   0
LINE
   5
1E4
 100
AcDbEntity
   8
LEVEL002
 370
30
 100
AcDbLine
   6
CONTINUOUS
  62
7
  10
 435.13116404330
  20
 2020.0733318190
  30
0.0
  11
 467.63116404330
  21
 2020.0733318190
  31
0.0
   0
LINE
   5
1E5
 100
AcDbEntity
   8
LEVEL002
 370
30
 100
AcDbLine
   6
CONTINUOUS
  62
7
  10
 435.13116404330
  20
 2068.0733318190
  30
0.0
  11
 467.63116404330
  21
 2068.0733318190
  31
0.0
   0
LINE
   5
1E6
 100
AcDbEntity
   8
LEVEL002
 370
30
 100
AcDbLine
   6
CONTINUOUS
  62
7
  10
 522.62513290630
  20
 2027.0733318190
  30
0.0
  11
 489.63116404330
  21
 2027.0733318190
  31
0.0
   0
LINE
   5
1E7
 100
AcDbEntity
   8
LEVEL002
 370
30
 100
AcDbLine
   6
CONTINUOUS
  62
7
  10
 522.62513290630
  20
 2027.0733318190
  30
0.0
  11
 489.63116404330
  21
 2027.0733318190
  31
0.0
   0
LINE
   5
1E8
 100
AcDbEntity
   8
LEVEL002
 370
30
 100
AcDbLine
   6
CONTINUOUS
  62
7
  10
 522.62513290630
  20
 2061.0733318190
  30
0.0
  11
 489.63116404330
  21
 2061.0733318190
  31
0.0
   0
ARC
   5
1E9
 100
AcDbEntity
   8
LEVEL002
 370
30
   6
CONTINUOUS
  62
7
 100
AcDbCircle
  10
 488.63116430639
  20
 2062.0733318190
  30
0.0
  40
 1.0000000000000
 100
AcDbArc
  50
0.0
  51
 90.000015076108
   0
LINE
   5
1EA
 100
AcDbEntity
   8
LEVEL002
 370
30
 100
AcDbLine
   6
CONTINUOUS
  62
7
  10
 489.63116404330
  20
 2062.0733318190
  30
0.0
  11
 489.63116404330
  21
 2026.0733318190
  31
0.0
   0
ARC
   5
1EB
 100
AcDbEntity
   8
LEVEL002
 370
30
   6
CONTINUOUS
  62
7
 100
AcDbCircle
  10
 488.63116404330
  20
 2026.0733320898
  30
0.0
  40
 1.0000000000000
 100
AcDbArc
  50
 269.99999999958
  51
0.0
   0
ARC
   5
1EC
 100
AcDbEntity
   8
LEVEL002
 370
30
   6
CONTINUOUS
  62
7
 100
AcDbCircle
  10
 466.63116401070
  20
 2058.0733318190
  30
0.0
  40
 1.0000000000000
 100
AcDbArc
  50
0.0
  51
 89.999998137790
   0
LINE
   5
1ED
 100
AcDbEntity
   8
LEVEL002
 370
30
 100
AcDbLine
   6
CONTINUOUS
  62
7
  10
 467.63116404330
  20
 2058.0733318190
  30
0.0
  11
 467.63116404330
  21
 2030.0733318190
  31
0.0
   0
ARC
   5
1EE
 100
AcDbEntity
   8
LEVEL002
 370
30
   6
CONTINUOUS
  62
7
 100
AcDbCircle
  10
 466.63116404330
  20
 2030.0733317941
  30
0.0
  40
 1.0000000000000
 100
AcDbArc
  50
 269.99999999917
  51
 0.14240677615212E-5
   0
ARC
   5
1EF
 100
AcDbEntity
   8
LEVEL002
 370
30
   6
CONTINUOUS
  62
7
 100
AcDbCircle
  10
 467.63116404319
  20
 2044.0733318190
  30
0.0
  40
 24.000000000000
 100
AcDbArc
  50
 270.00000000010
  51
 307.65846200636
   0
ARC
   5
1F0
 100
AcDbEntity
   8
LEVEL002
 370
30
   6
CONTINUOUS
  62
7
 100
AcDbCircle
  10
 467.63116404060
  20
 2044.0733318190
  30
0.0
  40
 24.000000000000
 100
AcDbArc
  50
 52.341537988745
  51
 89.999999993660
   0
ARC
   5
1F1
 100
AcDbEntity
   8
LEVEL002
 370
30
   6
CONTINUOUS
  62
7
 100
AcDbCircle
  10
 426.63116404319
  20
 2044.0733318190
  30
0.0
  40
 24.000000000000
 100
AcDbArc
  50
 90.000000000000
  51
 270.00000000000
   0
LINE
   5
1F2
 100
AcDbEntity
   8
LEVEL002
 370
30
 100
AcDbLine
   6
CONTINUOUS
  62
7
  10
 522.62513290630
  20
 2027.0733318190
  30
0.0
  11
 489.63116404330
  21
 2027.0733318190
  31
0.0
   0
LINE
   5
1F3
 100
AcDbEntity
   8
LEVEL002
 370
30
 100
AcDbLine
   6
CONTINUOUS
  62
7
  10
 522.62513290630
  20
 2027.0733318190
  30
0.0
  11
 489.63116404330
  21
 2027.0733318190
  31
0.0
   0
LINE
   5
1F4
 100
AcDbEntity
   8
LEVEL002
 370
30
 100
AcDbLine
   6
CONTINUOUS
  62
7
  10
 522.62513290630
  20
 2061.0733318190
  30
0.0
  11
 489.63116404330
  21
 2061.0733318190
  31
0.0
   0
ARC
   5
1F5
 100
AcDbEntity
   8
LEVEL002
 370
30
   6
CONTINUOUS
  62
7
 100
AcDbCircle
  10
 488.63116430639
  20
 2062.0733318190
  30
0.0
  40
 1.0000000000000
 100
AcDbArc
  50
0.0
  51
 90.000015076108
   0
LINE
   5
1F6
 100
AcDbEntity
   8
LEVEL002
 370
30
 100
AcDbLine
   6
CONTINUOUS
  62
7
  10
 489.63116404330
  20
 2062.0733318190
  30
0.0
  11
 489.63116404330
  21
 2026.0733318190
  31
0.0
   0
ARC
   5
1F7
 100
AcDbEntity
   8
LEVEL002
 370
30
   6
CONTINUOUS
  62
7
 100
AcDbCircle
  10
 488.63116404330
  20
 2026.0733320898
  30
0.0
  40
 1.0000000000000
 100
AcDbArc
  50
 269.99999999958
  51
0.0
   0
ARC
   5
1F8
 100
AcDbEntity
   8
LEVEL002
 370
30
   6
CONTINUOUS
  62
7
 100
AcDbCircle
  10
 466.63116401070
  20
 2058.0733318190
  30
0.0
  40
 1.0000000000000
 100
AcDbArc
  50
0.0
  51
 89.999998137790
   0
LINE
   5
1F9
 100
AcDbEntity
   8
LEVEL002
 370
30
 100
AcDbLine
   6
CONTINUOUS
  62
7
  10
 467.63116404330
  20
 2058.0733318190
  30
0.0
  11
 467.63116404330
  21
 2030.0733318190
  31
0.0
   0
ARC
   5
1FA
 100
AcDbEntity
   8
LEVEL002
 370
30
   6
CONTINUOUS
  62
7
 100
AcDbCircle
  10
 466.63116404330
  20
 2030.0733317941
  30
0.0
  40
 1.0000000000000
 100
AcDbArc
  50
 269.99999999917
  51
 0.14240677615212E-5
   0
ARC
   5
1FB
 100
AcDbEntity
   8
LEVEL002
 370
30
   6
CONTINUOUS
  62
7
 100
AcDbCircle
  10
 467.63116404319
  20
 2044.0733318190
  30
0.0
  40
 24.000000000000
 100
AcDbArc
  50
 270.00000000010
  51
 307.65846200636
   0
ARC
   5
1FC
 100
AcDbEntity
   8
LEVEL002
 370
30
   6
CONTINUOUS
  62
7
 100
AcDbCircle
  10
 467.63116404060
  20
 2044.0733318190
  30
0.0
  40
 24.000000000000
 100
AcDbArc
  50
 52.341537988745
  51
 89.999999993660
   0
ARC
   5
1FD
 100
AcDbEntity
   8
LEVEL002
 370
30
   6
CONTINUOUS
  62
7
 100
AcDbCircle
  10
 426.63116404319
  20
 2044.0733318190
  30
0.0
  40
 24.000000000000
 100
AcDbArc
  50
 90.000000000000
  51
 270.00000000000
   0
LINE
   5
1FE
 100
AcDbEntity
   8
LEVEL002
 370
15
 100
AcDbLine
   6
DASHDOT
  62
8
  10
 435.13116404330
  20
 1998.8027184914
  30
0.0
  11
 435.13116404330
  21
 2097.0105759023
  31
0.0
   0
LINE
   5
1FF
 100
AcDbEntity
   8
LEVEL002
 370
30
 100
AcDbLine
   6
CONTINUOUS
  62
7
  10
 803.63116404319
  20
 2059.0733318190
  30
0.0
  11
 848.53014352880
  21
 2059.0733318190
  31
0.0
   0
ARC
   5
200
 100
AcDbEntity
   8
LEVEL002
 370
30
   6
CONTINUOUS
  62
7
 100
AcDbCircle
  10
 843.63116404039
  20
 2044.0733318217
  30
0.0
  40
 17.000000000000
 100
AcDbArc
  50
 314.41530859747
  51
 45.584691389672
   0
LINE
   5
201
 100
AcDbEntity
   8
LEVEL002
 370
30
 100
AcDbLine
   6
CONTINUOUS
  62
7
  10
 781.63116404319
  20
 2063.0733318190
  30
0.0
  11
 847.35496933800
  21
 2063.0733318190
  31
0.0
   0
ARC
   5
202
 100
AcDbEntity
   8
LEVEL002
 370
30
   6
CONTINUOUS
  62
7
 100
AcDbCircle
  10
 836.63116404480
  20
 2044.0733318171
  30
0.0
  40
 24.000000000000
 100
AcDbArc
  50
 319.99479911614
  51
 40.005200890776
   0
LINE
   5
203
 100
AcDbEntity
   8
LEVEL002
 370
30
 100
AcDbLine
   6
CONTINUOUS
  62
7
  10
 781.63116404319
  20
 2025.0733318190
  30
0.0
  11
 847.35496933800
  21
 2025.0733318190
  31
0.0
   0
LINE
   5
204
 100
AcDbEntity
   8
LEVEL002
 370
30
 100
AcDbLine
   6
CONTINUOUS
  62
7
  10
 803.63116404319
  20
 2029.0733318190
  30
0.0
  11
 848.53014352880
  21
 2029.0733318190
  31
0.0
   0
ARC
   5
205
 100
AcDbEntity
   8
LEVEL002
 370
30
   6
CONTINUOUS
  62
7
 100
AcDbCircle
  10
 848.53014352250
  20
 2039.0733318128
  30
0.0
  40
 10.000000000000
 100
AcDbArc
  50
 270.00000003614
  51
 314.41530864753
   0
LINE
   5
206
 100
AcDbEntity
   8
LEVEL002
 370
30
 100
AcDbLine
   6
CONTINUOUS
  62
7
  10
 803.63116404319
  20
 2029.0733318190
  30
0.0
  11
 848.53014352880
  21
 2029.0733318190
  31
0.0
   0
ARC
   5
207
 100
AcDbEntity
   8
LEVEL002
 370
30
   6
CONTINUOUS
  62
7
 100
AcDbCircle
  10
 848.53014353340
  20
 2049.0733318190
  30
0.0
  40
 10.000000000000
 100
AcDbArc
  50
 45.584691421531
  51
 90.000000026024
   0
LINE
   5
208
 100
AcDbEntity
   8
LEVEL002
 370
30
 100
AcDbLine
   6
CONTINUOUS
  62
7
  10
 803.63116404319
  20
 2059.0733318190
  30
0.0
  11
 848.53014352880
  21
 2059.0733318190
  31
0.0
   0
ARC
   5
209
 100
AcDbEntity
   8
LEVEL002
 370
30
   6
CONTINUOUS
  62
7
 100
AcDbCircle
  10
 847.35496933540
  20
 2035.0733318159
  30
0.0
  40
 10.000000000000
 100
AcDbArc
  50
 270.00000001485
  51
 319.99479913822
   0
LINE
   5
20A
 100
AcDbEntity
   8
LEVEL002
 370
30
 100
AcDbLine
   6
CONTINUOUS
  62
7
  10
 781.63116404319
  20
 2025.0733318190
  30
0.0
  11
 847.35496933800
  21
 2025.0733318190
  31
0.0
   0
ARC
   5
20B
 100
AcDbEntity
   8
LEVEL002
 370
30
   6
CONTINUOUS
  62
7
 100
AcDbCircle
  10
 847.35496932590
  20
 2053.0733318190
  30
0.0
  40
 10.000000000000
 100
AcDbArc
  50
 40.005200840234
  51
 89.999999930631
   0
LINE
   5
20C
 100
AcDbEntity
   8
LEVEL002
 370
30
 100
AcDbLine
   6
CONTINUOUS
  62
7
  10
 781.63116404319
  20
 2063.0733318190
  30
0.0
  11
 847.35496933800
  21
 2063.0733318190
  31
0.0
   0
LINE
   5
20D
 100
AcDbEntity
   8
LEVEL002
 370
30
 100
AcDbLine
   6
CONTINUOUS
  62
7
  10
 802.63116404330
  20
 2068.0733318190
  30
0.0
  11
 843.63116404319
  21
 2068.0733318190
  31
0.0
   0
LINE
   5
20E
 100
AcDbEntity
   8
LEVEL002
 370
30
 100
AcDbLine
   6
CONTINUOUS
  62
7
  10
 802.63116404330
  20
 2020.0733318190
  30
0.0
  11
 843.63116404319
  21
 2020.0733318190
  31
0.0
   0
LINE
   5
20F
 100
AcDbEntity
   8
LEVEL002
 370
30
 100
AcDbLine
   6
CONTINUOUS
  62
7
  10
 802.63116404330
  20
 2020.0733318190
  30
0.0
  11
 843.63116404319
  21
 2020.0733318190
  31
0.0
   0
LINE
   5
210
 100
AcDbEntity
   8
LEVEL002
 370
30
 100
AcDbLine
   6
CONTINUOUS
  62
7
  10
 802.63116404330
  20
 2068.0733318190
  30
0.0
  11
 843.63116404319
  21
 2068.0733318190
  31
0.0
   0
ARC
   5
211
 100
AcDbEntity
   8
LEVEL002
 370
30
   6
CONTINUOUS
  62
7
 100
AcDbCircle
  10
 781.63116412550
  20
 2026.0733318190
  30
0.0
  40
 1.0000000000000
 100
AcDbArc
  50
 180.00000000000
  51
 269.99999528674
   0
LINE
   5
212
 100
AcDbEntity
   8
LEVEL002
 370
30
 100
AcDbLine
   6
CONTINUOUS
  62
7
  10
 780.63116404330
  20
 2026.0733318190
  30
0.0
  11
 780.63116404330
  21
 2062.0733318190
  31
0.0
   0
ARC
   5
213
 100
AcDbEntity
   8
LEVEL002
 370
30
   6
CONTINUOUS
  62
7
 100
AcDbCircle
  10
 781.63116404319
  20
 2062.0733319089
  30
0.0
  40
 1.0000000000000
 100
AcDbArc
  50
 90.000000000000
  51
 180.00000515349
   0
ARC
   5
214
 100
AcDbEntity
   8
LEVEL002
 370
30
   6
CONTINUOUS
  62
7
 100
AcDbCircle
  10
 803.63116394840
  20
 2030.0733318190
  30
0.0
  40
 1.0000000000000
 100
AcDbArc
  50
 180.00000000000
  51
 270.00000543447
   0
LINE
   5
215
 100
AcDbEntity
   8
LEVEL002
 370
30
 100
AcDbLine
   6
CONTINUOUS
  62
7
  10
 802.63116404330
  20
 2030.0733318190
  30
0.0
  11
 802.63116404330
  21
 2058.0733318190
  31
0.0
   0
ARC
   5
216
 100
AcDbEntity
   8
LEVEL002
 370
30
   6
CONTINUOUS
  62
7
 100
AcDbCircle
  10
 803.63116404330
  20
 2058.0733319702
  30
0.0
  40
 1.0000000000000
 100
AcDbArc
  50
 90.000000000417
  51
 180.00000866405
   0
ARC
   5
217
 100
AcDbEntity
   8
LEVEL002
 370
30
   6
CONTINUOUS
  62
7
 100
AcDbCircle
  10
 802.63116404379
  20
 2044.0733318195
  30
0.0
  40
 24.000000000000
 100
AcDbArc
  50
 90.000000001416
  51
 127.65846200802
   0
ARC
   5
218
 100
AcDbEntity
   8
LEVEL002
 370
30
   6
CONTINUOUS
  62
7
 100
AcDbCircle
  10
 802.63116405760
  20
 2044.0733318190
  30
0.0
  40
 24.000000000000
 100
AcDbArc
  50
 232.34153796658
  51
 269.99999996564
   0
ARC
   5
219
 100
AcDbEntity
   8
LEVEL002
 370
30
   6
CONTINUOUS
  62
7
 100
AcDbCircle
  10
 843.63116404319
  20
 2044.0733318190
  30
0.0
  40
 24.000000000000
 100
AcDbArc
  50
 270.00000000000
  51
 90.000000000000
   0
ARC
   5
21A
 100
AcDbEntity
   8
LEVEL002
 370
30
   6
CONTINUOUS
  62
7
 100
AcDbCircle
  10
 781.63116404319
  20
 2062.0733319089
  30
0.0
  40
 1.0000000000000
 100
AcDbArc
  50
 90.000000000000
  51
 180.00000515349
   0
LINE
   5
21B
 100
AcDbEntity
   8
LEVEL002
 370
30
 100
AcDbLine
   6
CONTINUOUS
  62
7
  10
 780.63116404330
  20
 2062.0733318190
  30
0.0
  11
 780.63116404330
  21
 2026.0733318190
  31
0.0
   0
ARC
   5
21C
 100
AcDbEntity
   8
LEVEL002
 370
30
   6
CONTINUOUS
  62
7
 100
AcDbCircle
  10
 781.63116412550
  20
 2026.0733318190
  30
0.0
  40
 1.0000000000000
 100
AcDbArc
  50
 180.00000000000
  51
 269.99999528674
   0
ARC
   5
21D
 100
AcDbEntity
   8
LEVEL002
 370
30
   6
CONTINUOUS
  62
7
 100
AcDbCircle
  10
 803.63116404330
  20
 2058.0733319702
  30
0.0
  40
 1.0000000000000
 100
AcDbArc
  50
 90.000000000417
  51
 180.00000866405
   0
LINE
   5
21E
 100
AcDbEntity
   8
LEVEL002
 370
30
 100
AcDbLine
   6
CONTINUOUS
  62
7
  10
 802.63116404330
  20
 2058.0733318190
  30
0.0
  11
 802.63116404330
  21
 2030.0733318190
  31
0.0
   0
ARC
   5
21F
 100
AcDbEntity
   8
LEVEL002
 370
30
   6
CONTINUOUS
  62
7
 100
AcDbCircle
  10
 803.63116394840
  20
 2030.0733318190
  30
0.0
  40
 1.0000000000000
 100
AcDbArc
  50
 180.00000000000
  51
 270.00000543447
   0
ARC
   5
220
 100
AcDbEntity
   8
LEVEL002
 370
30
   6
CONTINUOUS
  62
7
 100
AcDbCircle
  10
 802.63116405760
  20
 2044.0733318190
  30
0.0
  40
 24.000000000000
 100
AcDbArc
  50
 232.34153796658
  51
 269.99999996564
   0
ARC
   5
221
 100
AcDbEntity
   8
LEVEL002
 370
30
   6
CONTINUOUS
  62
7
 100
AcDbCircle
  10
 802.63116404379
  20
 2044.0733318195
  30
0.0
  40
 24.000000000000
 100
AcDbArc
  50
 90.000000001416
  51
 127.65846200802
   0
ARC
   5
222
 100
AcDbEntity
   8
LEVEL002
 370
30
   6
CONTINUOUS
  62
7
 100
AcDbCircle
  10
 843.63116404319
  20
 2044.0733318190
  30
0.0
  40
 24.000000000000
 100
AcDbArc
  50
 270.00000000000
  51
 90.000000000000
   0
LINE
   5
223
 100
AcDbEntity
   8
LEVEL002
 370
30
 100
AcDbLine
   6
CONTINUOUS
  62
7
  10
 835.71086024380
  20
 2029.0733318190
  30
0.0
  11
 835.13116404330
  21
 2028.4936356184
  31
0.0
   0
LINE
   5
224
 100
AcDbEntity
   8
LEVEL002
 370
30
 100
AcDbLine
   6
CONTINUOUS
  62
7
  10
 780.63116404330
  20
 2044.7043137371
  30
0.0
  11
 780.31567308420
  21
 2044.3888227780
  31
0.0
   0
LINE
   5
225
 100
AcDbEntity
   8
LEVEL002
 370
30
 100
AcDbLine
   6
CONTINUOUS
  62
7
  10
 747.63719518020
  20
 2061.0733318190
  30
0.0
  11
 780.63116404330
  21
 2061.0733318190
  31
0.0
   0
LINE
   5
226
 100
AcDbEntity
   8
LEVEL002
 370
30
 100
AcDbLine
   6
CONTINUOUS
  62
7
  10
 747.63719518020
  20
 2061.0733318190
  30
0.0
  11
 780.63116404330
  21
 2061.0733318190
  31
0.0
   0
LINE
   5
227
 100
AcDbEntity
   8
LEVEL002
 370
30
 100
AcDbLine
   6
CONTINUOUS
  62
7
  10
 747.63719518020
  20
 2027.0733318190
  30
0.0
  11
 780.63116404330
  21
 2027.0733318190
  31
0.0
   0
LINE
   5
228
 100
AcDbEntity
   8
LEVEL002
 370
15
 100
AcDbLine
   6
DASHDOT
  62
8
  10
 835.13116404330
  20
 1998.8027184914
  30
0.0
  11
 835.13116404330
  21
 2097.0105759023
  31
0.0
   0
LINE
   5
229
 100
AcDbEntity
   8
LEVEL002
 370
30
 100
AcDbLine
   6
CONTINUOUS
  62
7
  10
 489.63116404330
  20
 2061.0733318190
  30
0.0
  11
 780.63116404330
  21
 2061.0733318190
  31
0.0
   0
LINE
   5
22A
 100
AcDbEntity
   8
LEVEL002
 370
30
 100
AcDbLine
   6
CONTINUOUS
  62
7
  10
 489.63116404330
  20
 2027.0733318190
  30
0.0
  11
 780.63116404330
  21
 2027.0733318190
  31
0.0
   0
DIMENSION
   5
22B
 100
AcDbEntity
   8
LEVEL001
 370
15
   6
CONTINUOUS
  62
8
 100
AcDbDimension
   2
*D2
  10
 835.13116404330
  20
 1927.0733318190
  30
0.0
  11
 635.13116404330
  21
 1927.0733318190
  31
0.0
  70
0
   3
GMM001
 100
AcDbAlignedDimension
  13
 435.13116404330
  23
 1998.8027184914
  33
0.0
  14
 835.13116404330
  24
 1998.8027184914
  34
0.0
 100
AcDbRotatedDimension
   0
LINE
   5
22C
 100
AcDbEntity
   8
LEVEL002
 370
30
 100
AcDbLine
   6
CONTINUOUS
  62
7
  10
 489.63116404330
  20
 2027.0733318190
  30
0.0
  11
 780.63116404330
  21
 2027.0733318190
  31
0.0
   0
LINE
   5
22D
 100
AcDbEntity
   8
LEVEL002
 370
15
 100
AcDbLine
   6
DASHDOT
  62
8
  10
 921.55257381640
  20
 2044.0733318190
  30
0.0
  11
 371.30961583018
  21
 2044.0733318190
  31
0.0
   0
LINE
   5
22E
 100
AcDbEntity
   8
LEVEL002
 370
40
 100
AcDbLine
   6
CONTINUOUS
  62
3
  10
 270.77211005179
  20
 2478.4717985524
  30
0.0
  11
 939.55904374817
  21
 2478.4717985524
  31
0.0
   0
ARC
   5
22F
 100
AcDbEntity
   8
LEVEL002
 370
30
   6
CONTINUOUS
  62
7
 100
AcDbCircle
  10
 461.63116404190
  20
 2458.8717985549
  30
0.0
  40
 60.000000000000
 100
AcDbArc
  50
 209.02636109527
  51
 270.00000000131
   0
ARC
   5
230
 100
AcDbEntity
   8
LEVEL002
 370
30
   6
CONTINUOUS
  62
7
 100
AcDbCircle
  10
 461.63116404319
  20
 2458.8717985549
  30
0.0
  40
 60.000000000000
 100
AcDbArc
  50
 180.00000000239
  51
 209.02636109464
   0
LINE
   5
231
 100
AcDbEntity
   8
LEVEL002
 370
30
 100
AcDbLine
   6
CONTINUOUS
  62
7
  10
 415.30076845189
  20
 2430.7470763324
  30
0.0
  11
 408.63116404279
  21
 2430.7470763324
  31
0.0
   0
LINE
   5
232
 100
AcDbEntity
   8
LEVEL002
 370
30
 100
AcDbLine
   6
CONTINUOUS
  62
7
  10
 466.63116404319
  20
 2398.8717985524
  30
0.0
  11
 466.63116404319
  21
 2408.0289032769
  31
0.0
   0
LINE
   5
233
 100
AcDbEntity
   8
LEVEL002
 370
30
 100
AcDbLine
   6
CONTINUOUS
  62
7
  10
 487.63116404330
  20
 2398.8717985524
  30
0.0
  11
 461.63116404319
  21
 2398.8717985524
  31
0.0
   0
LINE
   5
234
 100
AcDbEntity
   8
LEVEL002
 370
30
 100
AcDbLine
   6
CONTINUOUS
  62
7
  10
 401.63116404319
  20
 2477.4717985524
  30
0.0
  11
 401.63116404319
  21
 2458.8717985524
  31
0.0
   0
ARC
   5
235
 100
AcDbEntity
   8
LEVEL002
 370
30
   6
CONTINUOUS
  62
7
 100
AcDbCircle
  10
 415.30076846380
  20
 2420.7470763180
  30
0.0
  40
 10.000000000000
 100
AcDbArc
  50
 39.450551290685
  51
 90.000000067868
   0
ARC
   5
236
 100
AcDbEntity
   8
LEVEL002
 370
30
   6
CONTINUOUS
  62
7
 100
AcDbCircle
  10
 461.63116404350
  20
 2458.8717985521
  30
0.0
  40
 50.000000000000
 100
AcDbArc
  50
 219.45055118344
  51
 274.49840666860
   0
ARC
   5
237
 100
AcDbEntity
   8
LEVEL002
 370
30
   6
CONTINUOUS
  62
7
 100
AcDbCircle
  10
 465.63116404319
  20
 2408.0289034874
  30
0.0
  40
 1.0000000000000
 100
AcDbArc
  50
0.0
  51
 94.498407614994
   0
ARC
   5
238
 100
AcDbEntity
   8
LEVEL002
 370
30
   6
CONTINUOUS
  62
7
 100
AcDbCircle
  10
 487.63116404319
  20
 2435.8717986138
  30
0.0
  40
 1.0000000000000
 100
AcDbArc
  50
0.0
  51
 89.999999999583
   0
LINE
   5
239
 100
AcDbEntity
   8
LEVEL002
 370
30
 100
AcDbLine
   6
CONTINUOUS
  62
7
  10
 488.63116404319
  20
 2435.8717985524
  30
0.0
  11
 488.63116404319
  21
 2399.8717985524
  31
0.0
   0
LINE
   5
23A
 100
AcDbEntity
   8
LEVEL002
 370
30
 100
AcDbLine
   6
CONTINUOUS
  62
7
  10
 487.63116404330
  20
 2436.8717985524
  30
0.0
  11
 482.29404234190
  21
 2436.8717985524
  31
0.0
   0
ARC
   5
23B
 100
AcDbEntity
   8
LEVEL002
 370
30
   6
CONTINUOUS
  62
7
 100
AcDbCircle
  10
 482.29404234190
  20
 2437.8717986292
  30
0.0
  40
 1.0000000000000
 100
AcDbArc
  50
 180.00000439602
  51
 270.00000000125
   0
LINE
   5
23C
 100
AcDbEntity
   8
LEVEL002
 370
30
 100
AcDbLine
   6
CONTINUOUS
  62
7
  10
 481.29404234190
  20
 2437.8717985524
  30
0.0
  11
 481.29404234190
  21
 2477.4717985524
  31
0.0
   0
ARC
   5
23D
 100
AcDbEntity
   8
LEVEL002
 370
30
   6
CONTINUOUS
  62
7
 100
AcDbCircle
  10
 480.29404234190
  20
 2477.4717986657
  30
0.0
  40
 1.0000000000000
 100
AcDbArc
  50
0.0
  51
 89.999999998749
   0
LINE
   5
23E
 100
AcDbEntity
   8
LEVEL002
 370
30
 100
AcDbLine
   6
CONTINUOUS
  62
7
  10
 480.29404234190
  20
 2478.4717985524
  30
0.0
  11
 402.63116404330
  21
 2478.4717985524
  31
0.0
   0
ARC
   5
23F
 100
AcDbEntity
   8
LEVEL002
 370
30
   6
CONTINUOUS
  62
7
 100
AcDbCircle
  10
 487.63116415350
  20
 2399.8717985524
  30
0.0
  40
 1.0000000000000
 100
AcDbArc
  50
 269.99999368216
  51
0.0
   0
ARC
   5
240
 100
AcDbEntity
   8
LEVEL002
 370
30
   6
CONTINUOUS
  62
7
 100
AcDbCircle
  10
 402.63116412519
  20
 2477.4717985524
  30
0.0
  40
 1.0000000000000
 100
AcDbArc
  50
 90.000004694088
  51
 180.00000000000
   0
LINE
   5
241
 100
AcDbEntity
   8
LEVEL002
 370
30
 100
AcDbLine
   6
CONTINUOUS
  62
7
  10
 520.57643152380
  20
 2434.8717985524
  30
0.0
  11
 488.63116404319
  21
 2434.8717985524
  31
0.0
   0
LINE
   5
242
 100
AcDbEntity
   8
LEVEL002
 370
30
 100
AcDbLine
   6
CONTINUOUS
  62
7
  10
 520.57643152380
  20
 2400.8717985524
  30
0.0
  11
 488.63116404319
  21
 2400.8717985524
  31
0.0
   0
LINE
   5
243
 100
AcDbEntity
   8
LEVEL002
 370
15
 100
AcDbLine
   6
DASHDOT
  62
8
  10
 435.13116404330
  20
 2488.0967011899
  30
0.0
  11
 435.13116404330
  21
 2357.0666734259
  31
0.0
   0
DIMENSION
   5
244
 100
AcDbEntity
   8
LEVEL001
 370
15
   6
CONTINUOUS
  62
8
 100
AcDbDimension
   2
*D3
  10
 333.50108606359
  20
 2478.4717985524
  30
0.0
  11
 333.50108606359
  21
 2448.1717985524
  31
0.0
  70
0
   1
\A1;60
   3
GMM001
 100
AcDbAlignedDimension
  13
 387.90243411180
  23
 2417.8717985524
  33
0.0
  14
 333.50108606359
  24
 2478.4717985524
  34
0.0
  50
 90.000000000000
 100
AcDbRotatedDimension
   0
LINE
   5
245
 100
AcDbEntity
   8
LEVEL002
 370
30
 100
AcDbLine
   6
CONTINUOUS
  62
7
  10
 802.63116404330
  20
 2398.8717985524
  30
0.0
  11
 802.63116404330
  21
 2408.0289032769
  31
0.0
   0
LINE
   5
246
 100
AcDbEntity
   8
LEVEL002
 370
30
 100
AcDbLine
   6
CONTINUOUS
  62
7
  10
 867.63116404330
  20
 2477.4717985524
  30
0.0
  11
 867.63116404330
  21
 2458.8717985524
  31
0.0
   0
LINE
   5
247
 100
AcDbEntity
   8
LEVEL002
 370
30
 100
AcDbLine
   6
CONTINUOUS
  62
7
  10
 781.63116404319
  20
 2398.8717985524
  30
0.0
  11
 807.63116404330
  21
 2398.8717985524
  31
0.0
   0
LINE
   5
248
 100
AcDbEntity
   8
LEVEL002
 370
30
 100
AcDbLine
   6
CONTINUOUS
  62
7
  10
 853.96155963460
  20
 2430.7470763324
  30
0.0
  11
 860.63116404370
  21
 2430.7470763324
  31
0.0
   0
ARC
   5
249
 100
AcDbEntity
   8
LEVEL002
 370
30
   6
CONTINUOUS
  62
7
 100
AcDbCircle
  10
 853.96155961290
  20
 2420.7470763324
  30
0.0
  40
 10.000000000000
 100
AcDbArc
  50
 89.999999875978
  51
 140.54944873736
   0
ARC
   5
24A
 100
AcDbEntity
   8
LEVEL002
 370
30
   6
CONTINUOUS
  62
7
 100
AcDbCircle
  10
 807.63116404680
  20
 2458.8717985521
  30
0.0
  40
 50.000000000000
 100
AcDbArc
  50
 265.50159332702
  51
 320.54944881375
   0
ARC
   5
24B
 100
AcDbEntity
   8
LEVEL002
 370
30
   6
CONTINUOUS
  62
7
 100
AcDbCircle
  10
 803.63116407679
  20
 2408.0289032742
  30
0.0
  40
 1.0000000000000
 100
AcDbArc
  50
 85.501595257415
  51
 179.99999984909
   0
ARC
   5
24C
 100
AcDbEntity
   8
LEVEL002
 370
30
   6
CONTINUOUS
  62
7
 100
AcDbCircle
  10
 781.63116433440
  20
 2435.8717985524
  30
0.0
  40
 1.0000000000000
 100
AcDbArc
  50
 90.000016681103
  51
 180.00000000000
   0
LINE
   5
24D
 100
AcDbEntity
   8
LEVEL002
 370
30
 100
AcDbLine
   6
CONTINUOUS
  62
7
  10
 780.63116404330
  20
 2435.8717985524
  30
0.0
  11
 780.63116404330
  21
 2399.8717985524
  31
0.0
   0
LINE
   5
24E
 100
AcDbEntity
   8
LEVEL002
 370
30
 100
AcDbLine
   6
CONTINUOUS
  62
7
  10
 781.63116404319
  20
 2436.8717985524
  30
0.0
  11
 786.96828574460
  21
 2436.8717985524
  31
0.0
   0
ARC
   5
24F
 100
AcDbEntity
   8
LEVEL002
 370
30
   6
CONTINUOUS
  62
7
 100
AcDbCircle
  10
 786.96828569870
  20
 2437.8717985524
  30
0.0
  40
 1.0000000000000
 100
AcDbArc
  50
 270.00000263052
  51
0.0
   0
LINE
   5
250
 100
AcDbEntity
   8
LEVEL002
 370
30
 100
AcDbLine
   6
CONTINUOUS
  62
7
  10
 787.96828574460
  20
 2437.8717985524
  30
0.0
  11
 787.96828574460
  21
 2477.4717985524
  31
0.0
   0
ARC
   5
251
 100
AcDbEntity
   8
LEVEL002
 370
30
   6
CONTINUOUS
  62
7
 100
AcDbCircle
  10
 788.96828596409
  20
 2477.4717985524
  30
0.0
  40
 1.0000000000000
 100
AcDbArc
  50
 90.000012575235
  51
 180.00000000000
   0
LINE
   5
252
 100
AcDbEntity
   8
LEVEL002
 370
30
 100
AcDbLine
   6
CONTINUOUS
  62
7
  10
 788.96828574460
  20
 2478.4717985524
  30
0.0
  11
 866.63116404319
  21
 2478.4717985524
  31
0.0
   0
ARC
   5
253
 100
AcDbEntity
   8
LEVEL002
 370
30
   6
CONTINUOUS
  62
7
 100
AcDbCircle
  10
 781.63116404319
  20
 2399.8717984330
  30
0.0
  40
 1.0000000000000
 100
AcDbArc
  50
 179.99999315480
  51
 270.00000000000
   0
ARC
   5
254
 100
AcDbEntity
   8
LEVEL002
 370
30
   6
CONTINUOUS
  62
7
 100
AcDbCircle
  10
 866.63116404330
  20
 2477.4717984611
  30
0.0
  40
 1.0000000000000
 100
AcDbArc
  50
 0.52318648732703E-5
  51
 90.000000000834
   0
ARC
   5
255
 100
AcDbEntity
   8
LEVEL002
 370
30
   6
CONTINUOUS
  62
7
 100
AcDbCircle
  10
 807.63116404030
  20
 2458.8717985524
  30
0.0
  40
 60.000000000000
 100
AcDbArc
  50
 270.00000000278
  51
0.0
   0
LINE
   5
256
 100
AcDbEntity
   8
LEVEL002
 370
15
 100
AcDbLine
   6
DASHDOT
  62
8
  10
 835.13116404330
  20
 2488.0967011899
  30
0.0
  11
 835.13116404330
  21
 2357.0666734259
  31
0.0
   0
LINE
   5
257
 100
AcDbEntity
   8
LEVEL002
 370
30
 100
AcDbLine
   6
CONTINUOUS
  62
7
  10
 488.63116404319
  20
 2434.8717985524
  30
0.0
  11
 780.63116404330
  21
 2434.8717985524
  31
0.0
   0
LINE
   5
258
 100
AcDbEntity
   8
LEVEL002
 370
30
 100
AcDbLine
   6
CONTINUOUS
  62
7
  10
 488.63116404319
  20
 2400.8717985524
  30
0.0
  11
 780.63116404330
  21
 2400.8717985524
  31
0.0
   0
LINE
   5
259
 100
AcDbEntity
   8
LEVEL002
 370
15
 100
AcDbLine
   6
DASHDOT
  62
8
  10
 387.90243411180
  20
 2417.8717985524
  30
0.0
  11
 894.24657734370
  21
 2417.8717985524
  31
0.0
   0
ARC
   5
25A
 100
AcDbEntity
   8
LEVEL002
 370
30
   6
CONTINUOUS
  62
7
 100
AcDbCircle
  10
 1644.0733470481
  20
 2022.2451443829
  30
0.0
  40
 1.0000000000000
 100
AcDbArc
  50
 179.99999984970
  51
 274.71669260452
   0
LINE
   5
25B
 100
AcDbEntity
   8
LEVEL002
 370
30
 100
AcDbLine
   6
CONTINUOUS
  62
7
  10
 1644.1555759145
  20
 2021.2485309104
  30
0.0
  11
 1703.6733470799
  21
 2026.1592381022
  31
0.0
   0
LINE
   5
25C
 100
AcDbEntity
   8
LEVEL002
 370
30
 100
AcDbLine
   6
CONTINUOUS
  62
7
  10
 1643.0733470799
  20
 2022.2451443855
  30
0.0
  11
 1643.0733470799
  21
 2068.0733318190
  31
0.0
   0
ARC
   5
25D
 100
AcDbEntity
   8
LEVEL002
 370
30
   6
CONTINUOUS
  62
7
 100
AcDbCircle
  10
 1644.0733470799
  20
 2068.0733318208
  30
0.0
  40
 1.0000000000000
 100
AcDbArc
  50
 85.283309216128
  51
 180.00000010422
   0
LINE
   5
25E
 100
AcDbEntity
   8
LEVEL002
 370
30
 100
AcDbLine
   6
CONTINUOUS
  62
7
  10
 1644.1555759145
  20
 2069.0699452941
  30
0.0
  11
 1703.6733470799
  21
 2064.1592381022
  31
0.0
   0
LINE
   5
25F
 100
AcDbEntity
   8
LEVEL002
 370
30
 100
AcDbLine
   6
CONTINUOUS
  62
7
  10
 1694.4439489299
  20
 2059.1316116322
  30
0.0
  11
 1716.5486248609
  21
 2059.1316116322
  31
0.0
   0
LINE
   5
260
 100
AcDbEntity
   8
LEVEL002
 370
30
 100
AcDbLine
   6
CONTINUOUS
  62
7
  10
 1694.4439489299
  20
 2031.1868645722
  30
0.0
  11
 1716.5486248609
  21
 2031.1868645722
  31
0.0
   0
LINE
   5
261
 100
AcDbEntity
   8
LEVEL002
 370
30
 100
AcDbLine
   6
CONTINUOUS
  62
7
  10
 1694.4439489299
  20
 2059.1316116322
  30
0.0
  11
 1693.8131168576
  21
 2058.9193398826
  31
0.0
   0
LINE
   5
262
 100
AcDbEntity
   8
LEVEL002
 370
30
 100
AcDbLine
   6
CONTINUOUS
  62
7
  10
 1693.8131168576
  20
 2058.9193398826
  30
0.0
  11
 1693.2014522986
  21
 2058.2889744032
  31
0.0
   0
LINE
   5
263
 100
AcDbEntity
   8
LEVEL002
 370
30
 100
AcDbLine
   6
CONTINUOUS
  62
7
  10
 1693.2014522986
  20
 2058.2889744032
  30
0.0
  11
 1692.6275403710
  21
 2057.2596685304
  31
0.0
   0
LINE
   5
264
 100
AcDbEntity
   8
LEVEL002
 370
30
 100
AcDbLine
   6
CONTINUOUS
  62
7
  10
 1692.6275403710
  20
 2057.2596685304
  30
0.0
  11
 1692.1088190983
  21
 2055.8626972021
  31
0.0
   0
LINE
   5
265
 100
AcDbEntity
   8
LEVEL002
 370
30
 100
AcDbLine
   6
CONTINUOUS
  62
7
  10
 1692.1088190983
  20
 2055.8626972021
  30
0.0
  11
 1691.6610495640
  21
 2054.1405066852
  31
0.0
   0
LINE
   5
266
 100
AcDbEntity
   8
LEVEL002
 370
30
 100
AcDbLine
   6
CONTINUOUS
  62
7
  10
 1691.6610495640
  20
 2054.1405066852
  30
0.0
  11
 1691.2978370186
  21
 2052.1454248672
  31
0.0
   0
LINE
   5
267
 100
AcDbEntity
   8
LEVEL002
 370
30
 100
AcDbLine
   6
CONTINUOUS
  62
7
  10
 1691.2978370186
  20
 2052.1454248672
  30
0.0
  11
 1691.0302174917
  21
 2049.9380712996
  31
0.0
   0
LINE
   5
268
 100
AcDbEntity
   8
LEVEL002
 370
30
 100
AcDbLine
   6
CONTINUOUS
  62
7
  10
 1691.0302174917
  20
 2049.9380712996
  30
0.0
  11
 1690.8663224670
  21
 2047.5855153034
  31
0.0
   0
LINE
   5
269
 100
AcDbEntity
   8
LEVEL002
 370
30
 100
AcDbLine
   6
CONTINUOUS
  62
7
  10
 1690.8663224670
  20
 2047.5855153034
  30
0.0
  11
 1690.8111318121
  21
 2045.1592381022
  31
0.0
   0
LINE
   5
26A
 100
AcDbEntity
   8
LEVEL002
 370
30
 100
AcDbLine
   6
CONTINUOUS
  62
7
  10
 1690.8111318121
  20
 2045.1592381022
  30
0.0
  11
 1690.8663224670
  21
 2042.7329609011
  31
0.0
   0
LINE
   5
26B
 100
AcDbEntity
   8
LEVEL002
 370
30
 100
AcDbLine
   6
CONTINUOUS
  62
7
  10
 1690.8663224670
  20
 2042.7329609011
  30
0.0
  11
 1691.0302174917
  21
 2040.3804049049
  31
0.0
   0
LINE
   5
26C
 100
AcDbEntity
   8
LEVEL002
 370
30
 100
AcDbLine
   6
CONTINUOUS
  62
7
  10
 1691.0302174917
  20
 2040.3804049049
  30
0.0
  11
 1691.2978370186
  21
 2038.1730513372
  31
0.0
   0
LINE
   5
26D
 100
AcDbEntity
   8
LEVEL002
 370
30
 100
AcDbLine
   6
CONTINUOUS
  62
7
  10
 1691.2978370186
  20
 2038.1730513372
  30
0.0
  11
 1691.6610495640
  21
 2036.1779695192
  31
0.0
   0
LINE
   5
26E
 100
AcDbEntity
   8
LEVEL002
 370
30
 100
AcDbLine
   6
CONTINUOUS
  62
7
  10
 1691.6610495640
  20
 2036.1779695192
  30
0.0
  11
 1692.1088190983
  21
 2034.4557790024
  31
0.0
   0
LINE
   5
26F
 100
AcDbEntity
   8
LEVEL002
 370
30
 100
AcDbLine
   6
CONTINUOUS
  62
7
  10
 1692.1088190983
  20
 2034.4557790024
  30
0.0
  11
 1692.6275403710
  21
 2033.0588076741
  31
0.0
   0
LINE
   5
270
 100
AcDbEntity
   8
LEVEL002
 370
30
 100
AcDbLine
   6
CONTINUOUS
  62
7
  10
 1692.6275403710
  20
 2033.0588076741
  30
0.0
  11
 1693.2014522986
  21
 2032.0295018012
  31
0.0
   0
LINE
   5
271
 100
AcDbEntity
   8
LEVEL002
 370
30
 100
AcDbLine
   6
CONTINUOUS
  62
7
  10
 1693.2014522986
  20
 2032.0295018012
  30
0.0
  11
 1693.8131168576
  21
 2031.3991363219
  31
0.0
   0
LINE
   5
272
 100
AcDbEntity
   8
LEVEL002
 370
30
 100
AcDbLine
   6
CONTINUOUS
  62
7
  10
 1693.8131168576
  20
 2031.3991363219
  30
0.0
  11
 1694.4439489299
  21
 2031.1868645722
  31
0.0
   0
ARC
   5
273
 100
AcDbEntity
   8
LEVEL002
 370
30
   6
CONTINUOUS
  62
7
 100
AcDbCircle
  10
 1703.6733470799
  20
 2045.1592381022
  30
0.0
  40
 19.000000000000
 100
AcDbArc
  50
 270.00000000000
  51
 90.000000000000
   0
LINE
   5
274
 100
AcDbEntity
   8
LEVEL002
 370
40
 100
AcDbLine
   6
CONTINUOUS
  62
3
  10
 1643.0733470799
  20
 1772.7544541705
  30
0.0
  11
 1643.0733470799
  21
 2272.9925494086
  31
0.0
   0
LINE
   5
275
 100
AcDbEntity
   8
LEVEL002
 370
15
 100
AcDbLine
   6
DASHDOT
  62
8
  10
 1703.0733470799
  20
 1998.8027184914
  30
0.0
  11
 1703.0733470799
  21
 2097.0105759023
  31
0.0
   0
DIMENSION
   5
276
 100
AcDbEntity
   8
LEVEL001
 370
15
   6
CONTINUOUS
  62
8
 100
AcDbDimension
   2
*D4
  10
 1703.0733470799
  20
 1927.0733318190
  30
0.0
  11
 1673.0733470799
  21
 1927.0733318190
  31
0.0
  70
0
   3
GMM001
 100
AcDbAlignedDimension
  13
 1643.0733470799
  23
 1927.0733318190
  33
0.0
  14
 1703.0733470799
  24
 1998.8027184914
  34
0.0
 100
AcDbRotatedDimension
   0
LINE
   5
277
 100
AcDbEntity
   8
LEVEL002
 370
15
 100
AcDbLine
   6
DASHDOT
  62
8
  10
 1747.0876478668
  20
 2044.0733318190
  30
0.0
  11
 1630.2913091939
  21
 2044.0733318190
  31
0.0
   0
LINE
   5
278
 100
AcDbEntity
   8
LEVEL002
 370
30
 100
AcDbLine
   6
CONTINUOUS
  62
7
  10
 1897.1104875865
  20
 2025.0733318190
  30
0.0
  11
 1917.9522802762
  21
 2025.0733318190
  31
0.0
   0
LINE
   5
279
 100
AcDbEntity
   8
LEVEL002
 370
30
 100
AcDbLine
   6
CONTINUOUS
  62
7
  10
 1897.1104875865
  20
 2063.0733318190
  30
0.0
  11
 1917.9522802762
  21
 2063.0733318190
  31
0.0
   0
LINE
   5
27A
 100
AcDbEntity
   8
LEVEL002
 370
30
 100
AcDbLine
   6
CONTINUOUS
  62
7
  10
 1911.6311640432
  20
 2059.0733318190
  30
0.0
  11
 1866.7321845577
  21
 2059.0733318190
  31
0.0
   0
LINE
   5
27B
 100
AcDbEntity
   8
LEVEL002
 370
30
 100
AcDbLine
   6
CONTINUOUS
  62
7
  10
 1933.6311640432
  20
 2063.0733318190
  30
0.0
  11
 1867.9073587485
  21
 2063.0733318190
  31
0.0
   0
LINE
   5
27C
 100
AcDbEntity
   8
LEVEL002
 370
30
 100
AcDbLine
   6
CONTINUOUS
  62
7
  10
 1911.6311640432
  20
 2029.0733318190
  30
0.0
  11
 1866.7321845577
  21
 2029.0733318190
  31
0.0
   0
ARC
   5
27D
 100
AcDbEntity
   8
LEVEL002
 370
30
   6
CONTINUOUS
  62
7
 100
AcDbCircle
  10
 1867.9073587401
  20
 2053.0733318090
  30
0.0
  40
 10.000000000000
 100
AcDbArc
  50
 89.999999952007
  51
 139.99479904036
   0
ARC
   5
27E
 100
AcDbEntity
   8
LEVEL002
 370
30
   6
CONTINUOUS
  62
7
 100
AcDbCircle
  10
 1878.6311640410
  20
 2044.0733318217
  30
0.0
  40
 24.000000000000
 100
AcDbArc
  50
 139.99479911663
  51
 220.00520089331
   0
LINE
   5
27F
 100
AcDbEntity
   8
LEVEL002
 370
30
 100
AcDbLine
   6
CONTINUOUS
  62
7
  10
 1933.6311640432
  20
 2063.0733318190
  30
0.0
  11
 1867.9073587485
  21
 2063.0733318190
  31
0.0
   0
ARC
   5
280
 100
AcDbEntity
   8
LEVEL002
 370
30
   6
CONTINUOUS
  62
7
 100
AcDbCircle
  10
 1866.7321845661
  20
 2049.0733318272
  30
0.0
  40
 10.000000000000
 100
AcDbArc
  50
 90.000000048181
  51
 134.41530866447
   0
ARC
   5
281
 100
AcDbEntity
   8
LEVEL002
 370
30
   6
CONTINUOUS
  62
7
 100
AcDbCircle
  10
 1871.6311640405
  20
 2044.0733318217
  30
0.0
  40
 17.000000000000
 100
AcDbArc
  50
 134.41530859691
  51
 225.58469141595
   0
LINE
   5
282
 100
AcDbEntity
   8
LEVEL002
 370
30
 100
AcDbLine
   6
CONTINUOUS
  62
7
  10
 1911.6311640432
  20
 2059.0733318190
  30
0.0
  11
 1866.7321845577
  21
 2059.0733318190
  31
0.0
   0
ARC
   5
283
 100
AcDbEntity
   8
LEVEL002
 370
30
   6
CONTINUOUS
  62
7
 100
AcDbCircle
  10
 1866.7321845828
  20
 2039.0733318190
  30
0.0
  40
 10.000000000000
 100
AcDbArc
  50
 225.58469130006
  51
 269.99999985603
   0
LINE
   5
284
 100
AcDbEntity
   8
LEVEL002
 370
30
 100
AcDbLine
   6
CONTINUOUS
  62
7
  10
 1911.6311640432
  20
 2029.0733318190
  30
0.0
  11
 1866.7321845577
  21
 2029.0733318190
  31
0.0
   0
ARC
   5
285
 100
AcDbEntity
   8
LEVEL002
 370
30
   6
CONTINUOUS
  62
7
 100
AcDbCircle
  10
 1867.9073587274
  20
 2035.0733318190
  30
0.0
  40
 10.000000000000
 100
AcDbArc
  50
 220.00520096266
  51
 270.00000012093
   0
LINE
   5
286
 100
AcDbEntity
   8
LEVEL002
 370
30
 100
AcDbLine
   6
CONTINUOUS
  62
7
  10
 1933.6311640432
  20
 2025.0733318190
  30
0.0
  11
 1867.9073587485
  21
 2025.0733318190
  31
0.0
   0
LINE
   5
287
 100
AcDbEntity
   8
LEVEL002
 370
30
 100
AcDbLine
   6
CONTINUOUS
  62
7
  10
 1912.6311640433
  20
 2030.0733318190
  30
0.0
  11
 1912.6311640433
  21
 2058.0733318190
  31
0.0
   0
LINE
   5
288
 100
AcDbEntity
   8
LEVEL002
 370
30
 100
AcDbLine
   6
CONTINUOUS
  62
7
  10
 1912.6311640433
  20
 2020.0733318190
  30
0.0
  11
 1871.6311640432
  21
 2020.0733318190
  31
0.0
   0
LINE
   5
289
 100
AcDbEntity
   8
LEVEL002
 370
30
 100
AcDbLine
   6
CONTINUOUS
  62
7
  10
 1912.6311640433
  20
 2020.0733318190
  30
0.0
  11
 1871.6311640432
  21
 2020.0733318190
  31
0.0
   0
LINE
   5
28A
 100
AcDbEntity
   8
LEVEL002
 370
30
 100
AcDbLine
   6
CONTINUOUS
  62
7
  10
 1912.6311640433
  20
 2068.0733318190
  30
0.0
  11
 1871.6311640432
  21
 2068.0733318190
  31
0.0
   0
LINE
   5
28B
 100
AcDbEntity
   8
LEVEL002
 370
30
 100
AcDbLine
   6
CONTINUOUS
  62
7
  10
 1912.6311640433
  20
 2068.0733318190
  30
0.0
  11
 1871.6311640432
  21
 2068.0733318190
  31
0.0
   0
LINE
   5
28C
 100
AcDbEntity
   8
LEVEL002
 370
30
 100
AcDbLine
   6
CONTINUOUS
  62
7
  10
 1880.1311640433
  20
 2020.0733318190
  30
0.0
  11
 1912.6311640433
  21
 2020.0733318190
  31
0.0
   0
LINE
   5
28D
 100
AcDbEntity
   8
LEVEL002
 370
30
 100
AcDbLine
   6
CONTINUOUS
  62
7
  10
 1880.1311640433
  20
 2068.0733318190
  30
0.0
  11
 1912.6311640433
  21
 2068.0733318190
  31
0.0
   0
LINE
   5
28E
 100
AcDbEntity
   8
LEVEL002
 370
30
 100
AcDbLine
   6
CONTINUOUS
  62
7
  10
 1967.6251329063
  20
 2061.0733318190
  30
0.0
  11
 1934.6311640433
  21
 2061.0733318190
  31
0.0
   0
ARC
   5
28F
 100
AcDbEntity
   8
LEVEL002
 370
30
   6
CONTINUOUS
  62
7
 100
AcDbCircle
  10
 1933.6311643064
  20
 2062.0733318190
  30
0.0
  40
 1.0000000000000
 100
AcDbArc
  50
0.0
  51
 90.000015076108
   0
LINE
   5
290
 100
AcDbEntity
   8
LEVEL002
 370
30
 100
AcDbLine
   6
CONTINUOUS
  62
7
  10
 1934.6311640433
  20
 2062.0733318190
  30
0.0
  11
 1934.6311640433
  21
 2026.0733318190
  31
0.0
   0
ARC
   5
291
 100
AcDbEntity
   8
LEVEL002
 370
30
   6
CONTINUOUS
  62
7
 100
AcDbCircle
  10
 1933.6311640433
  20
 2026.0733320898
  30
0.0
  40
 1.0000000000000
 100
AcDbArc
  50
 269.99999999958
  51
0.0
   0
ARC
   5
292
 100
AcDbEntity
   8
LEVEL002
 370
30
   6
CONTINUOUS
  62
7
 100
AcDbCircle
  10
 1911.6311640107
  20
 2058.0733318190
  30
0.0
  40
 1.0000000000000
 100
AcDbArc
  50
0.0
  51
 89.999998137790
   0
LINE
   5
293
 100
AcDbEntity
   8
LEVEL002
 370
30
 100
AcDbLine
   6
CONTINUOUS
  62
7
  10
 1912.6311640433
  20
 2058.0733318190
  30
0.0
  11
 1912.6311640433
  21
 2030.0733318190
  31
0.0
   0
ARC
   5
294
 100
AcDbEntity
   8
LEVEL002
 370
30
   6
CONTINUOUS
  62
7
 100
AcDbCircle
  10
 1911.6311640433
  20
 2030.0733317941
  30
0.0
  40
 1.0000000000000
 100
AcDbArc
  50
 269.99999999917
  51
 0.14240677615212E-5
   0
ARC
   5
295
 100
AcDbEntity
   8
LEVEL002
 370
30
   6
CONTINUOUS
  62
7
 100
AcDbCircle
  10
 1912.6311640432
  20
 2044.0733318190
  30
0.0
  40
 24.000000000000
 100
AcDbArc
  50
 270.00000000010
  51
 307.65846200636
   0
ARC
   5
296
 100
AcDbEntity
   8
LEVEL002
 370
30
   6
CONTINUOUS
  62
7
 100
AcDbCircle
  10
 1912.6311640406
  20
 2044.0733318190
  30
0.0
  40
 24.000000000000
 100
AcDbArc
  50
 52.341537988745
  51
 89.999999993660
   0
ARC
   5
297
 100
AcDbEntity
   8
LEVEL002
 370
30
   6
CONTINUOUS
  62
7
 100
AcDbCircle
  10
 1871.6311640432
  20
 2044.0733318190
  30
0.0
  40
 24.000000000000
 100
AcDbArc
  50
 90.000000000000
  51
 270.00000000000
   0
ARC
   5
298
 100
AcDbEntity
   8
LEVEL002
 370
30
   6
CONTINUOUS
  62
7
 100
AcDbCircle
  10
 1933.6311643064
  20
 2062.0733318190
  30
0.0
  40
 1.0000000000000
 100
AcDbArc
  50
0.0
  51
 90.000015076108
   0
LINE
   5
299
 100
AcDbEntity
   8
LEVEL002
 370
30
 100
AcDbLine
   6
CONTINUOUS
  62
7
  10
 1934.6311640433
  20
 2062.0733318190
  30
0.0
  11
 1934.6311640433
  21
 2026.0733318190
  31
0.0
   0
ARC
   5
29A
 100
AcDbEntity
   8
LEVEL002
 370
30
   6
CONTINUOUS
  62
7
 100
AcDbCircle
  10
 1933.6311640433
  20
 2026.0733320898
  30
0.0
  40
 1.0000000000000
 100
AcDbArc
  50
 269.99999999958
  51
0.0
   0
ARC
   5
29B
 100
AcDbEntity
   8
LEVEL002
 370
30
   6
CONTINUOUS
  62
7
 100
AcDbCircle
  10
 1911.6311640107
  20
 2058.0733318190
  30
0.0
  40
 1.0000000000000
 100
AcDbArc
  50
0.0
  51
 89.999998137790
   0
LINE
   5
29C
 100
AcDbEntity
   8
LEVEL002
 370
30
 100
AcDbLine
   6
CONTINUOUS
  62
7
  10
 1912.6311640433
  20
 2058.0733318190
  30
0.0
  11
 1912.6311640433
  21
 2030.0733318190
  31
0.0
   0
ARC
   5
29D
 100
AcDbEntity
   8
LEVEL002
 370
30
   6
CONTINUOUS
  62
7
 100
AcDbCircle
  10
 1911.6311640433
  20
 2030.0733317941
  30
0.0
  40
 1.0000000000000
 100
AcDbArc
  50
 269.99999999917
  51
 0.14240677615212E-5
   0
ARC
   5
29E
 100
AcDbEntity
   8
LEVEL002
 370
30
   6
CONTINUOUS
  62
7
 100
AcDbCircle
  10
 1912.6311640432
  20
 2044.0733318190
  30
0.0
  40
 24.000000000000
 100
AcDbArc
  50
 270.00000000010
  51
 307.65846200636
   0
ARC
   5
29F
 100
AcDbEntity
   8
LEVEL002
 370
30
   6
CONTINUOUS
  62
7
 100
AcDbCircle
  10
 1912.6311640406
  20
 2044.0733318190
  30
0.0
  40
 24.000000000000
 100
AcDbArc
  50
 52.341537988745
  51
 89.999999993660
   0
ARC
   5
2A0
 100
AcDbEntity
   8
LEVEL002
 370
30
   6
CONTINUOUS
  62
7
 100
AcDbCircle
  10
 1871.6311640432
  20
 2044.0733318190
  30
0.0
  40
 24.000000000000
 100
AcDbArc
  50
 90.000000000000
  51
 270.00000000000
   0
LINE
   5
2A1
 100
AcDbEntity
   8
LEVEL002
 370
15
 100
AcDbLine
   6
DASHDOT
  62
8
  10
 1880.1311640433
  20
 1998.8027184914
  30
0.0
  11
 1880.1311640433
  21
 2097.0105759023
  31
0.0
   0
ARC
   5
2A2
 100
AcDbEntity
   8
LEVEL002
 370
30
   6
CONTINUOUS
  62
7
 100
AcDbCircle
  10
 1906.6311640419
  20
 2458.8717985549
  30
0.0
  40
 60.000000000000
 100
AcDbArc
  50
 209.02636109527
  51
 270.00000000131
   0
ARC
   5
2A3
 100
AcDbEntity
   8
LEVEL002
 370
30
   6
CONTINUOUS
  62
7
 100
AcDbCircle
  10
 1906.6311640432
  20
 2458.8717985549
  30
0.0
  40
 60.000000000000
 100
AcDbArc
  50
 180.00000000239
  51
 209.02636109464
   0
LINE
   5
2A4
 100
AcDbEntity
   8
LEVEL002
 370
30
 100
AcDbLine
   6
CONTINUOUS
  62
7
  10
 1860.3007684519
  20
 2430.7470763324
  30
0.0
  11
 1853.6311640428
  21
 2430.7470763324
  31
0.0
   0
LINE
   5
2A5
 100
AcDbEntity
   8
LEVEL002
 370
30
 100
AcDbLine
   6
CONTINUOUS
  62
7
  10
 1911.6311640432
  20
 2398.8717985524
  30
0.0
  11
 1911.6311640432
  21
 2408.0289032769
  31
0.0
   0
LINE
   5
2A6
 100
AcDbEntity
   8
LEVEL002
 370
30
 100
AcDbLine
   6
CONTINUOUS
  62
7
  10
 1932.6311640433
  20
 2398.8717985524
  30
0.0
  11
 1906.6311640432
  21
 2398.8717985524
  31
0.0
   0
LINE
   5
2A7
 100
AcDbEntity
   8
LEVEL002
 370
30
 100
AcDbLine
   6
CONTINUOUS
  62
7
  10
 1846.6311640432
  20
 2477.4717985524
  30
0.0
  11
 1846.6311640432
  21
 2458.8717985524
  31
0.0
   0
ARC
   5
2A8
 100
AcDbEntity
   8
LEVEL002
 370
30
   6
CONTINUOUS
  62
7
 100
AcDbCircle
  10
 1860.3007684638
  20
 2420.7470763180
  30
0.0
  40
 10.000000000000
 100
AcDbArc
  50
 39.450551290685
  51
 90.000000067868
   0
ARC
   5
2A9
 100
AcDbEntity
   8
LEVEL002
 370
30
   6
CONTINUOUS
  62
7
 100
AcDbCircle
  10
 1906.6311640435
  20
 2458.8717985521
  30
0.0
  40
 50.000000000000
 100
AcDbArc
  50
 219.45055118344
  51
 274.49840666860
   0
ARC
   5
2AA
 100
AcDbEntity
   8
LEVEL002
 370
30
   6
CONTINUOUS
  62
7
 100
AcDbCircle
  10
 1910.6311640432
  20
 2408.0289034874
  30
0.0
  40
 1.0000000000000
 100
AcDbArc
  50
0.0
  51
 94.498407614994
   0
ARC
   5
2AB
 100
AcDbEntity
   8
LEVEL002
 370
30
   6
CONTINUOUS
  62
7
 100
AcDbCircle
  10
 1932.6311640432
  20
 2435.8717986138
  30
0.0
  40
 1.0000000000000
 100
AcDbArc
  50
0.0
  51
 89.999999999583
   0
LINE
   5
2AC
 100
AcDbEntity
   8
LEVEL002
 370
30
 100
AcDbLine
   6
CONTINUOUS
  62
7
  10
 1933.6311640432
  20
 2435.8717985524
  30
0.0
  11
 1933.6311640432
  21
 2399.8717985524
  31
0.0
   0
LINE
   5
2AD
 100
AcDbEntity
   8
LEVEL002
 370
30
 100
AcDbLine
   6
CONTINUOUS
  62
7
  10
 1932.6311640433
  20
 2436.8717985524
  30
0.0
  11
 1927.2940423419
  21
 2436.8717985524
  31
0.0
   0
ARC
   5
2AE
 100
AcDbEntity
   8
LEVEL002
 370
30
   6
CONTINUOUS
  62
7
 100
AcDbCircle
  10
 1927.2940423419
  20
 2437.8717986292
  30
0.0
  40
 1.0000000000000
 100
AcDbArc
  50
 180.00000439602
  51
 270.00000000125
   0
LINE
   5
2AF
 100
AcDbEntity
   8
LEVEL002
 370
30
 100
AcDbLine
   6
CONTINUOUS
  62
7
  10
 1926.2940423419
  20
 2437.8717985524
  30
0.0
  11
 1926.2940423419
  21
 2477.4717985524
  31
0.0
   0
ARC
   5
2B0
 100
AcDbEntity
   8
LEVEL002
 370
30
   6
CONTINUOUS
  62
7
 100
AcDbCircle
  10
 1925.2940423419
  20
 2477.4717986657
  30
0.0
  40
 1.0000000000000
 100
AcDbArc
  50
0.0
  51
 89.999999998749
   0
LINE
   5
2B1
 100
AcDbEntity
   8
LEVEL002
 370
30
 100
AcDbLine
   6
CONTINUOUS
  62
7
  10
 1925.2940423419
  20
 2478.4717985524
  30
0.0
  11
 1847.6311640433
  21
 2478.4717985524
  31
0.0
   0
ARC
   5
2B2
 100
AcDbEntity
   8
LEVEL002
 370
30
   6
CONTINUOUS
  62
7
 100
AcDbCircle
  10
 1932.6311641535
  20
 2399.8717985524
  30
0.0
  40
 1.0000000000000
 100
AcDbArc
  50
 269.99999368216
  51
0.0
   0
ARC
   5
2B3
 100
AcDbEntity
   8
LEVEL002
 370
30
   6
CONTINUOUS
  62
7
 100
AcDbCircle
  10
 1847.6311641252
  20
 2477.4717985524
  30
0.0
  40
 1.0000000000000
 100
AcDbArc
  50
 90.000004694088
  51
 180.00000000000
   0
LINE
   5
2B4
 100
AcDbEntity
   8
LEVEL002
 370
15
 100
AcDbLine
   6
DASHDOT
  62
8
  10
 1880.1311640433
  20
 2488.0967011899
  30
0.0
  11
 1880.1311640433
  21
 2357.0666734259
  31
0.0
   0
DIMENSION
   5
2B5
 100
AcDbEntity
   8
LEVEL001
 370
15
   6
CONTINUOUS
  62
8
 100
AcDbDimension
   2
*D5
  10
 1778.5010860636
  20
 2478.4717985524
  30
0.0
  11
 1778.5010860636
  21
 2448.1717985524
  31
0.0
  70
0
   1
\A1;60
   3
GMM001
 100
AcDbAlignedDimension
  13
 1832.9024341118
  23
 2417.8717985524
  33
0.0
  14
 1778.5010860636
  24
 2478.4717985524
  34
0.0
  50
 90.000000000000
 100
AcDbRotatedDimension
   0
LINE
   5
2B6
 100
AcDbEntity
   8
LEVEL002
 370
30
 100
AcDbLine
   6
CONTINUOUS
  62
7
  10
 2447.6311640433
  20
 2398.8717985524
  30
0.0
  11
 2447.6311640433
  21
 2408.0289032769
  31
0.0
   0
LINE
   5
2B7
 100
AcDbEntity
   8
LEVEL002
 370
30
 100
AcDbLine
   6
CONTINUOUS
  62
7
  10
 2512.6311640433
  20
 2477.4717985524
  30
0.0
  11
 2512.6311640433
  21
 2458.8717985524
  31
0.0
   0
LINE
   5
2B8
 100
AcDbEntity
   8
LEVEL002
 370
30
 100
AcDbLine
   6
CONTINUOUS
  62
7
  10
 2426.6311640432
  20
 2398.8717985524
  30
0.0
  11
 2452.6311640433
  21
 2398.8717985524
  31
0.0
   0
LINE
   5
2B9
 100
AcDbEntity
   8
LEVEL002
 370
30
 100
AcDbLine
   6
CONTINUOUS
  62
7
  10
 2498.9615596346
  20
 2430.7470763324
  30
0.0
  11
 2505.6311640437
  21
 2430.7470763324
  31
0.0
   0
ARC
   5
2BA
 100
AcDbEntity
   8
LEVEL002
 370
30
   6
CONTINUOUS
  62
7
 100
AcDbCircle
  10
 2498.9615596129
  20
 2420.7470763324
  30
0.0
  40
 10.000000000000
 100
AcDbArc
  50
 89.999999875978
  51
 140.54944873736
   0
ARC
   5
2BB
 100
AcDbEntity
   8
LEVEL002
 370
30
   6
CONTINUOUS
  62
7
 100
AcDbCircle
  10
 2452.6311640468
  20
 2458.8717985521
  30
0.0
  40
 50.000000000000
 100
AcDbArc
  50
 265.50159332702
  51
 320.54944881375
   0
ARC
   5
2BC
 100
AcDbEntity
   8
LEVEL002
 370
30
   6
CONTINUOUS
  62
7
 100
AcDbCircle
  10
 2448.6311640768
  20
 2408.0289032742
  30
0.0
  40
 1.0000000000000
 100
AcDbArc
  50
 85.501595257415
  51
 179.99999984909
   0
ARC
   5
2BD
 100
AcDbEntity
   8
LEVEL002
 370
30
   6
CONTINUOUS
  62
7
 100
AcDbCircle
  10
 2426.6311643344
  20
 2435.8717985524
  30
0.0
  40
 1.0000000000000
 100
AcDbArc
  50
 90.000016681103
  51
 180.00000000000
   0
LINE
   5
2BE
 100
AcDbEntity
   8
LEVEL002
 370
30
 100
AcDbLine
   6
CONTINUOUS
  62
7
  10
 2425.6311640433
  20
 2435.8717985524
  30
0.0
  11
 2425.6311640433
  21
 2399.8717985524
  31
0.0
   0
LINE
   5
2BF
 100
AcDbEntity
   8
LEVEL002
 370
30
 100
AcDbLine
   6
CONTINUOUS
  62
7
  10
 2426.6311640432
  20
 2436.8717985524
  30
0.0
  11
 2431.9682857446
  21
 2436.8717985524
  31
0.0
   0
ARC
   5
2C0
 100
AcDbEntity
   8
LEVEL002
 370
30
   6
CONTINUOUS
  62
7
 100
AcDbCircle
  10
 2431.9682856987
  20
 2437.8717985524
  30
0.0
  40
 1.0000000000000
 100
AcDbArc
  50
 270.00000263052
  51
0.0
   0
LINE
   5
2C1
 100
AcDbEntity
   8
LEVEL002
 370
30
 100
AcDbLine
   6
CONTINUOUS
  62
7
  10
 2432.9682857446
  20
 2437.8717985524
  30
0.0
  11
 2432.9682857446
  21
 2477.4717985524
  31
0.0
   0
ARC
   5
2C2
 100
AcDbEntity
   8
LEVEL002
 370
30
   6
CONTINUOUS
  62
7
 100
AcDbCircle
  10
 2433.9682859641
  20
 2477.4717985524
  30
0.0
  40
 1.0000000000000
 100
AcDbArc
  50
 90.000012575235
  51
 180.00000000000
   0
LINE
   5
2C3
 100
AcDbEntity
   8
LEVEL002
 370
30
 100
AcDbLine
   6
CONTINUOUS
  62
7
  10
 2433.9682857446
  20
 2478.4717985524
  30
0.0
  11
 2511.6311640432
  21
 2478.4717985524
  31
0.0
   0
ARC
   5
2C4
 100
AcDbEntity
   8
LEVEL002
 370
30
   6
CONTINUOUS
  62
7
 100
AcDbCircle
  10
 2426.6311640432
  20
 2399.8717984330
  30
0.0
  40
 1.0000000000000
 100
AcDbArc
  50
 179.99999315480
  51
 270.00000000000
   0
ARC
   5
2C5
 100
AcDbEntity
   8
LEVEL002
 370
30
   6
CONTINUOUS
  62
7
 100
AcDbCircle
  10
 2511.6311640433
  20
 2477.4717984611
  30
0.0
  40
 1.0000000000000
 100
AcDbArc
  50
 0.52318648732703E-5
  51
 90.000000000834
   0
ARC
   5
2C6
 100
AcDbEntity
   8
LEVEL002
 370
30
   6
CONTINUOUS
  62
7
 100
AcDbCircle
  10
 2452.6311640403
  20
 2458.8717985524
  30
0.0
  40
 60.000000000000
 100
AcDbArc
  50
 270.00000000278
  51
0.0
   0
LINE
   5
2C7
 100
AcDbEntity
   8
LEVEL002
 370
15
 100
AcDbLine
   6
DASHDOT
  62
8
  10
 2480.1311640433
  20
 2488.0967011899
  30
0.0
  11
 2480.1311640433
  21
 2357.0666734259
  31
0.0
   0
LINE
   5
2C8
 100
AcDbEntity
   8
LEVEL002
 370
30
 100
AcDbLine
   6
CONTINUOUS
  62
7
  10
 2448.6311640432
  20
 2059.0733318190
  30
0.0
  11
 2493.5301435288
  21
 2059.0733318190
  31
0.0
   0
ARC
   5
2C9
 100
AcDbEntity
   8
LEVEL002
 370
30
   6
CONTINUOUS
  62
7
 100
AcDbCircle
  10
 2488.6311640404
  20
 2044.0733318217
  30
0.0
  40
 17.000000000000
 100
AcDbArc
  50
 314.41530859747
  51
 45.584691389672
   0
LINE
   5
2CA
 100
AcDbEntity
   8
LEVEL002
 370
30
 100
AcDbLine
   6
CONTINUOUS
  62
7
  10
 2426.6311640432
  20
 2063.0733318190
  30
0.0
  11
 2492.3549693380
  21
 2063.0733318190
  31
0.0
   0
ARC
   5
2CB
 100
AcDbEntity
   8
LEVEL002
 370
30
   6
CONTINUOUS
  62
7
 100
AcDbCircle
  10
 2481.6311640448
  20
 2044.0733318171
  30
0.0
  40
 24.000000000000
 100
AcDbArc
  50
 319.99479911614
  51
 40.005200890776
   0
LINE
   5
2CC
 100
AcDbEntity
   8
LEVEL002
 370
30
 100
AcDbLine
   6
CONTINUOUS
  62
7
  10
 2426.6311640432
  20
 2025.0733318190
  30
0.0
  11
 2492.3549693380
  21
 2025.0733318190
  31
0.0
   0
LINE
   5
2CD
 100
AcDbEntity
   8
LEVEL002
 370
30
 100
AcDbLine
   6
CONTINUOUS
  62
7
  10
 2448.6311640432
  20
 2029.0733318190
  30
0.0
  11
 2493.5301435288
  21
 2029.0733318190
  31
0.0
   0
ARC
   5
2CE
 100
AcDbEntity
   8
LEVEL002
 370
30
   6
CONTINUOUS
  62
7
 100
AcDbCircle
  10
 2493.5301435225
  20
 2039.0733318128
  30
0.0
  40
 10.000000000000
 100
AcDbArc
  50
 270.00000003614
  51
 314.41530864753
   0
LINE
   5
2CF
 100
AcDbEntity
   8
LEVEL002
 370
30
 100
AcDbLine
   6
CONTINUOUS
  62
7
  10
 2448.6311640432
  20
 2029.0733318190
  30
0.0
  11
 2493.5301435288
  21
 2029.0733318190
  31
0.0
   0
ARC
   5
2D0
 100
AcDbEntity
   8
LEVEL002
 370
30
   6
CONTINUOUS
  62
7
 100
AcDbCircle
  10
 2493.5301435334
  20
 2049.0733318190
  30
0.0
  40
 10.000000000000
 100
AcDbArc
  50
 45.584691421531
  51
 90.000000026024
   0
LINE
   5
2D1
 100
AcDbEntity
   8
LEVEL002
 370
30
 100
AcDbLine
   6
CONTINUOUS
  62
7
  10
 2448.6311640432
  20
 2059.0733318190
  30
0.0
  11
 2493.5301435288
  21
 2059.0733318190
  31
0.0
   0
ARC
   5
2D2
 100
AcDbEntity
   8
LEVEL002
 370
30
   6
CONTINUOUS
  62
7
 100
AcDbCircle
  10
 2492.3549693354
  20
 2035.0733318159
  30
0.0
  40
 10.000000000000
 100
AcDbArc
  50
 270.00000001485
  51
 319.99479913822
   0
LINE
   5
2D3
 100
AcDbEntity
   8
LEVEL002
 370
30
 100
AcDbLine
   6
CONTINUOUS
  62
7
  10
 2426.6311640432
  20
 2025.0733318190
  30
0.0
  11
 2492.3549693380
  21
 2025.0733318190
  31
0.0
   0
ARC
   5
2D4
 100
AcDbEntity
   8
LEVEL002
 370
30
   6
CONTINUOUS
  62
7
 100
AcDbCircle
  10
 2492.3549693259
  20
 2053.0733318190
  30
0.0
  40
 10.000000000000
 100
AcDbArc
  50
 40.005200840234
  51
 89.999999930631
   0
LINE
   5
2D5
 100
AcDbEntity
   8
LEVEL002
 370
30
 100
AcDbLine
   6
CONTINUOUS
  62
7
  10
 2426.6311640432
  20
 2063.0733318190
  30
0.0
  11
 2492.3549693380
  21
 2063.0733318190
  31
0.0
   0
LINE
   5
2D6
 100
AcDbEntity
   8
LEVEL002
 370
30
 100
AcDbLine
   6
CONTINUOUS
  62
7
  10
 2447.6311640433
  20
 2068.0733318190
  30
0.0
  11
 2488.6311640432
  21
 2068.0733318190
  31
0.0
   0
LINE
   5
2D7
 100
AcDbEntity
   8
LEVEL002
 370
30
 100
AcDbLine
   6
CONTINUOUS
  62
7
  10
 2447.6311640433
  20
 2020.0733318190
  30
0.0
  11
 2488.6311640432
  21
 2020.0733318190
  31
0.0
   0
LINE
   5
2D8
 100
AcDbEntity
   8
LEVEL002
 370
30
 100
AcDbLine
   6
CONTINUOUS
  62
7
  10
 2447.6311640433
  20
 2020.0733318190
  30
0.0
  11
 2488.6311640432
  21
 2020.0733318190
  31
0.0
   0
LINE
   5
2D9
 100
AcDbEntity
   8
LEVEL002
 370
30
 100
AcDbLine
   6
CONTINUOUS
  62
7
  10
 2447.6311640433
  20
 2068.0733318190
  30
0.0
  11
 2488.6311640432
  21
 2068.0733318190
  31
0.0
   0
ARC
   5
2DA
 100
AcDbEntity
   8
LEVEL002
 370
30
   6
CONTINUOUS
  62
7
 100
AcDbCircle
  10
 2426.6311641255
  20
 2026.0733318190
  30
0.0
  40
 1.0000000000000
 100
AcDbArc
  50
 180.00000000000
  51
 269.99999528674
   0
LINE
   5
2DB
 100
AcDbEntity
   8
LEVEL002
 370
30
 100
AcDbLine
   6
CONTINUOUS
  62
7
  10
 2425.6311640433
  20
 2026.0733318190
  30
0.0
  11
 2425.6311640433
  21
 2062.0733318190
  31
0.0
   0
ARC
   5
2DC
 100
AcDbEntity
   8
LEVEL002
 370
30
   6
CONTINUOUS
  62
7
 100
AcDbCircle
  10
 2426.6311640432
  20
 2062.0733319089
  30
0.0
  40
 1.0000000000000
 100
AcDbArc
  50
 90.000000000000
  51
 180.00000515349
   0
ARC
   5
2DD
 100
AcDbEntity
   8
LEVEL002
 370
30
   6
CONTINUOUS
  62
7
 100
AcDbCircle
  10
 2448.6311639484
  20
 2030.0733318190
  30
0.0
  40
 1.0000000000000
 100
AcDbArc
  50
 180.00000000000
  51
 270.00000543447
   0
LINE
   5
2DE
 100
AcDbEntity
   8
LEVEL002
 370
30
 100
AcDbLine
   6
CONTINUOUS
  62
7
  10
 2447.6311640433
  20
 2030.0733318190
  30
0.0
  11
 2447.6311640433
  21
 2058.0733318190
  31
0.0
   0
ARC
   5
2DF
 100
AcDbEntity
   8
LEVEL002
 370
30
   6
CONTINUOUS
  62
7
 100
AcDbCircle
  10
 2448.6311640433
  20
 2058.0733319702
  30
0.0
  40
 1.0000000000000
 100
AcDbArc
  50
 90.000000000417
  51
 180.00000866405
   0
ARC
   5
2E0
 100
AcDbEntity
   8
LEVEL002
 370
30
   6
CONTINUOUS
  62
7
 100
AcDbCircle
  10
 2447.6311640438
  20
 2044.0733318195
  30
0.0
  40
 24.000000000000
 100
AcDbArc
  50
 90.000000001416
  51
 127.65846200802
   0
ARC
   5
2E1
 100
AcDbEntity
   8
LEVEL002
 370
30
   6
CONTINUOUS
  62
7
 100
AcDbCircle
  10
 2447.6311640576
  20
 2044.0733318190
  30
0.0
  40
 24.000000000000
 100
AcDbArc
  50
 232.34153796658
  51
 269.99999996564
   0
ARC
   5
2E2
 100
AcDbEntity
   8
LEVEL002
 370
30
   6
CONTINUOUS
  62
7
 100
AcDbCircle
  10
 2488.6311640432
  20
 2044.0733318190
  30
0.0
  40
 24.000000000000
 100
AcDbArc
  50
 270.00000000000
  51
 90.000000000000
   0
ARC
   5
2E3
 100
AcDbEntity
   8
LEVEL002
 370
30
   6
CONTINUOUS
  62
7
 100
AcDbCircle
  10
 2426.6311640432
  20
 2062.0733319089
  30
0.0
  40
 1.0000000000000
 100
AcDbArc
  50
 90.000000000000
  51
 180.00000515349
   0
LINE
   5
2E4
 100
AcDbEntity
   8
LEVEL002
 370
30
 100
AcDbLine
   6
CONTINUOUS
  62
7
  10
 2425.6311640433
  20
 2062.0733318190
  30
0.0
  11
 2425.6311640433
  21
 2026.0733318190
  31
0.0
   0
ARC
   5
2E5
 100
AcDbEntity
   8
LEVEL002
 370
30
   6
CONTINUOUS
  62
7
 100
AcDbCircle
  10
 2426.6311641255
  20
 2026.0733318190
  30
0.0
  40
 1.0000000000000
 100
AcDbArc
  50
 180.00000000000
  51
 269.99999528674
   0
ARC
   5
2E6
 100
AcDbEntity
   8
LEVEL002
 370
30
   6
CONTINUOUS
  62
7
 100
AcDbCircle
  10
 2448.6311640433
  20
 2058.0733319702
  30
0.0
  40
 1.0000000000000
 100
AcDbArc
  50
 90.000000000417
  51
 180.00000866405
   0
LINE
   5
2E7
 100
AcDbEntity
   8
LEVEL002
 370
30
 100
AcDbLine
   6
CONTINUOUS
  62
7
  10
 2447.6311640433
  20
 2058.0733318190
  30
0.0
  11
 2447.6311640433
  21
 2030.0733318190
  31
0.0
   0
ARC
   5
2E8
 100
AcDbEntity
   8
LEVEL002
 370
30
   6
CONTINUOUS
  62
7
 100
AcDbCircle
  10
 2448.6311639484
  20
 2030.0733318190
  30
0.0
  40
 1.0000000000000
 100
AcDbArc
  50
 180.00000000000
  51
 270.00000543447
   0
ARC
   5
2E9
 100
AcDbEntity
   8
LEVEL002
 370
30
   6
CONTINUOUS
  62
7
 100
AcDbCircle
  10
 2447.6311640576
  20
 2044.0733318190
  30
0.0
  40
 24.000000000000
 100
AcDbArc
  50
 232.34153796658
  51
 269.99999996564
   0
ARC
   5
2EA
 100
AcDbEntity
   8
LEVEL002
 370
30
   6
CONTINUOUS
  62
7
 100
AcDbCircle
  10
 2447.6311640438
  20
 2044.0733318195
  30
0.0
  40
 24.000000000000
 100
AcDbArc
  50
 90.000000001416
  51
 127.65846200802
   0
ARC
   5
2EB
 100
AcDbEntity
   8
LEVEL002
 370
30
   6
CONTINUOUS
  62
7
 100
AcDbCircle
  10
 2488.6311640432
  20
 2044.0733318190
  30
0.0
  40
 24.000000000000
 100
AcDbArc
  50
 270.00000000000
  51
 90.000000000000
   0
LINE
   5
2EC
 100
AcDbEntity
   8
LEVEL002
 370
30
 100
AcDbLine
   6
CONTINUOUS
  62
7
  10
 2480.7108602438
  20
 2029.0733318190
  30
0.0
  11
 2480.1311640433
  21
 2028.4936356184
  31
0.0
   0
LINE
   5
2ED
 100
AcDbEntity
   8
LEVEL002
 370
30
 100
AcDbLine
   6
CONTINUOUS
  62
7
  10
 2425.6311640433
  20
 2044.7043137371
  30
0.0
  11
 2425.3156730842
  21
 2044.3888227780
  31
0.0
   0
LINE
   5
2EE
 100
AcDbEntity
   8
LEVEL002
 370
30
 100
AcDbLine
   6
CONTINUOUS
  62
7
  10
 2392.6371951802
  20
 2061.0733318190
  30
0.0
  11
 2425.6311640433
  21
 2061.0733318190
  31
0.0
   0
LINE
   5
2EF
 100
AcDbEntity
   8
LEVEL002
 370
30
 100
AcDbLine
   6
CONTINUOUS
  62
7
  10
 2392.6371951802
  20
 2061.0733318190
  30
0.0
  11
 2425.6311640433
  21
 2061.0733318190
  31
0.0
   0
LINE
   5
2F0
 100
AcDbEntity
   8
LEVEL002
 370
30
 100
AcDbLine
   6
CONTINUOUS
  62
7
  10
 2392.6371951802
  20
 2027.0733318190
  30
0.0
  11
 2425.6311640433
  21
 2027.0733318190
  31
0.0
   0
LINE
   5
2F1
 100
AcDbEntity
   8
LEVEL002
 370
15
 100
AcDbLine
   6
DASHDOT
  62
8
  10
 2480.1311640433
  20
 1998.8027184914
  30
0.0
  11
 2480.1311640433
  21
 2097.0105759023
  31
0.0
   0
LINE
   5
2F2
 100
AcDbEntity
   8
LEVEL002
 370
30
 100
AcDbLine
   6
CONTINUOUS
  62
7
  10
 2134.6311640433
  20
 2027.0733318190
  30
0.0
  11
 2425.6311640433
  21
 2027.0733318190
  31
0.0
   0
LINE
   5
2F3
 100
AcDbEntity
   8
LEVEL002
 370
15
 100
AcDbLine
   6
DASHDOT
  62
8
  10
 2566.5525738164
  20
 2044.0733318190
  30
0.0
  11
 1819.5590437487
  21
 2044.0733318190
  31
0.0
   0
LINE
   5
2F4
 100
AcDbEntity
   8
LEVEL002
 370
30
 100
AcDbLine
   6
CONTINUOUS
  62
7
  10
 1934.6311640433
  20
 2061.0733318190
  30
0.0
  11
 2425.6311640433
  21
 2061.0733318190
  31
0.0
   0
LINE
   5
2F5
 100
AcDbEntity
   8
LEVEL002
 370
30
 100
AcDbLine
   6
CONTINUOUS
  62
7
  10
 1934.6311640433
  20
 2027.0733318190
  30
0.0
  11
 2425.6311640433
  21
 2027.0733318190
  31
0.0
   0
LINE
   5
2F6
 100
AcDbEntity
   8
LEVEL002
 370
15
 100
AcDbLine
   6
DASHDOT
  62
8
  10
 1843.7238034742
  20
 2417.8717985524
  30
0.0
  11
 2539.2465773437
  21
 2417.8717985524
  31
0.0
   0
LINE
   5
2F7
 100
AcDbEntity
   8
LEVEL002
 370
30
 100
AcDbLine
   6
CONTINUOUS
  62
7
  10
 1933.6311640432
  20
 2434.8717985524
  30
0.0
  11
 2425.6311640433
  21
 2434.8717985524
  31
0.0
   0
LINE
   5
2F8
 100
AcDbEntity
   8
LEVEL002
 370
30
 100
AcDbLine
   6
CONTINUOUS
  62
7
  10
 1933.6311640432
  20
 2400.8717985524
  30
0.0
  11
 2425.6311640433
  21
 2400.8717985524
  31
0.0
   0
LINE
   5
2F9
 100
AcDbEntity
   8
LEVEL002
 370
40
 100
AcDbLine
   6
CONTINUOUS
  62
3
  10
 1724.1585860828
  20
 2478.4717985524
  30
0.0
  11
 2584.5590437482
  21
 2478.4717985524
  31
0.0
   0
ARC
   5
2FA
 100
AcDbEntity
   8
LEVEL002
 370
30
   6
CONTINUOUS
  62
7
 100
AcDbCircle
  10
 199.07334704809
  20
 657.24514438299
  30
0.0
  40
 1.0000000000000
 100
AcDbArc
  50
 179.99999984971
  51
 274.71669260452
   0
LINE
   5
2FB
 100
AcDbEntity
   8
LEVEL002
 370
30
 100
AcDbLine
   6
CONTINUOUS
  62
7
  10
 199.15557591449
  20
 656.24853091048
  30
0.0
  11
 258.67334707989
  21
 661.15923810229
  31
0.0
   0
LINE
   5
2FC
 100
AcDbEntity
   8
LEVEL002
 370
30
 100
AcDbLine
   6
CONTINUOUS
  62
7
  10
 198.07334707989
  20
 657.24514438559
  30
0.0
  11
 198.07334707989
  21
 703.07333181909
  31
0.0
   0
ARC
   5
2FD
 100
AcDbEntity
   8
LEVEL002
 370
30
   6
CONTINUOUS
  62
7
 100
AcDbCircle
  10
 199.07334707989
  20
 703.07333182089
  30
0.0
  40
 1.0000000000000
 100
AcDbArc
  50
 85.283309216127
  51
 180.00000010423
   0
LINE
   5
2FE
 100
AcDbEntity
   8
LEVEL002
 370
30
 100
AcDbLine
   6
CONTINUOUS
  62
7
  10
 199.15557591449
  20
 704.06994529419
  30
0.0
  11
 258.67334707989
  21
 699.15923810229
  31
0.0
   0
LINE
   5
2FF
 100
AcDbEntity
   8
LEVEL002
 370
30
 100
AcDbLine
   6
CONTINUOUS
  62
7
  10
 249.44394892989
  20
 694.13161163229
  30
0.0
  11
 271.54862486089
  21
 694.13161163229
  31
0.0
   0
LINE
   5
300
 100
AcDbEntity
   8
LEVEL002
 370
30
 100
AcDbLine
   6
CONTINUOUS
  62
7
  10
 249.44394892989
  20
 666.18686457229
  30
0.0
  11
 271.54862486089
  21
 666.18686457229
  31
0.0
   0
LINE
   5
301
 100
AcDbEntity
   8
LEVEL002
 370
30
 100
AcDbLine
   6
CONTINUOUS
  62
7
  10
 249.44394892989
  20
 694.13161163229
  30
0.0
  11
 248.81311685759
  21
 693.91933988269
  31
0.0
   0
LINE
   5
302
 100
AcDbEntity
   8
LEVEL002
 370
30
 100
AcDbLine
   6
CONTINUOUS
  62
7
  10
 248.81311685759
  20
 693.91933988269
  30
0.0
  11
 248.20145229859
  21
 693.28897440329
  31
0.0
   0
LINE
   5
303
 100
AcDbEntity
   8
LEVEL002
 370
30
 100
AcDbLine
   6
CONTINUOUS
  62
7
  10
 248.20145229859
  20
 693.28897440329
  30
0.0
  11
 247.62754037099
  21
 692.25966853049
  31
0.0
   0
LINE
   5
304
 100
AcDbEntity
   8
LEVEL002
 370
30
 100
AcDbLine
   6
CONTINUOUS
  62
7
  10
 247.62754037099
  20
 692.25966853049
  30
0.0
  11
 247.10881909829
  21
 690.86269720219
  31
0.0
   0
LINE
   5
305
 100
AcDbEntity
   8
LEVEL002
 370
30
 100
AcDbLine
   6
CONTINUOUS
  62
7
  10
 247.10881909829
  20
 690.86269720219
  30
0.0
  11
 246.66104956399
  21
 689.14050668529
  31
0.0
   0
LINE
   5
306
 100
AcDbEntity
   8
LEVEL002
 370
30
 100
AcDbLine
   6
CONTINUOUS
  62
7
  10
 246.66104956399
  20
 689.14050668529
  30
0.0
  11
 246.29783701859
  21
 687.14542486729
  31
0.0
   0
LINE
   5
307
 100
AcDbEntity
   8
LEVEL002
 370
30
 100
AcDbLine
   6
CONTINUOUS
  62
7
  10
 246.29783701859
  20
 687.14542486729
  30
0.0
  11
 246.03021749169
  21
 684.93807129968
  31
0.0
   0
LINE
   5
308
 100
AcDbEntity
   8
LEVEL002
 370
30
 100
AcDbLine
   6
CONTINUOUS
  62
7
  10
 246.03021749169
  20
 684.93807129968
  30
0.0
  11
 245.86632246699
  21
 682.58551530349
  31
0.0
   0
LINE
   5
309
 100
AcDbEntity
   8
LEVEL002
 370
30
 100
AcDbLine
   6
CONTINUOUS
  62
7
  10
 245.86632246699
  20
 682.58551530349
  30
0.0
  11
 245.81113181209
  21
 680.15923810229
  31
0.0
   0
LINE
   5
30A
 100
AcDbEntity
   8
LEVEL002
 370
30
 100
AcDbLine
   6
CONTINUOUS
  62
7
  10
 245.81113181209
  20
 680.15923810229
  30
0.0
  11
 245.86632246699
  21
 677.73296090119
  31
0.0
   0
LINE
   5
30B
 100
AcDbEntity
   8
LEVEL002
 370
30
 100
AcDbLine
   6
CONTINUOUS
  62
7
  10
 245.86632246699
  20
 677.73296090119
  30
0.0
  11
 246.03021749169
  21
 675.38040490499
  31
0.0
   0
LINE
   5
30C
 100
AcDbEntity
   8
LEVEL002
 370
30
 100
AcDbLine
   6
CONTINUOUS
  62
7
  10
 246.03021749169
  20
 675.38040490499
  30
0.0
  11
 246.29783701859
  21
 673.17305133729
  31
0.0
   0
LINE
   5
30D
 100
AcDbEntity
   8
LEVEL002
 370
30
 100
AcDbLine
   6
CONTINUOUS
  62
7
  10
 246.29783701859
  20
 673.17305133729
  30
0.0
  11
 246.66104956399
  21
 671.17796951929
  31
0.0
   0
LINE
   5
30E
 100
AcDbEntity
   8
LEVEL002
 370
30
 100
AcDbLine
   6
CONTINUOUS
  62
7
  10
 246.66104956399
  20
 671.17796951929
  30
0.0
  11
 247.10881909829
  21
 669.45577900249
  31
0.0
   0
LINE
   5
30F
 100
AcDbEntity
   8
LEVEL002
 370
30
 100
AcDbLine
   6
CONTINUOUS
  62
7
  10
 247.10881909829
  20
 669.45577900249
  30
0.0
  11
 247.62754037099
  21
 668.05880767419
  31
0.0
   0
LINE
   5
310
 100
AcDbEntity
   8
LEVEL002
 370
30
 100
AcDbLine
   6
CONTINUOUS
  62
7
  10
 247.62754037099
  20
 668.05880767419
  30
0.0
  11
 248.20145229859
  21
 667.02950180129
  31
0.0
   0
LINE
   5
311
 100
AcDbEntity
   8
LEVEL002
 370
30
 100
AcDbLine
   6
CONTINUOUS
  62
7
  10
 248.20145229859
  20
 667.02950180129
  30
0.0
  11
 248.81311685759
  21
 666.39913632199
  31
0.0
   0
LINE
   5
312
 100
AcDbEntity
   8
LEVEL002
 370
30
 100
AcDbLine
   6
CONTINUOUS
  62
7
  10
 248.81311685759
  20
 666.39913632199
  30
0.0
  11
 249.44394892989
  21
 666.18686457229
  31
0.0
   0
ARC
   5
313
 100
AcDbEntity
   8
LEVEL002
 370
30
   6
CONTINUOUS
  62
7
 100
AcDbCircle
  10
 258.67334707989
  20
 680.15923810229
  30
0.0
  40
 19.000000000000
 100
AcDbArc
  50
 270.00000000000
  51
 90.000000000000
   0
LINE
   5
314
 100
AcDbEntity
   8
LEVEL002
 370
40
 100
AcDbLine
   6
CONTINUOUS
  62
3
  10
 198.07334707989
  20
 407.75445417059
  30
0.0
  11
 198.07334707989
  21
 907.99254940869
  31
0.0
   0
LINE
   5
315
 100
AcDbEntity
   8
LEVEL002
 370
15
 100
AcDbLine
   6
DASHDOT
  62
8
  10
 258.07334707989
  20
 633.80271849149
  30
0.0
  11
 258.07334707989
  21
 732.01057590239
  31
0.0
   0
DIMENSION
   5
316
 100
AcDbEntity
   8
LEVEL001
 370
15
   6
CONTINUOUS
  62
8
 100
AcDbDimension
   2
*D6
  10
 258.07334707989
  20
 562.07333181909
  30
0.0
  11
 228.07334707989
  21
 562.07333181909
  31
0.0
  70
0
   3
GMM001
 100
AcDbAlignedDimension
  13
 198.07334707989
  23
 562.07333181909
  33
0.0
  14
 258.07334707989
  24
 633.80271849149
  34
0.0
 100
AcDbRotatedDimension
   0
LINE
   5
317
 100
AcDbEntity
   8
LEVEL002
 370
15
 100
AcDbLine
   6
DASHDOT
  62
8
  10
 302.08764786675
  20
 679.07333181909
  30
0.0
  11
 185.29130919390
  21
 679.07333181909
  31
0.0
   0
LINE
   5
318
 100
AcDbEntity
   8
LEVEL002
 370
30
 100
AcDbLine
   6
CONTINUOUS
  62
7
  10
 452.11048758650
  20
 660.07333181909
  30
0.0
  11
 472.95228027619
  21
 660.07333181909
  31
0.0
   0
LINE
   5
319
 100
AcDbEntity
   8
LEVEL002
 370
30
 100
AcDbLine
   6
CONTINUOUS
  62
7
  10
 452.11048758650
  20
 698.07333181909
  30
0.0
  11
 472.95228027619
  21
 698.07333181909
  31
0.0
   0
LINE
   5
31A
 100
AcDbEntity
   8
LEVEL002
 370
30
 100
AcDbLine
   6
CONTINUOUS
  62
7
  10
 466.63116404319
  20
 694.07333181909
  30
0.0
  11
 421.73218455769
  21
 694.07333181909
  31
0.0
   0
LINE
   5
31B
 100
AcDbEntity
   8
LEVEL002
 370
30
 100
AcDbLine
   6
CONTINUOUS
  62
7
  10
 488.63116404319
  20
 698.07333181909
  30
0.0
  11
 422.90735874849
  21
 698.07333181909
  31
0.0
   0
LINE
   5
31C
 100
AcDbEntity
   8
LEVEL002
 370
30
 100
AcDbLine
   6
CONTINUOUS
  62
7
  10
 466.63116404319
  20
 664.07333181909
  30
0.0
  11
 421.73218455769
  21
 664.07333181909
  31
0.0
   0
ARC
   5
31D
 100
AcDbEntity
   8
LEVEL002
 370
30
   6
CONTINUOUS
  62
7
 100
AcDbCircle
  10
 422.90735874010
  20
 688.07333180909
  30
0.0
  40
 10.000000000000
 100
AcDbArc
  50
 89.999999952007
  51
 139.99479904036
   0
ARC
   5
31E
 100
AcDbEntity
   8
LEVEL002
 370
30
   6
CONTINUOUS
  62
7
 100
AcDbCircle
  10
 433.63116404099
  20
 679.07333182179
  30
0.0
  40
 24.000000000000
 100
AcDbArc
  50
 139.99479911663
  51
 220.00520089331
   0
LINE
   5
31F
 100
AcDbEntity
   8
LEVEL002
 370
30
 100
AcDbLine
   6
CONTINUOUS
  62
7
  10
 488.63116404319
  20
 698.07333181909
  30
0.0
  11
 422.90735874849
  21
 698.07333181909
  31
0.0
   0
ARC
   5
320
 100
AcDbEntity
   8
LEVEL002
 370
30
   6
CONTINUOUS
  62
7
 100
AcDbCircle
  10
 421.73218456610
  20
 684.07333182729
  30
0.0
  40
 10.000000000000
 100
AcDbArc
  50
 90.000000048181
  51
 134.41530866447
   0
ARC
   5
321
 100
AcDbEntity
   8
LEVEL002
 370
30
   6
CONTINUOUS
  62
7
 100
AcDbCircle
  10
 426.63116404050
  20
 679.07333182179
  30
0.0
  40
 17.000000000000
 100
AcDbArc
  50
 134.41530859691
  51
 225.58469141595
   0
LINE
   5
322
 100
AcDbEntity
   8
LEVEL002
 370
30
 100
AcDbLine
   6
CONTINUOUS
  62
7
  10
 466.63116404319
  20
 694.07333181909
  30
0.0
  11
 421.73218455769
  21
 694.07333181909
  31
0.0
   0
ARC
   5
323
 100
AcDbEntity
   8
LEVEL002
 370
30
   6
CONTINUOUS
  62
7
 100
AcDbCircle
  10
 421.73218458280
  20
 674.07333181909
  30
0.0
  40
 10.000000000000
 100
AcDbArc
  50
 225.58469130006
  51
 269.99999985603
   0
LINE
   5
324
 100
AcDbEntity
   8
LEVEL002
 370
30
 100
AcDbLine
   6
CONTINUOUS
  62
7
  10
 466.63116404319
  20
 664.07333181909
  30
0.0
  11
 421.73218455769
  21
 664.07333181909
  31
0.0
   0
ARC
   5
325
 100
AcDbEntity
   8
LEVEL002
 370
30
   6
CONTINUOUS
  62
7
 100
AcDbCircle
  10
 422.90735872740
  20
 670.07333181909
  30
0.0
  40
 10.000000000000
 100
AcDbArc
  50
 220.00520096266
  51
 270.00000012093
   0
LINE
   5
326
 100
AcDbEntity
   8
LEVEL002
 370
30
 100
AcDbLine
   6
CONTINUOUS
  62
7
  10
 488.63116404319
  20
 660.07333181909
  30
0.0
  11
 422.90735874849
  21
 660.07333181909
  31
0.0
   0
LINE
   5
327
 100
AcDbEntity
   8
LEVEL002
 370
30
 100
AcDbLine
   6
CONTINUOUS
  62
7
  10
 467.63116404330
  20
 665.07333181909
  30
0.0
  11
 467.63116404330
  21
 693.07333181909
  31
0.0
   0
LINE
   5
328
 100
AcDbEntity
   8
LEVEL002
 370
30
 100
AcDbLine
   6
CONTINUOUS
  62
7
  10
 467.63116404330
  20
 655.07333181909
  30
0.0
  11
 426.63116404319
  21
 655.07333181909
  31
0.0
   0
LINE
   5
329
 100
AcDbEntity
   8
LEVEL002
 370
30
 100
AcDbLine
   6
CONTINUOUS
  62
7
  10
 467.63116404330
  20
 655.07333181909
  30
0.0
  11
 426.63116404319
  21
 655.07333181909
  31
0.0
   0
LINE
   5
32A
 100
AcDbEntity
   8
LEVEL002
 370
30
 100
AcDbLine
   6
CONTINUOUS
  62
7
  10
 467.63116404330
  20
 703.07333181909
  30
0.0
  11
 426.63116404319
  21
 703.07333181909
  31
0.0
   0
LINE
   5
32B
 100
AcDbEntity
   8
LEVEL002
 370
30
 100
AcDbLine
   6
CONTINUOUS
  62
7
  10
 467.63116404330
  20
 703.07333181909
  30
0.0
  11
 426.63116404319
  21
 703.07333181909
  31
0.0
   0
LINE
   5
32C
 100
AcDbEntity
   8
LEVEL002
 370
30
 100
AcDbLine
   6
CONTINUOUS
  62
7
  10
 435.13116404330
  20
 655.07333181909
  30
0.0
  11
 467.63116404330
  21
 655.07333181909
  31
0.0
   0
LINE
   5
32D
 100
AcDbEntity
   8
LEVEL002
 370
30
 100
AcDbLine
   6
CONTINUOUS
  62
7
  10
 435.13116404330
  20
 703.07333181909
  30
0.0
  11
 467.63116404330
  21
 703.07333181909
  31
0.0
   0
ARC
   5
32E
 100
AcDbEntity
   8
LEVEL002
 370
30
   6
CONTINUOUS
  62
7
 100
AcDbCircle
  10
 488.63116430639
  20
 697.07333181909
  30
0.0
  40
 1.0000000000000
 100
AcDbArc
  50
0.0
  51
 90.000015076108
   0
LINE
   5
32F
 100
AcDbEntity
   8
LEVEL002
 370
30
 100
AcDbLine
   6
CONTINUOUS
  62
7
  10
 489.63116404330
  20
 697.07333181909
  30
0.0
  11
 489.63116404330
  21
 661.07333181909
  31
0.0
   0
ARC
   5
330
 100
AcDbEntity
   8
LEVEL002
 370
30
   6
CONTINUOUS
  62
7
 100
AcDbCircle
  10
 488.63116404330
  20
 661.07333208989
  30
0.0
  40
 1.0000000000000
 100
AcDbArc
  50
 269.99999999958
  51
0.0
   0
ARC
   5
331
 100
AcDbEntity
   8
LEVEL002
 370
30
   6
CONTINUOUS
  62
7
 100
AcDbCircle
  10
 466.63116401070
  20
 693.07333181909
  30
0.0
  40
 1.0000000000000
 100
AcDbArc
  50
0.0
  51
 89.999998137790
   0
LINE
   5
332
 100
AcDbEntity
   8
LEVEL002
 370
30
 100
AcDbLine
   6
CONTINUOUS
  62
7
  10
 467.63116404330
  20
 693.07333181909
  30
0.0
  11
 467.63116404330
  21
 665.07333181909
  31
0.0
   0
ARC
   5
333
 100
AcDbEntity
   8
LEVEL002
 370
30
   6
CONTINUOUS
  62
7
 100
AcDbCircle
  10
 466.63116404330
  20
 665.07333179419
  30
0.0
  40
 1.0000000000000
 100
AcDbArc
  50
 269.99999999917
  51
 0.14240677615212E-5
   0
ARC
   5
334
 100
AcDbEntity
   8
LEVEL002
 370
30
   6
CONTINUOUS
  62
7
 100
AcDbCircle
  10
 467.63116404319
  20
 679.07333181909
  30
0.0
  40
 24.000000000000
 100
AcDbArc
  50
 270.00000000010
  51
 307.65846200636
   0
ARC
   5
335
 100
AcDbEntity
   8
LEVEL002
 370
30
   6
CONTINUOUS
  62
7
 100
AcDbCircle
  10
 467.63116404060
  20
 679.07333181909
  30
0.0
  40
 24.000000000000
 100
AcDbArc
  50
 52.341537988745
  51
 89.999999993660
   0
ARC
   5
336
 100
AcDbEntity
   8
LEVEL002
 370
30
   6
CONTINUOUS
  62
7
 100
AcDbCircle
  10
 426.63116404319
  20
 679.07333181909
  30
0.0
  40
 24.000000000000
 100
AcDbArc
  50
 90.000000000000
  51
 270.00000000000
   0
ARC
   5
337
 100
AcDbEntity
   8
LEVEL002
 370
30
   6
CONTINUOUS
  62
7
 100
AcDbCircle
  10
 488.63116430639
  20
 697.07333181909
  30
0.0
  40
 1.0000000000000
 100
AcDbArc
  50
0.0
  51
 90.000015076108
   0
LINE
   5
338
 100
AcDbEntity
   8
LEVEL002
 370
30
 100
AcDbLine
   6
CONTINUOUS
  62
7
  10
 489.63116404330
  20
 697.07333181909
  30
0.0
  11
 489.63116404330
  21
 661.07333181909
  31
0.0
   0
ARC
   5
339
 100
AcDbEntity
   8
LEVEL002
 370
30
   6
CONTINUOUS
  62
7
 100
AcDbCircle
  10
 488.63116404330
  20
 661.07333208989
  30
0.0
  40
 1.0000000000000
 100
AcDbArc
  50
 269.99999999958
  51
0.0
   0
ARC
   5
33A
 100
AcDbEntity
   8
LEVEL002
 370
30
   6
CONTINUOUS
  62
7
 100
AcDbCircle
  10
 466.63116401070
  20
 693.07333181909
  30
0.0
  40
 1.0000000000000
 100
AcDbArc
  50
0.0
  51
 89.999998137790
   0
LINE
   5
33B
 100
AcDbEntity
   8
LEVEL002
 370
30
 100
AcDbLine
   6
CONTINUOUS
  62
7
  10
 467.63116404330
  20
 693.07333181909
  30
0.0
  11
 467.63116404330
  21
 665.07333181909
  31
0.0
   0
ARC
   5
33C
 100
AcDbEntity
   8
LEVEL002
 370
30
   6
CONTINUOUS
  62
7
 100
AcDbCircle
  10
 466.63116404330
  20
 665.07333179419
  30
0.0
  40
 1.0000000000000
 100
AcDbArc
  50
 269.99999999917
  51
 0.14240677615212E-5
   0
ARC
   5
33D
 100
AcDbEntity
   8
LEVEL002
 370
30
   6
CONTINUOUS
  62
7
 100
AcDbCircle
  10
 467.63116404319
  20
 679.07333181909
  30
0.0
  40
 24.000000000000
 100
AcDbArc
  50
 270.00000000010
  51
 307.65846200636
   0
ARC
   5
33E
 100
AcDbEntity
   8
LEVEL002
 370
30
   6
CONTINUOUS
  62
7
 100
AcDbCircle
  10
 467.63116404060
  20
 679.07333181909
  30
0.0
  40
 24.000000000000
 100
AcDbArc
  50
 52.341537988745
  51
 89.999999993660
   0
ARC
   5
33F
 100
AcDbEntity
   8
LEVEL002
 370
30
   6
CONTINUOUS
  62
7
 100
AcDbCircle
  10
 426.63116404319
  20
 679.07333181909
  30
0.0
  40
 24.000000000000
 100
AcDbArc
  50
 90.000000000000
  51
 270.00000000000
   0
LINE
   5
340
 100
AcDbEntity
   8
LEVEL002
 370
15
 100
AcDbLine
   6
DASHDOT
  62
8
  10
 435.13116404330
  20
 633.80271849149
  30
0.0
  11
 435.13116404330
  21
 732.01057590239
  31
0.0
   0
ARC
   5
341
 100
AcDbEntity
   8
LEVEL002
 370
30
   6
CONTINUOUS
  62
7
 100
AcDbCircle
  10
 461.63116404190
  20
 1093.8717985549
  30
0.0
  40
 60.000000000000
 100
AcDbArc
  50
 209.02636109527
  51
 270.00000000131
   0
ARC
   5
342
 100
AcDbEntity
   8
LEVEL002
 370
30
   6
CONTINUOUS
  62
7
 100
AcDbCircle
  10
 461.63116404319
  20
 1093.8717985549
  30
0.0
  40
 60.000000000000
 100
AcDbArc
  50
 180.00000000239
  51
 209.02636109464
   0
LINE
   5
343
 100
AcDbEntity
   8
LEVEL002
 370
30
 100
AcDbLine
   6
CONTINUOUS
  62
7
  10
 415.30076845189
  20
 1065.7470763324
  30
0.0
  11
 408.63116404279
  21
 1065.7470763324
  31
0.0
   0
LINE
   5
344
 100
AcDbEntity
   8
LEVEL002
 370
30
 100
AcDbLine
   6
CONTINUOUS
  62
7
  10
 466.63116404319
  20
 1033.8717985524
  30
0.0
  11
 466.63116404319
  21
 1043.0289032769
  31
0.0
   0
LINE
   5
345
 100
AcDbEntity
   8
LEVEL002
 370
30
 100
AcDbLine
   6
CONTINUOUS
  62
7
  10
 487.63116404330
  20
 1033.8717985524
  30
0.0
  11
 461.63116404319
  21
 1033.8717985524
  31
0.0
   0
LINE
   5
346
 100
AcDbEntity
   8
LEVEL002
 370
30
 100
AcDbLine
   6
CONTINUOUS
  62
7
  10
 401.63116404319
  20
 1112.4717985524
  30
0.0
  11
 401.63116404319
  21
 1093.8717985524
  31
0.0
   0
ARC
   5
347
 100
AcDbEntity
   8
LEVEL002
 370
30
   6
CONTINUOUS
  62
7
 100
AcDbCircle
  10
 415.30076846380
  20
 1055.7470763180
  30
0.0
  40
 10.000000000000
 100
AcDbArc
  50
 39.450551290685
  51
 90.000000067868
   0
ARC
   5
348
 100
AcDbEntity
   8
LEVEL002
 370
30
   6
CONTINUOUS
  62
7
 100
AcDbCircle
  10
 461.63116404350
  20
 1093.8717985521
  30
0.0
  40
 50.000000000000
 100
AcDbArc
  50
 219.45055118344
  51
 274.49840666860
   0
ARC
   5
349
 100
AcDbEntity
   8
LEVEL002
 370
30
   6
CONTINUOUS
  62
7
 100
AcDbCircle
  10
 465.63116404319
  20
 1043.0289034874
  30
0.0
  40
 1.0000000000000
 100
AcDbArc
  50
0.0
  51
 94.498407614993
   0
ARC
   5
34A
 100
AcDbEntity
   8
LEVEL002
 370
30
   6
CONTINUOUS
  62
7
 100
AcDbCircle
  10
 487.63116404319
  20
 1070.8717986138
  30
0.0
  40
 1.0000000000000
 100
AcDbArc
  50
0.0
  51
 89.999999999583
   0
LINE
   5
34B
 100
AcDbEntity
   8
LEVEL002
 370
30
 100
AcDbLine
   6
CONTINUOUS
  62
7
  10
 488.63116404319
  20
 1070.8717985524
  30
0.0
  11
 488.63116404319
  21
 1034.8717985524
  31
0.0
   0
LINE
   5
34C
 100
AcDbEntity
   8
LEVEL002
 370
30
 100
AcDbLine
   6
CONTINUOUS
  62
7
  10
 487.63116404330
  20
 1071.8717985524
  30
0.0
  11
 482.29404234190
  21
 1071.8717985524
  31
0.0
   0
ARC
   5
34D
 100
AcDbEntity
   8
LEVEL002
 370
30
   6
CONTINUOUS
  62
7
 100
AcDbCircle
  10
 482.29404234190
  20
 1072.8717986292
  30
0.0
  40
 1.0000000000000
 100
AcDbArc
  50
 180.00000439602
  51
 270.00000000125
   0
LINE
   5
34E
 100
AcDbEntity
   8
LEVEL002
 370
30
 100
AcDbLine
   6
CONTINUOUS
  62
7
  10
 481.29404234190
  20
 1072.8717985524
  30
0.0
  11
 481.29404234190
  21
 1112.4717985524
  31
0.0
   0
ARC
   5
34F
 100
AcDbEntity
   8
LEVEL002
 370
30
   6
CONTINUOUS
  62
7
 100
AcDbCircle
  10
 480.29404234190
  20
 1112.4717986657
  30
0.0
  40
 1.0000000000000
 100
AcDbArc
  50
0.0
  51
 89.999999998749
   0
LINE
   5
350
 100
AcDbEntity
   8
LEVEL002
 370
30
 100
AcDbLine
   6
CONTINUOUS
  62
7
  10
 480.29404234190
  20
 1113.4717985524
  30
0.0
  11
 402.63116404330
  21
 1113.4717985524
  31
0.0
   0
ARC
   5
351
 100
AcDbEntity
   8
LEVEL002
 370
30
   6
CONTINUOUS
  62
7
 100
AcDbCircle
  10
 487.63116415350
  20
 1034.8717985524
  30
0.0
  40
 1.0000000000000
 100
AcDbArc
  50
 269.99999368216
  51
0.0
   0
ARC
   5
352
 100
AcDbEntity
   8
LEVEL002
 370
30
   6
CONTINUOUS
  62
7
 100
AcDbCircle
  10
 402.63116412519
  20
 1112.4717985524
  30
0.0
  40
 1.0000000000000
 100
AcDbArc
  50
 90.000004694088
  51
 180.00000000000
   0
LINE
   5
353
 100
AcDbEntity
   8
LEVEL002
 370
15
 100
AcDbLine
   6
DASHDOT
  62
8
  10
 435.13116404330
  20
 1123.0967011899
  30
0.0
  11
 435.13116404330
  21
 992.06667342594
  31
0.0
   0
DIMENSION
   5
354
 100
AcDbEntity
   8
LEVEL001
 370
15
   6
CONTINUOUS
  62
8
 100
AcDbDimension
   2
*D7
  10
 333.50108606359
  20
 1113.4717985524
  30
0.0
  11
 333.50108606359
  21
 1083.1717985524
  31
0.0
  70
0
   1
\A1;60
   3
GMM001
 100
AcDbAlignedDimension
  13
 387.90243411180
  23
 1052.8717985524
  33
0.0
  14
 333.50108606359
  24
 1113.4717985524
  34
0.0
  50
 90.000000000000
 100
AcDbRotatedDimension
   0
DIMENSION
   5
355
 100
AcDbEntity
   8
LEVEL001
 370
15
   6
CONTINUOUS
  62
8
 100
AcDbDimension
   2
*D8
  10
 2480.1311640433
  20
 1927.0733318190
  30
0.0
  11
 2180.1311640433
  21
 1927.0733318190
  31
0.0
  70
0
   3
GMM001
 100
AcDbAlignedDimension
  13
 1880.1311640433
  23
 1998.8027184914
  33
0.0
  14
 2480.1311640433
  24
 1998.8027184914
  34
0.0
 100
AcDbRotatedDimension
   0
LINE
   5
356
 100
AcDbEntity
   8
LEVEL002
 370
30
 100
AcDbLine
   6
CONTINUOUS
  62
7
  10
 1202.6311640433
  20
 1033.8717985524
  30
0.0
  11
 1202.6311640433
  21
 1043.0289032769
  31
0.0
   0
LINE
   5
357
 100
AcDbEntity
   8
LEVEL002
 370
30
 100
AcDbLine
   6
CONTINUOUS
  62
7
  10
 1267.6311640433
  20
 1112.4717985524
  30
0.0
  11
 1267.6311640433
  21
 1093.8717985524
  31
0.0
   0
LINE
   5
358
 100
AcDbEntity
   8
LEVEL002
 370
30
 100
AcDbLine
   6
CONTINUOUS
  62
7
  10
 1181.6311640432
  20
 1033.8717985524
  30
0.0
  11
 1207.6311640433
  21
 1033.8717985524
  31
0.0
   0
LINE
   5
359
 100
AcDbEntity
   8
LEVEL002
 370
30
 100
AcDbLine
   6
CONTINUOUS
  62
7
  10
 1253.9615596346
  20
 1065.7470763324
  30
0.0
  11
 1260.6311640437
  21
 1065.7470763324
  31
0.0
   0
ARC
   5
35A
 100
AcDbEntity
   8
LEVEL002
 370
30
   6
CONTINUOUS
  62
7
 100
AcDbCircle
  10
 1253.9615596129
  20
 1055.7470763324
  30
0.0
  40
 10.000000000000
 100
AcDbArc
  50
 89.999999875978
  51
 140.54944873736
   0
ARC
   5
35B
 100
AcDbEntity
   8
LEVEL002
 370
30
   6
CONTINUOUS
  62
7
 100
AcDbCircle
  10
 1207.6311640468
  20
 1093.8717985521
  30
0.0
  40
 50.000000000000
 100
AcDbArc
  50
 265.50159332702
  51
 320.54944881375
   0
ARC
   5
35C
 100
AcDbEntity
   8
LEVEL002
 370
30
   6
CONTINUOUS
  62
7
 100
AcDbCircle
  10
 1203.6311640768
  20
 1043.0289032742
  30
0.0
  40
 1.0000000000000
 100
AcDbArc
  50
 85.501595257415
  51
 179.99999984909
   0
ARC
   5
35D
 100
AcDbEntity
   8
LEVEL002
 370
30
   6
CONTINUOUS
  62
7
 100
AcDbCircle
  10
 1181.6311643344
  20
 1070.8717985524
  30
0.0
  40
 1.0000000000000
 100
AcDbArc
  50
 90.000016681103
  51
 180.00000000000
   0
LINE
   5
35E
 100
AcDbEntity
   8
LEVEL002
 370
30
 100
AcDbLine
   6
CONTINUOUS
  62
7
  10
 1180.6311640433
  20
 1070.8717985524
  30
0.0
  11
 1180.6311640433
  21
 1034.8717985524
  31
0.0
   0
LINE
   5
35F
 100
AcDbEntity
   8
LEVEL002
 370
30
 100
AcDbLine
   6
CONTINUOUS
  62
7
  10
 1181.6311640432
  20
 1071.8717985524
  30
0.0
  11
 1186.9682857446
  21
 1071.8717985524
  31
0.0
   0
ARC
   5
360
 100
AcDbEntity
   8
LEVEL002
 370
30
   6
CONTINUOUS
  62
7
 100
AcDbCircle
  10
 1186.9682856987
  20
 1072.8717985524
  30
0.0
  40
 1.0000000000000
 100
AcDbArc
  50
 270.00000263052
  51
0.0
   0
LINE
   5
361
 100
AcDbEntity
   8
LEVEL002
 370
30
 100
AcDbLine
   6
CONTINUOUS
  62
7
  10
 1187.9682857446
  20
 1072.8717985524
  30
0.0
  11
 1187.9682857446
  21
 1112.4717985524
  31
0.0
   0
ARC
   5
362
 100
AcDbEntity
   8
LEVEL002
 370
30
   6
CONTINUOUS
  62
7
 100
AcDbCircle
  10
 1188.9682859641
  20
 1112.4717985524
  30
0.0
  40
 1.0000000000000
 100
AcDbArc
  50
 90.000012575235
  51
 180.00000000000
   0
LINE
   5
363
 100
AcDbEntity
   8
LEVEL002
 370
30
 100
AcDbLine
   6
CONTINUOUS
  62
7
  10
 1188.9682857446
  20
 1113.4717985524
  30
0.0
  11
 1266.6311640432
  21
 1113.4717985524
  31
0.0
   0
ARC
   5
364
 100
AcDbEntity
   8
LEVEL002
 370
30
   6
CONTINUOUS
  62
7
 100
AcDbCircle
  10
 1181.6311640432
  20
 1034.8717984330
  30
0.0
  40
 1.0000000000000
 100
AcDbArc
  50
 179.99999315480
  51
 270.00000000000
   0
ARC
   5
365
 100
AcDbEntity
   8
LEVEL002
 370
30
   6
CONTINUOUS
  62
7
 100
AcDbCircle
  10
 1266.6311640433
  20
 1112.4717984611
  30
0.0
  40
 1.0000000000000
 100
AcDbArc
  50
 0.52318648732703E-5
  51
 90.000000000834
   0
ARC
   5
366
 100
AcDbEntity
   8
LEVEL002
 370
30
   6
CONTINUOUS
  62
7
 100
AcDbCircle
  10
 1207.6311640403
  20
 1093.8717985524
  30
0.0
  40
 60.000000000000
 100
AcDbArc
  50
 270.00000000278
  51
0.0
   0
LINE
   5
367
 100
AcDbEntity
   8
LEVEL002
 370
15
 100
AcDbLine
   6
DASHDOT
  62
8
  10
 1235.1311640433
  20
 1123.0967011899
  30
0.0
  11
 1235.1311640433
  21
 992.06667342594
  31
0.0
   0
LINE
   5
368
 100
AcDbEntity
   8
LEVEL002
 370
30
 100
AcDbLine
   6
CONTINUOUS
  62
7
  10
 1203.6311640432
  20
 694.07333181909
  30
0.0
  11
 1248.5301435288
  21
 694.07333181909
  31
0.0
   0
ARC
   5
369
 100
AcDbEntity
   8
LEVEL002
 370
30
   6
CONTINUOUS
  62
7
 100
AcDbCircle
  10
 1243.6311640404
  20
 679.07333182179
  30
0.0
  40
 17.000000000000
 100
AcDbArc
  50
 314.41530859747
  51
 45.584691389672
   0
LINE
   5
36A
 100
AcDbEntity
   8
LEVEL002
 370
30
 100
AcDbLine
   6
CONTINUOUS
  62
7
  10
 1181.6311640432
  20
 698.07333181909
  30
0.0
  11
 1247.3549693380
  21
 698.07333181909
  31
0.0
   0
ARC
   5
36B
 100
AcDbEntity
   8
LEVEL002
 370
30
   6
CONTINUOUS
  62
7
 100
AcDbCircle
  10
 1236.6311640448
  20
 679.07333181719
  30
0.0
  40
 24.000000000000
 100
AcDbArc
  50
 319.99479911614
  51
 40.005200890775
   0
LINE
   5
36C
 100
AcDbEntity
   8
LEVEL002
 370
30
 100
AcDbLine
   6
CONTINUOUS
  62
7
  10
 1181.6311640432
  20
 660.07333181909
  30
0.0
  11
 1247.3549693380
  21
 660.07333181909
  31
0.0
   0
LINE
   5
36D
 100
AcDbEntity
   8
LEVEL002
 370
30
 100
AcDbLine
   6
CONTINUOUS
  62
7
  10
 1203.6311640432
  20
 664.07333181909
  30
0.0
  11
 1248.5301435288
  21
 664.07333181909
  31
0.0
   0
ARC
   5
36E
 100
AcDbEntity
   8
LEVEL002
 370
30
   6
CONTINUOUS
  62
7
 100
AcDbCircle
  10
 1248.5301435225
  20
 674.07333181289
  30
0.0
  40
 10.000000000000
 100
AcDbArc
  50
 270.00000003614
  51
 314.41530864753
   0
LINE
   5
36F
 100
AcDbEntity
   8
LEVEL002
 370
30
 100
AcDbLine
   6
CONTINUOUS
  62
7
  10
 1203.6311640432
  20
 664.07333181909
  30
0.0
  11
 1248.5301435288
  21
 664.07333181909
  31
0.0
   0
ARC
   5
370
 100
AcDbEntity
   8
LEVEL002
 370
30
   6
CONTINUOUS
  62
7
 100
AcDbCircle
  10
 1248.5301435334
  20
 684.07333181909
  30
0.0
  40
 10.000000000000
 100
AcDbArc
  50
 45.584691421531
  51
 90.000000026024
   0
LINE
   5
371
 100
AcDbEntity
   8
LEVEL002
 370
30
 100
AcDbLine
   6
CONTINUOUS
  62
7
  10
 1203.6311640432
  20
 694.07333181909
  30
0.0
  11
 1248.5301435288
  21
 694.07333181909
  31
0.0
   0
ARC
   5
372
 100
AcDbEntity
   8
LEVEL002
 370
30
   6
CONTINUOUS
  62
7
 100
AcDbCircle
  10
 1247.3549693354
  20
 670.07333181599
  30
0.0
  40
 10.000000000000
 100
AcDbArc
  50
 270.00000001485
  51
 319.99479913822
   0
LINE
   5
373
 100
AcDbEntity
   8
LEVEL002
 370
30
 100
AcDbLine
   6
CONTINUOUS
  62
7
  10
 1181.6311640432
  20
 660.07333181909
  30
0.0
  11
 1247.3549693380
  21
 660.07333181909
  31
0.0
   0
ARC
   5
374
 100
AcDbEntity
   8
LEVEL002
 370
30
   6
CONTINUOUS
  62
7
 100
AcDbCircle
  10
 1247.3549693259
  20
 688.07333181909
  30
0.0
  40
 10.000000000000
 100
AcDbArc
  50
 40.005200840234
  51
 89.999999930631
   0
LINE
   5
375
 100
AcDbEntity
   8
LEVEL002
 370
30
 100
AcDbLine
   6
CONTINUOUS
  62
7
  10
 1181.6311640432
  20
 698.07333181909
  30
0.0
  11
 1247.3549693380
  21
 698.07333181909
  31
0.0
   0
LINE
   5
376
 100
AcDbEntity
   8
LEVEL002
 370
30
 100
AcDbLine
   6
CONTINUOUS
  62
7
  10
 1202.6311640433
  20
 703.07333181909
  30
0.0
  11
 1243.6311640432
  21
 703.07333181909
  31
0.0
   0
LINE
   5
377
 100
AcDbEntity
   8
LEVEL002
 370
30
 100
AcDbLine
   6
CONTINUOUS
  62
7
  10
 1202.6311640433
  20
 655.07333181909
  30
0.0
  11
 1243.6311640432
  21
 655.07333181909
  31
0.0
   0
LINE
   5
378
 100
AcDbEntity
   8
LEVEL002
 370
30
 100
AcDbLine
   6
CONTINUOUS
  62
7
  10
 1202.6311640433
  20
 655.07333181909
  30
0.0
  11
 1243.6311640432
  21
 655.07333181909
  31
0.0
   0
LINE
   5
379
 100
AcDbEntity
   8
LEVEL002
 370
30
 100
AcDbLine
   6
CONTINUOUS
  62
7
  10
 1202.6311640433
  20
 703.07333181909
  30
0.0
  11
 1243.6311640432
  21
 703.07333181909
  31
0.0
   0
ARC
   5
37A
 100
AcDbEntity
   8
LEVEL002
 370
30
   6
CONTINUOUS
  62
7
 100
AcDbCircle
  10
 1181.6311641255
  20
 661.07333181909
  30
0.0
  40
 1.0000000000000
 100
AcDbArc
  50
 180.00000000000
  51
 269.99999528674
   0
LINE
   5
37B
 100
AcDbEntity
   8
LEVEL002
 370
30
 100
AcDbLine
   6
CONTINUOUS
  62
7
  10
 1180.6311640433
  20
 661.07333181909
  30
0.0
  11
 1180.6311640433
  21
 697.07333181909
  31
0.0
   0
ARC
   5
37C
 100
AcDbEntity
   8
LEVEL002
 370
30
   6
CONTINUOUS
  62
7
 100
AcDbCircle
  10
 1181.6311640432
  20
 697.07333190899
  30
0.0
  40
 1.0000000000000
 100
AcDbArc
  50
 90.000000000000
  51
 180.00000515349
   0
ARC
   5
37D
 100
AcDbEntity
   8
LEVEL002
 370
30
   6
CONTINUOUS
  62
7
 100
AcDbCircle
  10
 1203.6311639484
  20
 665.07333181909
  30
0.0
  40
 1.0000000000000
 100
AcDbArc
  50
 180.00000000000
  51
 270.00000543447
   0
LINE
   5
37E
 100
AcDbEntity
   8
LEVEL002
 370
30
 100
AcDbLine
   6
CONTINUOUS
  62
7
  10
 1202.6311640433
  20
 665.07333181909
  30
0.0
  11
 1202.6311640433
  21
 693.07333181909
  31
0.0
   0
ARC
   5
37F
 100
AcDbEntity
   8
LEVEL002
 370
30
   6
CONTINUOUS
  62
7
 100
AcDbCircle
  10
 1203.6311640433
  20
 693.07333197029
  30
0.0
  40
 1.0000000000000
 100
AcDbArc
  50
 90.000000000417
  51
 180.00000866405
   0
ARC
   5
380
 100
AcDbEntity
   8
LEVEL002
 370
30
   6
CONTINUOUS
  62
7
 100
AcDbCircle
  10
 1202.6311640438
  20
 679.07333181959
  30
0.0
  40
 24.000000000000
 100
AcDbArc
  50
 90.000000001416
  51
 127.65846200802
   0
ARC
   5
381
 100
AcDbEntity
   8
LEVEL002
 370
30
   6
CONTINUOUS
  62
7
 100
AcDbCircle
  10
 1202.6311640576
  20
 679.07333181909
  30
0.0
  40
 24.000000000000
 100
AcDbArc
  50
 232.34153796658
  51
 269.99999996564
   0
ARC
   5
382
 100
AcDbEntity
   8
LEVEL002
 370
30
   6
CONTINUOUS
  62
7
 100
AcDbCircle
  10
 1243.6311640432
  20
 679.07333181909
  30
0.0
  40
 24.000000000000
 100
AcDbArc
  50
 270.00000000000
  51
 90.000000000000
   0
ARC
   5
383
 100
AcDbEntity
   8
LEVEL002
 370
30
   6
CONTINUOUS
  62
7
 100
AcDbCircle
  10
 1181.6311640432
  20
 697.07333190899
  30
0.0
  40
 1.0000000000000
 100
AcDbArc
  50
 90.000000000000
  51
 180.00000515349
   0
LINE
   5
384
 100
AcDbEntity
   8
LEVEL002
 370
30
 100
AcDbLine
   6
CONTINUOUS
  62
7
  10
 1180.6311640433
  20
 697.07333181909
  30
0.0
  11
 1180.6311640433
  21
 661.07333181909
  31
0.0
   0
ARC
   5
385
 100
AcDbEntity
   8
LEVEL002
 370
30
   6
CONTINUOUS
  62
7
 100
AcDbCircle
  10
 1181.6311641255
  20
 661.07333181909
  30
0.0
  40
 1.0000000000000
 100
AcDbArc
  50
 180.00000000000
  51
 269.99999528674
   0
ARC
   5
386
 100
AcDbEntity
   8
LEVEL002
 370
30
   6
CONTINUOUS
  62
7
 100
AcDbCircle
  10
 1203.6311640433
  20
 693.07333197029
  30
0.0
  40
 1.0000000000000
 100
AcDbArc
  50
 90.000000000417
  51
 180.00000866405
   0
LINE
   5
387
 100
AcDbEntity
   8
LEVEL002
 370
30
 100
AcDbLine
   6
CONTINUOUS
  62
7
  10
 1202.6311640433
  20
 693.07333181909
  30
0.0
  11
 1202.6311640433
  21
 665.07333181909
  31
0.0
   0
ARC
   5
388
 100
AcDbEntity
   8
LEVEL002
 370
30
   6
CONTINUOUS
  62
7
 100
AcDbCircle
  10
 1203.6311639484
  20
 665.07333181909
  30
0.0
  40
 1.0000000000000
 100
AcDbArc
  50
 180.00000000000
  51
 270.00000543447
   0
ARC
   5
389
 100
AcDbEntity
   8
LEVEL002
 370
30
   6
CONTINUOUS
  62
7
 100
AcDbCircle
  10
 1202.6311640576
  20
 679.07333181909
  30
0.0
  40
 24.000000000000
 100
AcDbArc
  50
 232.34153796658
  51
 269.99999996564
   0
ARC
   5
38A
 100
AcDbEntity
   8
LEVEL002
 370
30
   6
CONTINUOUS
  62
7
 100
AcDbCircle
  10
 1202.6311640438
  20
 679.07333181959
  30
0.0
  40
 24.000000000000
 100
AcDbArc
  50
 90.000000001416
  51
 127.65846200802
   0
ARC
   5
38B
 100
AcDbEntity
   8
LEVEL002
 370
30
   6
CONTINUOUS
  62
7
 100
AcDbCircle
  10
 1243.6311640432
  20
 679.07333181909
  30
0.0
  40
 24.000000000000
 100
AcDbArc
  50
 270.00000000000
  51
 90.000000000000
   0
LINE
   5
38C
 100
AcDbEntity
   8
LEVEL002
 370
30
 100
AcDbLine
   6
CONTINUOUS
  62
7
  10
 1235.7108602438
  20
 664.07333181909
  30
0.0
  11
 1235.1311640433
  21
 663.49363561849
  31
0.0
   0
LINE
   5
38D
 100
AcDbEntity
   8
LEVEL002
 370
30
 100
AcDbLine
   6
CONTINUOUS
  62
7
  10
 1180.6311640433
  20
 679.70431373719
  30
0.0
  11
 1180.3156730842
  21
 679.38882277809
  31
0.0
   0
LINE
   5
38E
 100
AcDbEntity
   8
LEVEL002
 370
30
 100
AcDbLine
   6
CONTINUOUS
  62
7
  10
 1147.6371951802
  20
 696.07333181909
  30
0.0
  11
 1180.6311640433
  21
 696.07333181909
  31
0.0
   0
LINE
   5
38F
 100
AcDbEntity
   8
LEVEL002
 370
30
 100
AcDbLine
   6
CONTINUOUS
  62
7
  10
 1147.6371951802
  20
 696.07333181909
  30
0.0
  11
 1180.6311640433
  21
 696.07333181909
  31
0.0
   0
LINE
   5
390
 100
AcDbEntity
   8
LEVEL002
 370
30
 100
AcDbLine
   6
CONTINUOUS
  62
7
  10
 1147.6371951802
  20
 662.07333181909
  30
0.0
  11
 1180.6311640433
  21
 662.07333181909
  31
0.0
   0
LINE
   5
391
 100
AcDbEntity
   8
LEVEL002
 370
15
 100
AcDbLine
   6
DASHDOT
  62
8
  10
 1235.1311640433
  20
 633.80271849149
  30
0.0
  11
 1235.1311640433
  21
 732.01057590239
  31
0.0
   0
LINE
   5
392
 100
AcDbEntity
   8
LEVEL002
 370
30
 100
AcDbLine
   6
CONTINUOUS
  62
7
  10
 889.63116404330
  20
 662.07333181909
  30
0.0
  11
 1180.6311640433
  21
 662.07333181909
  31
0.0
   0
LINE
   5
393
 100
AcDbEntity
   8
LEVEL002
 370
15
 100
AcDbLine
   6
DASHDOT
  62
8
  10
 1321.5525738164
  20
 679.07333181909
  30
0.0
  11
 362.43661811851
  21
 679.07333181909
  31
0.0
   0
LINE
   5
394
 100
AcDbEntity
   8
LEVEL002
 370
30
 100
AcDbLine
   6
CONTINUOUS
  62
7
  10
 489.63116404330
  20
 696.07333181909
  30
0.0
  11
 1180.6311640433
  21
 696.07333181909
  31
0.0
   0
LINE
   5
395
 100
AcDbEntity
   8
LEVEL002
 370
30
 100
AcDbLine
   6
CONTINUOUS
  62
7
  10
 489.63116404330
  20
 662.07333181909
  30
0.0
  11
 1180.6311640433
  21
 662.07333181909
  31
0.0
   0
LEADER
   5
396
 100
AcDbEntity
   8
LEVEL001
 370
15
   6
CONTINUOUS
  62
8
 100
AcDbLeader
   3
GMM002
  73
0
  74
0
  75
0
  40
 30.000000000000
  41
 750.00000000000
  76
2
  10
 662.84096604179
  20
 691.83305662689
  30
0.0
  10
 781.53487454467
  20
 819.65956739030
  30
0.0
  77
8
 340
397
 213
0.0
 223
-10.000000000000
 233
0.0
   0
MTEXT
   5
397
 102
{ACAD_REACTORS
 330
396
 102
}
 100
AcDbEntity
   8
LEVEL001
 370
15
  62
8
 100
AcDbMText
  10
 781.53487454467
  20
 829.65956739030
  30
0.0
  40
 30.000000000000
  41
0.0
  71
7
  72
1
   1
\A1;芯材：アルミニウム(%%c２７.２×１.５ｔ)　　　　　\P表面材：樹脂被膜軟質ＰＶＣ（抗菌材入り）外径%%c３４
   7
GMM002
   0
LEADER
   5
398
 100
AcDbEntity
   8
LEVEL001
 370
15
   6
CONTINUOUS
  62
8
 100
AcDbLeader
   3
GMM002
  73
0
  74
0
  75
0
  40
 30.000000000000
  41
 750.00000000000
  76
2
  10
 662.84096604179
  20
 2056.8330566268
  30
0.0
  10
 781.53487454467
  20
 2184.6595673903
  30
0.0
  77
8
 340
399
 213
0.0
 223
-10.000000000000
 233
0.0
   0
MTEXT
   5
399
 102
{ACAD_REACTORS
 330
398
 102
}
 100
AcDbEntity
   8
LEVEL001
 370
15
  62
8
 100
AcDbMText
  10
 781.53487454467
  20
 2194.6595673903
  30
0.0
  40
 30.000000000000
  41
0.0
  71
7
  72
1
   1
\A1;芯材：アルミニウム(%%c２７.２×１.５ｔ)　　　　　\P表面材：樹脂被膜軟質ＰＶＣ（抗菌材入り）外径%%c３４
   7
GMM002
   0
MTEXT
   5
39B
 100
AcDbEntity
   8
LEVEL002
 370
15
  62
8
 100
AcDbMText
  10
 3122.5057208233
  20
 2079.1666666670
  30
0.0
  40
 35.000000000000
  41
0.0
  71
1
  72
1
   3
{\W0.500000;\T1.000000;･\W1.000000;\T1.000000;手摺本体\W0.500000;\T1.000000;(\W1.000000;\T1.000000;笠木%%c３４\W0.500000;\T1.000000;) }\P{\W1.000000;\T1.000000;表面材：樹脂被膜軟質ＰＶＣ（抗菌材入り）}\P{\W1.000000;\T1.000000;芯　材：アルミパイプ（Ａ
   3
６０６３Ｓ－Ｔ５　１\W0.500000;\T1.000000;.\W1.000000;\T1.000000;５ｔ）}\P{\W1.000000;\T1.000000;　　　　}\P\P{\W1.000000;\T1.000000;・ＦＳＲＩタイプ}\P{\W1.000000;\T1.000000;　色　：Ｃ００　ホワイト}\P{\W1.000000;\T1.000000;　　　　Ｃ０３　アイボリ
   3
ー}\P{\W1.000000;\T1.000000;　　　　Ｃ０７　イエロー}\P{\W1.000000;\T1.000000;　　　　Ｃ０８　エンジ}\P{\W1.000000;\T1.000000;　　　　Ｃ０９　ブラック}\P{\W1.000000;\T1.000000;　　　　Ｃ１４　ココア}\P{\W1.000000;\T1.000000;　　　　Ｃ１５　アクア}\P{
   3
\W1.000000;\T1.000000;・ＦＳＲＩ－Ｍタイプ（木目調）}\P{\W1.000000;\T1.000000;　　　　Ｍ０１　ナチュラル}\P{\W1.000000;\T1.000000;　　　　Ｍ０２　ミディアム}\P\P{\W0.500000;\T1.000000;･\W1.000000;\T1.000000;樹脂製化粧カバー（ＰＥ）}\P\P{\W0.500000;\T
   1
1.000000;･\W1.000000;\T1.000000;固定座金（ＺＤＣクロメート）}
   7
GMM002
  44
 0.79999984000003
   0
DIMENSION
   5
39C
 100
AcDbEntity
   8
LEVEL001
 370
15
   6
CONTINUOUS
  62
8
 100
AcDbDimension
   2
*D11
  10
 1235.1311640433
  20
 562.07333181909
  30
0.0
  11
 835.13116404330
  21
 562.07333181909
  31
0.0
  70
0
   3
GMM001
 100
AcDbAlignedDimension
  13
 435.13116404330
  23
 633.80271849149
  33
0.0
  14
 1235.1311640433
  24
 633.80271849149
  34
0.0
 100
AcDbRotatedDimension
   0
LINE
   5
39D
 100
AcDbEntity
   8
LEVEL002
 370
15
 100
AcDbLine
   6
DASHDOT
  62
8
  10
 387.90243411180
  20
 1052.8717985524
  30
0.0
  11
 1294.2465773437
  21
 1052.8717985524
  31
0.0
   0
LINE
   5
39E
 100
AcDbEntity
   8
LEVEL002
 370
40
 100
AcDbLine
   6
CONTINUOUS
  62
3
  10
 283.90114901090
  20
 1113.4717985524
  30
0.0
  11
 1339.5590437482
  21
 1113.4717985524
  31
0.0
   0
LINE
   5
39F
 100
AcDbEntity
   8
LEVEL002
 370
30
 100
AcDbLine
   6
CONTINUOUS
  62
7
  10
 488.63116404319
  20
 1069.8717985524
  30
0.0
  11
 1180.6311640433
  21
 1069.8717985524
  31
0.0
   0
LINE
   5
3A0
 100
AcDbEntity
   8
LEVEL002
 370
30
 100
AcDbLine
   6
CONTINUOUS
  62
7
  10
 488.63116404319
  20
 1035.8717985524
  30
0.0
  11
 1180.6311640433
  21
 1035.8717985524
  31
0.0
   0
LEADER
   5
3A1
 100
AcDbEntity
   8
LEVEL001
 370
15
   6
CONTINUOUS
  62
8
 100
AcDbLeader
   3
GMM002
  73
0
  74
0
  75
0
  40
 30.000000000000
  41
 750.00000000000
  76
2
  10
 2107.8409660418
  20
 2056.8330566268
  30
0.0
  10
 2226.5348745447
  20
 2184.6595673903
  30
0.0
  77
8
 340
3A2
 213
0.0
 223
-10.000000000000
 233
0.0
   0
MTEXT
   5
3A2
 102
{ACAD_REACTORS
 330
3A1
 102
}
 100
AcDbEntity
   8
LEVEL001
 370
15
  62
8
 100
AcDbMText
  10
 2226.5348745447
  20
 2194.6595673903
  30
0.0
  40
 30.000000000000
  41
0.0
  71
7
  72
1
   1
\A1;芯材：アルミニウム(%%c２７.２×１.５ｔ)　　　　　\P表面材：樹脂被膜軟質ＰＶＣ（抗菌材入り）外径%%c３４
   7
GMM002
   0
ENDSEC
  0
SECTION
  2
OBJECTS
  0
DICTIONARY
  5
C
100
AcDbDictionary
  3
ACAD_GROUP
350
D
  3
ACAD_MLINESTYLE
350
1B
  3
DWGPROPS
350
1C
  0
DICTIONARY
  5
D
102
{ACAD_REACTORS
330
C
102
}
100
AcDbDictionary
  0
DICTIONARY
  5
1B
102
{ACAD_REACTORS
330
C
102
}
100
AcDbDictionary
  3
STANDARD
350
1D
  0
MLINESTYLE
  5
1D
102
{ACAD_REACTORS
330
1B
102
}
100
AcDbMlineStyle
  2
STANDARD
 70
     0
  3

 62
   256
 51
90.0
 52
90.0
 71
     2
 49
0.5
 62
   256
  6
BYLAYER
 49
-0.5
 62
   256
  6
BYLAYER
   0
XRECORD
   5
1C
 102
{ACAD_REACTORS
 330
C
 102
}
 330
C
 100
AcDbXrecord
 280
1
   1
DWGPROPS COOKIE
   2
 
   3
 
   4
 
   6
 
   7
00000000.DRW
   8
 
   9

 300
 = 
 301
 = 
 302
 = 
 303
 = 
 304
 = 
 305
 = 
 306
 = 
 307
 = 
 308
 = 
 309
 = 
  40
0.0
  41
 2460200.5000000
  42
 2460200.5000000
   1

  90
10
   0
ENDSEC
   0
EOF
