   0
SECTION
   2
HEADER
   9
$ACADVER
   1
AC1015
   9
$DWGCODEPAGE
   3
ANSI_932
   9
$LIMMIN
  10
0.0
  20
0.0
   9
$LIMMAX
  10
 210.00000000000
  20
 148.50000000000
   9
$EXTMIN
  10
0.0
  20
0.0
  30
0.0
   9
$EXTMAX
  10
 210.00000000000
  20
 148.50000000000
  30
0.0
   9
$LTSCALE
  40
 4.2000000000000
   9
$HANDSEED
   5
628
   0
ENDSEC
   0
SECTION
   2
TABLES
  0
TABLE
  2
VPORT
  5
8
100
AcDbSymbolTable
 70
     1
  0
VPORT
  5
627
100
AcDbSymbolTableRecord
100
AcDbViewportTableRecord
  2
*ACTIVE
 70
     0
 10
0.0
 20
0.0
 11
1.0
 21
1.0
  12
 105.00000000000
  22
 74.250000000000
 13
0.0
 23
0.0
 14
1.0
 24
1.0
 15
0.0
 25
0.0
 16
0.0
 26
0.0
 36
1.0
 17
0.0
 27
0.0
 37
0.0
  40
 210.00000000000
  41
 1.4787878787879
 42
50.0
 43
0.0
 44
0.0
 50
0.0
 51
0.0
 71
     0
 72
   100
 73
     1
 74
     1
 75
     0
 76
     0
 77
     0
 78
     0
  0
ENDTAB
  0
TABLE
  2
LTYPE
  5
5
100
AcDbSymbolTable
 70
    25
  0
LTYPE
  5
12
100
AcDbSymbolTableRecord
100
AcDbLinetypeTableRecord
  2
BYBLOCK
 70
     0
  3

 72
    65
 73
     0
 40
0.0
  0
LTYPE
  5
13
100
AcDbSymbolTableRecord
100
AcDbLinetypeTableRecord
  2
BYLAYER
 70
     0
  3

 72
    65
 73
     0
 40
0.0
  0
LTYPE
  5
14
100
AcDbSymbolTableRecord
100
AcDbLinetypeTableRecord
  2
CONTINUOUS
 70
     0
  3
Solid line
 72
    65
 73
     0
 40
0.0
  0
LTYPE
  5
20
100
AcDbSymbolTableRecord
100
AcDbLinetypeTableRecord
  2
BORDER
 70
     0
  3
__ __ . __ __ . __ __ . __ __ . __ __ . __ __ .
 72
    65
 73
     6
 40
1.75
 49
0.5
 74
     0
 49
-0.25
 74
     0
 49
0.5
 74
     0
 49
-0.25
 74
     0
 49
0.0
 74
     0
 49
-0.25
 74
     0
  0
LTYPE
  5
21
100
AcDbSymbolTableRecord
100
AcDbLinetypeTableRecord
  2
BORDER2
 70
     0
  3
__.__.__.__.__.__.__.__.__.__.__.__.__.__.__.__
 72
    65
 73
     6
 40
0.875
 49
0.25
 74
     0
 49
-0.125
 74
     0
 49
0.25
 74
     0
 49
-0.125
 74
     0
 49
0.0
 74
     0
 49
-0.125
 74
     0
  0
LTYPE
  5
22
100
AcDbSymbolTableRecord
100
AcDbLinetypeTableRecord
  2
BORDERX2
 70
     0
  3
____  ____  .  ____  ____  .  ____  ____  .  __
 72
    65
 73
     6
 40
3.5
 49
1.0
 74
     0
 49
-0.5
 74
     0
 49
1.0
 74
     0
 49
-0.5
 74
     0
 49
0.0
 74
     0
 49
-0.5
 74
     0
  0
LTYPE
  5
23
100
AcDbSymbolTableRecord
100
AcDbLinetypeTableRecord
  2
CENTER
 70
     0
  3
____ _ ____ _ ____ _ ____ _ ____ _ ____ _ ____ 
 72
    65
 73
     4
 40
2.0
 49
1.25
 74
     0
 49
-0.25
 74
     0
 49
0.25
 74
     0
 49
-0.25
 74
     0
  0
LTYPE
  5
24
100
AcDbSymbolTableRecord
100
AcDbLinetypeTableRecord
  2
CENTER2
 70
     0
  3
___ _ ___ _ ___ _ ___ _ ___ _ ___ _ ___ _ ___ _
 72
    65
 73
     4
 40
1.125
 49
0.75
 74
     0
 49
-0.125
 74
     0
 49
0.125
 74
     0
 49
-0.125
 74
     0
  0
LTYPE
  5
25
100
AcDbSymbolTableRecord
100
AcDbLinetypeTableRecord
  2
CENTERX2
 70
     0
  3
________  __  ________  __  ________  __  _____
 72
    65
 73
     4
 40
4.0
 49
2.5
 74
     0
 49
-0.5
 74
     0
 49
0.5
 74
     0
 49
-0.5
 74
     0
  0
LTYPE
  5
26
100
AcDbSymbolTableRecord
100
AcDbLinetypeTableRecord
  2
DASHDOT
 70
     0
  3
__ . __ . __ . __ . __ . __ . __ . __ . __ . __
 72
    65
 73
     4
 40
1.0
 49
0.5
 74
     0
 49
-0.25
 74
     0
 49
0.0
 74
     0
 49
-0.25
 74
     0
  0
LTYPE
  5
27
100
AcDbSymbolTableRecord
100
AcDbLinetypeTableRecord
  2
DASHDOT2
 70
     0
  3
_._._._._._._._._._._._._._._._._._._._._._._._
 72
    65
 73
     4
 40
0.5
 49
0.25
 74
     0
 49
-0.125
 74
     0
 49
0.0
 74
     0
 49
-0.125
 74
     0
  0
LTYPE
  5
28
100
AcDbSymbolTableRecord
100
AcDbLinetypeTableRecord
  2
DASHDOTX2
 70
     0
  3
____  .  ____  .  ____  .  ____  .  ____  .  __
 72
    65
 73
     4
 40
2.0
 49
1.0
 74
     0
 49
-0.5
 74
     0
 49
0.0
 74
     0
 49
-0.5
 74
     0
  0
LTYPE
  5
29
100
AcDbSymbolTableRecord
100
AcDbLinetypeTableRecord
  2
DASHED
 70
     0
  3
__ __ __ __ __ __ __ __ __ __ __ __ __ __ __ __
 72
    65
 73
     2
 40
0.75
 49
0.5
 74
     0
 49
-0.25
 74
     0
  0
LTYPE
  5
2A
100
AcDbSymbolTableRecord
100
AcDbLinetypeTableRecord
  2
DASHED2
 70
     0
  3
_ _ _ _ _ _ _ _ _ _ _ _ _ _ _ _ _ _ _ _ _ _ _ _
 72
    65
 73
     2
 40
0.375
 49
0.25
 74
     0
 49
-0.125
 74
     0
  0
LTYPE
  5
2B
100
AcDbSymbolTableRecord
100
AcDbLinetypeTableRecord
  2
DASHEDX2
 70
     0
  3
____  ____  ____  ____  ____  ____  ____  ____ 
 72
    65
 73
     2
 40
1.5
 49
1.0
 74
     0
 49
-0.5
 74
     0
  0
LTYPE
  5
2C
100
AcDbSymbolTableRecord
100
AcDbLinetypeTableRecord
  2
DIVIDE
 70
     0
  3
____ . . ____ . . ____ . . ____ . . ____ . . __
 72
    65
 73
     6
 40
1.25
 49
0.5
 74
     0
 49
-0.25
 74
     0
 49
0.0
 74
     0
 49
-0.25
 74
     0
 49
0.0
 74
     0
 49
-0.25
 74
     0
  0
LTYPE
  5
2D
100
AcDbSymbolTableRecord
100
AcDbLinetypeTableRecord
  2
DIVIDE2
 70
     0
  3
__..__..__..__..__..__..__..__..__..__..__..__.
 72
    65
 73
     6
 40
0.625
 49
0.25
 74
     0
 49
-0.125
 74
     0
 49
0.0
 74
     0
 49
-0.125
 74
     0
 49
0.0
 74
     0
 49
-0.125
 74
     0
  0
LTYPE
  5
2E
100
AcDbSymbolTableRecord
100
AcDbLinetypeTableRecord
  2
DIVIDEX2
 70
     0
  3
________  .  .  ________  .  .  ________  .  . 
 72
    65
 73
     6
 40
2.5
 49
1.0
 74
     0
 49
-0.5
 74
     0
 49
0.0
 74
     0
 49
-0.5
 74
     0
 49
0.0
 74
     0
 49
-0.5
 74
     0
  0
LTYPE
  5
2F
100
AcDbSymbolTableRecord
100
AcDbLinetypeTableRecord
  2
DOT
 70
     0
  3
. . . . . . . . . . . . . . . . . . . . . . . .
 72
    65
 73
     2
 40
0.25
 49
0.0
 74
     0
 49
-0.25
 74
     0
  0
LTYPE
  5
30
100
AcDbSymbolTableRecord
100
AcDbLinetypeTableRecord
  2
DOT2
 70
     0
  3
...............................................
 72
    65
 73
     2
 40
0.125
 49
0.0
 74
     0
 49
-0.125
 74
     0
  0
LTYPE
  5
31
100
AcDbSymbolTableRecord
100
AcDbLinetypeTableRecord
  2
DOTX2
 70
     0
  3
.  .  .  .  .  .  .  .  .  .  .  .  .  .  .  . 
 72
    65
 73
     2
 40
0.5
 49
0.0
 74
     0
 49
-0.5
 74
     0
  0
LTYPE
  5
32
100
AcDbSymbolTableRecord
100
AcDbLinetypeTableRecord
  2
HIDDEN
 70
     0
  3
__ __ __ __ __ __ __ __ __ __ __ __ __ __ __ __
 72
    65
 73
     2
 40
0.375
 49
0.25
 74
     0
 49
-0.125
 74
     0
  0
LTYPE
  5
33
100
AcDbSymbolTableRecord
100
AcDbLinetypeTableRecord
  2
HIDDEN2
 70
     0
  3
_ _ _ _ _ _ _ _ _ _ _ _ _ _ _ _ _ _ _ _ _ _ _ _
 72
    65
 73
     2
 40
0.1875
 49
0.125
 74
     0
 49
-0.0625
 74
     0
  0
LTYPE
  5
34
100
AcDbSymbolTableRecord
100
AcDbLinetypeTableRecord
  2
HIDDENX2
 70
     0
  3
____ ____ ____ ____ ____ ____ ____ ____ ____ __
 72
    65
 73
     2
 40
0.75
 49
0.5
 74
     0
 49
-0.25
 74
     0
  0
LTYPE
  5
35
100
AcDbSymbolTableRecord
100
AcDbLinetypeTableRecord
  2
PHANTOM
 70
     0
  3
______  __  __  ______  __  __  ______  __  __ 
 72
    65
 73
     6
 40
2.5
 49
1.25
 74
     0
 49
-0.25
 74
     0
 49
0.25
 74
     0
 49
-0.25
 74
     0
 49
0.25
 74
     0
 49
-0.25
 74
     0
  0
LTYPE
  5
36
100
AcDbSymbolTableRecord
100
AcDbLinetypeTableRecord
  2
PHANTOM2
 70
     0
  3
___ _ _ ___ _ _ ___ _ _ ___ _ _ ___ _ _ ___ _ _
 72
    65
 73
     6
 40
1.25
 49
0.625
 74
     0
 49
-0.125
 74
     0
 49
0.125
 74
     0
 49
-0.125
 74
     0
 49
0.125
 74
     0
 49
-0.125
 74
     0
  0
LTYPE
  5
37
100
AcDbSymbolTableRecord
100
AcDbLinetypeTableRecord
  2
PHANTOMX2
 70
     0
  3
____________    ____    ____    ____________   
 72
    65
 73
     6
 40
5.0
 49
2.5
 74
     0
 49
-0.5
 74
     0
 49
0.5
 74
     0
 49
-0.5
 74
     0
 49
0.5
 74
     0
 49
-0.5
 74
     0
  0
ENDTAB
   0
TABLE
   2
LAYER
   5
2
 100
AcDbSymbolTable
  70
3
   0
LAYER
   5
E
 100
AcDbSymbolTableRecord
 100
AcDbLayerTableRecord
   2
0
  70
0
  62
7
   6
CONTINUOUS
 390
30
   0
LAYER
   5
39
 100
AcDbSymbolTableRecord
 100
AcDbLayerTableRecord
   2
LEVEL001
  70
0
  62
7
   6
CONTINUOUS
 390
30
   0
LAYER
   5
3A
 100
AcDbSymbolTableRecord
 100
AcDbLayerTableRecord
   2
LEVEL002
  70
0
  62
7
   6
CONTINUOUS
 390
30
   0
ENDTAB
  0
TABLE
  2
STYLE
  5
3
100
AcDbSymbolTable
  70
6
  0
STYLE
  5
F
100
AcDbSymbolTableRecord
100
AcDbTextStyleTableRecord
  2
STANDARD
 70
     0
 40
0.0
 41
1.0
 50
0.0
 71
     0
 42
0.2
  3
TXT
  4
BIGFONT
  0
STYLE
  5
38
100
AcDbSymbolTableRecord
100
AcDbTextStyleTableRecord
  2
STANDARD1
 70
     4
 40
0.0
 41
1.0
 50
0.0
 71
     0
 42
0.2
  3
TXT
  4
BIGFONT
   0
STYLE
   5
3B
 100
AcDbSymbolTableRecord
 100
AcDbTextStyleTableRecord
   2
GMM001
  70
0
  40
0.0
  41
 0.80000000000000
  50
0.0
  71
     0
  42
1.0
   3
txt.shx
   4
bigfont.shx
   0
STYLE
   5
3C
 100
AcDbSymbolTableRecord
 100
AcDbTextStyleTableRecord
   2
GMM002
  70
0
  40
0.0
  41
 1.0000000000000
  50
0.0
  71
     0
  42
1.0
   3
txt.shx
   4
bigfont.shx
   0
STYLE
   5
3D
 100
AcDbSymbolTableRecord
 100
AcDbTextStyleTableRecord
   2
GMM003
  70
0
  40
0.0
  41
 1.0714285714286
  50
0.0
  71
     0
  42
1.0
   3
txt.shx
   4
bigfont.shx
   0
STYLE
   5
3E
 100
AcDbSymbolTableRecord
 100
AcDbTextStyleTableRecord
   2
GMM004
  70
0
  40
0.0
  41
 0.88888888888889
  50
0.0
  71
     0
  42
1.0
   3
txt.shx
   4
bigfont.shx
   0
ENDTAB
  0
TABLE
  2
VIEW
  5
6
100
AcDbSymbolTable
 70
     0
  0
ENDTAB
  0
TABLE
  2
UCS
  5
7
100
AcDbSymbolTable
 70
     0
  0
ENDTAB
  0
TABLE
  2
APPID
  5
9
100
AcDbSymbolTable
 70
     1
  0
APPID
  5
10
100
AcDbSymbolTableRecord
100
AcDbRegAppTableRecord
  2
ACAD
 70
     0
  0
ENDTAB
   0
TABLE
   2
DIMSTYLE
   5
A
 100
AcDbSymbolTable
  70
11
 100
AcDbDimStyleTable
  0
DIMSTYLE
105
1D
100
AcDbSymbolTableRecord
100
AcDbDimStyleTableRecord
  2
STANDARD
 70
     0
  3

  4

  5

  6

  7

 40
1.0
 41
0.18
 42
0.0625
 43
0.38
 44
0.18
 45
0.0
 46
0.0
 47
0.0
 48
0.0
140
0.18
141
0.09
142
0.0
143
25.4
144
1.0
145
0.0
146
1.0
147
0.09
 71
     0
 72
     0
 73
     1
 74
     1
 75
     0
 76
     0
 77
     0
 78
     0
170
     0
171
     2
172
     0
173
     0
174
     0
175
     0
176
     0
177
     0
178
     0
270
     2
271
     4
272
     4
273
     2
274
     2
340
F
275
     0
280
     0
281
     0
282
     0
283
     1
284
     0
285
     0
286
     0
287
     3
288
     0
   0
DIMSTYLE
 105
3F
 100
AcDbSymbolTableRecord
 100
AcDbDimStyleTableRecord
   2
GMM001
  70
0
   3

   4

   5

   6

   7

  40
 1.0000000000000
  41
 1.0000000000000
  42
 0.50000000000000
  43
 4.0000000000000
  44
 0.50000000000000
  45
0.0
  46
0.0
  47
0.0
  48
0.0
 140
 1.2500000000000
 141
 0.50000000000000
 142
0.0
 143
 0.39400000000000E-1
 144
 1.0000000000000
 145
0.0
 146
 1.0000000000000
 147
 0.50000000000000
  71
0
  72
0
  73
0
  74
0
  75
0
  76
0
  77
3
  78
8
 170
0
 171
2
 172
1
 173
1
 174
0
 175
0
 176
8
 177
8
 178
8
 270
2
 271
6
 272
0
 273
2
 274
2
 340
3C
 275
0
 280
0
 281
0
 282
0
 283
1
 284
0
 285
0
 286
0
 287
3
 288
0
   0
DIMSTYLE
 105
40
 100
AcDbSymbolTableRecord
 100
AcDbDimStyleTableRecord
   2
GMM002
  70
0
   3

   4

   5

   6

   7

  40
 1.0000000000000
  41
 1.0000000000000
  42
 0.50000000000000
  43
 4.0000000000000
  44
 0.50000000000000
  45
0.0
  46
0.0
  47
0.0
  48
0.0
 140
 1.2500000000000
 141
 0.50000000000000
 142
0.0
 143
 0.39400000000000E-1
 144
 1.0000000000000
 145
0.0
 146
 1.0000000000000
 147
 0.50000000000000
  71
0
  72
0
  73
0
  74
0
  75
0
  76
0
  77
3
  78
0
 170
0
 171
2
 172
1
 173
1
 174
0
 175
0
 176
8
 177
8
 178
8
 270
2
 271
0
 272
0
 273
2
 274
2
 340
3C
 275
0
 280
0
 281
0
 282
0
 283
1
 284
0
 285
0
 286
0
 287
3
 288
0
   0
DIMSTYLE
 105
41
 100
AcDbSymbolTableRecord
 100
AcDbDimStyleTableRecord
   2
GMM003
  70
0
   3

   4

   5

   6

   7

  40
 1.0000000000000
  41
 1.0000000000000
  42
 0.50000000000000
  43
 4.0000000000000
  44
 0.50000000000000
  45
0.0
  46
0.0
  47
0.0
  48
0.0
 140
 1.5000000000000
 141
 0.50000000000000
 142
0.0
 143
 0.39400000000000E-1
 144
 1.0000000000000
 145
0.0
 146
 0.83333333333333
 147
 0.50000000000000
  71
0
  72
0
  73
0
  74
0
  75
0
  76
0
  77
3
  78
8
 170
0
 171
2
 172
1
 173
1
 174
0
 175
0
 176
8
 177
8
 178
8
 270
2
 271
6
 272
0
 273
2
 274
2
 340
3C
 275
1
 280
0
 281
0
 282
0
 283
1
 284
0
 285
0
 286
0
 287
3
 288
0
   0
DIMSTYLE
 105
42
 100
AcDbSymbolTableRecord
 100
AcDbDimStyleTableRecord
   2
GMM004
  70
0
   3

   4

   5

   6
_NONE
   7

  40
 1.0000000000000
  41
 1.0000000000000
  42
 0.50000000000000
  43
 4.0000000000000
  44
 0.50000000000000
  45
0.0
  46
0.0
  47
0.0
  48
0.0
 140
 1.2500000000000
 141
 0.50000000000000
 142
0.0
 143
 0.39400000000000E-1
 144
 1.0000000000000
 145
0.0
 146
 1.0000000000000
 147
 0.49935727005693
  71
0
  72
0
  73
0
  74
0
  75
0
  76
0
  77
3
  78
8
 170
0
 171
2
 172
1
 173
1
 174
0
 175
0
 176
8
 177
8
 178
8
 270
2
 271
6
 272
0
 273
2
 274
2
 340
3C
 275
0
 280
0
 281
0
 282
0
 283
1
 284
0
 285
0
 286
0
 287
3
 288
1
   0
DIMSTYLE
 105
43
 100
AcDbSymbolTableRecord
 100
AcDbDimStyleTableRecord
   2
GMM005
  70
0
   3

   4

   5

   6
_NONE
   7

  40
 1.0000000000000
  41
 1.0000000000000
  42
 0.50000000000000
  43
 4.0000000000000
  44
 0.50000000000000
  45
0.0
  46
0.0
  47
0.0
  48
0.0
 140
 1.2500000000000
 141
 0.50000000000000
 142
0.0
 143
 0.39400000000000E-1
 144
 1.0000000000000
 145
0.0
 146
 1.0000000000000
 147
 0.58878821249360
  71
0
  72
0
  73
0
  74
0
  75
0
  76
0
  77
3
  78
8
 170
0
 171
2
 172
1
 173
1
 174
0
 175
0
 176
8
 177
8
 178
8
 270
2
 271
6
 272
0
 273
2
 274
2
 340
3C
 275
0
 280
0
 281
0
 282
0
 283
1
 284
0
 285
0
 286
0
 287
3
 288
1
   0
DIMSTYLE
 105
44
 100
AcDbSymbolTableRecord
 100
AcDbDimStyleTableRecord
   2
GMM006
  70
0
   3

   4

   5

   6

   7

  40
 1.0000000000000
  41
 1.0000000000000
  42
 0.50000000000000
  43
 4.0000000000000
  44
 0.50000000000000
  45
0.0
  46
0.0
  47
0.0
  48
0.0
 140
 1.2500000000000
 141
 0.50000000000000
 142
0.0
 143
 0.39400000000000E-1
 144
 1.0000000000000
 145
0.0
 146
 1.0000000000000
 147
 0.50000000000000
  71
0
  72
0
  73
0
  74
0
  75
0
  76
0
  77
3
  78
8
 170
0
 171
2
 172
1
 173
1
 174
0
 175
0
 176
8
 177
8
 178
8
 270
2
 271
6
 272
0
 273
2
 274
2
 340
3C
 275
1
 280
0
 281
0
 282
0
 283
1
 284
0
 285
0
 286
0
 287
3
 288
0
   0
DIMSTYLE
 105
45
 100
AcDbSymbolTableRecord
 100
AcDbDimStyleTableRecord
   2
GMM007
  70
0
   3

   4

   5

   6
_NONE
   7

  40
 1.0000000000000
  41
 1.0000000000000
  42
 0.50000000000000
  43
 4.0000000000000
  44
 0.50000000000000
  45
0.0
  46
0.0
  47
0.0
  48
0.0
 140
 1.2500000000000
 141
 0.50000000000000
 142
0.0
 143
 0.39400000000000E-1
 144
 1.0000000000000
 145
0.0
 146
 1.0000000000000
 147
 0.54194975537690
  71
0
  72
0
  73
0
  74
0
  75
0
  76
0
  77
3
  78
8
 170
0
 171
2
 172
1
 173
1
 174
0
 175
0
 176
8
 177
8
 178
8
 270
2
 271
6
 272
0
 273
2
 274
2
 340
3C
 275
0
 280
0
 281
0
 282
0
 283
1
 284
0
 285
0
 286
0
 287
3
 288
1
   0
DIMSTYLE
 105
46
 100
AcDbSymbolTableRecord
 100
AcDbDimStyleTableRecord
   2
GMM008
  70
0
   3

   4

   5

   6
_NONE
   7

  40
 1.0000000000000
  41
 1.0000000000000
  42
 0.50000000000000
  43
 4.0000000000000
  44
 0.50000000000000
  45
0.0
  46
0.0
  47
0.0
  48
0.0
 140
 1.2500000000000
 141
 0.50000000000000
 142
0.0
 143
 0.39400000000000E-1
 144
 1.0000000000000
 145
0.0
 146
 1.0000000000000
 147
 0.57038520213558
  71
0
  72
0
  73
0
  74
0
  75
0
  76
0
  77
3
  78
8
 170
0
 171
2
 172
1
 173
1
 174
0
 175
0
 176
8
 177
8
 178
8
 270
2
 271
6
 272
0
 273
2
 274
2
 340
3C
 275
0
 280
0
 281
0
 282
0
 283
1
 284
0
 285
0
 286
0
 287
3
 288
1
   0
DIMSTYLE
 105
47
 100
AcDbSymbolTableRecord
 100
AcDbDimStyleTableRecord
   2
GMM009
  70
0
   3

   4

   5

   6
_NONE
   7

  40
 1.0000000000000
  41
 1.0000000000000
  42
 0.50000000000000
  43
 4.0000000000000
  44
 0.50000000000000
  45
0.0
  46
0.0
  47
0.0
  48
0.0
 140
 1.2500000000000
 141
 0.50000000000000
 142
0.0
 143
 0.39400000000000E-1
 144
 1.0000000000000
 145
0.0
 146
 1.0000000000000
 147
 0.47559871901942
  71
0
  72
0
  73
0
  74
0
  75
0
  76
0
  77
3
  78
8
 170
0
 171
2
 172
1
 173
1
 174
0
 175
0
 176
8
 177
8
 178
8
 270
2
 271
6
 272
0
 273
2
 274
2
 340
3C
 275
0
 280
0
 281
0
 282
0
 283
1
 284
0
 285
0
 286
0
 287
3
 288
1
   0
ENDTAB
  0
TABLE
  2
BLOCK_RECORD
  5
1
100
AcDbSymbolTable
 70
     0
  0
BLOCK_RECORD
  5
18
100
AcDbSymbolTableRecord
100
AcDbBlockTableRecord
  2
*MODEL_SPACE
  0
BLOCK_RECORD
  5
15
100
AcDbSymbolTableRecord
100
AcDbBlockTableRecord
  2
*PAPER_SPACE
   0
BLOCK_RECORD
   5
48
 100
AcDbSymbolTableRecord
 100
AcDbBlockTableRecord
   2
*D1
   0
BLOCK_RECORD
   5
49
 100
AcDbSymbolTableRecord
 100
AcDbBlockTableRecord
   2
*D2
   0
BLOCK_RECORD
   5
4A
 100
AcDbSymbolTableRecord
 100
AcDbBlockTableRecord
   2
*D3
   0
BLOCK_RECORD
   5
4B
 100
AcDbSymbolTableRecord
 100
AcDbBlockTableRecord
   2
*D4
   0
BLOCK_RECORD
   5
4C
 100
AcDbSymbolTableRecord
 100
AcDbBlockTableRecord
   2
*D5
   0
BLOCK_RECORD
   5
4D
 100
AcDbSymbolTableRecord
 100
AcDbBlockTableRecord
   2
*D6
   0
BLOCK_RECORD
   5
4E
 100
AcDbSymbolTableRecord
 100
AcDbBlockTableRecord
   2
*D7
   0
BLOCK_RECORD
   5
4F
 100
AcDbSymbolTableRecord
 100
AcDbBlockTableRecord
   2
*D8
   0
BLOCK_RECORD
   5
50
 100
AcDbSymbolTableRecord
 100
AcDbBlockTableRecord
   2
*D9
   0
BLOCK_RECORD
   5
51
 100
AcDbSymbolTableRecord
 100
AcDbBlockTableRecord
   2
*D10
   0
BLOCK_RECORD
   5
52
 100
AcDbSymbolTableRecord
 100
AcDbBlockTableRecord
   2
*D11
   0
BLOCK_RECORD
   5
53
 100
AcDbSymbolTableRecord
 100
AcDbBlockTableRecord
   2
*D12
   0
BLOCK_RECORD
   5
54
 100
AcDbSymbolTableRecord
 100
AcDbBlockTableRecord
   2
*D13
   0
BLOCK_RECORD
   5
55
 100
AcDbSymbolTableRecord
 100
AcDbBlockTableRecord
   2
*D14
   0
BLOCK_RECORD
   5
56
 100
AcDbSymbolTableRecord
 100
AcDbBlockTableRecord
   2
*D15
   0
BLOCK_RECORD
   5
57
 100
AcDbSymbolTableRecord
 100
AcDbBlockTableRecord
   2
*D16
   0
BLOCK_RECORD
   5
58
 100
AcDbSymbolTableRecord
 100
AcDbBlockTableRecord
   2
*D17
   0
BLOCK_RECORD
   5
59
 100
AcDbSymbolTableRecord
 100
AcDbBlockTableRecord
   2
*D18
   0
BLOCK_RECORD
   5
5A
 100
AcDbSymbolTableRecord
 100
AcDbBlockTableRecord
   2
*D19
   0
BLOCK_RECORD
   5
5B
 100
AcDbSymbolTableRecord
 100
AcDbBlockTableRecord
   2
*D20
   0
BLOCK_RECORD
   5
5C
 100
AcDbSymbolTableRecord
 100
AcDbBlockTableRecord
   2
*D21
   0
BLOCK_RECORD
   5
5D
 100
AcDbSymbolTableRecord
 100
AcDbBlockTableRecord
   2
*D22
   0
BLOCK_RECORD
   5
5E
 100
AcDbSymbolTableRecord
 100
AcDbBlockTableRecord
   2
*D23
   0
BLOCK_RECORD
   5
5F
 100
AcDbSymbolTableRecord
 100
AcDbBlockTableRecord
   2
*D24
   0
BLOCK_RECORD
   5
60
 100
AcDbSymbolTableRecord
 100
AcDbBlockTableRecord
   2
*D25
   0
BLOCK_RECORD
   5
61
 100
AcDbSymbolTableRecord
 100
AcDbBlockTableRecord
   2
*D26
   0
BLOCK_RECORD
   5
62
 100
AcDbSymbolTableRecord
 100
AcDbBlockTableRecord
   2
*D27
   0
BLOCK_RECORD
   5
63
 100
AcDbSymbolTableRecord
 100
AcDbBlockTableRecord
   2
*D28
   0
BLOCK_RECORD
   5
64
 100
AcDbSymbolTableRecord
 100
AcDbBlockTableRecord
   2
*D29
   0
BLOCK_RECORD
   5
65
 100
AcDbSymbolTableRecord
 100
AcDbBlockTableRecord
   2
*D30
   0
BLOCK_RECORD
   5
66
 100
AcDbSymbolTableRecord
 100
AcDbBlockTableRecord
   2
*D31
   0
BLOCK_RECORD
   5
67
 100
AcDbSymbolTableRecord
 100
AcDbBlockTableRecord
   2
*D32
   0
BLOCK_RECORD
   5
68
 100
AcDbSymbolTableRecord
 100
AcDbBlockTableRecord
   2
*D33
   0
BLOCK_RECORD
   5
69
 100
AcDbSymbolTableRecord
 100
AcDbBlockTableRecord
   2
*D34
   0
BLOCK_RECORD
   5
6A
 100
AcDbSymbolTableRecord
 100
AcDbBlockTableRecord
   2
*D35
   0
BLOCK_RECORD
   5
6B
 100
AcDbSymbolTableRecord
 100
AcDbBlockTableRecord
   2
*D36
   0
BLOCK_RECORD
   5
6C
 100
AcDbSymbolTableRecord
 100
AcDbBlockTableRecord
   2
*D37
   0
BLOCK_RECORD
   5
6D
 100
AcDbSymbolTableRecord
 100
AcDbBlockTableRecord
   2
*D38
   0
BLOCK_RECORD
   5
6E
 100
AcDbSymbolTableRecord
 100
AcDbBlockTableRecord
   2
*D39
   0
BLOCK_RECORD
   5
6F
 100
AcDbSymbolTableRecord
 100
AcDbBlockTableRecord
   2
*D40
   0
BLOCK_RECORD
   5
70
 100
AcDbSymbolTableRecord
 100
AcDbBlockTableRecord
   2
*D41
   0
BLOCK_RECORD
   5
71
 100
AcDbSymbolTableRecord
 100
AcDbBlockTableRecord
   2
*D42
   0
BLOCK_RECORD
   5
72
 100
AcDbSymbolTableRecord
 100
AcDbBlockTableRecord
   2
*D43
   0
BLOCK_RECORD
   5
73
 100
AcDbSymbolTableRecord
 100
AcDbBlockTableRecord
   2
*D44
   0
BLOCK_RECORD
   5
74
 100
AcDbSymbolTableRecord
 100
AcDbBlockTableRecord
   2
*D45
   0
BLOCK_RECORD
   5
75
 100
AcDbSymbolTableRecord
 100
AcDbBlockTableRecord
   2
*D46
   0
BLOCK_RECORD
   5
76
 100
AcDbSymbolTableRecord
 100
AcDbBlockTableRecord
   2
*D47
   0
BLOCK_RECORD
   5
77
 100
AcDbSymbolTableRecord
 100
AcDbBlockTableRecord
   2
*D48
   0
BLOCK_RECORD
   5
78
 100
AcDbSymbolTableRecord
 100
AcDbBlockTableRecord
   2
*D49
   0
BLOCK_RECORD
   5
79
 100
AcDbSymbolTableRecord
 100
AcDbBlockTableRecord
   2
*D50
   0
BLOCK_RECORD
   5
7A
 100
AcDbSymbolTableRecord
 100
AcDbBlockTableRecord
   2
*D51
   0
BLOCK_RECORD
   5
7B
 100
AcDbSymbolTableRecord
 100
AcDbBlockTableRecord
   2
*D52
   0
BLOCK_RECORD
   5
7C
 100
AcDbSymbolTableRecord
 100
AcDbBlockTableRecord
   2
*D53
   0
BLOCK_RECORD
   5
7D
 100
AcDbSymbolTableRecord
 100
AcDbBlockTableRecord
   2
*D54
   0
BLOCK_RECORD
   5
7E
 100
AcDbSymbolTableRecord
 100
AcDbBlockTableRecord
   2
*D55
   0
BLOCK_RECORD
   5
7F
 100
AcDbSymbolTableRecord
 100
AcDbBlockTableRecord
   2
_ARCHTICK
   0
BLOCK_RECORD
   5
80
 100
AcDbSymbolTableRecord
 100
AcDbBlockTableRecord
   2
_BOXBLANK
   0
BLOCK_RECORD
   5
81
 100
AcDbSymbolTableRecord
 100
AcDbBlockTableRecord
   2
_BOXFILLED
   0
BLOCK_RECORD
   5
82
 100
AcDbSymbolTableRecord
 100
AcDbBlockTableRecord
   2
_CLOSED
   0
BLOCK_RECORD
   5
83
 100
AcDbSymbolTableRecord
 100
AcDbBlockTableRecord
   2
_CLOSEDBLANK
   0
BLOCK_RECORD
   5
84
 100
AcDbSymbolTableRecord
 100
AcDbBlockTableRecord
   2
_DATUMBLANK
   0
BLOCK_RECORD
   5
85
 100
AcDbSymbolTableRecord
 100
AcDbBlockTableRecord
   2
_DATUMFILLED
   0
BLOCK_RECORD
   5
86
 100
AcDbSymbolTableRecord
 100
AcDbBlockTableRecord
   2
_DOT
   0
BLOCK_RECORD
   5
87
 100
AcDbSymbolTableRecord
 100
AcDbBlockTableRecord
   2
_DOTBLANK
   0
BLOCK_RECORD
   5
88
 100
AcDbSymbolTableRecord
 100
AcDbBlockTableRecord
   2
_DOTSMALL
   0
BLOCK_RECORD
   5
89
 100
AcDbSymbolTableRecord
 100
AcDbBlockTableRecord
   2
_INTEGRAL
   0
BLOCK_RECORD
   5
8A
 100
AcDbSymbolTableRecord
 100
AcDbBlockTableRecord
   2
_NONE
   0
BLOCK_RECORD
   5
8B
 100
AcDbSymbolTableRecord
 100
AcDbBlockTableRecord
   2
_OBLIQUE
   0
BLOCK_RECORD
   5
8C
 100
AcDbSymbolTableRecord
 100
AcDbBlockTableRecord
   2
_OPEN
   0
BLOCK_RECORD
   5
8D
 100
AcDbSymbolTableRecord
 100
AcDbBlockTableRecord
   2
_OPEN30
   0
BLOCK_RECORD
   5
8E
 100
AcDbSymbolTableRecord
 100
AcDbBlockTableRecord
   2
_OPEN90
   0
BLOCK_RECORD
   5
8F
 100
AcDbSymbolTableRecord
 100
AcDbBlockTableRecord
   2
_ORIGIN
   0
ENDTAB
   0
ENDSEC
  0
SECTION
  2
BLOCKS
  0
BLOCK
  5
19
100
AcDbEntity
  8
0
100
AcDbBlockBegin
  2
*MODEL_SPACE
 70
     0
 10
0.0
 20
0.0
 30
0.0
  3
*MODEL_SPACE
  1

  0
ENDBLK
  5
1A
100
AcDbEntity
  8
0
100
AcDbBlockEnd
  0
BLOCK
  5
16
100
AcDbEntity
 67
     1
  8
0
100
AcDbBlockBegin
  2
*PAPER_SPACE
 70
     0
 10
0.0
 20
0.0
 30
0.0
  3
*PAPER_SPACE
  1

  0
ENDBLK
  5
17
100
AcDbEntity
 67
     1
  8
0
100
AcDbBlockEnd
   0
BLOCK
   5
90
 100
AcDbEntity
   8
0
 100
AcDbBlockBegin
   2
_ARCHTICK
  70
0
  10
0.0
  20
0.0
  30
0.0
   3
_ARCHTICK
   0
POLYLINE
   5
91
 100
AcDbEntity
   8
0
 370
-2
   6
BYBLOCK
  62
0
 100
AcDb2dPolyline
  66
1
  10
0.0
  20
0.0
  30
0.0
  70
1
  40
 0.15000000000000
  41
 0.15000000000000
   0
VERTEX
   5
92
 100
AcDbEntity
   8
0
   6
BYBLOCK
  62
0
 100
AcDbVertex
 100
AcDb2dVertex
  10
-0.50000000000000
  20
-0.50000000000000
  30
0.0
  40
 0.15000000000000
  41
 0.15000000000000
   0
VERTEX
   5
93
 100
AcDbEntity
   8
0
   6
BYBLOCK
  62
0
 100
AcDbVertex
 100
AcDb2dVertex
  10
 0.50000000000000
  20
 0.50000000000000
  30
0.0
  40
 0.15000000000000
  41
 0.15000000000000
   0
SEQEND
   5
94
 100
AcDbEntity
   8
0
   6
BYBLOCK
  62
0
   0
ENDBLK
   5
95
 100
AcDbEntity
   8
0
 100
AcDbBlockEnd
   0
BLOCK
   5
96
 100
AcDbEntity
   8
0
 100
AcDbBlockBegin
   2
_OBLIQUE
  70
0
  10
0.0
  20
0.0
  30
0.0
   3
_OBLIQUE
   0
LINE
   5
97
 100
AcDbEntity
   8
0
 370
-2
 100
AcDbLine
   6
BYBLOCK
  62
0
  10
-0.50000000000000
  20
-0.50000000000000
  30
0.0
  11
 0.50000000000000
  21
 0.50000000000000
  31
0.0
   0
ENDBLK
   5
98
 100
AcDbEntity
   8
0
 100
AcDbBlockEnd
   0
BLOCK
   5
99
 100
AcDbEntity
   8
0
 100
AcDbBlockBegin
   2
_BOXBLANK
  70
0
  10
0.0
  20
0.0
  30
0.0
   3
_BOXBLANK
   0
LINE
   5
9A
 100
AcDbEntity
   8
0
 370
-2
 100
AcDbLine
   6
BYBLOCK
  62
0
  10
-0.50000000000000
  20
-0.50000000000000
  30
0.0
  11
 0.50000000000000
  21
-0.50000000000000
  31
0.0
   0
LINE
   5
9B
 100
AcDbEntity
   8
0
 370
-2
 100
AcDbLine
   6
BYBLOCK
  62
0
  10
 0.50000000000000
  20
-0.50000000000000
  30
0.0
  11
 0.50000000000000
  21
 0.50000000000000
  31
0.0
   0
LINE
   5
9C
 100
AcDbEntity
   8
0
 370
-2
 100
AcDbLine
   6
BYBLOCK
  62
0
  10
 0.50000000000000
  20
 0.50000000000000
  30
0.0
  11
-0.50000000000000
  21
 0.50000000000000
  31
0.0
   0
LINE
   5
9D
 100
AcDbEntity
   8
0
 370
-2
 100
AcDbLine
   6
BYBLOCK
  62
0
  10
-0.50000000000000
  20
 0.50000000000000
  30
0.0
  11
-0.50000000000000
  21
-0.50000000000000
  31
0.0
   0
LINE
   5
9E
 100
AcDbEntity
   8
0
 370
-2
 100
AcDbLine
   6
BYBLOCK
  62
0
  10
-0.50000000000000
  20
0.0
  30
0.0
  11
-1.0000000000000
  21
0.0
  31
0.0
   0
ENDBLK
   5
9F
 100
AcDbEntity
   8
0
 100
AcDbBlockEnd
   0
BLOCK
   5
A0
 100
AcDbEntity
   8
0
 100
AcDbBlockBegin
   2
_BOXFILLED
  70
0
  10
0.0
  20
0.0
  30
0.0
   3
_BOXFILLED
   0
SOLID
   5
A1
 100
AcDbEntity
   8
0
 100
AcDbTrace
   6
BYBLOCK
  62
0
  10
-0.50000000000000
  20
 0.50000000000000
  30
0.0
  11
 0.50000000000000
  21
 0.50000000000000
  31
0.0
  12
-0.50000000000000
  22
-0.50000000000000
  32
0.0
  13
 0.50000000000000
  23
-0.50000000000000
  33
0.0
   0
LINE
   5
A2
 100
AcDbEntity
   8
0
 370
-2
 100
AcDbLine
   6
BYBLOCK
  62
0
  10
-0.50000000000000
  20
0.0
  30
0.0
  11
-1.0000000000000
  21
0.0
  31
0.0
   0
ENDBLK
   5
A3
 100
AcDbEntity
   8
0
 100
AcDbBlockEnd
   0
BLOCK
   5
A4
 100
AcDbEntity
   8
0
 100
AcDbBlockBegin
   2
_CLOSED
  70
0
  10
0.0
  20
0.0
  30
0.0
   3
_CLOSED
   0
LINE
   5
A5
 100
AcDbEntity
   8
0
 370
-2
 100
AcDbLine
   6
BYBLOCK
  62
0
  10
-1.0000000000000
  20
 0.16666666666667
  30
0.0
  11
0.0
  21
0.0
  31
0.0
   0
LINE
   5
A6
 100
AcDbEntity
   8
0
 370
-2
 100
AcDbLine
   6
BYBLOCK
  62
0
  10
0.0
  20
0.0
  30
0.0
  11
-1.0000000000000
  21
-0.16666666666667
  31
0.0
   0
LINE
   5
A7
 100
AcDbEntity
   8
0
 370
-2
 100
AcDbLine
   6
BYBLOCK
  62
0
  10
-1.0000000000000
  20
 0.16666666666667
  30
0.0
  11
-1.0000000000000
  21
-0.16666666666667
  31
0.0
   0
LINE
   5
A8
 100
AcDbEntity
   8
0
 370
-2
 100
AcDbLine
   6
BYBLOCK
  62
0
  10
0.0
  20
0.0
  30
0.0
  11
-1.0000000000000
  21
0.0
  31
0.0
   0
ENDBLK
   5
A9
 100
AcDbEntity
   8
0
 100
AcDbBlockEnd
   0
BLOCK
   5
AA
 100
AcDbEntity
   8
0
 100
AcDbBlockBegin
   2
_OPEN
  70
0
  10
0.0
  20
0.0
  30
0.0
   3
_OPEN
   0
LINE
   5
AB
 100
AcDbEntity
   8
0
 370
-2
 100
AcDbLine
   6
BYBLOCK
  62
0
  10
-1.0000000000000
  20
 0.16666666666667
  30
0.0
  11
0.0
  21
0.0
  31
0.0
   0
LINE
   5
AC
 100
AcDbEntity
   8
0
 370
-2
 100
AcDbLine
   6
BYBLOCK
  62
0
  10
0.0
  20
0.0
  30
0.0
  11
-1.0000000000000
  21
-0.16666666666667
  31
0.0
   0
LINE
   5
AD
 100
AcDbEntity
   8
0
 370
-2
 100
AcDbLine
   6
BYBLOCK
  62
0
  10
0.0
  20
0.0
  30
0.0
  11
-1.0000000000000
  21
0.0
  31
0.0
   0
ENDBLK
   5
AE
 100
AcDbEntity
   8
0
 100
AcDbBlockEnd
   0
BLOCK
   5
AF
 100
AcDbEntity
   8
0
 100
AcDbBlockBegin
   2
_OPEN30
  70
0
  10
0.0
  20
0.0
  30
0.0
   3
_OPEN30
   0
LINE
   5
B0
 100
AcDbEntity
   8
0
 370
-2
 100
AcDbLine
   6
BYBLOCK
  62
0
  10
-1.0000000000000
  20
 0.26794919243110
  30
0.0
  11
0.0
  21
0.0
  31
0.0
   0
LINE
   5
B1
 100
AcDbEntity
   8
0
 370
-2
 100
AcDbLine
   6
BYBLOCK
  62
0
  10
0.0
  20
0.0
  30
0.0
  11
-1.0000000000000
  21
-0.26794919243110
  31
0.0
   0
LINE
   5
B2
 100
AcDbEntity
   8
0
 370
-2
 100
AcDbLine
   6
BYBLOCK
  62
0
  10
0.0
  20
0.0
  30
0.0
  11
-1.0000000000000
  21
0.0
  31
0.0
   0
ENDBLK
   5
B3
 100
AcDbEntity
   8
0
 100
AcDbBlockEnd
   0
BLOCK
   5
B4
 100
AcDbEntity
   8
0
 100
AcDbBlockBegin
   2
_OPEN90
  70
0
  10
0.0
  20
0.0
  30
0.0
   3
_OPEN90
   0
LINE
   5
B5
 100
AcDbEntity
   8
0
 370
-2
 100
AcDbLine
   6
BYBLOCK
  62
0
  10
-0.50000000000000
  20
 0.50000000000000
  30
0.0
  11
0.0
  21
0.0
  31
0.0
   0
LINE
   5
B6
 100
AcDbEntity
   8
0
 370
-2
 100
AcDbLine
   6
BYBLOCK
  62
0
  10
0.0
  20
0.0
  30
0.0
  11
-0.50000000000000
  21
-0.50000000000000
  31
0.0
   0
LINE
   5
B7
 100
AcDbEntity
   8
0
 370
-2
 100
AcDbLine
   6
BYBLOCK
  62
0
  10
0.0
  20
0.0
  30
0.0
  11
-1.0000000000000
  21
0.0
  31
0.0
   0
ENDBLK
   5
B8
 100
AcDbEntity
   8
0
 100
AcDbBlockEnd
   0
BLOCK
   5
B9
 100
AcDbEntity
   8
0
 100
AcDbBlockBegin
   2
_CLOSEDBLANK
  70
0
  10
0.0
  20
0.0
  30
0.0
   3
_CLOSEDBLANK
   0
LINE
   5
BA
 100
AcDbEntity
   8
0
 370
-2
 100
AcDbLine
   6
BYBLOCK
  62
0
  10
-1.0000000000000
  20
 0.16666666666667
  30
0.0
  11
0.0
  21
0.0
  31
0.0
   0
LINE
   5
BB
 100
AcDbEntity
   8
0
 370
-2
 100
AcDbLine
   6
BYBLOCK
  62
0
  10
0.0
  20
0.0
  30
0.0
  11
-1.0000000000000
  21
-0.16666666666667
  31
0.0
   0
LINE
   5
BC
 100
AcDbEntity
   8
0
 370
-2
 100
AcDbLine
   6
BYBLOCK
  62
0
  10
-1.0000000000000
  20
 0.16666666666667
  30
0.0
  11
-1.0000000000000
  21
-0.16666666666667
  31
0.0
   0
ENDBLK
   5
BD
 100
AcDbEntity
   8
0
 100
AcDbBlockEnd
   0
BLOCK
   5
BE
 100
AcDbEntity
   8
0
 100
AcDbBlockBegin
   2
_DOT
  70
0
  10
0.0
  20
0.0
  30
0.0
   3
_DOT
   0
POLYLINE
   5
BF
 100
AcDbEntity
   8
0
 370
-2
   6
BYBLOCK
  62
0
 100
AcDb2dPolyline
  66
1
  10
0.0
  20
0.0
  30
0.0
  70
1
  40
 0.50000000000000
  41
 0.50000000000000
   0
VERTEX
   5
C0
 100
AcDbEntity
   8
0
   6
BYBLOCK
  62
0
 100
AcDbVertex
 100
AcDb2dVertex
  10
-0.25000000000000
  20
0.0
  30
0.0
  42
 1.0000000000000
  40
 0.50000000000000
  41
 0.50000000000000
   0
VERTEX
   5
C1
 100
AcDbEntity
   8
0
   6
BYBLOCK
  62
0
 100
AcDbVertex
 100
AcDb2dVertex
  10
 0.25000000000000
  20
0.0
  30
0.0
  42
 1.0000000000000
  40
 0.50000000000000
  41
 0.50000000000000
   0
SEQEND
   5
C2
 100
AcDbEntity
   8
0
   6
BYBLOCK
  62
0
   0
LINE
   5
C3
 100
AcDbEntity
   8
0
 370
-2
 100
AcDbLine
   6
BYBLOCK
  62
0
  10
-0.50000000000000
  20
0.0
  30
0.0
  11
-1.0000000000000
  21
0.0
  31
0.0
   0
ENDBLK
   5
C4
 100
AcDbEntity
   8
0
 100
AcDbBlockEnd
   0
BLOCK
   5
C5
 100
AcDbEntity
   8
0
 100
AcDbBlockBegin
   2
_DOTSMALL
  70
0
  10
0.0
  20
0.0
  30
0.0
   3
_DOTSMALL
   0
POLYLINE
   5
C6
 100
AcDbEntity
   8
0
 370
-2
   6
BYBLOCK
  62
0
 100
AcDb2dPolyline
  66
1
  10
0.0
  20
0.0
  30
0.0
  70
1
  40
 0.50000000000000
  41
 0.50000000000000
   0
VERTEX
   5
C7
 100
AcDbEntity
   8
0
   6
BYBLOCK
  62
0
 100
AcDbVertex
 100
AcDb2dVertex
  10
-0.62500000000000E-1
  20
0.0
  30
0.0
  42
 1.0000000000000
  40
 0.50000000000000
  41
 0.50000000000000
   0
VERTEX
   5
C8
 100
AcDbEntity
   8
0
   6
BYBLOCK
  62
0
 100
AcDbVertex
 100
AcDb2dVertex
  10
 0.62500000000000E-1
  20
0.0
  30
0.0
  42
 1.0000000000000
  40
 0.50000000000000
  41
 0.50000000000000
   0
SEQEND
   5
C9
 100
AcDbEntity
   8
0
   6
BYBLOCK
  62
0
   0
ENDBLK
   5
CA
 100
AcDbEntity
   8
0
 100
AcDbBlockEnd
   0
BLOCK
   5
CB
 100
AcDbEntity
   8
0
 100
AcDbBlockBegin
   2
_DATUMBLANK
  70
0
  10
0.0
  20
0.0
  30
0.0
   3
_DATUMBLANK
   0
LINE
   5
CC
 100
AcDbEntity
   8
0
 370
-2
 100
AcDbLine
   6
BYBLOCK
  62
0
  10
0.0
  20
 0.57735027000000
  30
0.0
  11
-1.0000000000000
  21
0.0
  31
0.0
   0
LINE
   5
CD
 100
AcDbEntity
   8
0
 370
-2
 100
AcDbLine
   6
BYBLOCK
  62
0
  10
-1.0000000000000
  20
0.0
  30
0.0
  11
0.0
  21
-0.57735027000000
  31
0.0
   0
LINE
   5
CE
 100
AcDbEntity
   8
0
 370
-2
 100
AcDbLine
   6
BYBLOCK
  62
0
  10
0.0
  20
-0.57735027000000
  30
0.0
  11
0.0
  21
 0.57735027000000
  31
0.0
   0
ENDBLK
   5
CF
 100
AcDbEntity
   8
0
 100
AcDbBlockEnd
   0
BLOCK
   5
D0
 100
AcDbEntity
   8
0
 100
AcDbBlockBegin
   2
_DATUMFILLED
  70
0
  10
0.0
  20
0.0
  30
0.0
   3
_DATUMFILLED
   0
SOLID
   5
D1
 100
AcDbEntity
   8
0
 100
AcDbTrace
   6
BYBLOCK
  62
0
  10
0.0
  20
 0.57735027000000
  30
0.0
  11
-1.0000000000000
  21
0.0
  31
0.0
  12
0.0
  22
-0.57735027000000
  32
0.0
  13
0.0
  23
-0.57735027000000
  33
0.0
   0
ENDBLK
   5
D2
 100
AcDbEntity
   8
0
 100
AcDbBlockEnd
   0
BLOCK
   5
D3
 100
AcDbEntity
   8
0
 100
AcDbBlockBegin
   2
_ORIGIN
  70
0
  10
0.0
  20
0.0
  30
0.0
   3
_ORIGIN
   0
CIRCLE
   5
D4
 100
AcDbEntity
   8
0
 370
-2
 100
AcDbCircle
   6
BYBLOCK
  62
0
  10
0.0
  20
0.0
  30
0.0
  40
 0.50000000000000
   0
LINE
   5
D5
 100
AcDbEntity
   8
0
 370
-2
 100
AcDbLine
   6
BYBLOCK
  62
0
  10
0.0
  20
0.0
  30
0.0
  11
-1.0000000000000
  21
0.0
  31
0.0
   0
ENDBLK
   5
D6
 100
AcDbEntity
   8
0
 100
AcDbBlockEnd
   0
BLOCK
   5
D7
 100
AcDbEntity
   8
0
 100
AcDbBlockBegin
   2
_NONE
  70
0
  10
0.0
  20
0.0
  30
0.0
   3
_NONE
   0
CIRCLE
   5
D8
 100
AcDbEntity
   8
0
 370
-2
 100
AcDbCircle
   6
BYBLOCK
  62
0
  10
0.0
  20
0.0
  30
0.0
  40
 0.25000000000000
   0
ENDBLK
   5
D9
 100
AcDbEntity
   8
0
 100
AcDbBlockEnd
   0
BLOCK
   5
DA
 100
AcDbEntity
   8
0
 100
AcDbBlockBegin
   2
_DOTBLANK
  70
0
  10
0.0
  20
0.0
  30
0.0
   3
_DOTBLANK
   0
CIRCLE
   5
DB
 100
AcDbEntity
   8
0
 370
-2
 100
AcDbCircle
   6
BYBLOCK
  62
0
  10
0.0
  20
0.0
  30
0.0
  40
 0.50000000000000
   0
LINE
   5
DC
 100
AcDbEntity
   8
0
 370
-2
 100
AcDbLine
   6
BYBLOCK
  62
0
  10
-0.50000000000000
  20
0.0
  30
0.0
  11
-1.0000000000000
  21
0.0
  31
0.0
   0
ENDBLK
   5
DD
 100
AcDbEntity
   8
0
 100
AcDbBlockEnd
   0
BLOCK
   5
DE
 100
AcDbEntity
   8
0
 100
AcDbBlockBegin
   2
_INTEGRAL
  70
0
  10
0.0
  20
0.0
  30
0.0
   3
_INTEGRAL
   0
ARC
   5
DF
 100
AcDbEntity
   8
0
 370
-2
   6
BYBLOCK
  62
0
 100
AcDbCircle
  10
 0.44488800000000
  20
-0.91335000000000E-1
  30
0.0
  40
 0.45416700000000
 100
AcDbArc
  50
 102.00000000000
  51
 168.00000000000
   0
ARC
   5
E0
 100
AcDbEntity
   8
0
 370
-2
   6
BYBLOCK
  62
0
 100
AcDbCircle
  10
-0.44488800000000
  20
 0.91335000000000E-1
  30
0.0
  40
 0.45416700000000
 100
AcDbArc
  50
 282.00000000000
  51
 348.00000000000
   0
ENDBLK
   5
E1
 100
AcDbEntity
   8
0
 100
AcDbBlockEnd
   0
BLOCK
   5
E2
 100
AcDbEntity
   8
0
 100
AcDbBlockBegin
   2
*D1
  70
65
  10
0.0
  20
0.0
  30
0.0
   3
*D1
   0
LINE
   5
E3
 100
AcDbEntity
   8
LEVEL001
 370
15
 100
AcDbLine
   6
CONTINUOUS
  62
8
  10
 95.872076023342
  20
 119.07500000017
  30
0.0
  11
 90.872076023392
  21
 119.07500000017
  31
0.0
   0
LINE
   5
E4
 100
AcDbEntity
   8
LEVEL001
 370
15
 100
AcDbLine
   6
CONTINUOUS
  62
8
  10
 93.572076023392
  20
 122.37500000000
  30
0.0
  11
 90.872076023392
  21
 122.37500000000
  31
0.0
   0
LINE
   5
E5
 100
AcDbEntity
   8
LEVEL001
 370
15
 100
AcDbLine
   6
CONTINUOUS
  62
8
  10
 91.372076023392
  20
 119.07500000017
  30
0.0
  11
 91.372076023392
  21
 120.72500000008
  31
0.0
   0
LINE
   5
E6
 100
AcDbEntity
   8
LEVEL001
 370
15
 100
AcDbLine
   6
CONTINUOUS
  62
8
  10
 91.372076023392
  20
 122.37500000000
  30
0.0
  11
 91.372076023392
  21
 120.72500000008
  31
0.0
   0
SOLID
   5
E7
 100
AcDbEntity
   8
LEVEL001
 100
AcDbTrace
   6
CONTINUOUS
  62
8
  10
 91.372076023392
  20
 119.07500000017
  30
0.0
  11
 91.548403004101
  21
 120.07500000017
  31
0.0
  12
 91.195749042684
  22
 120.07500000017
  32
0.0
  13
 91.195749042684
  23
 120.07500000017
  33
0.0
   0
SOLID
   5
E8
 100
AcDbEntity
   8
LEVEL001
 100
AcDbTrace
   6
CONTINUOUS
  62
8
  10
 91.372076023392
  20
 122.37500000000
  30
0.0
  11
 91.195749042684
  21
 121.37500000000
  31
0.0
  12
 91.548403004101
  22
 121.37500000000
  32
0.0
  13
 91.548403004101
  23
 121.37500000000
  33
0.0
   0
MTEXT
   5
E9
 100
AcDbEntity
   8
LEVEL001
 370
15
  62
8
 100
AcDbMText
  10
 90.872076023392
  20
 120.72500000008
  30
0.0
  40
 1.2500000000000
  41
0.0
  71
8
  72
1
   1
\A1;3.3
   7
GMM002
  11
0.0
  21
 1.0000000000000
  31
0.0
   0
ENDBLK
   5
EA
 100
AcDbEntity
   8
0
 100
AcDbBlockEnd
   0
BLOCK
   5
EB
 100
AcDbEntity
   8
0
 100
AcDbBlockBegin
   2
*D2
  70
65
  10
0.0
  20
0.0
  30
0.0
   3
*D2
   0
LINE
   5
EC
 100
AcDbEntity
   8
LEVEL001
 370
15
 100
AcDbLine
   6
CONTINUOUS
  62
8
  10
 94.123459594865
  20
 113.37500000000
  30
0.0
  11
 88.372076023392
  21
 113.37500000000
  31
0.0
   0
LINE
   5
ED
 100
AcDbEntity
   8
LEVEL001
 370
15
 100
AcDbLine
   6
CONTINUOUS
  62
8
  10
 91.372076023392
  20
 122.37500000000
  30
0.0
  11
 88.372076023392
  21
 122.37500000000
  31
0.0
   0
LINE
   5
EE
 100
AcDbEntity
   8
LEVEL001
 370
15
 100
AcDbLine
   6
CONTINUOUS
  62
8
  10
 88.872076023392
  20
 113.37500000000
  30
0.0
  11
 88.872076023392
  21
 117.87500000000
  31
0.0
   0
LINE
   5
EF
 100
AcDbEntity
   8
LEVEL001
 370
15
 100
AcDbLine
   6
CONTINUOUS
  62
8
  10
 88.872076023392
  20
 122.37500000000
  30
0.0
  11
 88.872076023392
  21
 117.87500000000
  31
0.0
   0
SOLID
   5
F0
 100
AcDbEntity
   8
LEVEL001
 100
AcDbTrace
   6
CONTINUOUS
  62
8
  10
 88.872076023392
  20
 113.37500000000
  30
0.0
  11
 89.048403004101
  21
 114.37500000000
  31
0.0
  12
 88.695749042684
  22
 114.37500000000
  32
0.0
  13
 88.695749042684
  23
 114.37500000000
  33
0.0
   0
SOLID
   5
F1
 100
AcDbEntity
   8
LEVEL001
 100
AcDbTrace
   6
CONTINUOUS
  62
8
  10
 88.872076023392
  20
 122.37500000000
  30
0.0
  11
 88.695749042684
  21
 121.37500000000
  31
0.0
  12
 89.048403004101
  22
 121.37500000000
  32
0.0
  13
 89.048403004101
  23
 121.37500000000
  33
0.0
   0
MTEXT
   5
F2
 100
AcDbEntity
   8
LEVEL001
 370
15
  62
8
 100
AcDbMText
  10
 88.372076023392
  20
 117.87500000000
  30
0.0
  40
 1.2500000000000
  41
0.0
  71
8
  72
1
   1
\A1;9
   7
GMM002
  11
0.0
  21
 1.0000000000000
  31
0.0
   0
ENDBLK
   5
F3
 100
AcDbEntity
   8
0
 100
AcDbBlockEnd
   0
BLOCK
   5
F4
 100
AcDbEntity
   8
0
 100
AcDbBlockBegin
   2
*D3
  70
65
  10
0.0
  20
0.0
  30
0.0
   3
*D3
   0
LINE
   5
F5
 100
AcDbEntity
   8
LEVEL001
 370
15
 100
AcDbLine
   6
CONTINUOUS
  62
8
  10
 23.830886092042
  20
 122.07500000017
  30
0.0
  11
 17.230886092042
  21
 122.07500000017
  31
0.0
   0
LINE
   5
F6
 100
AcDbEntity
   8
LEVEL001
 370
15
 100
AcDbLine
   6
CONTINUOUS
  62
8
  10
 19.730886092042
  20
 125.37500000000
  30
0.0
  11
 17.230886092042
  21
 125.37500000000
  31
0.0
   0
LINE
   5
F7
 100
AcDbEntity
   8
LEVEL001
 370
15
 100
AcDbLine
   6
CONTINUOUS
  62
8
  10
 17.730886092042
  20
 122.07500000017
  30
0.0
  11
 17.730886092042
  21
 123.72500000008
  31
0.0
   0
LINE
   5
F8
 100
AcDbEntity
   8
LEVEL001
 370
15
 100
AcDbLine
   6
CONTINUOUS
  62
8
  10
 17.730886092042
  20
 125.37500000000
  30
0.0
  11
 17.730886092042
  21
 123.72500000008
  31
0.0
   0
SOLID
   5
F9
 100
AcDbEntity
   8
LEVEL001
 100
AcDbTrace
   6
CONTINUOUS
  62
8
  10
 17.730886092042
  20
 122.07500000017
  30
0.0
  11
 17.907213072750
  21
 123.07500000017
  31
0.0
  12
 17.554559111333
  22
 123.07500000017
  32
0.0
  13
 17.554559111333
  23
 123.07500000017
  33
0.0
   0
SOLID
   5
FA
 100
AcDbEntity
   8
LEVEL001
 100
AcDbTrace
   6
CONTINUOUS
  62
8
  10
 17.730886092042
  20
 125.37500000000
  30
0.0
  11
 17.554559111333
  21
 124.37500000000
  31
0.0
  12
 17.907213072750
  22
 124.37500000000
  32
0.0
  13
 17.907213072750
  23
 124.37500000000
  33
0.0
   0
MTEXT
   5
FB
 100
AcDbEntity
   8
LEVEL001
 370
15
  62
8
 100
AcDbMText
  10
 17.230886092042
  20
 123.72500000008
  30
0.0
  40
 1.2500000000000
  41
0.0
  71
8
  72
1
   1
\A1;3.3
   7
GMM002
  11
0.0
  21
 1.0000000000000
  31
0.0
   0
ENDBLK
   5
FC
 100
AcDbEntity
   8
0
 100
AcDbBlockEnd
   0
BLOCK
   5
FD
 100
AcDbEntity
   8
0
 100
AcDbBlockBegin
   2
*D4
  70
65
  10
0.0
  20
0.0
  30
0.0
   3
*D4
   0
LINE
   5
FE
 100
AcDbEntity
   8
LEVEL001
 370
15
 100
AcDbLine
   6
CONTINUOUS
  62
8
  10
 20.880886092042
  20
 113.37500000000
  30
0.0
  11
 14.730886092042
  21
 113.37500000000
  31
0.0
   0
LINE
   5
FF
 100
AcDbEntity
   8
LEVEL001
 370
15
 100
AcDbLine
   6
CONTINUOUS
  62
8
  10
 17.730886092041
  20
 125.37500000000
  30
0.0
  11
 14.730886092042
  21
 125.37500000000
  31
0.0
   0
LINE
   5
100
 100
AcDbEntity
   8
LEVEL001
 370
15
 100
AcDbLine
   6
CONTINUOUS
  62
8
  10
 15.230886092042
  20
 113.37500000000
  30
0.0
  11
 15.230886092042
  21
 119.37500000000
  31
0.0
   0
LINE
   5
101
 100
AcDbEntity
   8
LEVEL001
 370
15
 100
AcDbLine
   6
CONTINUOUS
  62
8
  10
 15.230886092042
  20
 125.37500000000
  30
0.0
  11
 15.230886092042
  21
 119.37500000000
  31
0.0
   0
SOLID
   5
102
 100
AcDbEntity
   8
LEVEL001
 100
AcDbTrace
   6
CONTINUOUS
  62
8
  10
 15.230886092042
  20
 113.37500000000
  30
0.0
  11
 15.407213072750
  21
 114.37500000000
  31
0.0
  12
 15.054559111333
  22
 114.37500000000
  32
0.0
  13
 15.054559111333
  23
 114.37500000000
  33
0.0
   0
SOLID
   5
103
 100
AcDbEntity
   8
LEVEL001
 100
AcDbTrace
   6
CONTINUOUS
  62
8
  10
 15.230886092042
  20
 125.37500000000
  30
0.0
  11
 15.054559111333
  21
 124.37500000000
  31
0.0
  12
 15.407213072750
  22
 124.37500000000
  32
0.0
  13
 15.407213072750
  23
 124.37500000000
  33
0.0
   0
MTEXT
   5
104
 100
AcDbEntity
   8
LEVEL001
 370
15
  62
8
 100
AcDbMText
  10
 14.730886092042
  20
 119.37500000000
  30
0.0
  40
 1.2500000000000
  41
0.0
  71
8
  72
1
   1
\A1;12
   7
GMM002
  11
0.0
  21
 1.0000000000000
  31
0.0
   0
ENDBLK
   5
105
 100
AcDbEntity
   8
0
 100
AcDbBlockEnd
   0
BLOCK
   5
106
 100
AcDbEntity
   8
0
 100
AcDbBlockBegin
   2
*D5
  70
65
  10
0.0
  20
0.0
  30
0.0
   3
*D5
   0
LINE
   5
107
 100
AcDbEntity
   8
LEVEL001
 370
15
 100
AcDbLine
   6
CONTINUOUS
  62
8
  10
 60.752510805951
  20
 117.07500000016
  30
0.0
  11
 54.152510806001
  21
 117.07500000016
  31
0.0
   0
LINE
   5
108
 100
AcDbEntity
   8
LEVEL001
 370
15
 100
AcDbLine
   6
CONTINUOUS
  62
8
  10
 56.652510806001
  20
 120.37500000000
  30
0.0
  11
 54.152510806001
  21
 120.37500000000
  31
0.0
   0
LINE
   5
109
 100
AcDbEntity
   8
LEVEL001
 370
15
 100
AcDbLine
   6
CONTINUOUS
  62
8
  10
 54.652510806001
  20
 117.07500000016
  30
0.0
  11
 54.652510806001
  21
 118.72500000008
  31
0.0
   0
LINE
   5
10A
 100
AcDbEntity
   8
LEVEL001
 370
15
 100
AcDbLine
   6
CONTINUOUS
  62
8
  10
 54.652510806001
  20
 120.37500000000
  30
0.0
  11
 54.652510806001
  21
 118.72500000008
  31
0.0
   0
SOLID
   5
10B
 100
AcDbEntity
   8
LEVEL001
 100
AcDbTrace
   6
CONTINUOUS
  62
8
  10
 54.652510806001
  20
 117.07500000016
  30
0.0
  11
 54.828837786709
  21
 118.07500000016
  31
0.0
  12
 54.476183825292
  22
 118.07500000016
  32
0.0
  13
 54.476183825292
  23
 118.07500000016
  33
0.0
   0
SOLID
   5
10C
 100
AcDbEntity
   8
LEVEL001
 100
AcDbTrace
   6
CONTINUOUS
  62
8
  10
 54.652510806001
  20
 120.37500000000
  30
0.0
  11
 54.476183825292
  21
 119.37500000000
  31
0.0
  12
 54.828837786709
  22
 119.37500000000
  32
0.0
  13
 54.828837786709
  23
 119.37500000000
  33
0.0
   0
MTEXT
   5
10D
 100
AcDbEntity
   8
LEVEL001
 370
15
  62
8
 100
AcDbMText
  10
 54.152510806001
  20
 118.72500000008
  30
0.0
  40
 1.2500000000000
  41
0.0
  71
8
  72
1
   1
\A1;3.3
   7
GMM002
  11
0.0
  21
 1.0000000000000
  31
0.0
   0
ENDBLK
   5
10E
 100
AcDbEntity
   8
0
 100
AcDbBlockEnd
   0
BLOCK
   5
10F
 100
AcDbEntity
   8
0
 100
AcDbBlockBegin
   2
*D6
  70
65
  10
0.0
  20
0.0
  30
0.0
   3
*D6
   0
LINE
   5
110
 100
AcDbEntity
   8
LEVEL001
 370
15
 100
AcDbLine
   6
CONTINUOUS
  62
8
  10
 57.302510806001
  20
 113.37500000000
  30
0.0
  11
 51.652510806001
  21
 113.37500000000
  31
0.0
   0
LINE
   5
111
 100
AcDbEntity
   8
LEVEL001
 370
15
 100
AcDbLine
   6
CONTINUOUS
  62
8
  10
 56.652510806001
  20
 120.37500000000
  30
0.0
  11
 51.652510806001
  21
 120.37500000000
  31
0.0
   0
LINE
   5
112
 100
AcDbEntity
   8
LEVEL001
 370
15
 100
AcDbLine
   6
CONTINUOUS
  62
8
  10
 52.152510806001
  20
 113.37500000000
  30
0.0
  11
 52.152510806001
  21
 116.87500000000
  31
0.0
   0
LINE
   5
113
 100
AcDbEntity
   8
LEVEL001
 370
15
 100
AcDbLine
   6
CONTINUOUS
  62
8
  10
 52.152510806001
  20
 120.37500000000
  30
0.0
  11
 52.152510806001
  21
 116.87500000000
  31
0.0
   0
SOLID
   5
114
 100
AcDbEntity
   8
LEVEL001
 100
AcDbTrace
   6
CONTINUOUS
  62
8
  10
 52.152510806001
  20
 113.37500000000
  30
0.0
  11
 52.328837786709
  21
 114.37500000000
  31
0.0
  12
 51.976183825292
  22
 114.37500000000
  32
0.0
  13
 51.976183825292
  23
 114.37500000000
  33
0.0
   0
SOLID
   5
115
 100
AcDbEntity
   8
LEVEL001
 100
AcDbTrace
   6
CONTINUOUS
  62
8
  10
 52.152510806001
  20
 120.37500000000
  30
0.0
  11
 51.976183825292
  21
 119.37500000000
  31
0.0
  12
 52.328837786709
  22
 119.37500000000
  32
0.0
  13
 52.328837786709
  23
 119.37500000000
  33
0.0
   0
MTEXT
   5
116
 100
AcDbEntity
   8
LEVEL001
 370
15
  62
8
 100
AcDbMText
  10
 51.652510806001
  20
 116.87500000000
  30
0.0
  40
 1.2500000000000
  41
0.0
  71
8
  72
1
   1
\A1;7
   7
GMM002
  11
0.0
  21
 1.0000000000000
  31
0.0
   0
ENDBLK
   5
117
 100
AcDbEntity
   8
0
 100
AcDbBlockEnd
   0
BLOCK
   5
118
 100
AcDbEntity
   8
0
 100
AcDbBlockBegin
   2
*D7
  70
65
  10
0.0
  20
0.0
  30
0.0
   3
*D7
   0
LINE
   5
119
 100
AcDbEntity
   8
LEVEL001
 370
15
 100
AcDbLine
   6
CONTINUOUS
  62
8
  10
 24.330886092042
  20
 123.87500000017
  30
0.0
  11
 24.330886092042
  21
 128.87500000000
  31
0.0
   0
LINE
   5
11A
 100
AcDbEntity
   8
LEVEL001
 370
15
 100
AcDbLine
   6
CONTINUOUS
  62
8
  10
 28.330886092129
  20
 123.87500000019
  30
0.0
  11
 28.330886092129
  21
 128.87500000000
  31
0.0
   0
LINE
   5
11B
 100
AcDbEntity
   8
LEVEL001
 370
15
 100
AcDbLine
   6
CONTINUOUS
  62
8
  10
 24.330886092042
  20
 128.37500000000
  30
0.0
  11
 26.330886092085
  21
 128.37500000000
  31
0.0
   0
LINE
   5
11C
 100
AcDbEntity
   8
LEVEL001
 370
15
 100
AcDbLine
   6
CONTINUOUS
  62
8
  10
 28.330886092129
  20
 128.37500000000
  30
0.0
  11
 26.330886092085
  21
 128.37500000000
  31
0.0
   0
SOLID
   5
11D
 100
AcDbEntity
   8
LEVEL001
 100
AcDbTrace
   6
CONTINUOUS
  62
8
  10
 24.330886092042
  20
 128.37500000000
  30
0.0
  11
 25.330886092042
  21
 128.19867301929
  31
0.0
  12
 25.330886092042
  22
 128.55132698071
  32
0.0
  13
 25.330886092042
  23
 128.55132698071
  33
0.0
   0
SOLID
   5
11E
 100
AcDbEntity
   8
LEVEL001
 100
AcDbTrace
   6
CONTINUOUS
  62
8
  10
 28.330886092129
  20
 128.37500000000
  30
0.0
  11
 27.330886092129
  21
 128.55132698071
  31
0.0
  12
 27.330886092129
  22
 128.19867301929
  32
0.0
  13
 27.330886092129
  23
 128.19867301929
  33
0.0
   0
MTEXT
   5
11F
 100
AcDbEntity
   8
LEVEL001
 370
15
  62
8
 100
AcDbMText
  10
 26.330886092085
  20
 128.87500000000
  30
0.0
  40
 1.2500000000000
  41
0.0
  71
8
  72
1
   1
\A1;4
   7
GMM002
   0
ENDBLK
   5
120
 100
AcDbEntity
   8
0
 100
AcDbBlockEnd
   0
BLOCK
   5
121
 100
AcDbEntity
   8
0
 100
AcDbBlockBegin
   2
*D8
  70
65
  10
0.0
  20
0.0
  30
0.0
   3
*D8
   0
LINE
   5
122
 100
AcDbEntity
   8
LEVEL001
 370
15
 100
AcDbLine
   6
CONTINUOUS
  62
8
  10
 20.230886092042
  20
 125.87500000000
  30
0.0
  11
 20.230886092042
  21
 131.87500000000
  31
0.0
   0
LINE
   5
123
 100
AcDbEntity
   8
LEVEL001
 370
15
 100
AcDbLine
   6
CONTINUOUS
  62
8
  10
 32.430886092042
  20
 125.87500000000
  30
0.0
  11
 32.430886092042
  21
 131.87500000000
  31
0.0
   0
LINE
   5
124
 100
AcDbEntity
   8
LEVEL001
 370
15
 100
AcDbLine
   6
CONTINUOUS
  62
8
  10
 20.230886092042
  20
 131.37500000000
  30
0.0
  11
 26.330886092042
  21
 131.37500000000
  31
0.0
   0
LINE
   5
125
 100
AcDbEntity
   8
LEVEL001
 370
15
 100
AcDbLine
   6
CONTINUOUS
  62
8
  10
 32.430886092042
  20
 131.37500000000
  30
0.0
  11
 26.330886092042
  21
 131.37500000000
  31
0.0
   0
SOLID
   5
126
 100
AcDbEntity
   8
LEVEL001
 100
AcDbTrace
   6
CONTINUOUS
  62
8
  10
 20.230886092042
  20
 131.37500000000
  30
0.0
  11
 21.230886092042
  21
 131.19867301929
  31
0.0
  12
 21.230886092042
  22
 131.55132698071
  32
0.0
  13
 21.230886092042
  23
 131.55132698071
  33
0.0
   0
SOLID
   5
127
 100
AcDbEntity
   8
LEVEL001
 100
AcDbTrace
   6
CONTINUOUS
  62
8
  10
 32.430886092042
  20
 131.37500000000
  30
0.0
  11
 31.430886092042
  21
 131.55132698071
  31
0.0
  12
 31.430886092042
  22
 131.19867301929
  32
0.0
  13
 31.430886092042
  23
 131.19867301929
  33
0.0
   0
MTEXT
   5
128
 100
AcDbEntity
   8
LEVEL001
 370
15
  62
8
 100
AcDbMText
  10
 26.330886092042
  20
 131.87500000000
  30
0.0
  40
 1.2500000000000
  41
0.0
  71
8
  72
1
   1
\A1;12
   7
GMM002
   0
ENDBLK
   5
129
 100
AcDbEntity
   8
0
 100
AcDbBlockEnd
   0
BLOCK
   5
12A
 100
AcDbEntity
   8
0
 100
AcDbBlockBegin
   2
*D9
  70
65
  10
0.0
  20
0.0
  30
0.0
   3
*D9
   0
LINE
   5
12B
 100
AcDbEntity
   8
LEVEL001
 370
15
 100
AcDbLine
   6
CONTINUOUS
  62
8
  10
 61.252510805951
  20
 118.87500000016
  30
0.0
  11
 61.252510805951
  21
 123.87500000000
  31
0.0
   0
LINE
   5
12C
 100
AcDbEntity
   8
LEVEL001
 370
15
 100
AcDbLine
   6
CONTINUOUS
  62
8
  10
 65.252510805996
  20
 118.87500000016
  30
0.0
  11
 65.252510805996
  21
 123.87500000000
  31
0.0
   0
LINE
   5
12D
 100
AcDbEntity
   8
LEVEL001
 370
15
 100
AcDbLine
   6
CONTINUOUS
  62
8
  10
 61.252510805951
  20
 123.37500000000
  30
0.0
  11
 63.252510805973
  21
 123.37500000000
  31
0.0
   0
LINE
   5
12E
 100
AcDbEntity
   8
LEVEL001
 370
15
 100
AcDbLine
   6
CONTINUOUS
  62
8
  10
 65.252510805996
  20
 123.37500000000
  30
0.0
  11
 63.252510805973
  21
 123.37500000000
  31
0.0
   0
SOLID
   5
12F
 100
AcDbEntity
   8
LEVEL001
 100
AcDbTrace
   6
CONTINUOUS
  62
8
  10
 61.252510805951
  20
 123.37500000000
  30
0.0
  11
 62.252510805951
  21
 123.19867301929
  31
0.0
  12
 62.252510805951
  22
 123.55132698071
  32
0.0
  13
 62.252510805951
  23
 123.55132698071
  33
0.0
   0
SOLID
   5
130
 100
AcDbEntity
   8
LEVEL001
 100
AcDbTrace
   6
CONTINUOUS
  62
8
  10
 65.252510805996
  20
 123.37500000000
  30
0.0
  11
 64.252510805996
  21
 123.55132698071
  31
0.0
  12
 64.252510805996
  22
 123.19867301929
  32
0.0
  13
 64.252510805996
  23
 123.19867301929
  33
0.0
   0
MTEXT
   5
131
 100
AcDbEntity
   8
LEVEL001
 370
15
  62
8
 100
AcDbMText
  10
 63.252510805973
  20
 123.87500000000
  30
0.0
  40
 1.2500000000000
  41
0.0
  71
8
  72
1
   1
\A1;4
   7
GMM002
   0
ENDBLK
   5
132
 100
AcDbEntity
   8
0
 100
AcDbBlockEnd
   0
BLOCK
   5
133
 100
AcDbEntity
   8
0
 100
AcDbBlockBegin
   2
*D10
  70
65
  10
0.0
  20
0.0
  30
0.0
   3
*D10
   0
LINE
   5
134
 100
AcDbEntity
   8
LEVEL001
 370
15
 100
AcDbLine
   6
CONTINUOUS
  62
8
  10
 57.152510806001
  20
 120.87500000000
  30
0.0
  11
 57.152510806001
  21
 126.87500000000
  31
0.0
   0
LINE
   5
135
 100
AcDbEntity
   8
LEVEL001
 370
15
 100
AcDbLine
   6
CONTINUOUS
  62
8
  10
 69.352510806001
  20
 120.87500000000
  30
0.0
  11
 69.352510806001
  21
 126.87500000000
  31
0.0
   0
LINE
   5
136
 100
AcDbEntity
   8
LEVEL001
 370
15
 100
AcDbLine
   6
CONTINUOUS
  62
8
  10
 57.152510806001
  20
 126.37500000000
  30
0.0
  11
 63.252510806001
  21
 126.37500000000
  31
0.0
   0
LINE
   5
137
 100
AcDbEntity
   8
LEVEL001
 370
15
 100
AcDbLine
   6
CONTINUOUS
  62
8
  10
 69.352510806001
  20
 126.37500000000
  30
0.0
  11
 63.252510806001
  21
 126.37500000000
  31
0.0
   0
SOLID
   5
138
 100
AcDbEntity
   8
LEVEL001
 100
AcDbTrace
   6
CONTINUOUS
  62
8
  10
 57.152510806001
  20
 126.37500000000
  30
0.0
  11
 58.152510806001
  21
 126.19867301929
  31
0.0
  12
 58.152510806001
  22
 126.55132698071
  32
0.0
  13
 58.152510806001
  23
 126.55132698071
  33
0.0
   0
SOLID
   5
139
 100
AcDbEntity
   8
LEVEL001
 100
AcDbTrace
   6
CONTINUOUS
  62
8
  10
 69.352510806001
  20
 126.37500000000
  30
0.0
  11
 68.352510806001
  21
 126.55132698071
  31
0.0
  12
 68.352510806001
  22
 126.19867301929
  32
0.0
  13
 68.352510806001
  23
 126.19867301929
  33
0.0
   0
MTEXT
   5
13A
 100
AcDbEntity
   8
LEVEL001
 370
15
  62
8
 100
AcDbMText
  10
 63.252510806001
  20
 126.87500000000
  30
0.0
  40
 1.2500000000000
  41
0.0
  71
8
  72
1
   1
\A1;12.2
   7
GMM002
   0
ENDBLK
   5
13B
 100
AcDbEntity
   8
0
 100
AcDbBlockEnd
   0
BLOCK
   5
13C
 100
AcDbEntity
   8
0
 100
AcDbBlockBegin
   2
*D11
  70
65
  10
0.0
  20
0.0
  30
0.0
   3
*D11
   0
LINE
   5
13D
 100
AcDbEntity
   8
LEVEL001
 370
15
 100
AcDbLine
   6
CONTINUOUS
  62
8
  10
 96.372076023342
  20
 120.77500000017
  30
0.0
  11
 96.372076023342
  21
 125.87500000000
  31
0.0
   0
LINE
   5
13E
 100
AcDbEntity
   8
LEVEL001
 370
15
 100
AcDbLine
   6
CONTINUOUS
  62
8
  10
 100.37207602337
  20
 120.77500000017
  30
0.0
  11
 100.37207602337
  21
 125.87500000000
  31
0.0
   0
LINE
   5
13F
 100
AcDbEntity
   8
LEVEL001
 370
15
 100
AcDbLine
   6
CONTINUOUS
  62
8
  10
 96.372076023342
  20
 125.37500000000
  30
0.0
  11
 98.372076023358
  21
 125.37500000000
  31
0.0
   0
LINE
   5
140
 100
AcDbEntity
   8
LEVEL001
 370
15
 100
AcDbLine
   6
CONTINUOUS
  62
8
  10
 100.37207602337
  20
 125.37500000000
  30
0.0
  11
 98.372076023358
  21
 125.37500000000
  31
0.0
   0
SOLID
   5
141
 100
AcDbEntity
   8
LEVEL001
 100
AcDbTrace
   6
CONTINUOUS
  62
8
  10
 96.372076023342
  20
 125.37500000000
  30
0.0
  11
 97.372076023342
  21
 125.19867301929
  31
0.0
  12
 97.372076023342
  22
 125.55132698071
  32
0.0
  13
 97.372076023342
  23
 125.55132698071
  33
0.0
   0
SOLID
   5
142
 100
AcDbEntity
   8
LEVEL001
 100
AcDbTrace
   6
CONTINUOUS
  62
8
  10
 100.37207602337
  20
 125.37500000000
  30
0.0
  11
 99.372076023374
  21
 125.55132698071
  31
0.0
  12
 99.372076023374
  22
 125.19867301929
  32
0.0
  13
 99.372076023374
  23
 125.19867301929
  33
0.0
   0
MTEXT
   5
143
 100
AcDbEntity
   8
LEVEL001
 370
15
  62
8
 100
AcDbMText
  10
 98.372076023358
  20
 125.87500000000
  30
0.0
  40
 1.2500000000000
  41
0.0
  71
8
  72
1
   1
\A1;4
   7
GMM002
   0
ENDBLK
   5
144
 100
AcDbEntity
   8
0
 100
AcDbBlockEnd
   0
BLOCK
   5
145
 100
AcDbEntity
   8
0
 100
AcDbBlockBegin
   2
*D12
  70
65
  10
0.0
  20
0.0
  30
0.0
   3
*D12
   0
LINE
   5
146
 100
AcDbEntity
   8
LEVEL001
 370
15
 100
AcDbLine
   6
CONTINUOUS
  62
8
  10
 93.872076023392
  20
 122.67500000000
  30
0.0
  11
 93.872076023392
  21
 128.87500000000
  31
0.0
   0
LINE
   5
147
 100
AcDbEntity
   8
LEVEL001
 370
15
 100
AcDbLine
   6
CONTINUOUS
  62
8
  10
 102.87207602339
  20
 122.67500000000
  30
0.0
  11
 102.87207602339
  21
 128.87500000000
  31
0.0
   0
LINE
   5
148
 100
AcDbEntity
   8
LEVEL001
 370
15
 100
AcDbLine
   6
CONTINUOUS
  62
8
  10
 93.872076023392
  20
 128.37500000000
  30
0.0
  11
 98.372076023392
  21
 128.37500000000
  31
0.0
   0
LINE
   5
149
 100
AcDbEntity
   8
LEVEL001
 370
15
 100
AcDbLine
   6
CONTINUOUS
  62
8
  10
 102.87207602339
  20
 128.37500000000
  30
0.0
  11
 98.372076023392
  21
 128.37500000000
  31
0.0
   0
SOLID
   5
14A
 100
AcDbEntity
   8
LEVEL001
 100
AcDbTrace
   6
CONTINUOUS
  62
8
  10
 93.872076023392
  20
 128.37500000000
  30
0.0
  11
 94.872076023392
  21
 128.19867301929
  31
0.0
  12
 94.872076023392
  22
 128.55132698071
  32
0.0
  13
 94.872076023392
  23
 128.55132698071
  33
0.0
   0
SOLID
   5
14B
 100
AcDbEntity
   8
LEVEL001
 100
AcDbTrace
   6
CONTINUOUS
  62
8
  10
 102.87207602339
  20
 128.37500000000
  30
0.0
  11
 101.87207602339
  21
 128.55132698071
  31
0.0
  12
 101.87207602339
  22
 128.19867301929
  32
0.0
  13
 101.87207602339
  23
 128.19867301929
  33
0.0
   0
MTEXT
   5
14C
 100
AcDbEntity
   8
LEVEL001
 370
15
  62
8
 100
AcDbMText
  10
 98.372076023392
  20
 128.87500000000
  30
0.0
  40
 1.2500000000000
  41
0.0
  71
8
  72
1
   1
\A1;9
   7
GMM002
   0
ENDBLK
   5
14D
 100
AcDbEntity
   8
0
 100
AcDbBlockEnd
   0
BLOCK
   5
14E
 100
AcDbEntity
   8
0
 100
AcDbBlockBegin
   2
*D13
  70
65
  10
0.0
  20
0.0
  30
0.0
   3
*D13
   0
LINE
   5
14F
 100
AcDbEntity
   8
LEVEL001
 370
15
 100
AcDbLine
   6
CONTINUOUS
  62
8
  10
 133.09774839676
  20
 118.27500000000
  30
0.0
  11
 133.09774839676
  21
 123.37500000000
  31
0.0
   0
LINE
   5
150
 100
AcDbEntity
   8
LEVEL001
 370
15
 100
AcDbLine
   6
CONTINUOUS
  62
8
  10
 137.09774839676
  20
 118.27500000000
  30
0.0
  11
 137.09774839676
  21
 123.37500000000
  31
0.0
   0
LINE
   5
151
 100
AcDbEntity
   8
LEVEL001
 370
15
 100
AcDbLine
   6
CONTINUOUS
  62
8
  10
 133.09774839676
  20
 122.87500000000
  30
0.0
  11
 135.09774839676
  21
 122.87500000000
  31
0.0
   0
LINE
   5
152
 100
AcDbEntity
   8
LEVEL001
 370
15
 100
AcDbLine
   6
CONTINUOUS
  62
8
  10
 137.09774839676
  20
 122.87500000000
  30
0.0
  11
 135.09774839676
  21
 122.87500000000
  31
0.0
   0
SOLID
   5
153
 100
AcDbEntity
   8
LEVEL001
 100
AcDbTrace
   6
CONTINUOUS
  62
8
  10
 133.09774839676
  20
 122.87500000000
  30
0.0
  11
 134.09774839676
  21
 122.69867301929
  31
0.0
  12
 134.09774839676
  22
 123.05132698071
  32
0.0
  13
 134.09774839676
  23
 123.05132698071
  33
0.0
   0
SOLID
   5
154
 100
AcDbEntity
   8
LEVEL001
 100
AcDbTrace
   6
CONTINUOUS
  62
8
  10
 137.09774839676
  20
 122.87500000000
  30
0.0
  11
 136.09774839676
  21
 123.05132698071
  31
0.0
  12
 136.09774839676
  22
 122.69867301929
  32
0.0
  13
 136.09774839676
  23
 122.69867301929
  33
0.0
   0
MTEXT
   5
155
 100
AcDbEntity
   8
LEVEL001
 370
15
  62
8
 100
AcDbMText
  10
 135.09774839676
  20
 123.37500000000
  30
0.0
  40
 1.2500000000000
  41
0.0
  71
8
  72
1
   1
\A1;4
   7
GMM002
   0
ENDBLK
   5
156
 100
AcDbEntity
   8
0
 100
AcDbBlockEnd
   0
BLOCK
   5
157
 100
AcDbEntity
   8
0
 100
AcDbBlockBegin
   2
*D14
  70
65
  10
0.0
  20
0.0
  30
0.0
   3
*D14
   0
LINE
   5
158
 100
AcDbEntity
   8
LEVEL001
 370
15
 100
AcDbLine
   6
CONTINUOUS
  62
8
  10
 130.59774839676
  20
 120.37500000000
  30
0.0
  11
 130.59774839676
  21
 126.37500000000
  31
0.0
   0
LINE
   5
159
 100
AcDbEntity
   8
LEVEL001
 370
15
 100
AcDbLine
   6
CONTINUOUS
  62
8
  10
 139.59774839676
  20
 120.37500000000
  30
0.0
  11
 139.59774839676
  21
 126.37500000000
  31
0.0
   0
LINE
   5
15A
 100
AcDbEntity
   8
LEVEL001
 370
15
 100
AcDbLine
   6
CONTINUOUS
  62
8
  10
 130.59774839676
  20
 125.87500000000
  30
0.0
  11
 135.09774839676
  21
 125.87500000000
  31
0.0
   0
LINE
   5
15B
 100
AcDbEntity
   8
LEVEL001
 370
15
 100
AcDbLine
   6
CONTINUOUS
  62
8
  10
 139.59774839676
  20
 125.87500000000
  30
0.0
  11
 135.09774839676
  21
 125.87500000000
  31
0.0
   0
SOLID
   5
15C
 100
AcDbEntity
   8
LEVEL001
 100
AcDbTrace
   6
CONTINUOUS
  62
8
  10
 130.59774839676
  20
 125.87500000000
  30
0.0
  11
 131.59774839676
  21
 125.69867301929
  31
0.0
  12
 131.59774839676
  22
 126.05132698071
  32
0.0
  13
 131.59774839676
  23
 126.05132698071
  33
0.0
   0
SOLID
   5
15D
 100
AcDbEntity
   8
LEVEL001
 100
AcDbTrace
   6
CONTINUOUS
  62
8
  10
 139.59774839676
  20
 125.87500000000
  30
0.0
  11
 138.59774839676
  21
 126.05132698071
  31
0.0
  12
 138.59774839676
  22
 125.69867301929
  32
0.0
  13
 138.59774839676
  23
 125.69867301929
  33
0.0
   0
MTEXT
   5
15E
 100
AcDbEntity
   8
LEVEL001
 370
15
  62
8
 100
AcDbMText
  10
 135.09774839676
  20
 126.37500000000
  30
0.0
  40
 1.2500000000000
  41
0.0
  71
8
  72
1
   1
\A1;9
   7
GMM002
   0
ENDBLK
   5
15F
 100
AcDbEntity
   8
0
 100
AcDbBlockEnd
   0
BLOCK
   5
160
 100
AcDbEntity
   8
0
 100
AcDbBlockBegin
   2
*D15
  70
65
  10
0.0
  20
0.0
  30
0.0
   3
*D15
   0
LINE
   5
161
 100
AcDbEntity
   8
LEVEL001
 370
15
 100
AcDbLine
   6
CONTINUOUS
  62
8
  10
 132.59774839676
  20
 116.57500000000
  30
0.0
  11
 127.59774839676
  21
 116.57500000000
  31
0.0
   0
LINE
   5
162
 100
AcDbEntity
   8
LEVEL001
 370
15
 100
AcDbLine
   6
CONTINUOUS
  62
8
  10
 130.09774839676
  20
 119.87500000000
  30
0.0
  11
 127.59774839676
  21
 119.87500000000
  31
0.0
   0
LINE
   5
163
 100
AcDbEntity
   8
LEVEL001
 370
15
 100
AcDbLine
   6
CONTINUOUS
  62
8
  10
 128.09774839676
  20
 116.57500000000
  30
0.0
  11
 128.09774839676
  21
 118.22500000000
  31
0.0
   0
LINE
   5
164
 100
AcDbEntity
   8
LEVEL001
 370
15
 100
AcDbLine
   6
CONTINUOUS
  62
8
  10
 128.09774839676
  20
 119.87500000000
  30
0.0
  11
 128.09774839676
  21
 118.22500000000
  31
0.0
   0
SOLID
   5
165
 100
AcDbEntity
   8
LEVEL001
 100
AcDbTrace
   6
CONTINUOUS
  62
8
  10
 128.09774839676
  20
 116.57500000000
  30
0.0
  11
 128.27407537747
  21
 117.57500000000
  31
0.0
  12
 127.92142141605
  22
 117.57500000000
  32
0.0
  13
 127.92142141605
  23
 117.57500000000
  33
0.0
   0
SOLID
   5
166
 100
AcDbEntity
   8
LEVEL001
 100
AcDbTrace
   6
CONTINUOUS
  62
8
  10
 128.09774839676
  20
 119.87500000000
  30
0.0
  11
 127.92142141605
  21
 118.87500000000
  31
0.0
  12
 128.27407537747
  22
 118.87500000000
  32
0.0
  13
 128.27407537747
  23
 118.87500000000
  33
0.0
   0
MTEXT
   5
167
 100
AcDbEntity
   8
LEVEL001
 370
15
  62
8
 100
AcDbMText
  10
 127.59774839676
  20
 118.22500000000
  30
0.0
  40
 1.2500000000000
  41
0.0
  71
8
  72
1
   1
\A1;3.3
   7
GMM002
  11
0.0
  21
 1.0000000000000
  31
0.0
   0
ENDBLK
   5
168
 100
AcDbEntity
   8
0
 100
AcDbBlockEnd
   0
BLOCK
   5
169
 100
AcDbEntity
   8
0
 100
AcDbBlockBegin
   2
*D16
  70
65
  10
0.0
  20
0.0
  30
0.0
   3
*D16
   0
LINE
   5
16A
 100
AcDbEntity
   8
LEVEL001
 370
15
 100
AcDbLine
   6
CONTINUOUS
  62
8
  10
 130.59774839676
  20
 113.37500000000
  30
0.0
  11
 125.09774839676
  21
 113.37500000000
  31
0.0
   0
LINE
   5
16B
 100
AcDbEntity
   8
LEVEL001
 370
15
 100
AcDbLine
   6
CONTINUOUS
  62
8
  10
 130.09774839676
  20
 119.87500000000
  30
0.0
  11
 125.09774839676
  21
 119.87500000000
  31
0.0
   0
LINE
   5
16C
 100
AcDbEntity
   8
LEVEL001
 370
15
 100
AcDbLine
   6
CONTINUOUS
  62
8
  10
 125.59774839676
  20
 113.37500000000
  30
0.0
  11
 125.59774839676
  21
 116.62500000000
  31
0.0
   0
LINE
   5
16D
 100
AcDbEntity
   8
LEVEL001
 370
15
 100
AcDbLine
   6
CONTINUOUS
  62
8
  10
 125.59774839676
  20
 119.87500000000
  30
0.0
  11
 125.59774839676
  21
 116.62500000000
  31
0.0
   0
SOLID
   5
16E
 100
AcDbEntity
   8
LEVEL001
 100
AcDbTrace
   6
CONTINUOUS
  62
8
  10
 125.59774839676
  20
 113.37500000000
  30
0.0
  11
 125.77407537747
  21
 114.37500000000
  31
0.0
  12
 125.42142141605
  22
 114.37500000000
  32
0.0
  13
 125.42142141605
  23
 114.37500000000
  33
0.0
   0
SOLID
   5
16F
 100
AcDbEntity
   8
LEVEL001
 100
AcDbTrace
   6
CONTINUOUS
  62
8
  10
 125.59774839676
  20
 119.87500000000
  30
0.0
  11
 125.42142141605
  21
 118.87500000000
  31
0.0
  12
 125.77407537747
  22
 118.87500000000
  32
0.0
  13
 125.77407537747
  23
 118.87500000000
  33
0.0
   0
MTEXT
   5
170
 100
AcDbEntity
   8
LEVEL001
 370
15
  62
8
 100
AcDbMText
  10
 125.09774839676
  20
 116.62500000000
  30
0.0
  40
 1.2500000000000
  41
0.0
  71
8
  72
1
   1
\A1;6.5
   7
GMM002
  11
0.0
  21
 1.0000000000000
  31
0.0
   0
ENDBLK
   5
171
 100
AcDbEntity
   8
0
 100
AcDbBlockEnd
   0
BLOCK
   5
172
 100
AcDbEntity
   8
0
 100
AcDbBlockBegin
   2
*D17
  70
65
  10
0.0
  20
0.0
  30
0.0
   3
*D17
   0
LINE
   5
173
 100
AcDbEntity
   8
LEVEL001
 370
15
 100
AcDbLine
   6
CONTINUOUS
  62
8
  10
 24.330886092042
  20
 83.650000000002
  30
0.0
  11
 24.330886092042
  21
 88.750000000003
  31
0.0
   0
LINE
   5
174
 100
AcDbEntity
   8
LEVEL001
 370
15
 100
AcDbLine
   6
CONTINUOUS
  62
8
  10
 28.330886092041
  20
 83.650000000002
  30
0.0
  11
 28.330886092041
  21
 88.750000000003
  31
0.0
   0
LINE
   5
175
 100
AcDbEntity
   8
LEVEL001
 370
15
 100
AcDbLine
   6
CONTINUOUS
  62
8
  10
 24.330886092042
  20
 88.250000000003
  30
0.0
  11
 26.330886092041
  21
 88.250000000003
  31
0.0
   0
LINE
   5
176
 100
AcDbEntity
   8
LEVEL001
 370
15
 100
AcDbLine
   6
CONTINUOUS
  62
8
  10
 28.330886092041
  20
 88.250000000003
  30
0.0
  11
 26.330886092041
  21
 88.250000000003
  31
0.0
   0
SOLID
   5
177
 100
AcDbEntity
   8
LEVEL001
 100
AcDbTrace
   6
CONTINUOUS
  62
8
  10
 24.330886092042
  20
 88.250000000003
  30
0.0
  11
 25.330886092042
  21
 88.073673019294
  31
0.0
  12
 25.330886092042
  22
 88.426326980711
  32
0.0
  13
 25.330886092042
  23
 88.426326980711
  33
0.0
   0
SOLID
   5
178
 100
AcDbEntity
   8
LEVEL001
 100
AcDbTrace
   6
CONTINUOUS
  62
8
  10
 28.330886092041
  20
 88.250000000003
  30
0.0
  11
 27.330886092041
  21
 88.426326980711
  31
0.0
  12
 27.330886092041
  22
 88.073673019294
  32
0.0
  13
 27.330886092041
  23
 88.073673019294
  33
0.0
   0
MTEXT
   5
179
 100
AcDbEntity
   8
LEVEL001
 370
15
  62
8
 100
AcDbMText
  10
 26.330886092041
  20
 88.750000000003
  30
0.0
  40
 1.5000000000000
  41
0.0
  71
8
  72
1
   1
\A1;4
   7
GMM002
   0
ENDBLK
   5
17A
 100
AcDbEntity
   8
0
 100
AcDbBlockEnd
   0
BLOCK
   5
17B
 100
AcDbEntity
   8
0
 100
AcDbBlockBegin
   2
*D18
  70
65
  10
0.0
  20
0.0
  30
0.0
   3
*D18
   0
LINE
   5
17C
 100
AcDbEntity
   8
LEVEL001
 370
15
 100
AcDbLine
   6
CONTINUOUS
  62
8
  10
 21.830886092042
  20
 85.750000000003
  30
0.0
  11
 21.830886092042
  21
 91.750000000003
  31
0.0
   0
LINE
   5
17D
 100
AcDbEntity
   8
LEVEL001
 370
15
 100
AcDbLine
   6
CONTINUOUS
  62
8
  10
 30.830886092042
  20
 85.750000000003
  30
0.0
  11
 30.830886092042
  21
 91.750000000003
  31
0.0
   0
LINE
   5
17E
 100
AcDbEntity
   8
LEVEL001
 370
15
 100
AcDbLine
   6
CONTINUOUS
  62
8
  10
 21.830886092042
  20
 91.250000000003
  30
0.0
  11
 26.330886092042
  21
 91.250000000003
  31
0.0
   0
LINE
   5
17F
 100
AcDbEntity
   8
LEVEL001
 370
15
 100
AcDbLine
   6
CONTINUOUS
  62
8
  10
 30.830886092042
  20
 91.250000000003
  30
0.0
  11
 26.330886092042
  21
 91.250000000003
  31
0.0
   0
SOLID
   5
180
 100
AcDbEntity
   8
LEVEL001
 100
AcDbTrace
   6
CONTINUOUS
  62
8
  10
 21.830886092042
  20
 91.250000000003
  30
0.0
  11
 22.830886092042
  21
 91.073673019294
  31
0.0
  12
 22.830886092042
  22
 91.426326980711
  32
0.0
  13
 22.830886092042
  23
 91.426326980711
  33
0.0
   0
SOLID
   5
181
 100
AcDbEntity
   8
LEVEL001
 100
AcDbTrace
   6
CONTINUOUS
  62
8
  10
 30.830886092042
  20
 91.250000000003
  30
0.0
  11
 29.830886092042
  21
 91.426326980711
  31
0.0
  12
 29.830886092042
  22
 91.073673019294
  32
0.0
  13
 29.830886092042
  23
 91.073673019294
  33
0.0
   0
MTEXT
   5
182
 100
AcDbEntity
   8
LEVEL001
 370
15
  62
8
 100
AcDbMText
  10
 26.330886092042
  20
 91.750000000003
  30
0.0
  40
 1.5000000000000
  41
0.0
  71
8
  72
1
   1
\A1;9
   7
GMM002
   0
ENDBLK
   5
183
 100
AcDbEntity
   8
0
 100
AcDbBlockEnd
   0
BLOCK
   5
184
 100
AcDbEntity
   8
0
 100
AcDbBlockBegin
   2
*D19
  70
65
  10
0.0
  20
0.0
  30
0.0
   3
*D19
   0
LINE
   5
185
 100
AcDbEntity
   8
LEVEL001
 370
15
 100
AcDbLine
   6
CONTINUOUS
  62
8
  10
 21.730886092042
  20
 79.250000000003
  30
0.0
  11
 16.330886092042
  21
 79.250000000003
  31
0.0
   0
LINE
   5
186
 100
AcDbEntity
   8
LEVEL001
 370
15
 100
AcDbLine
   6
CONTINUOUS
  62
8
  10
 19.330886092042
  20
 85.250000000003
  30
0.0
  11
 16.330886092042
  21
 85.250000000003
  31
0.0
   0
LINE
   5
187
 100
AcDbEntity
   8
LEVEL001
 370
15
 100
AcDbLine
   6
CONTINUOUS
  62
8
  10
 16.830886092042
  20
 79.250000000003
  30
0.0
  11
 16.830886092042
  21
 82.250000000003
  31
0.0
   0
LINE
   5
188
 100
AcDbEntity
   8
LEVEL001
 370
15
 100
AcDbLine
   6
CONTINUOUS
  62
8
  10
 16.830886092042
  20
 85.250000000003
  30
0.0
  11
 16.830886092042
  21
 82.250000000003
  31
0.0
   0
SOLID
   5
189
 100
AcDbEntity
   8
LEVEL001
 100
AcDbTrace
   6
CONTINUOUS
  62
8
  10
 16.830886092042
  20
 79.250000000003
  30
0.0
  11
 17.007213072750
  21
 80.250000000003
  31
0.0
  12
 16.654559111333
  22
 80.250000000003
  32
0.0
  13
 16.654559111333
  23
 80.250000000003
  33
0.0
   0
SOLID
   5
18A
 100
AcDbEntity
   8
LEVEL001
 100
AcDbTrace
   6
CONTINUOUS
  62
8
  10
 16.830886092042
  20
 85.250000000003
  30
0.0
  11
 16.654559111333
  21
 84.250000000003
  31
0.0
  12
 17.007213072750
  22
 84.250000000003
  32
0.0
  13
 17.007213072750
  23
 84.250000000003
  33
0.0
   0
MTEXT
   5
18B
 100
AcDbEntity
   8
LEVEL001
 370
15
  62
8
 100
AcDbMText
  10
 16.330886092042
  20
 82.250000000003
  30
0.0
  40
 1.5000000000000
  41
0.0
  71
8
  72
1
   1
\A1;6
   7
GMM002
  11
0.0
  21
 1.0000000000000
  31
0.0
   0
ENDBLK
   5
18C
 100
AcDbEntity
   8
0
 100
AcDbBlockEnd
   0
BLOCK
   5
18D
 100
AcDbEntity
   8
0
 100
AcDbBlockBegin
   2
*D20
  70
65
  10
0.0
  20
0.0
  30
0.0
   3
*D20
   0
LINE
   5
18E
 100
AcDbEntity
   8
LEVEL001
 370
15
 100
AcDbLine
   6
CONTINUOUS
  62
8
  10
 23.830886092042
  20
 81.950000000003
  30
0.0
  11
 18.830886092042
  21
 81.950000000003
  31
0.0
   0
LINE
   5
18F
 100
AcDbEntity
   8
LEVEL001
 370
15
 100
AcDbLine
   6
CONTINUOUS
  62
8
  10
 21.330886092042
  20
 85.250000000003
  30
0.0
  11
 18.830886092042
  21
 85.250000000003
  31
0.0
   0
LINE
   5
190
 100
AcDbEntity
   8
LEVEL001
 370
15
 100
AcDbLine
   6
CONTINUOUS
  62
8
  10
 19.330886092042
  20
 81.950000000003
  30
0.0
  11
 19.330886092042
  21
 83.600000000003
  31
0.0
   0
LINE
   5
191
 100
AcDbEntity
   8
LEVEL001
 370
15
 100
AcDbLine
   6
CONTINUOUS
  62
8
  10
 19.330886092042
  20
 85.250000000003
  30
0.0
  11
 19.330886092042
  21
 83.600000000003
  31
0.0
   0
SOLID
   5
192
 100
AcDbEntity
   8
LEVEL001
 100
AcDbTrace
   6
CONTINUOUS
  62
8
  10
 19.330886092042
  20
 81.950000000003
  30
0.0
  11
 19.507213072750
  21
 82.950000000003
  31
0.0
  12
 19.154559111333
  22
 82.950000000003
  32
0.0
  13
 19.154559111333
  23
 82.950000000003
  33
0.0
   0
SOLID
   5
193
 100
AcDbEntity
   8
LEVEL001
 100
AcDbTrace
   6
CONTINUOUS
  62
8
  10
 19.330886092042
  20
 85.250000000003
  30
0.0
  11
 19.154559111333
  21
 84.250000000003
  31
0.0
  12
 19.507213072750
  22
 84.250000000003
  32
0.0
  13
 19.507213072750
  23
 84.250000000003
  33
0.0
   0
MTEXT
   5
194
 100
AcDbEntity
   8
LEVEL001
 370
15
  62
8
 100
AcDbMText
  10
 18.830886092042
  20
 83.600000000003
  30
0.0
  40
 1.5000000000000
  41
0.0
  71
8
  72
1
   1
\A1;3.3
   7
GMM002
  11
0.0
  21
 1.0000000000000
  31
0.0
   0
ENDBLK
   5
195
 100
AcDbEntity
   8
0
 100
AcDbBlockEnd
   0
BLOCK
   5
196
 100
AcDbEntity
   8
0
 100
AcDbBlockBegin
   2
*D21
  70
65
  10
0.0
  20
0.0
  30
0.0
   3
*D21
   0
LINE
   5
197
 100
AcDbEntity
   8
LEVEL001
 370
15
 100
AcDbLine
   6
CONTINUOUS
  62
8
  10
 24.330886092041
  20
 59.118815690735
  30
0.0
  11
 24.330886092041
  21
 64.118815690571
  31
0.0
   0
LINE
   5
198
 100
AcDbEntity
   8
LEVEL001
 370
15
 100
AcDbLine
   6
CONTINUOUS
  62
8
  10
 28.330886092128
  20
 59.118815690756
  30
0.0
  11
 28.330886092128
  21
 64.118815690571
  31
0.0
   0
LINE
   5
199
 100
AcDbEntity
   8
LEVEL001
 370
15
 100
AcDbLine
   6
CONTINUOUS
  62
8
  10
 24.330886092041
  20
 63.618815690571
  30
0.0
  11
 26.330886092084
  21
 63.618815690571
  31
0.0
   0
LINE
   5
19A
 100
AcDbEntity
   8
LEVEL001
 370
15
 100
AcDbLine
   6
CONTINUOUS
  62
8
  10
 28.330886092128
  20
 63.618815690571
  30
0.0
  11
 26.330886092084
  21
 63.618815690571
  31
0.0
   0
SOLID
   5
19B
 100
AcDbEntity
   8
LEVEL001
 100
AcDbTrace
   6
CONTINUOUS
  62
8
  10
 24.330886092041
  20
 63.618815690571
  30
0.0
  11
 25.330886092041
  21
 63.442488709862
  31
0.0
  12
 25.330886092041
  22
 63.795142671279
  32
0.0
  13
 25.330886092041
  23
 63.795142671279
  33
0.0
   0
SOLID
   5
19C
 100
AcDbEntity
   8
LEVEL001
 100
AcDbTrace
   6
CONTINUOUS
  62
8
  10
 28.330886092128
  20
 63.618815690571
  30
0.0
  11
 27.330886092128
  21
 63.795142671279
  31
0.0
  12
 27.330886092128
  22
 63.442488709862
  32
0.0
  13
 27.330886092128
  23
 63.442488709862
  33
0.0
   0
MTEXT
   5
19D
 100
AcDbEntity
   8
LEVEL001
 370
15
  62
8
 100
AcDbMText
  10
 26.330886092084
  20
 64.118815690571
  30
0.0
  40
 1.2500000000000
  41
0.0
  71
8
  72
1
   1
\A1;4
   7
GMM002
   0
ENDBLK
   5
19E
 100
AcDbEntity
   8
0
 100
AcDbBlockEnd
   0
BLOCK
   5
19F
 100
AcDbEntity
   8
0
 100
AcDbBlockBegin
   2
*D22
  70
65
  10
0.0
  20
0.0
  30
0.0
   3
*D22
   0
LINE
   5
1A0
 100
AcDbEntity
   8
LEVEL001
 370
15
 100
AcDbLine
   6
CONTINUOUS
  62
8
  10
 18.230886092040
  20
 60.618815690571
  30
0.0
  11
 18.230886092040
  21
 67.118815690571
  31
0.0
   0
LINE
   5
1A1
 100
AcDbEntity
   8
LEVEL001
 370
15
 100
AcDbLine
   6
CONTINUOUS
  62
8
  10
 34.430886092042
  20
 60.618815690571
  30
0.0
  11
 34.430886092042
  21
 67.118815690571
  31
0.0
   0
LINE
   5
1A2
 100
AcDbEntity
   8
LEVEL001
 370
15
 100
AcDbLine
   6
CONTINUOUS
  62
8
  10
 18.230886092040
  20
 66.618815690571
  30
0.0
  11
 26.330886092041
  21
 66.618815690571
  31
0.0
   0
LINE
   5
1A3
 100
AcDbEntity
   8
LEVEL001
 370
15
 100
AcDbLine
   6
CONTINUOUS
  62
8
  10
 34.430886092042
  20
 66.618815690571
  30
0.0
  11
 26.330886092041
  21
 66.618815690571
  31
0.0
   0
SOLID
   5
1A4
 100
AcDbEntity
   8
LEVEL001
 100
AcDbTrace
   6
CONTINUOUS
  62
8
  10
 18.230886092040
  20
 66.618815690571
  30
0.0
  11
 19.230886092040
  21
 66.442488709862
  31
0.0
  12
 19.230886092040
  22
 66.795142671279
  32
0.0
  13
 19.230886092040
  23
 66.795142671279
  33
0.0
   0
SOLID
   5
1A5
 100
AcDbEntity
   8
LEVEL001
 100
AcDbTrace
   6
CONTINUOUS
  62
8
  10
 34.430886092042
  20
 66.618815690571
  30
0.0
  11
 33.430886092042
  21
 66.795142671279
  31
0.0
  12
 33.430886092042
  22
 66.442488709862
  32
0.0
  13
 33.430886092042
  23
 66.442488709862
  33
0.0
   0
MTEXT
   5
1A6
 100
AcDbEntity
   8
LEVEL001
 370
15
  62
8
 100
AcDbMText
  10
 26.330886092041
  20
 67.118815690571
  30
0.0
  40
 1.2500000000000
  41
0.0
  71
8
  72
1
   1
\A1;16.2
   7
GMM002
   0
ENDBLK
   5
1A7
 100
AcDbEntity
   8
0
 100
AcDbBlockEnd
   0
BLOCK
   5
1A8
 100
AcDbEntity
   8
0
 100
AcDbBlockBegin
   2
*D23
  70
65
  10
0.0
  20
0.0
  30
0.0
   3
*D23
   0
LINE
   5
1A9
 100
AcDbEntity
   8
LEVEL001
 370
15
 100
AcDbLine
   6
CONTINUOUS
  62
8
  10
 20.230886092041
  20
 58.118815690571
  30
0.0
  11
 20.230886092041
  21
 44.118815690571
  31
0.0
   0
LINE
   5
1AA
 100
AcDbEntity
   8
LEVEL001
 370
15
 100
AcDbLine
   6
CONTINUOUS
  62
8
  10
 32.430886092041
  20
 58.118815690571
  30
0.0
  11
 32.430886092041
  21
 44.118815690571
  31
0.0
   0
LINE
   5
1AB
 100
AcDbEntity
   8
LEVEL001
 370
15
 100
AcDbLine
   6
CONTINUOUS
  62
8
  10
 20.230886092041
  20
 44.618815690571
  30
0.0
  11
 26.330886092041
  21
 44.618815690571
  31
0.0
   0
LINE
   5
1AC
 100
AcDbEntity
   8
LEVEL001
 370
15
 100
AcDbLine
   6
CONTINUOUS
  62
8
  10
 32.430886092041
  20
 44.618815690571
  30
0.0
  11
 26.330886092041
  21
 44.618815690571
  31
0.0
   0
SOLID
   5
1AD
 100
AcDbEntity
   8
LEVEL001
 100
AcDbTrace
   6
CONTINUOUS
  62
8
  10
 20.230886092041
  20
 44.618815690571
  30
0.0
  11
 21.230886092041
  21
 44.442488709862
  31
0.0
  12
 21.230886092041
  22
 44.795142671279
  32
0.0
  13
 21.230886092041
  23
 44.795142671279
  33
0.0
   0
SOLID
   5
1AE
 100
AcDbEntity
   8
LEVEL001
 100
AcDbTrace
   6
CONTINUOUS
  62
8
  10
 32.430886092041
  20
 44.618815690571
  30
0.0
  11
 31.430886092041
  21
 44.795142671279
  31
0.0
  12
 31.430886092041
  22
 44.442488709862
  32
0.0
  13
 31.430886092041
  23
 44.442488709862
  33
0.0
   0
MTEXT
   5
1AF
 100
AcDbEntity
   8
LEVEL001
 370
15
  62
8
 100
AcDbMText
  10
 26.330886092041
  20
 45.118815690571
  30
0.0
  40
 1.2500000000000
  41
0.0
  71
8
  72
1
   1
\A1;12.2
   7
GMM002
   0
ENDBLK
   5
1B0
 100
AcDbEntity
   8
0
 100
AcDbBlockEnd
   0
BLOCK
   5
1B1
 100
AcDbEntity
   8
0
 100
AcDbBlockBegin
   2
*D24
  70
65
  10
0.0
  20
0.0
  30
0.0
   3
*D24
   0
LINE
   5
1B2
 100
AcDbEntity
   8
LEVEL001
 370
15
 100
AcDbLine
   6
CONTINUOUS
  62
8
  10
 31.780886092041
  20
 47.618815690571
  30
0.0
  11
 37.430886092042
  21
 47.618815690571
  31
0.0
   0
LINE
   5
1B3
 100
AcDbEntity
   8
LEVEL001
 370
15
 100
AcDbLine
   6
CONTINUOUS
  62
8
  10
 36.930886092042
  20
 47.618815690571
  30
0.0
  11
 36.930886092042
  21
 53.618815690571
  31
0.0
   0
LINE
   5
1B4
 100
AcDbEntity
   8
LEVEL001
 370
15
 100
AcDbLine
   6
CONTINUOUS
  62
8
  10
 36.930886092042
  20
 59.618815690571
  30
0.0
  11
 36.930886092042
  21
 53.618815690571
  31
0.0
   0
SOLID
   5
1B5
 100
AcDbEntity
   8
LEVEL001
 100
AcDbTrace
   6
CONTINUOUS
  62
8
  10
 36.930886092042
  20
 47.618815690571
  30
0.0
  11
 37.107213072750
  21
 48.618815690571
  31
0.0
  12
 36.754559111333
  22
 48.618815690571
  32
0.0
  13
 36.754559111333
  23
 48.618815690571
  33
0.0
   0
SOLID
   5
1B6
 100
AcDbEntity
   8
LEVEL001
 100
AcDbTrace
   6
CONTINUOUS
  62
8
  10
 36.930886092042
  20
 59.618815690571
  30
0.0
  11
 36.754559111333
  21
 58.618815690571
  31
0.0
  12
 37.107213072750
  22
 58.618815690571
  32
0.0
  13
 37.107213072750
  23
 58.618815690571
  33
0.0
   0
MTEXT
   5
1B7
 100
AcDbEntity
   8
LEVEL001
 370
15
  62
8
 100
AcDbMText
  10
 36.430886092042
  20
 53.618815690571
  30
0.0
  40
 1.2500000000000
  41
0.0
  71
8
  72
1
   1
\A1;12
   7
GMM002
  11
0.0
  21
 1.0000000000000
  31
0.0
   0
ENDBLK
   5
1B8
 100
AcDbEntity
   8
0
 100
AcDbBlockEnd
   0
BLOCK
   5
1B9
 100
AcDbEntity
   8
0
 100
AcDbBlockBegin
   2
*D25
  70
65
  10
0.0
  20
0.0
  30
0.0
   3
*D25
   0
LINE
   5
1BA
 100
AcDbEntity
   8
LEVEL001
 370
15
 100
AcDbLine
   6
CONTINUOUS
  62
8
  10
 34.630886092041
  20
 59.618815690571
  30
0.0
  11
 37.430886092042
  21
 59.618815690571
  31
0.0
   0
LINE
   5
1BB
 100
AcDbEntity
   8
LEVEL001
 370
15
 100
AcDbLine
   6
CONTINUOUS
  62
8
  10
 31.980886091989
  20
 60.618815690571
  30
0.0
  11
 37.430886092042
  21
 60.618815690571
  31
0.0
   0
LINE
   5
1BC
 100
AcDbEntity
   8
LEVEL001
 370
15
 100
AcDbLine
   6
CONTINUOUS
  62
8
  10
 36.930886092042
  20
 59.618815690571
  30
0.0
  11
 36.930886092042
  21
 60.118815690571
  31
0.0
   0
LINE
   5
1BD
 100
AcDbEntity
   8
LEVEL001
 370
15
 100
AcDbLine
   6
CONTINUOUS
  62
8
  10
 36.930886092042
  20
 62.676274354698
  30
0.0
  11
 36.930886092042
  21
 60.118815690571
  31
0.0
   0
SOLID
   5
1BE
 100
AcDbEntity
   8
LEVEL001
 100
AcDbTrace
   6
CONTINUOUS
  62
8
  10
 36.930886092042
  20
 60.618815690571
  30
0.0
  11
 37.107213072750
  21
 61.618815690571
  31
0.0
  12
 36.754559111333
  22
 61.618815690571
  32
0.0
  13
 36.754559111333
  23
 61.618815690571
  33
0.0
   0
MTEXT
   5
1BF
 100
AcDbEntity
   8
LEVEL001
 370
15
  62
8
 100
AcDbMText
  10
 36.431528821985
  20
 61.426274354698
  30
0.0
  40
 1.2500000000000
  41
0.0
  71
7
  72
1
   1
\A1;1
   7
GMM002
  11
0.0
  21
 1.0000000000000
  31
0.0
   0
ENDBLK
   5
1C0
 100
AcDbEntity
   8
0
 100
AcDbBlockEnd
   0
BLOCK
   5
1C1
 100
AcDbEntity
   8
0
 100
AcDbBlockBegin
   2
*D26
  70
65
  10
0.0
  20
0.0
  30
0.0
   3
*D26
   0
LINE
   5
1C2
 100
AcDbEntity
   8
LEVEL001
 370
15
 100
AcDbLine
   6
CONTINUOUS
  62
8
  10
 37.430886092042
  20
 47.618815690571
  30
0.0
  11
 39.930886092042
  21
 47.618815690571
  31
0.0
   0
LINE
   5
1C3
 100
AcDbEntity
   8
LEVEL001
 370
15
 100
AcDbLine
   6
CONTINUOUS
  62
8
  10
 37.430886092042
  20
 60.618815690571
  30
0.0
  11
 39.930886092042
  21
 60.618815690571
  31
0.0
   0
LINE
   5
1C4
 100
AcDbEntity
   8
LEVEL001
 370
15
 100
AcDbLine
   6
CONTINUOUS
  62
8
  10
 39.430886092042
  20
 47.618815690571
  30
0.0
  11
 39.430886092042
  21
 54.118815690571
  31
0.0
   0
LINE
   5
1C5
 100
AcDbEntity
   8
LEVEL001
 370
15
 100
AcDbLine
   6
CONTINUOUS
  62
8
  10
 39.430886092042
  20
 60.618815690571
  30
0.0
  11
 39.430886092042
  21
 54.118815690571
  31
0.0
   0
SOLID
   5
1C6
 100
AcDbEntity
   8
LEVEL001
 100
AcDbTrace
   6
CONTINUOUS
  62
8
  10
 39.430886092042
  20
 47.618815690571
  30
0.0
  11
 39.607213072750
  21
 48.618815690571
  31
0.0
  12
 39.254559111333
  22
 48.618815690571
  32
0.0
  13
 39.254559111333
  23
 48.618815690571
  33
0.0
   0
SOLID
   5
1C7
 100
AcDbEntity
   8
LEVEL001
 100
AcDbTrace
   6
CONTINUOUS
  62
8
  10
 39.430886092042
  20
 60.618815690571
  30
0.0
  11
 39.254559111333
  21
 59.618815690571
  31
0.0
  12
 39.607213072750
  22
 59.618815690571
  32
0.0
  13
 39.607213072750
  23
 59.618815690571
  33
0.0
   0
MTEXT
   5
1C8
 100
AcDbEntity
   8
LEVEL001
 370
15
  62
8
 100
AcDbMText
  10
 38.930886092042
  20
 54.118815690571
  30
0.0
  40
 1.2500000000000
  41
0.0
  71
8
  72
1
   1
\A1;13
   7
GMM002
  11
0.0
  21
 1.0000000000000
  31
0.0
   0
ENDBLK
   5
1C9
 100
AcDbEntity
   8
0
 100
AcDbBlockEnd
   0
BLOCK
   5
1CA
 100
AcDbEntity
   8
0
 100
AcDbBlockBegin
   2
*D27
  70
65
  10
0.0
  20
0.0
  30
0.0
   3
*D27
   0
LINE
   5
1CB
 100
AcDbEntity
   8
LEVEL001
 370
15
 100
AcDbLine
   6
CONTINUOUS
  62
8
  10
 23.830886092041
  20
 57.318815690735
  30
0.0
  11
 15.230886092040
  21
 57.318815690735
  31
0.0
   0
LINE
   5
1CC
 100
AcDbEntity
   8
LEVEL001
 370
15
 100
AcDbLine
   6
CONTINUOUS
  62
8
  10
 20.562941915290
  20
 60.618815690571
  30
0.0
  11
 15.230886092040
  21
 60.618815690571
  31
0.0
   0
LINE
   5
1CD
 100
AcDbEntity
   8
LEVEL001
 370
15
 100
AcDbLine
   6
CONTINUOUS
  62
8
  10
 15.730886092040
  20
 57.318815690735
  30
0.0
  11
 15.730886092040
  21
 58.968815690653
  31
0.0
   0
LINE
   5
1CE
 100
AcDbEntity
   8
LEVEL001
 370
15
 100
AcDbLine
   6
CONTINUOUS
  62
8
  10
 15.730886092040
  20
 60.618815690571
  30
0.0
  11
 15.730886092040
  21
 58.968815690653
  31
0.0
   0
SOLID
   5
1CF
 100
AcDbEntity
   8
LEVEL001
 100
AcDbTrace
   6
CONTINUOUS
  62
8
  10
 15.730886092040
  20
 57.318815690735
  30
0.0
  11
 15.907213072749
  21
 58.318815690735
  31
0.0
  12
 15.554559111332
  22
 58.318815690735
  32
0.0
  13
 15.554559111332
  23
 58.318815690735
  33
0.0
   0
SOLID
   5
1D0
 100
AcDbEntity
   8
LEVEL001
 100
AcDbTrace
   6
CONTINUOUS
  62
8
  10
 15.730886092040
  20
 60.618815690571
  30
0.0
  11
 15.554559111332
  21
 59.618815690571
  31
0.0
  12
 15.907213072749
  22
 59.618815690571
  32
0.0
  13
 15.907213072749
  23
 59.618815690571
  33
0.0
   0
MTEXT
   5
1D1
 100
AcDbEntity
   8
LEVEL001
 370
15
  62
8
 100
AcDbMText
  10
 15.230886092040
  20
 58.968815690653
  30
0.0
  40
 1.2500000000000
  41
0.0
  71
8
  72
1
   1
\A1;3.3
   7
GMM002
  11
0.0
  21
 1.0000000000000
  31
0.0
   0
ENDBLK
   5
1D2
 100
AcDbEntity
   8
0
 100
AcDbBlockEnd
   0
BLOCK
   5
1D3
 100
AcDbEntity
   8
0
 100
AcDbBlockBegin
   2
*D28
  70
65
  10
0.0
  20
0.0
  30
0.0
   3
*D28
   0
LINE
   5
1D4
 100
AcDbEntity
   8
LEVEL001
 370
15
 100
AcDbLine
   6
CONTINUOUS
  62
8
  10
 96.372076023352
  20
 56.118815690571
  30
0.0
  11
 96.372076023352
  21
 61.118815690346
  31
0.0
   0
LINE
   5
1D5
 100
AcDbEntity
   8
LEVEL001
 370
15
 100
AcDbLine
   6
CONTINUOUS
  62
8
  10
 100.37207602335
  20
 56.118815690571
  30
0.0
  11
 100.37207602335
  21
 61.118815690346
  31
0.0
   0
LINE
   5
1D6
 100
AcDbEntity
   8
LEVEL001
 370
15
 100
AcDbLine
   6
CONTINUOUS
  62
8
  10
 96.372076023352
  20
 60.618815690346
  30
0.0
  11
 98.372076023352
  21
 60.618815690346
  31
0.0
   0
LINE
   5
1D7
 100
AcDbEntity
   8
LEVEL001
 370
15
 100
AcDbLine
   6
CONTINUOUS
  62
8
  10
 100.37207602335
  20
 60.618815690346
  30
0.0
  11
 98.372076023352
  21
 60.618815690346
  31
0.0
   0
SOLID
   5
1D8
 100
AcDbEntity
   8
LEVEL001
 100
AcDbTrace
   6
CONTINUOUS
  62
8
  10
 96.372076023352
  20
 60.618815690346
  30
0.0
  11
 97.372076023352
  21
 60.442488709637
  31
0.0
  12
 97.372076023352
  22
 60.795142671054
  32
0.0
  13
 97.372076023352
  23
 60.795142671054
  33
0.0
   0
SOLID
   5
1D9
 100
AcDbEntity
   8
LEVEL001
 100
AcDbTrace
   6
CONTINUOUS
  62
8
  10
 100.37207602335
  20
 60.618815690346
  30
0.0
  11
 99.372076023352
  21
 60.795142671054
  31
0.0
  12
 99.372076023352
  22
 60.442488709637
  32
0.0
  13
 99.372076023352
  23
 60.442488709637
  33
0.0
   0
MTEXT
   5
1DA
 100
AcDbEntity
   8
LEVEL001
 370
15
  62
8
 100
AcDbMText
  10
 98.372076023352
  20
 61.118815690346
  30
0.0
  40
 1.2500000000000
  41
0.0
  71
8
  72
1
   1
\A1;4
   7
GMM002
   0
ENDBLK
   5
1DB
 100
AcDbEntity
   8
0
 100
AcDbBlockEnd
   0
BLOCK
   5
1DC
 100
AcDbEntity
   8
0
 100
AcDbBlockBegin
   2
*D29
  70
65
  10
0.0
  20
0.0
  30
0.0
   3
*D29
   0
LINE
   5
1DD
 100
AcDbEntity
   8
LEVEL001
 370
15
 100
AcDbLine
   6
CONTINUOUS
  62
8
  10
 91.872076023392
  20
 57.418815690408
  30
0.0
  11
 91.872076023392
  21
 64.118815690346
  31
0.0
   0
LINE
   5
1DE
 100
AcDbEntity
   8
LEVEL001
 370
15
 100
AcDbLine
   6
CONTINUOUS
  62
8
  10
 104.87207602339
  20
 57.418815690408
  30
0.0
  11
 104.87207602339
  21
 64.118815690346
  31
0.0
   0
LINE
   5
1DF
 100
AcDbEntity
   8
LEVEL001
 370
15
 100
AcDbLine
   6
CONTINUOUS
  62
8
  10
 91.872076023392
  20
 63.618815690346
  30
0.0
  11
 98.372076023392
  21
 63.618815690346
  31
0.0
   0
LINE
   5
1E0
 100
AcDbEntity
   8
LEVEL001
 370
15
 100
AcDbLine
   6
CONTINUOUS
  62
8
  10
 104.87207602339
  20
 63.618815690346
  30
0.0
  11
 98.372076023392
  21
 63.618815690346
  31
0.0
   0
SOLID
   5
1E1
 100
AcDbEntity
   8
LEVEL001
 100
AcDbTrace
   6
CONTINUOUS
  62
8
  10
 91.872076023392
  20
 63.618815690346
  30
0.0
  11
 92.872076023392
  21
 63.442488709637
  31
0.0
  12
 92.872076023392
  22
 63.795142671054
  32
0.0
  13
 92.872076023392
  23
 63.795142671054
  33
0.0
   0
SOLID
   5
1E2
 100
AcDbEntity
   8
LEVEL001
 100
AcDbTrace
   6
CONTINUOUS
  62
8
  10
 104.87207602339
  20
 63.618815690346
  30
0.0
  11
 103.87207602339
  21
 63.795142671054
  31
0.0
  12
 103.87207602339
  22
 63.442488709637
  32
0.0
  13
 103.87207602339
  23
 63.442488709637
  33
0.0
   0
MTEXT
   5
1E3
 100
AcDbEntity
   8
LEVEL001
 370
15
  62
8
 100
AcDbMText
  10
 98.372076023392
  20
 64.118815690346
  30
0.0
  40
 1.2500000000000
  41
0.0
  71
8
  72
1
   1
\A1;13
   7
GMM002
   0
ENDBLK
   5
1E4
 100
AcDbEntity
   8
0
 100
AcDbBlockEnd
   0
BLOCK
   5
1E5
 100
AcDbEntity
   8
0
 100
AcDbBlockBegin
   2
*D30
  70
65
  10
0.0
  20
0.0
  30
0.0
   3
*D30
   0
LINE
   5
1E6
 100
AcDbEntity
   8
LEVEL001
 370
15
 100
AcDbLine
   6
CONTINUOUS
  62
8
  10
 95.872076023352
  20
 54.318815690571
  30
0.0
  11
 88.872076023392
  21
 54.318815690571
  31
0.0
   0
LINE
   5
1E7
 100
AcDbEntity
   8
LEVEL001
 370
15
 100
AcDbLine
   6
CONTINUOUS
  62
8
  10
 93.145396076460
  20
 57.618815690571
  30
0.0
  11
 88.872076023392
  21
 57.618815690571
  31
0.0
   0
LINE
   5
1E8
 100
AcDbEntity
   8
LEVEL001
 370
15
 100
AcDbLine
   6
CONTINUOUS
  62
8
  10
 89.372076023392
  20
 54.318815690571
  30
0.0
  11
 89.372076023392
  21
 55.968815690571
  31
0.0
   0
LINE
   5
1E9
 100
AcDbEntity
   8
LEVEL001
 370
15
 100
AcDbLine
   6
CONTINUOUS
  62
8
  10
 89.372076023392
  20
 57.618815690571
  30
0.0
  11
 89.372076023392
  21
 55.968815690571
  31
0.0
   0
SOLID
   5
1EA
 100
AcDbEntity
   8
LEVEL001
 100
AcDbTrace
   6
CONTINUOUS
  62
8
  10
 89.372076023392
  20
 54.318815690571
  30
0.0
  11
 89.548403004101
  21
 55.318815690571
  31
0.0
  12
 89.195749042684
  22
 55.318815690571
  32
0.0
  13
 89.195749042684
  23
 55.318815690571
  33
0.0
   0
SOLID
   5
1EB
 100
AcDbEntity
   8
LEVEL001
 100
AcDbTrace
   6
CONTINUOUS
  62
8
  10
 89.372076023392
  20
 57.618815690571
  30
0.0
  11
 89.195749042684
  21
 56.618815690571
  31
0.0
  12
 89.548403004101
  22
 56.618815690571
  32
0.0
  13
 89.548403004101
  23
 56.618815690571
  33
0.0
   0
MTEXT
   5
1EC
 100
AcDbEntity
   8
LEVEL001
 370
15
  62
8
 100
AcDbMText
  10
 88.872076023392
  20
 55.968815690571
  30
0.0
  40
 1.2500000000000
  41
0.0
  71
8
  72
1
   1
\A1;3.3
   7
GMM002
  11
0.0
  21
 1.0000000000000
  31
0.0
   0
ENDBLK
   5
1ED
 100
AcDbEntity
   8
0
 100
AcDbBlockEnd
   0
BLOCK
   5
1EE
 100
AcDbEntity
   8
0
 100
AcDbBlockBegin
   2
*D31
  70
65
  10
0.0
  20
0.0
  30
0.0
   3
*D31
   0
LINE
   5
1EF
 100
AcDbEntity
   8
LEVEL001
 370
15
 100
AcDbLine
   6
CONTINUOUS
  62
8
  10
 107.87207602339
  20
 47.618815690571
  30
0.0
  11
 110.37207602339
  21
 47.618815690571
  31
0.0
   0
LINE
   5
1F0
 100
AcDbEntity
   8
LEVEL001
 370
15
 100
AcDbLine
   6
CONTINUOUS
  62
8
  10
 107.87207602339
  20
 57.618815690346
  30
0.0
  11
 110.37207602339
  21
 57.618815690346
  31
0.0
   0
LINE
   5
1F1
 100
AcDbEntity
   8
LEVEL001
 370
15
 100
AcDbLine
   6
CONTINUOUS
  62
8
  10
 109.87207602339
  20
 47.618815690571
  30
0.0
  11
 109.87207602339
  21
 52.618815690458
  31
0.0
   0
LINE
   5
1F2
 100
AcDbEntity
   8
LEVEL001
 370
15
 100
AcDbLine
   6
CONTINUOUS
  62
8
  10
 109.87207602339
  20
 57.618815690346
  30
0.0
  11
 109.87207602339
  21
 52.618815690458
  31
0.0
   0
SOLID
   5
1F3
 100
AcDbEntity
   8
LEVEL001
 100
AcDbTrace
   6
CONTINUOUS
  62
8
  10
 109.87207602339
  20
 47.618815690571
  30
0.0
  11
 110.04840300410
  21
 48.618815690571
  31
0.0
  12
 109.69574904268
  22
 48.618815690571
  32
0.0
  13
 109.69574904268
  23
 48.618815690571
  33
0.0
   0
SOLID
   5
1F4
 100
AcDbEntity
   8
LEVEL001
 100
AcDbTrace
   6
CONTINUOUS
  62
8
  10
 109.87207602339
  20
 57.618815690346
  30
0.0
  11
 109.69574904268
  21
 56.618815690346
  31
0.0
  12
 110.04840300410
  22
 56.618815690346
  32
0.0
  13
 110.04840300410
  23
 56.618815690346
  33
0.0
   0
MTEXT
   5
1F5
 100
AcDbEntity
   8
LEVEL001
 370
15
  62
8
 100
AcDbMText
  10
 109.37207602339
  20
 52.618815690458
  30
0.0
  40
 1.2500000000000
  41
0.0
  71
8
  72
1
   1
\A1;10
   7
GMM002
  11
0.0
  21
 1.0000000000000
  31
0.0
   0
ENDBLK
   5
1F6
 100
AcDbEntity
   8
0
 100
AcDbBlockEnd
   0
BLOCK
   5
1F7
 100
AcDbEntity
   8
0
 100
AcDbBlockBegin
   2
*D32
  70
65
  10
0.0
  20
0.0
  30
0.0
   3
*D32
   0
LINE
   5
1F8
 100
AcDbEntity
   8
LEVEL001
 370
15
 100
AcDbLine
   6
CONTINUOUS
  62
8
  10
 93.872076023252
  20
 55.118815690571
  30
0.0
  11
 93.872076023252
  21
 44.118815690571
  31
0.0
   0
LINE
   5
1F9
 100
AcDbEntity
   8
LEVEL001
 370
15
 100
AcDbLine
   6
CONTINUOUS
  62
8
  10
 102.87207602345
  20
 55.118815690571
  30
0.0
  11
 102.87207602345
  21
 44.118815690571
  31
0.0
   0
LINE
   5
1FA
 100
AcDbEntity
   8
LEVEL001
 370
15
 100
AcDbLine
   6
CONTINUOUS
  62
8
  10
 93.872076023252
  20
 44.618815690571
  30
0.0
  11
 98.372076023353
  21
 44.618815690571
  31
0.0
   0
LINE
   5
1FB
 100
AcDbEntity
   8
LEVEL001
 370
15
 100
AcDbLine
   6
CONTINUOUS
  62
8
  10
 102.87207602345
  20
 44.618815690571
  30
0.0
  11
 98.372076023353
  21
 44.618815690571
  31
0.0
   0
SOLID
   5
1FC
 100
AcDbEntity
   8
LEVEL001
 100
AcDbTrace
   6
CONTINUOUS
  62
8
  10
 93.872076023252
  20
 44.618815690571
  30
0.0
  11
 94.872076023252
  21
 44.442488709862
  31
0.0
  12
 94.872076023252
  22
 44.795142671279
  32
0.0
  13
 94.872076023252
  23
 44.795142671279
  33
0.0
   0
SOLID
   5
1FD
 100
AcDbEntity
   8
LEVEL001
 100
AcDbTrace
   6
CONTINUOUS
  62
8
  10
 102.87207602345
  20
 44.618815690571
  30
0.0
  11
 101.87207602345
  21
 44.795142671279
  31
0.0
  12
 101.87207602345
  22
 44.442488709862
  32
0.0
  13
 101.87207602345
  23
 44.442488709862
  33
0.0
   0
MTEXT
   5
1FE
 100
AcDbEntity
   8
LEVEL001
 370
15
  62
8
 100
AcDbMText
  10
 98.372076023353
  20
 45.118815690571
  30
0.0
  40
 1.2500000000000
  41
0.0
  71
8
  72
1
   1
\A1;9
   7
GMM002
   0
ENDBLK
   5
1FF
 100
AcDbEntity
   8
0
 100
AcDbBlockEnd
   0
BLOCK
   5
200
 100
AcDbEntity
   8
0
 100
AcDbBlockBegin
   2
*D33
  70
65
  10
0.0
  20
0.0
  30
0.0
   3
*D33
   0
LINE
   5
201
 100
AcDbEntity
   8
LEVEL001
 370
15
 100
AcDbLine
   6
CONTINUOUS
  62
8
  10
 102.57207602335
  20
 47.618815690571
  30
0.0
  11
 107.87207602339
  21
 47.618815690571
  31
0.0
   0
LINE
   5
202
 100
AcDbEntity
   8
LEVEL001
 370
15
 100
AcDbLine
   6
CONTINUOUS
  62
8
  10
 107.37207602339
  20
 47.618815690571
  30
0.0
  11
 107.37207602339
  21
 52.118815690571
  31
0.0
   0
LINE
   5
203
 100
AcDbEntity
   8
LEVEL001
 370
15
 100
AcDbLine
   6
CONTINUOUS
  62
8
  10
 107.37207602339
  20
 56.618815690571
  30
0.0
  11
 107.37207602339
  21
 52.118815690571
  31
0.0
   0
SOLID
   5
204
 100
AcDbEntity
   8
LEVEL001
 100
AcDbTrace
   6
CONTINUOUS
  62
8
  10
 107.37207602339
  20
 47.618815690571
  30
0.0
  11
 107.54840300410
  21
 48.618815690571
  31
0.0
  12
 107.19574904268
  22
 48.618815690571
  32
0.0
  13
 107.19574904268
  23
 48.618815690571
  33
0.0
   0
SOLID
   5
205
 100
AcDbEntity
   8
LEVEL001
 100
AcDbTrace
   6
CONTINUOUS
  62
8
  10
 107.37207602339
  20
 56.618815690571
  30
0.0
  11
 107.19574904268
  21
 55.618815690571
  31
0.0
  12
 107.54840300410
  22
 55.618815690571
  32
0.0
  13
 107.54840300410
  23
 55.618815690571
  33
0.0
   0
MTEXT
   5
206
 100
AcDbEntity
   8
LEVEL001
 370
15
  62
8
 100
AcDbMText
  10
 106.87207602339
  20
 52.118815690571
  30
0.0
  40
 1.2500000000000
  41
0.0
  71
8
  72
1
   1
\A1;9
   7
GMM002
  11
0.0
  21
 1.0000000000000
  31
0.0
   0
ENDBLK
   5
207
 100
AcDbEntity
   8
0
 100
AcDbBlockEnd
   0
BLOCK
   5
208
 100
AcDbEntity
   8
0
 100
AcDbBlockBegin
   2
*D34
  70
65
  10
0.0
  20
0.0
  30
0.0
   3
*D34
   0
LINE
   5
209
 100
AcDbEntity
   8
LEVEL001
 370
15
 100
AcDbLine
   6
CONTINUOUS
  62
8
  10
 105.07207602339
  20
 56.618815690571
  30
0.0
  11
 107.87207602339
  21
 56.618815690571
  31
0.0
   0
LINE
   5
20A
 100
AcDbEntity
   8
LEVEL001
 370
15
 100
AcDbLine
   6
CONTINUOUS
  62
8
  10
 102.67207602335
  20
 57.618815690346
  30
0.0
  11
 107.87207602339
  21
 57.618815690346
  31
0.0
   0
LINE
   5
20B
 100
AcDbEntity
   8
LEVEL001
 370
15
 100
AcDbLine
   6
CONTINUOUS
  62
8
  10
 107.37207602339
  20
 56.618815690571
  30
0.0
  11
 107.37207602339
  21
 57.118815690458
  31
0.0
   0
LINE
   5
20C
 100
AcDbEntity
   8
LEVEL001
 370
15
 100
AcDbLine
   6
CONTINUOUS
  62
8
  10
 107.37207602339
  20
 59.835959208888
  30
0.0
  11
 107.37207602339
  21
 57.118815690458
  31
0.0
   0
SOLID
   5
20D
 100
AcDbEntity
   8
LEVEL001
 100
AcDbTrace
   6
CONTINUOUS
  62
8
  10
 107.37207602339
  20
 57.618815690346
  30
0.0
  11
 107.54840300410
  21
 58.618815690346
  31
0.0
  12
 107.19574904268
  22
 58.618815690346
  32
0.0
  13
 107.19574904268
  23
 58.618815690346
  33
0.0
   0
MTEXT
   5
20E
 100
AcDbEntity
   8
LEVEL001
 370
15
  62
8
 100
AcDbMText
  10
 106.78328781090
  20
 58.585959208888
  30
0.0
  40
 1.2500000000000
  41
0.0
  71
7
  72
1
   1
\A1;1
   7
GMM002
  11
0.0
  21
 1.0000000000000
  31
0.0
   0
ENDBLK
   5
20F
 100
AcDbEntity
   8
0
 100
AcDbBlockEnd
   0
BLOCK
   5
210
 100
AcDbEntity
   8
0
 100
AcDbBlockBegin
   2
*D35
  70
65
  10
0.0
  20
0.0
  30
0.0
   3
*D35
   0
LINE
   5
211
 100
AcDbEntity
   8
LEVEL001
 370
15
 100
AcDbLine
   6
CONTINUOUS
  62
8
  10
 133.09774839676
  20
 53.718815690571
  30
0.0
  11
 133.09774839676
  21
 58.818815690571
  31
0.0
   0
LINE
   5
212
 100
AcDbEntity
   8
LEVEL001
 370
15
 100
AcDbLine
   6
CONTINUOUS
  62
8
  10
 137.09774839676
  20
 53.718815690571
  30
0.0
  11
 137.09774839676
  21
 58.818815690571
  31
0.0
   0
LINE
   5
213
 100
AcDbEntity
   8
LEVEL001
 370
15
 100
AcDbLine
   6
CONTINUOUS
  62
8
  10
 133.09774839676
  20
 58.318815690571
  30
0.0
  11
 135.09774839676
  21
 58.318815690571
  31
0.0
   0
LINE
   5
214
 100
AcDbEntity
   8
LEVEL001
 370
15
 100
AcDbLine
   6
CONTINUOUS
  62
8
  10
 137.09774839676
  20
 58.318815690571
  30
0.0
  11
 135.09774839676
  21
 58.318815690571
  31
0.0
   0
SOLID
   5
215
 100
AcDbEntity
   8
LEVEL001
 100
AcDbTrace
   6
CONTINUOUS
  62
8
  10
 133.09774839676
  20
 58.318815690571
  30
0.0
  11
 134.09774839676
  21
 58.142488709863
  31
0.0
  12
 134.09774839676
  22
 58.495142671279
  32
0.0
  13
 134.09774839676
  23
 58.495142671279
  33
0.0
   0
SOLID
   5
216
 100
AcDbEntity
   8
LEVEL001
 100
AcDbTrace
   6
CONTINUOUS
  62
8
  10
 137.09774839676
  20
 58.318815690571
  30
0.0
  11
 136.09774839676
  21
 58.495142671279
  31
0.0
  12
 136.09774839676
  22
 58.142488709863
  32
0.0
  13
 136.09774839676
  23
 58.142488709863
  33
0.0
   0
MTEXT
   5
217
 100
AcDbEntity
   8
LEVEL001
 370
15
  62
8
 100
AcDbMText
  10
 135.09774839676
  20
 58.818815690571
  30
0.0
  40
 1.2500000000000
  41
0.0
  71
8
  72
1
   1
\A1;4
   7
GMM002
   0
ENDBLK
   5
218
 100
AcDbEntity
   8
0
 100
AcDbBlockEnd
   0
BLOCK
   5
219
 100
AcDbEntity
   8
0
 100
AcDbBlockBegin
   2
*D36
  70
65
  10
0.0
  20
0.0
  30
0.0
   3
*D36
   0
LINE
   5
21A
 100
AcDbEntity
   8
LEVEL001
 370
15
 100
AcDbLine
   6
CONTINUOUS
  62
8
  10
 128.59774839676
  20
 54.812376701896
  30
0.0
  11
 128.59774839676
  21
 61.818815690571
  31
0.0
   0
LINE
   5
21B
 100
AcDbEntity
   8
LEVEL001
 370
15
 100
AcDbLine
   6
CONTINUOUS
  62
8
  10
 141.59774839676
  20
 54.901875811990
  30
0.0
  11
 141.59774839676
  21
 61.818815690571
  31
0.0
   0
LINE
   5
21C
 100
AcDbEntity
   8
LEVEL001
 370
15
 100
AcDbLine
   6
CONTINUOUS
  62
8
  10
 128.59774839676
  20
 61.318815690571
  30
0.0
  11
 135.09774839676
  21
 61.318815690571
  31
0.0
   0
LINE
   5
21D
 100
AcDbEntity
   8
LEVEL001
 370
15
 100
AcDbLine
   6
CONTINUOUS
  62
8
  10
 141.59774839676
  20
 61.318815690571
  30
0.0
  11
 135.09774839676
  21
 61.318815690571
  31
0.0
   0
SOLID
   5
21E
 100
AcDbEntity
   8
LEVEL001
 100
AcDbTrace
   6
CONTINUOUS
  62
8
  10
 128.59774839676
  20
 61.318815690571
  30
0.0
  11
 129.59774839676
  21
 61.142488709863
  31
0.0
  12
 129.59774839676
  22
 61.495142671279
  32
0.0
  13
 129.59774839676
  23
 61.495142671279
  33
0.0
   0
SOLID
   5
21F
 100
AcDbEntity
   8
LEVEL001
 100
AcDbTrace
   6
CONTINUOUS
  62
8
  10
 141.59774839676
  20
 61.318815690571
  30
0.0
  11
 140.59774839676
  21
 61.495142671279
  31
0.0
  12
 140.59774839676
  22
 61.142488709863
  32
0.0
  13
 140.59774839676
  23
 61.142488709863
  33
0.0
   0
MTEXT
   5
220
 100
AcDbEntity
   8
LEVEL001
 370
15
  62
8
 100
AcDbMText
  10
 135.09774839676
  20
 61.818815690571
  30
0.0
  40
 1.2500000000000
  41
0.0
  71
8
  72
1
   1
\A1;13
   7
GMM002
   0
ENDBLK
   5
221
 100
AcDbEntity
   8
0
 100
AcDbBlockEnd
   0
BLOCK
   5
222
 100
AcDbEntity
   8
0
 100
AcDbBlockBegin
   2
*D37
  70
65
  10
0.0
  20
0.0
  30
0.0
   3
*D37
   0
LINE
   5
223
 100
AcDbEntity
   8
LEVEL001
 370
15
 100
AcDbLine
   6
CONTINUOUS
  62
8
  10
 139.49774839676
  20
 47.618815690571
  30
0.0
  11
 144.59774839676
  21
 47.618815690571
  31
0.0
   0
LINE
   5
224
 100
AcDbEntity
   8
LEVEL001
 370
15
 100
AcDbLine
   6
CONTINUOUS
  62
8
  10
 144.09774839676
  20
 47.618815690571
  30
0.0
  11
 144.09774839676
  21
 50.868815690571
  31
0.0
   0
LINE
   5
225
 100
AcDbEntity
   8
LEVEL001
 370
15
 100
AcDbLine
   6
CONTINUOUS
  62
8
  10
 144.09774839676
  20
 54.118815690571
  30
0.0
  11
 144.09774839676
  21
 50.868815690571
  31
0.0
   0
SOLID
   5
226
 100
AcDbEntity
   8
LEVEL001
 100
AcDbTrace
   6
CONTINUOUS
  62
8
  10
 144.09774839676
  20
 47.618815690571
  30
0.0
  11
 144.27407537747
  21
 48.618815690571
  31
0.0
  12
 143.92142141605
  22
 48.618815690571
  32
0.0
  13
 143.92142141605
  23
 48.618815690571
  33
0.0
   0
SOLID
   5
227
 100
AcDbEntity
   8
LEVEL001
 100
AcDbTrace
   6
CONTINUOUS
  62
8
  10
 144.09774839676
  20
 54.118815690571
  30
0.0
  11
 143.92142141605
  21
 53.118815690571
  31
0.0
  12
 144.27407537747
  22
 53.118815690571
  32
0.0
  13
 144.27407537747
  23
 53.118815690571
  33
0.0
   0
MTEXT
   5
228
 100
AcDbEntity
   8
LEVEL001
 370
15
  62
8
 100
AcDbMText
  10
 143.59774839676
  20
 50.868815690571
  30
0.0
  40
 1.2500000000000
  41
0.0
  71
8
  72
1
   1
\A1;6.5
   7
GMM002
  11
0.0
  21
 1.0000000000000
  31
0.0
   0
ENDBLK
   5
229
 100
AcDbEntity
   8
0
 100
AcDbBlockEnd
   0
BLOCK
   5
22A
 100
AcDbEntity
   8
0
 100
AcDbBlockBegin
   2
*D38
  70
65
  10
0.0
  20
0.0
  30
0.0
   3
*D38
   0
LINE
   5
22B
 100
AcDbEntity
   8
LEVEL001
 370
15
 100
AcDbLine
   6
CONTINUOUS
  62
8
  10
 141.79774839676
  20
 54.118815690571
  30
0.0
  11
 144.59774839676
  21
 54.118815690571
  31
0.0
   0
LINE
   5
22C
 100
AcDbEntity
   8
LEVEL001
 370
15
 100
AcDbLine
   6
CONTINUOUS
  62
8
  10
 139.77784740909
  20
 55.318815690571
  30
0.0
  11
 144.59774839676
  21
 55.318815690571
  31
0.0
   0
LINE
   5
22D
 100
AcDbEntity
   8
LEVEL001
 370
15
 100
AcDbLine
   6
CONTINUOUS
  62
8
  10
 144.09774839676
  20
 54.118815690571
  30
0.0
  11
 144.09774839676
  21
 54.718815690571
  31
0.0
   0
LINE
   5
22E
 100
AcDbEntity
   8
LEVEL001
 370
15
 100
AcDbLine
   6
CONTINUOUS
  62
8
  10
 144.09774839676
  20
 58.337739020737
  30
0.0
  11
 144.09774839676
  21
 54.718815690571
  31
0.0
   0
SOLID
   5
22F
 100
AcDbEntity
   8
LEVEL001
 100
AcDbTrace
   6
CONTINUOUS
  62
8
  10
 144.09774839676
  20
 55.318815690571
  30
0.0
  11
 144.27407537747
  21
 56.318815690571
  31
0.0
  12
 143.92142141605
  22
 56.318815690571
  32
0.0
  13
 143.92142141605
  23
 56.318815690571
  33
0.0
   0
MTEXT
   5
230
 100
AcDbEntity
   8
LEVEL001
 370
15
  62
8
 100
AcDbMText
  10
 143.55579864138
  20
 55.587739020737
  30
0.0
  40
 1.2500000000000
  41
0.0
  71
7
  72
1
   1
\A1;1.2
   7
GMM002
  11
0.0
  21
 1.0000000000000
  31
0.0
   0
ENDBLK
   5
231
 100
AcDbEntity
   8
0
 100
AcDbBlockEnd
   0
BLOCK
   5
232
 100
AcDbEntity
   8
0
 100
AcDbBlockBegin
   2
*D39
  70
65
  10
0.0
  20
0.0
  30
0.0
   3
*D39
   0
LINE
   5
233
 100
AcDbEntity
   8
LEVEL001
 370
15
 100
AcDbLine
   6
CONTINUOUS
  62
8
  10
 144.59774839676
  20
 47.618815690571
  30
0.0
  11
 147.09774839676
  21
 47.618815690571
  31
0.0
   0
LINE
   5
234
 100
AcDbEntity
   8
LEVEL001
 370
15
 100
AcDbLine
   6
CONTINUOUS
  62
8
  10
 144.59774839676
  20
 55.318815690571
  30
0.0
  11
 147.09774839676
  21
 55.318815690571
  31
0.0
   0
LINE
   5
235
 100
AcDbEntity
   8
LEVEL001
 370
15
 100
AcDbLine
   6
CONTINUOUS
  62
8
  10
 146.59774839676
  20
 47.618815690571
  30
0.0
  11
 146.59774839676
  21
 51.468815690571
  31
0.0
   0
LINE
   5
236
 100
AcDbEntity
   8
LEVEL001
 370
15
 100
AcDbLine
   6
CONTINUOUS
  62
8
  10
 146.59774839676
  20
 55.318815690571
  30
0.0
  11
 146.59774839676
  21
 51.468815690571
  31
0.0
   0
SOLID
   5
237
 100
AcDbEntity
   8
LEVEL001
 100
AcDbTrace
   6
CONTINUOUS
  62
8
  10
 146.59774839676
  20
 47.618815690571
  30
0.0
  11
 146.77407537747
  21
 48.618815690571
  31
0.0
  12
 146.42142141605
  22
 48.618815690571
  32
0.0
  13
 146.42142141605
  23
 48.618815690571
  33
0.0
   0
SOLID
   5
238
 100
AcDbEntity
   8
LEVEL001
 100
AcDbTrace
   6
CONTINUOUS
  62
8
  10
 146.59774839676
  20
 55.318815690571
  30
0.0
  11
 146.42142141605
  21
 54.318815690571
  31
0.0
  12
 146.77407537747
  22
 54.318815690571
  32
0.0
  13
 146.77407537747
  23
 54.318815690571
  33
0.0
   0
MTEXT
   5
239
 100
AcDbEntity
   8
LEVEL001
 370
15
  62
8
 100
AcDbMText
  10
 146.09774839676
  20
 51.468815690571
  30
0.0
  40
 1.2500000000000
  41
0.0
  71
8
  72
1
   1
\A1;7.7
   7
GMM002
  11
0.0
  21
 1.0000000000000
  31
0.0
   0
ENDBLK
   5
23A
 100
AcDbEntity
   8
0
 100
AcDbBlockEnd
   0
BLOCK
   5
23B
 100
AcDbEntity
   8
0
 100
AcDbBlockBegin
   2
*D40
  70
65
  10
0.0
  20
0.0
  30
0.0
   3
*D40
   0
LINE
   5
23C
 100
AcDbEntity
   8
LEVEL001
 370
15
 100
AcDbLine
   6
CONTINUOUS
  62
8
  10
 132.39774839676
  20
 52.018815690571
  30
0.0
  11
 125.59774839676
  21
 52.018815690571
  31
0.0
   0
LINE
   5
23D
 100
AcDbEntity
   8
LEVEL001
 370
15
 100
AcDbLine
   6
CONTINUOUS
  62
8
  10
 130.21764938443
  20
 55.318815690571
  30
0.0
  11
 125.59774839676
  21
 55.318815690571
  31
0.0
   0
LINE
   5
23E
 100
AcDbEntity
   8
LEVEL001
 370
15
 100
AcDbLine
   6
CONTINUOUS
  62
8
  10
 126.09774839676
  20
 52.018815690571
  30
0.0
  11
 126.09774839676
  21
 53.668815690571
  31
0.0
   0
LINE
   5
23F
 100
AcDbEntity
   8
LEVEL001
 370
15
 100
AcDbLine
   6
CONTINUOUS
  62
8
  10
 126.09774839676
  20
 55.318815690571
  30
0.0
  11
 126.09774839676
  21
 53.668815690571
  31
0.0
   0
SOLID
   5
240
 100
AcDbEntity
   8
LEVEL001
 100
AcDbTrace
   6
CONTINUOUS
  62
8
  10
 126.09774839676
  20
 52.018815690571
  30
0.0
  11
 126.27407537747
  21
 53.018815690571
  31
0.0
  12
 125.92142141605
  22
 53.018815690571
  32
0.0
  13
 125.92142141605
  23
 53.018815690571
  33
0.0
   0
SOLID
   5
241
 100
AcDbEntity
   8
LEVEL001
 100
AcDbTrace
   6
CONTINUOUS
  62
8
  10
 126.09774839676
  20
 55.318815690571
  30
0.0
  11
 125.92142141605
  21
 54.318815690571
  31
0.0
  12
 126.27407537747
  22
 54.318815690571
  32
0.0
  13
 126.27407537747
  23
 54.318815690571
  33
0.0
   0
MTEXT
   5
242
 100
AcDbEntity
   8
LEVEL001
 370
15
  62
8
 100
AcDbMText
  10
 125.59774839676
  20
 53.668815690571
  30
0.0
  40
 1.2500000000000
  41
0.0
  71
8
  72
1
   1
\A1;3.3
   7
GMM002
  11
0.0
  21
 1.0000000000000
  31
0.0
   0
ENDBLK
   5
243
 100
AcDbEntity
   8
0
 100
AcDbBlockEnd
   0
BLOCK
   5
244
 100
AcDbEntity
   8
0
 100
AcDbBlockBegin
   2
*D41
  70
65
  10
0.0
  20
0.0
  30
0.0
   3
*D41
   0
LINE
   5
245
 100
AcDbEntity
   8
LEVEL001
 370
15
 100
AcDbLine
   6
CONTINUOUS
  62
8
  10
 130.59774839676
  20
 50.818815690571
  30
0.0
  11
 130.59774839676
  21
 44.118815690571
  31
0.0
   0
LINE
   5
246
 100
AcDbEntity
   8
LEVEL001
 370
15
 100
AcDbLine
   6
CONTINUOUS
  62
8
  10
 139.59774839676
  20
 50.818815690571
  30
0.0
  11
 139.59774839676
  21
 44.118815690571
  31
0.0
   0
LINE
   5
247
 100
AcDbEntity
   8
LEVEL001
 370
15
 100
AcDbLine
   6
CONTINUOUS
  62
8
  10
 130.59774839676
  20
 44.618815690571
  30
0.0
  11
 135.09774839676
  21
 44.618815690571
  31
0.0
   0
LINE
   5
248
 100
AcDbEntity
   8
LEVEL001
 370
15
 100
AcDbLine
   6
CONTINUOUS
  62
8
  10
 139.59774839676
  20
 44.618815690571
  30
0.0
  11
 135.09774839676
  21
 44.618815690571
  31
0.0
   0
SOLID
   5
249
 100
AcDbEntity
   8
LEVEL001
 100
AcDbTrace
   6
CONTINUOUS
  62
8
  10
 130.59774839676
  20
 44.618815690571
  30
0.0
  11
 131.59774839676
  21
 44.442488709862
  31
0.0
  12
 131.59774839676
  22
 44.795142671279
  32
0.0
  13
 131.59774839676
  23
 44.795142671279
  33
0.0
   0
SOLID
   5
24A
 100
AcDbEntity
   8
LEVEL001
 100
AcDbTrace
   6
CONTINUOUS
  62
8
  10
 139.59774839676
  20
 44.618815690571
  30
0.0
  11
 138.59774839676
  21
 44.795142671279
  31
0.0
  12
 138.59774839676
  22
 44.442488709862
  32
0.0
  13
 138.59774839676
  23
 44.442488709862
  33
0.0
   0
MTEXT
   5
24B
 100
AcDbEntity
   8
LEVEL001
 370
15
  62
8
 100
AcDbMText
  10
 135.09774839676
  20
 45.118815690571
  30
0.0
  40
 1.2500000000000
  41
0.0
  71
8
  72
1
   1
\A1;9
   7
GMM002
   0
ENDBLK
   5
24C
 100
AcDbEntity
   8
0
 100
AcDbBlockEnd
   0
BLOCK
   5
24D
 100
AcDbEntity
   8
0
 100
AcDbBlockBegin
   2
*D42
  70
65
  10
0.0
  20
0.0
  30
0.0
   3
*D42
   0
LINE
   5
24E
 100
AcDbEntity
   8
LEVEL001
 370
15
 100
AcDbLine
   6
CONTINUOUS
  62
8
  10
 24.330886092042
  20
 19.600000000005
  30
0.0
  11
 24.330886092042
  21
 24.700000000005
  31
0.0
   0
LINE
   5
24F
 100
AcDbEntity
   8
LEVEL001
 370
15
 100
AcDbLine
   6
CONTINUOUS
  62
8
  10
 28.330886092042
  20
 19.600000000005
  30
0.0
  11
 28.330886092042
  21
 24.700000000005
  31
0.0
   0
LINE
   5
250
 100
AcDbEntity
   8
LEVEL001
 370
15
 100
AcDbLine
   6
CONTINUOUS
  62
8
  10
 24.330886092042
  20
 24.200000000005
  30
0.0
  11
 26.330886092042
  21
 24.200000000005
  31
0.0
   0
LINE
   5
251
 100
AcDbEntity
   8
LEVEL001
 370
15
 100
AcDbLine
   6
CONTINUOUS
  62
8
  10
 28.330886092042
  20
 24.200000000005
  30
0.0
  11
 26.330886092042
  21
 24.200000000005
  31
0.0
   0
SOLID
   5
252
 100
AcDbEntity
   8
LEVEL001
 100
AcDbTrace
   6
CONTINUOUS
  62
8
  10
 24.330886092042
  20
 24.200000000005
  30
0.0
  11
 25.330886092042
  21
 24.023673019297
  31
0.0
  12
 25.330886092042
  22
 24.376326980713
  32
0.0
  13
 25.330886092042
  23
 24.376326980713
  33
0.0
   0
SOLID
   5
253
 100
AcDbEntity
   8
LEVEL001
 100
AcDbTrace
   6
CONTINUOUS
  62
8
  10
 28.330886092042
  20
 24.200000000005
  30
0.0
  11
 27.330886092042
  21
 24.376326980713
  31
0.0
  12
 27.330886092042
  22
 24.023673019297
  32
0.0
  13
 27.330886092042
  23
 24.023673019297
  33
0.0
   0
MTEXT
   5
254
 100
AcDbEntity
   8
LEVEL001
 370
15
  62
8
 100
AcDbMText
  10
 26.330886092042
  20
 24.700000000005
  30
0.0
  40
 1.2500000000000
  41
0.0
  71
8
  72
1
   1
\A1;4
   7
GMM002
   0
ENDBLK
   5
255
 100
AcDbEntity
   8
0
 100
AcDbBlockEnd
   0
BLOCK
   5
256
 100
AcDbEntity
   8
0
 100
AcDbBlockBegin
   2
*D43
  70
65
  10
0.0
  20
0.0
  30
0.0
   3
*D43
   0
LINE
   5
257
 100
AcDbEntity
   8
LEVEL001
 370
15
 100
AcDbLine
   6
CONTINUOUS
  62
8
  10
 19.830886092042
  20
 21.000000000005
  30
0.0
  11
 19.830886092042
  21
 27.700000000005
  31
0.0
   0
LINE
   5
258
 100
AcDbEntity
   8
LEVEL001
 370
15
 100
AcDbLine
   6
CONTINUOUS
  62
8
  10
 32.830886092042
  20
 21.000000000005
  30
0.0
  11
 32.830886092042
  21
 27.700000000005
  31
0.0
   0
LINE
   5
259
 100
AcDbEntity
   8
LEVEL001
 370
15
 100
AcDbLine
   6
CONTINUOUS
  62
8
  10
 19.830886092042
  20
 27.200000000005
  30
0.0
  11
 26.330886092042
  21
 27.200000000005
  31
0.0
   0
LINE
   5
25A
 100
AcDbEntity
   8
LEVEL001
 370
15
 100
AcDbLine
   6
CONTINUOUS
  62
8
  10
 32.830886092042
  20
 27.200000000005
  30
0.0
  11
 26.330886092042
  21
 27.200000000005
  31
0.0
   0
SOLID
   5
25B
 100
AcDbEntity
   8
LEVEL001
 100
AcDbTrace
   6
CONTINUOUS
  62
8
  10
 19.830886092042
  20
 27.200000000005
  30
0.0
  11
 20.830886092042
  21
 27.023673019297
  31
0.0
  12
 20.830886092042
  22
 27.376326980713
  32
0.0
  13
 20.830886092042
  23
 27.376326980713
  33
0.0
   0
SOLID
   5
25C
 100
AcDbEntity
   8
LEVEL001
 100
AcDbTrace
   6
CONTINUOUS
  62
8
  10
 32.830886092042
  20
 27.200000000005
  30
0.0
  11
 31.830886092042
  21
 27.376326980713
  31
0.0
  12
 31.830886092042
  22
 27.023673019297
  32
0.0
  13
 31.830886092042
  23
 27.023673019297
  33
0.0
   0
MTEXT
   5
25D
 100
AcDbEntity
   8
LEVEL001
 370
15
  62
8
 100
AcDbMText
  10
 26.330886092042
  20
 27.700000000005
  30
0.0
  40
 1.2500000000000
  41
0.0
  71
8
  72
1
   1
\A1;13
   7
GMM002
   0
ENDBLK
   5
25E
 100
AcDbEntity
   8
0
 100
AcDbBlockEnd
   0
BLOCK
   5
25F
 100
AcDbEntity
   8
0
 100
AcDbBlockBegin
   2
*D44
  70
65
  10
0.0
  20
0.0
  30
0.0
   3
*D44
   0
LINE
   5
260
 100
AcDbEntity
   8
LEVEL001
 370
15
 100
AcDbLine
   6
CONTINUOUS
  62
8
  10
 35.830886092042
  20
 14.000000000005
  30
0.0
  11
 38.330886092042
  21
 14.000000000005
  31
0.0
   0
LINE
   5
261
 100
AcDbEntity
   8
LEVEL001
 370
15
 100
AcDbLine
   6
CONTINUOUS
  62
8
  10
 35.830886092042
  20
 21.200000000005
  30
0.0
  11
 38.330886092042
  21
 21.200000000005
  31
0.0
   0
LINE
   5
262
 100
AcDbEntity
   8
LEVEL001
 370
15
 100
AcDbLine
   6
CONTINUOUS
  62
8
  10
 37.830886092042
  20
 14.000000000005
  30
0.0
  11
 37.830886092042
  21
 17.600000000005
  31
0.0
   0
LINE
   5
263
 100
AcDbEntity
   8
LEVEL001
 370
15
 100
AcDbLine
   6
CONTINUOUS
  62
8
  10
 37.830886092042
  20
 21.200000000005
  30
0.0
  11
 37.830886092042
  21
 17.600000000005
  31
0.0
   0
SOLID
   5
264
 100
AcDbEntity
   8
LEVEL001
 100
AcDbTrace
   6
CONTINUOUS
  62
8
  10
 37.830886092042
  20
 14.000000000005
  30
0.0
  11
 38.007213072750
  21
 15.000000000005
  31
0.0
  12
 37.654559111333
  22
 15.000000000005
  32
0.0
  13
 37.654559111333
  23
 15.000000000005
  33
0.0
   0
SOLID
   5
265
 100
AcDbEntity
   8
LEVEL001
 100
AcDbTrace
   6
CONTINUOUS
  62
8
  10
 37.830886092042
  20
 21.200000000005
  30
0.0
  11
 37.654559111333
  21
 20.200000000005
  31
0.0
  12
 38.007213072750
  22
 20.200000000005
  32
0.0
  13
 38.007213072750
  23
 20.200000000005
  33
0.0
   0
MTEXT
   5
266
 100
AcDbEntity
   8
LEVEL001
 370
15
  62
8
 100
AcDbMText
  10
 37.330886092042
  20
 17.600000000005
  30
0.0
  40
 1.2500000000000
  41
0.0
  71
8
  72
1
   1
\A1;7.2
   7
GMM002
  11
0.0
  21
 1.0000000000000
  31
0.0
   0
ENDBLK
   5
267
 100
AcDbEntity
   8
0
 100
AcDbBlockEnd
   0
BLOCK
   5
268
 100
AcDbEntity
   8
0
 100
AcDbBlockBegin
   2
*D45
  70
65
  10
0.0
  20
0.0
  30
0.0
   3
*D45
   0
LINE
   5
269
 100
AcDbEntity
   8
LEVEL001
 370
15
 100
AcDbLine
   6
CONTINUOUS
  62
8
  10
 30.730886092042
  20
 14.000000000005
  30
0.0
  11
 35.830886092042
  21
 14.000000000005
  31
0.0
   0
LINE
   5
26A
 100
AcDbEntity
   8
LEVEL001
 370
15
 100
AcDbLine
   6
CONTINUOUS
  62
8
  10
 35.330886092042
  20
 14.000000000005
  30
0.0
  11
 35.330886092042
  21
 17.000000000005
  31
0.0
   0
LINE
   5
26B
 100
AcDbEntity
   8
LEVEL001
 370
15
 100
AcDbLine
   6
CONTINUOUS
  62
8
  10
 35.330886092042
  20
 20.000000000005
  30
0.0
  11
 35.330886092042
  21
 17.000000000005
  31
0.0
   0
SOLID
   5
26C
 100
AcDbEntity
   8
LEVEL001
 100
AcDbTrace
   6
CONTINUOUS
  62
8
  10
 35.330886092042
  20
 14.000000000005
  30
0.0
  11
 35.507213072750
  21
 15.000000000005
  31
0.0
  12
 35.154559111333
  22
 15.000000000005
  32
0.0
  13
 35.154559111333
  23
 15.000000000005
  33
0.0
   0
SOLID
   5
26D
 100
AcDbEntity
   8
LEVEL001
 100
AcDbTrace
   6
CONTINUOUS
  62
8
  10
 35.330886092042
  20
 20.000000000005
  30
0.0
  11
 35.154559111333
  21
 19.000000000005
  31
0.0
  12
 35.507213072750
  22
 19.000000000005
  32
0.0
  13
 35.507213072750
  23
 19.000000000005
  33
0.0
   0
MTEXT
   5
26E
 100
AcDbEntity
   8
LEVEL001
 370
15
  62
8
 100
AcDbMText
  10
 34.830886092042
  20
 17.000000000005
  30
0.0
  40
 1.2500000000000
  41
0.0
  71
8
  72
1
   1
\A1;6
   7
GMM002
  11
0.0
  21
 1.0000000000000
  31
0.0
   0
ENDBLK
   5
26F
 100
AcDbEntity
   8
0
 100
AcDbBlockEnd
   0
BLOCK
   5
270
 100
AcDbEntity
   8
0
 100
AcDbBlockBegin
   2
*D46
  70
65
  10
0.0
  20
0.0
  30
0.0
   3
*D46
   0
LINE
   5
271
 100
AcDbEntity
   8
LEVEL001
 370
15
 100
AcDbLine
   6
CONTINUOUS
  62
8
  10
 33.030886092042
  20
 20.000000000005
  30
0.0
  11
 35.830886092042
  21
 20.000000000005
  31
0.0
   0
LINE
   5
272
 100
AcDbEntity
   8
LEVEL001
 370
15
 100
AcDbLine
   6
CONTINUOUS
  62
8
  10
 31.010985104369
  20
 21.200000000005
  30
0.0
  11
 35.830886092042
  21
 21.200000000005
  31
0.0
   0
LINE
   5
273
 100
AcDbEntity
   8
LEVEL001
 370
15
 100
AcDbLine
   6
CONTINUOUS
  62
8
  10
 35.330886092042
  20
 20.000000000005
  30
0.0
  11
 35.330886092042
  21
 20.600000000005
  31
0.0
   0
LINE
   5
274
 100
AcDbEntity
   8
LEVEL001
 370
15
 100
AcDbLine
   6
CONTINUOUS
  62
8
  10
 35.330886092042
  20
 24.299880746275
  30
0.0
  11
 35.330886092042
  21
 20.600000000005
  31
0.0
   0
SOLID
   5
275
 100
AcDbEntity
   8
LEVEL001
 100
AcDbTrace
   6
CONTINUOUS
  62
8
  10
 35.330886092042
  20
 21.200000000005
  30
0.0
  11
 35.507213072750
  21
 22.200000000005
  31
0.0
  12
 35.154559111333
  22
 22.200000000005
  32
0.0
  13
 35.154559111333
  23
 22.200000000005
  33
0.0
   0
MTEXT
   5
276
 100
AcDbEntity
   8
LEVEL001
 370
15
  62
8
 100
AcDbMText
  10
 34.760500889906
  20
 21.549880746275
  30
0.0
  40
 1.2500000000000
  41
0.0
  71
7
  72
1
   1
\A1;1.2
   7
GMM002
  11
0.0
  21
 1.0000000000000
  31
0.0
   0
ENDBLK
   5
277
 100
AcDbEntity
   8
0
 100
AcDbBlockEnd
   0
BLOCK
   5
278
 100
AcDbEntity
   8
0
 100
AcDbBlockBegin
   2
*D47
  70
65
  10
0.0
  20
0.0
  30
0.0
   3
*D47
   0
LINE
   5
279
 100
AcDbEntity
   8
LEVEL001
 370
15
 100
AcDbLine
   6
CONTINUOUS
  62
8
  10
 21.830886092042
  20
 16.700000000005
  30
0.0
  11
 21.830886092042
  21
 10.500000000005
  31
0.0
   0
LINE
   5
27A
 100
AcDbEntity
   8
LEVEL001
 370
15
 100
AcDbLine
   6
CONTINUOUS
  62
8
  10
 30.830886092042
  20
 16.700000000005
  30
0.0
  11
 30.830886092042
  21
 10.500000000005
  31
0.0
   0
LINE
   5
27B
 100
AcDbEntity
   8
LEVEL001
 370
15
 100
AcDbLine
   6
CONTINUOUS
  62
8
  10
 21.830886092042
  20
 11.000000000005
  30
0.0
  11
 26.330886092042
  21
 11.000000000005
  31
0.0
   0
LINE
   5
27C
 100
AcDbEntity
   8
LEVEL001
 370
15
 100
AcDbLine
   6
CONTINUOUS
  62
8
  10
 30.830886092042
  20
 11.000000000005
  30
0.0
  11
 26.330886092042
  21
 11.000000000005
  31
0.0
   0
SOLID
   5
27D
 100
AcDbEntity
   8
LEVEL001
 100
AcDbTrace
   6
CONTINUOUS
  62
8
  10
 21.830886092042
  20
 11.000000000005
  30
0.0
  11
 22.830886092042
  21
 10.823673019297
  31
0.0
  12
 22.830886092042
  22
 11.176326980713
  32
0.0
  13
 22.830886092042
  23
 11.176326980713
  33
0.0
   0
SOLID
   5
27E
 100
AcDbEntity
   8
LEVEL001
 100
AcDbTrace
   6
CONTINUOUS
  62
8
  10
 30.830886092042
  20
 11.000000000005
  30
0.0
  11
 29.830886092042
  21
 11.176326980713
  31
0.0
  12
 29.830886092042
  22
 10.823673019297
  32
0.0
  13
 29.830886092042
  23
 10.823673019297
  33
0.0
   0
MTEXT
   5
27F
 100
AcDbEntity
   8
LEVEL001
 370
15
  62
8
 100
AcDbMText
  10
 26.330886092042
  20
 11.500000000005
  30
0.0
  40
 1.2500000000000
  41
0.0
  71
8
  72
1
   1
\A1;9
   7
GMM002
   0
ENDBLK
   5
280
 100
AcDbEntity
   8
0
 100
AcDbBlockEnd
   0
BLOCK
   5
281
 100
AcDbEntity
   8
0
 100
AcDbBlockBegin
   2
*D48
  70
65
  10
0.0
  20
0.0
  30
0.0
   3
*D48
   0
LINE
   5
282
 100
AcDbEntity
   8
LEVEL001
 370
15
 100
AcDbLine
   6
CONTINUOUS
  62
8
  10
 23.830886092042
  20
 17.900000000005
  30
0.0
  11
 16.830886092042
  21
 17.900000000005
  31
0.0
   0
LINE
   5
283
 100
AcDbEntity
   8
LEVEL001
 370
15
 100
AcDbLine
   6
CONTINUOUS
  62
8
  10
 21.650787079715
  20
 21.200000000005
  30
0.0
  11
 16.830886092042
  21
 21.200000000005
  31
0.0
   0
LINE
   5
284
 100
AcDbEntity
   8
LEVEL001
 370
15
 100
AcDbLine
   6
CONTINUOUS
  62
8
  10
 17.330886092042
  20
 17.900000000005
  30
0.0
  11
 17.330886092042
  21
 19.550000000005
  31
0.0
   0
LINE
   5
285
 100
AcDbEntity
   8
LEVEL001
 370
15
 100
AcDbLine
   6
CONTINUOUS
  62
8
  10
 17.330886092042
  20
 21.200000000005
  30
0.0
  11
 17.330886092042
  21
 19.550000000005
  31
0.0
   0
SOLID
   5
286
 100
AcDbEntity
   8
LEVEL001
 100
AcDbTrace
   6
CONTINUOUS
  62
8
  10
 17.330886092042
  20
 17.900000000005
  30
0.0
  11
 17.507213072750
  21
 18.900000000005
  31
0.0
  12
 17.154559111333
  22
 18.900000000005
  32
0.0
  13
 17.154559111333
  23
 18.900000000005
  33
0.0
   0
SOLID
   5
287
 100
AcDbEntity
   8
LEVEL001
 100
AcDbTrace
   6
CONTINUOUS
  62
8
  10
 17.330886092042
  20
 21.200000000005
  30
0.0
  11
 17.154559111333
  21
 20.200000000005
  31
0.0
  12
 17.507213072750
  22
 20.200000000005
  32
0.0
  13
 17.507213072750
  23
 20.200000000005
  33
0.0
   0
MTEXT
   5
288
 100
AcDbEntity
   8
LEVEL001
 370
15
  62
8
 100
AcDbMText
  10
 16.830886092042
  20
 19.550000000005
  30
0.0
  40
 1.2500000000000
  41
0.0
  71
8
  72
1
   1
\A1;3.3
   7
GMM002
  11
0.0
  21
 1.0000000000000
  31
0.0
   0
ENDBLK
   5
289
 100
AcDbEntity
   8
0
 100
AcDbBlockEnd
   0
BLOCK
   5
28A
 100
AcDbEntity
   8
0
 100
AcDbBlockBegin
   2
*D49
  70
65
  10
0.0
  20
0.0
  30
0.0
   3
*D49
   0
LINE
   5
28B
 100
AcDbEntity
   8
LEVEL001
 370
15
 100
AcDbLine
   6
CONTINUOUS
  62
8
  10
 60.752510805951
  20
 52.825000000167
  30
0.0
  11
 52.152510806001
  21
 52.825000000167
  31
0.0
   0
LINE
   5
28C
 100
AcDbEntity
   8
LEVEL001
 370
15
 100
AcDbLine
   6
CONTINUOUS
  62
8
  10
 57.402510805970
  20
 56.125000000004
  30
0.0
  11
 52.152510806001
  21
 56.125000000004
  31
0.0
   0
LINE
   5
28D
 100
AcDbEntity
   8
LEVEL001
 370
15
 100
AcDbLine
   6
CONTINUOUS
  62
8
  10
 52.652510806001
  20
 52.825000000167
  30
0.0
  11
 52.652510806001
  21
 54.475000000085
  31
0.0
   0
LINE
   5
28E
 100
AcDbEntity
   8
LEVEL001
 370
15
 100
AcDbLine
   6
CONTINUOUS
  62
8
  10
 52.652510806001
  20
 56.125000000004
  30
0.0
  11
 52.652510806001
  21
 54.475000000085
  31
0.0
   0
SOLID
   5
28F
 100
AcDbEntity
   8
LEVEL001
 100
AcDbTrace
   6
CONTINUOUS
  62
8
  10
 52.652510806001
  20
 52.825000000167
  30
0.0
  11
 52.828837786709
  21
 53.825000000167
  31
0.0
  12
 52.476183825292
  22
 53.825000000167
  32
0.0
  13
 52.476183825292
  23
 53.825000000167
  33
0.0
   0
SOLID
   5
290
 100
AcDbEntity
   8
LEVEL001
 100
AcDbTrace
   6
CONTINUOUS
  62
8
  10
 52.652510806001
  20
 56.125000000004
  30
0.0
  11
 52.476183825292
  21
 55.125000000004
  31
0.0
  12
 52.828837786709
  22
 55.125000000004
  32
0.0
  13
 52.828837786709
  23
 55.125000000004
  33
0.0
   0
MTEXT
   5
291
 100
AcDbEntity
   8
LEVEL001
 370
15
  62
8
 100
AcDbMText
  10
 52.152510806001
  20
 54.475000000085
  30
0.0
  40
 1.2500000000000
  41
0.0
  71
8
  72
1
   1
\A1;3.3
   7
GMM002
  11
0.0
  21
 1.0000000000000
  31
0.0
   0
ENDBLK
   5
292
 100
AcDbEntity
   8
0
 100
AcDbBlockEnd
   0
BLOCK
   5
293
 100
AcDbEntity
   8
0
 100
AcDbBlockBegin
   2
*D50
  70
65
  10
0.0
  20
0.0
  30
0.0
   3
*D50
   0
LINE
   5
294
 100
AcDbEntity
   8
LEVEL001
 370
15
 100
AcDbLine
   6
CONTINUOUS
  62
8
  10
 61.252510805951
  20
 54.525000000167
  30
0.0
  11
 61.252510805951
  21
 59.625000000003
  31
0.0
   0
LINE
   5
295
 100
AcDbEntity
   8
LEVEL001
 370
15
 100
AcDbLine
   6
CONTINUOUS
  62
8
  10
 65.252510806051
  20
 54.525000000167
  30
0.0
  11
 65.252510806051
  21
 59.625000000003
  31
0.0
   0
LINE
   5
296
 100
AcDbEntity
   8
LEVEL001
 370
15
 100
AcDbLine
   6
CONTINUOUS
  62
8
  10
 61.252510805951
  20
 59.125000000003
  30
0.0
  11
 63.252510806001
  21
 59.125000000003
  31
0.0
   0
LINE
   5
297
 100
AcDbEntity
   8
LEVEL001
 370
15
 100
AcDbLine
   6
CONTINUOUS
  62
8
  10
 65.252510806051
  20
 59.125000000003
  30
0.0
  11
 63.252510806001
  21
 59.125000000003
  31
0.0
   0
SOLID
   5
298
 100
AcDbEntity
   8
LEVEL001
 100
AcDbTrace
   6
CONTINUOUS
  62
8
  10
 61.252510805951
  20
 59.125000000003
  30
0.0
  11
 62.252510805951
  21
 58.948673019294
  31
0.0
  12
 62.252510805951
  22
 59.301326980711
  32
0.0
  13
 62.252510805951
  23
 59.301326980711
  33
0.0
   0
SOLID
   5
299
 100
AcDbEntity
   8
LEVEL001
 100
AcDbTrace
   6
CONTINUOUS
  62
8
  10
 65.252510806051
  20
 59.125000000003
  30
0.0
  11
 64.252510806051
  21
 59.301326980711
  31
0.0
  12
 64.252510806051
  22
 58.948673019294
  32
0.0
  13
 64.252510806051
  23
 58.948673019294
  33
0.0
   0
MTEXT
   5
29A
 100
AcDbEntity
   8
LEVEL001
 370
15
  62
8
 100
AcDbMText
  10
 63.252510806001
  20
 59.625000000003
  30
0.0
  40
 1.2500000000000
  41
0.0
  71
8
  72
1
   1
\A1;4
   7
GMM002
   0
ENDBLK
   5
29B
 100
AcDbEntity
   8
0
 100
AcDbBlockEnd
   0
BLOCK
   5
29C
 100
AcDbEntity
   8
0
 100
AcDbBlockBegin
   2
*D51
  70
65
  10
0.0
  20
0.0
  30
0.0
   3
*D51
   0
LINE
   5
29D
 100
AcDbEntity
   8
LEVEL001
 370
15
 100
AcDbLine
   6
CONTINUOUS
  62
8
  10
 55.152510806001
  20
 56.125000000004
  30
0.0
  11
 55.152510806001
  21
 62.625000000003
  31
0.0
   0
LINE
   5
29E
 100
AcDbEntity
   8
LEVEL001
 370
15
 100
AcDbLine
   6
CONTINUOUS
  62
8
  10
 71.352510806001
  20
 56.125000000004
  30
0.0
  11
 71.352510806001
  21
 62.625000000003
  31
0.0
   0
LINE
   5
29F
 100
AcDbEntity
   8
LEVEL001
 370
15
 100
AcDbLine
   6
CONTINUOUS
  62
8
  10
 55.152510806001
  20
 62.125000000003
  30
0.0
  11
 63.252510806001
  21
 62.125000000003
  31
0.0
   0
LINE
   5
2A0
 100
AcDbEntity
   8
LEVEL001
 370
15
 100
AcDbLine
   6
CONTINUOUS
  62
8
  10
 71.352510806001
  20
 62.125000000003
  30
0.0
  11
 63.252510806001
  21
 62.125000000003
  31
0.0
   0
SOLID
   5
2A1
 100
AcDbEntity
   8
LEVEL001
 100
AcDbTrace
   6
CONTINUOUS
  62
8
  10
 55.152510806001
  20
 62.125000000003
  30
0.0
  11
 56.152510806001
  21
 61.948673019294
  31
0.0
  12
 56.152510806001
  22
 62.301326980711
  32
0.0
  13
 56.152510806001
  23
 62.301326980711
  33
0.0
   0
SOLID
   5
2A2
 100
AcDbEntity
   8
LEVEL001
 100
AcDbTrace
   6
CONTINUOUS
  62
8
  10
 71.352510806001
  20
 62.125000000003
  30
0.0
  11
 70.352510806001
  21
 62.301326980711
  31
0.0
  12
 70.352510806001
  22
 61.948673019294
  32
0.0
  13
 70.352510806001
  23
 61.948673019294
  33
0.0
   0
MTEXT
   5
2A3
 100
AcDbEntity
   8
LEVEL001
 370
15
  62
8
 100
AcDbMText
  10
 63.252510806001
  20
 62.625000000003
  30
0.0
  40
 1.2500000000000
  41
0.0
  71
8
  72
1
   1
\A1;16.2
   7
GMM002
   0
ENDBLK
   5
2A4
 100
AcDbEntity
   8
0
 100
AcDbBlockEnd
   0
BLOCK
   5
2A5
 100
AcDbEntity
   8
0
 100
AcDbBlockBegin
   2
*D52
  70
65
  10
0.0
  20
0.0
  30
0.0
   3
*D52
   0
LINE
   5
2A6
 100
AcDbEntity
   8
LEVEL001
 370
15
 100
AcDbLine
   6
CONTINUOUS
  62
8
  10
 69.202510806001
  20
 48.125000000004
  30
0.0
  11
 74.352510806001
  21
 48.125000000004
  31
0.0
   0
LINE
   5
2A7
 100
AcDbEntity
   8
LEVEL001
 370
15
 100
AcDbLine
   6
CONTINUOUS
  62
8
  10
 73.852510806001
  20
 48.125000000004
  30
0.0
  11
 73.852510806001
  21
 51.625000000004
  31
0.0
   0
LINE
   5
2A8
 100
AcDbEntity
   8
LEVEL001
 370
15
 100
AcDbLine
   6
CONTINUOUS
  62
8
  10
 73.852510806001
  20
 55.125000000004
  30
0.0
  11
 73.852510806001
  21
 51.625000000004
  31
0.0
   0
SOLID
   5
2A9
 100
AcDbEntity
   8
LEVEL001
 100
AcDbTrace
   6
CONTINUOUS
  62
8
  10
 73.852510806001
  20
 48.125000000004
  30
0.0
  11
 74.028837786709
  21
 49.125000000004
  31
0.0
  12
 73.676183825292
  22
 49.125000000004
  32
0.0
  13
 73.676183825292
  23
 49.125000000004
  33
0.0
   0
SOLID
   5
2AA
 100
AcDbEntity
   8
LEVEL001
 100
AcDbTrace
   6
CONTINUOUS
  62
8
  10
 73.852510806001
  20
 55.125000000004
  30
0.0
  11
 73.676183825292
  21
 54.125000000004
  31
0.0
  12
 74.028837786709
  22
 54.125000000004
  32
0.0
  13
 74.028837786709
  23
 54.125000000004
  33
0.0
   0
MTEXT
   5
2AB
 100
AcDbEntity
   8
LEVEL001
 370
15
  62
8
 100
AcDbMText
  10
 73.352510806001
  20
 51.625000000004
  30
0.0
  40
 1.2500000000000
  41
0.0
  71
8
  72
1
   1
\A1;7
   7
GMM002
  11
0.0
  21
 1.0000000000000
  31
0.0
   0
ENDBLK
   5
2AC
 100
AcDbEntity
   8
0
 100
AcDbBlockEnd
   0
BLOCK
   5
2AD
 100
AcDbEntity
   8
0
 100
AcDbBlockBegin
   2
*D53
  70
65
  10
0.0
  20
0.0
  30
0.0
   3
*D53
   0
LINE
   5
2AE
 100
AcDbEntity
   8
LEVEL001
 370
15
 100
AcDbLine
   6
CONTINUOUS
  62
8
  10
 71.552510806001
  20
 55.125000000004
  30
0.0
  11
 74.352510806001
  21
 55.125000000004
  31
0.0
   0
LINE
   5
2AF
 100
AcDbEntity
   8
LEVEL001
 370
15
 100
AcDbLine
   6
CONTINUOUS
  62
8
  10
 68.902510806031
  20
 56.125000000003
  30
0.0
  11
 74.352510806001
  21
 56.125000000003
  31
0.0
   0
LINE
   5
2B0
 100
AcDbEntity
   8
LEVEL001
 370
15
 100
AcDbLine
   6
CONTINUOUS
  62
8
  10
 73.852510806001
  20
 55.125000000004
  30
0.0
  11
 73.852510806001
  21
 55.625000000003
  31
0.0
   0
LINE
   5
2B1
 100
AcDbEntity
   8
LEVEL001
 370
15
 100
AcDbLine
   6
CONTINUOUS
  62
8
  10
 73.852510806001
  20
 58.497267794301
  30
0.0
  11
 73.852510806001
  21
 55.625000000003
  31
0.0
   0
SOLID
   5
2B2
 100
AcDbEntity
   8
LEVEL001
 100
AcDbTrace
   6
CONTINUOUS
  62
8
  10
 73.852510806001
  20
 56.125000000003
  30
0.0
  11
 74.028837786709
  21
 57.125000000003
  31
0.0
  12
 73.676183825292
  22
 57.125000000003
  32
0.0
  13
 73.676183825292
  23
 57.125000000003
  33
0.0
   0
MTEXT
   5
2B3
 100
AcDbEntity
   8
LEVEL001
 370
15
  62
8
 100
AcDbMText
  10
 73.376912086981
  20
 57.247267794301
  30
0.0
  40
 1.2500000000000
  41
0.0
  71
7
  72
1
   1
\A1;1
   7
GMM002
  11
0.0
  21
 1.0000000000000
  31
0.0
   0
ENDBLK
   5
2B4
 100
AcDbEntity
   8
0
 100
AcDbBlockEnd
   0
BLOCK
   5
2B5
 100
AcDbEntity
   8
0
 100
AcDbBlockBegin
   2
*D54
  70
65
  10
0.0
  20
0.0
  30
0.0
   3
*D54
   0
LINE
   5
2B6
 100
AcDbEntity
   8
LEVEL001
 370
15
 100
AcDbLine
   6
CONTINUOUS
  62
8
  10
 74.352510806001
  20
 48.125000000004
  30
0.0
  11
 76.852510806001
  21
 48.125000000004
  31
0.0
   0
LINE
   5
2B7
 100
AcDbEntity
   8
LEVEL001
 370
15
 100
AcDbLine
   6
CONTINUOUS
  62
8
  10
 74.352510806001
  20
 56.125000000003
  30
0.0
  11
 76.852510806001
  21
 56.125000000003
  31
0.0
   0
LINE
   5
2B8
 100
AcDbEntity
   8
LEVEL001
 370
15
 100
AcDbLine
   6
CONTINUOUS
  62
8
  10
 76.352510806001
  20
 48.125000000004
  30
0.0
  11
 76.352510806001
  21
 52.125000000003
  31
0.0
   0
LINE
   5
2B9
 100
AcDbEntity
   8
LEVEL001
 370
15
 100
AcDbLine
   6
CONTINUOUS
  62
8
  10
 76.352510806001
  20
 56.125000000003
  30
0.0
  11
 76.352510806001
  21
 52.125000000003
  31
0.0
   0
SOLID
   5
2BA
 100
AcDbEntity
   8
LEVEL001
 100
AcDbTrace
   6
CONTINUOUS
  62
8
  10
 76.352510806001
  20
 48.125000000004
  30
0.0
  11
 76.528837786709
  21
 49.125000000004
  31
0.0
  12
 76.176183825292
  22
 49.125000000004
  32
0.0
  13
 76.176183825292
  23
 49.125000000004
  33
0.0
   0
SOLID
   5
2BB
 100
AcDbEntity
   8
LEVEL001
 100
AcDbTrace
   6
CONTINUOUS
  62
8
  10
 76.352510806001
  20
 56.125000000003
  30
0.0
  11
 76.176183825292
  21
 55.125000000003
  31
0.0
  12
 76.528837786709
  22
 55.125000000003
  32
0.0
  13
 76.528837786709
  23
 55.125000000003
  33
0.0
   0
MTEXT
   5
2BC
 100
AcDbEntity
   8
LEVEL001
 370
15
  62
8
 100
AcDbMText
  10
 75.852510806001
  20
 52.125000000003
  30
0.0
  40
 1.2500000000000
  41
0.0
  71
8
  72
1
   1
\A1;8
   7
GMM002
  11
0.0
  21
 1.0000000000000
  31
0.0
   0
ENDBLK
   5
2BD
 100
AcDbEntity
   8
0
 100
AcDbBlockEnd
   0
BLOCK
   5
2BE
 100
AcDbEntity
   8
0
 100
AcDbBlockBegin
   2
*D55
  70
65
  10
0.0
  20
0.0
  30
0.0
   3
*D55
   0
LINE
   5
2BF
 100
AcDbEntity
   8
LEVEL001
 370
15
 100
AcDbLine
   6
CONTINUOUS
  62
8
  10
 57.152510806001
  20
 53.125000000004
  30
0.0
  11
 57.152510806001
  21
 44.625000000004
  31
0.0
   0
LINE
   5
2C0
 100
AcDbEntity
   8
LEVEL001
 370
15
 100
AcDbLine
   6
CONTINUOUS
  62
8
  10
 69.352510806001
  20
 53.125000000004
  30
0.0
  11
 69.352510806001
  21
 44.625000000004
  31
0.0
   0
LINE
   5
2C1
 100
AcDbEntity
   8
LEVEL001
 370
15
 100
AcDbLine
   6
CONTINUOUS
  62
8
  10
 57.152510806001
  20
 45.125000000004
  30
0.0
  11
 63.252510806001
  21
 45.125000000004
  31
0.0
   0
LINE
   5
2C2
 100
AcDbEntity
   8
LEVEL001
 370
15
 100
AcDbLine
   6
CONTINUOUS
  62
8
  10
 69.352510806001
  20
 45.125000000004
  30
0.0
  11
 63.252510806001
  21
 45.125000000004
  31
0.0
   0
SOLID
   5
2C3
 100
AcDbEntity
   8
LEVEL001
 100
AcDbTrace
   6
CONTINUOUS
  62
8
  10
 57.152510806001
  20
 45.125000000004
  30
0.0
  11
 58.152510806001
  21
 44.948673019295
  31
0.0
  12
 58.152510806001
  22
 45.301326980712
  32
0.0
  13
 58.152510806001
  23
 45.301326980712
  33
0.0
   0
SOLID
   5
2C4
 100
AcDbEntity
   8
LEVEL001
 100
AcDbTrace
   6
CONTINUOUS
  62
8
  10
 69.352510806001
  20
 45.125000000004
  30
0.0
  11
 68.352510806001
  21
 45.301326980712
  31
0.0
  12
 68.352510806001
  22
 44.948673019295
  32
0.0
  13
 68.352510806001
  23
 44.948673019295
  33
0.0
   0
MTEXT
   5
2C5
 100
AcDbEntity
   8
LEVEL001
 370
15
  62
8
 100
AcDbMText
  10
 63.252510806001
  20
 45.625000000004
  30
0.0
  40
 1.2500000000000
  41
0.0
  71
8
  72
1
   1
\A1;12.2
   7
GMM002
   0
ENDBLK
   5
2C6
 100
AcDbEntity
   8
0
 100
AcDbBlockEnd
   0
ENDSEC
   0
SECTION
   2
ENTITIES
   0
LINE
   5
2C7
 100
AcDbEntity
   8
LEVEL002
 370
30
 100
AcDbLine
   6
CONTINUOUS
  62
7
  10
 172.07500000000
  20
 136.03750000000
  30
0.0
  11
 168.47500000000
  21
 136.03750000000
  31
0.0
   0
LINE
   5
2C8
 100
AcDbEntity
   8
LEVEL002
 370
30
 100
AcDbLine
   6
CONTINUOUS
  62
7
  10
 168.47500000000
  20
 136.03750000000
  30
0.0
  11
 168.47500000000
  21
 130.63750000000
  31
0.0
   0
LINE
   5
2C9
 100
AcDbEntity
   8
LEVEL002
 370
30
 100
AcDbLine
   6
CONTINUOUS
  62
7
  10
 168.47500000000
  20
 130.63750000000
  30
0.0
  11
 170.27500000000
  21
 130.63750000000
  31
0.0
   0
LINE
   5
2CA
 100
AcDbEntity
   8
LEVEL002
 370
30
 100
AcDbLine
   6
CONTINUOUS
  62
7
  10
 170.27500000000
  20
 130.63750000000
  30
0.0
  11
 170.27500000000
  21
 131.53750000000
  31
0.0
   0
LINE
   5
2CB
 100
AcDbEntity
   8
LEVEL002
 370
30
 100
AcDbLine
   6
CONTINUOUS
  62
7
  10
 170.27500000000
  20
 131.53750000000
  30
0.0
  11
 172.07500000000
  21
 131.53750000000
  31
0.0
   0
ARC
   5
2CC
 100
AcDbEntity
   8
LEVEL002
 370
30
   6
CONTINUOUS
  62
7
 100
AcDbCircle
  10
 172.07500000000
  20
 133.78750000000
  30
0.0
  40
 2.2500000000000
 100
AcDbArc
  50
 270.00000000000
  51
 90.000000000000
   0
LINE
   5
2CD
 100
AcDbEntity
   8
LEVEL002
 370
30
 100
AcDbLine
   6
CONTINUOUS
  62
7
  10
 170.27500000000
  20
 133.33750000000
  30
0.0
  11
 172.07500000000
  21
 133.33750000000
  31
0.0
   0
ARC
   5
2CE
 100
AcDbEntity
   8
LEVEL002
 370
30
   6
CONTINUOUS
  62
7
 100
AcDbCircle
  10
 172.07500000000
  20
 133.78750000000
  30
0.0
  40
 0.45000000000000
 100
AcDbArc
  50
 270.00000000000
  51
 90.000000000000
   0
LINE
   5
2CF
 100
AcDbEntity
   8
LEVEL002
 370
30
 100
AcDbLine
   6
CONTINUOUS
  62
7
  10
 172.07500000000
  20
 134.23750000000
  30
0.0
  11
 170.27500000000
  21
 134.23750000000
  31
0.0
   0
LINE
   5
2D0
 100
AcDbEntity
   8
LEVEL002
 370
30
 100
AcDbLine
   6
CONTINUOUS
  62
7
  10
 170.27500000000
  20
 134.23750000000
  30
0.0
  11
 170.27500000000
  21
 133.33750000000
  31
0.0
   0
LINE
   5
2D1
 100
AcDbEntity
   8
LEVEL002
 370
30
 100
AcDbLine
   6
CONTINUOUS
  62
7
  10
 172.97500000000
  20
 130.63750000000
  30
0.0
  11
 176.57500000000
  21
 136.03750000000
  31
0.0
   0
LINE
   5
2D2
 100
AcDbEntity
   8
LEVEL002
 370
30
 100
AcDbLine
   6
CONTINUOUS
  62
7
  10
 176.57500000000
  20
 136.03750000000
  30
0.0
  11
 181.07500000000
  21
 136.03750000000
  31
0.0
   0
LINE
   5
2D3
 100
AcDbEntity
   8
LEVEL002
 370
30
 100
AcDbLine
   6
CONTINUOUS
  62
7
  10
 181.07500000000
  20
 136.03750000000
  30
0.0
  11
 181.07500000000
  21
 132.43750000000
  31
0.0
   0
LINE
   5
2D4
 100
AcDbEntity
   8
LEVEL002
 370
30
 100
AcDbLine
   6
CONTINUOUS
  62
7
  10
 181.07500000000
  20
 132.43750000000
  30
0.0
  11
 183.77500000000
  21
 132.43750000000
  31
0.0
   0
LINE
   5
2D5
 100
AcDbEntity
   8
LEVEL002
 370
30
 100
AcDbLine
   6
CONTINUOUS
  62
7
  10
 183.77500000000
  20
 132.43750000000
  30
0.0
  11
 183.77500000000
  21
 134.23750000000
  31
0.0
   0
LINE
   5
2D6
 100
AcDbEntity
   8
LEVEL002
 370
30
 100
AcDbLine
   6
CONTINUOUS
  62
7
  10
 183.77500000000
  20
 134.23750000000
  30
0.0
  11
 181.97500000000
  21
 134.23750000000
  31
0.0
   0
LINE
   5
2D7
 100
AcDbEntity
   8
LEVEL002
 370
30
 100
AcDbLine
   6
CONTINUOUS
  62
7
  10
 181.97500000000
  20
 134.23750000000
  30
0.0
  11
 181.97500000000
  21
 136.03750000000
  31
0.0
   0
LINE
   5
2D8
 100
AcDbEntity
   8
LEVEL002
 370
30
 100
AcDbLine
   6
CONTINUOUS
  62
7
  10
 181.97500000000
  20
 136.03750000000
  30
0.0
  11
 192.77500000000
  21
 136.03750000000
  31
0.0
   0
LINE
   5
2D9
 100
AcDbEntity
   8
LEVEL002
 370
30
 100
AcDbLine
   6
CONTINUOUS
  62
7
  10
 192.77500000000
  20
 136.03750000000
  30
0.0
  11
 192.77500000000
  21
 134.23750000000
  31
0.0
   0
LINE
   5
2DA
 100
AcDbEntity
   8
LEVEL002
 370
30
 100
AcDbLine
   6
CONTINUOUS
  62
7
  10
 192.77500000000
  20
 134.23750000000
  30
0.0
  11
 189.17500000000
  21
 134.23750000000
  31
0.0
   0
LINE
   5
2DB
 100
AcDbEntity
   8
LEVEL002
 370
30
 100
AcDbLine
   6
CONTINUOUS
  62
7
  10
 189.17500000000
  20
 134.23750000000
  30
0.0
  11
 189.17500000000
  21
 133.78750000000
  31
0.0
   0
LINE
   5
2DC
 100
AcDbEntity
   8
LEVEL002
 370
30
 100
AcDbLine
   6
CONTINUOUS
  62
7
  10
 189.17500000000
  20
 133.78750000000
  30
0.0
  11
 192.32500000000
  21
 133.78750000000
  31
0.0
   0
LINE
   5
2DD
 100
AcDbEntity
   8
LEVEL002
 370
30
 100
AcDbLine
   6
CONTINUOUS
  62
7
  10
 192.32500000000
  20
 133.78750000000
  30
0.0
  11
 192.32500000000
  21
 132.88750000000
  31
0.0
   0
LINE
   5
2DE
 100
AcDbEntity
   8
LEVEL002
 370
30
 100
AcDbLine
   6
CONTINUOUS
  62
7
  10
 192.32500000000
  20
 132.88750000000
  30
0.0
  11
 189.17500000000
  21
 132.88750000000
  31
0.0
   0
LINE
   5
2DF
 100
AcDbEntity
   8
LEVEL002
 370
30
 100
AcDbLine
   6
CONTINUOUS
  62
7
  10
 189.17500000000
  20
 132.88750000000
  30
0.0
  11
 189.17500000000
  21
 132.43750000000
  31
0.0
   0
LINE
   5
2E0
 100
AcDbEntity
   8
LEVEL002
 370
30
 100
AcDbLine
   6
CONTINUOUS
  62
7
  10
 189.17500000000
  20
 132.43750000000
  30
0.0
  11
 192.77500000000
  21
 132.43750000000
  31
0.0
   0
LINE
   5
2E1
 100
AcDbEntity
   8
LEVEL002
 370
30
 100
AcDbLine
   6
CONTINUOUS
  62
7
  10
 192.77500000000
  20
 132.43750000000
  30
0.0
  11
 192.77500000000
  21
 130.63750000000
  31
0.0
   0
LINE
   5
2E2
 100
AcDbEntity
   8
LEVEL002
 370
30
 100
AcDbLine
   6
CONTINUOUS
  62
7
  10
 192.77500000000
  20
 130.63750000000
  30
0.0
  11
 187.37500000000
  21
 130.63750000000
  31
0.0
   0
LINE
   5
2E3
 100
AcDbEntity
   8
LEVEL002
 370
30
 100
AcDbLine
   6
CONTINUOUS
  62
7
  10
 187.37500000000
  20
 130.63750000000
  30
0.0
  11
 187.37500000000
  21
 134.23750000000
  31
0.0
   0
LINE
   5
2E4
 100
AcDbEntity
   8
LEVEL002
 370
30
 100
AcDbLine
   6
CONTINUOUS
  62
7
  10
 187.37500000000
  20
 134.23750000000
  30
0.0
  11
 185.57500000000
  21
 134.23750000000
  31
0.0
   0
LINE
   5
2E5
 100
AcDbEntity
   8
LEVEL002
 370
30
 100
AcDbLine
   6
CONTINUOUS
  62
7
  10
 185.57500000000
  20
 134.23750000000
  30
0.0
  11
 185.57500000000
  21
 130.63750000000
  31
0.0
   0
LINE
   5
2E6
 100
AcDbEntity
   8
LEVEL002
 370
30
 100
AcDbLine
   6
CONTINUOUS
  62
7
  10
 185.57500000000
  20
 130.63750000000
  30
0.0
  11
 179.27500000000
  21
 130.63750000000
  31
0.0
   0
LINE
   5
2E7
 100
AcDbEntity
   8
LEVEL002
 370
30
 100
AcDbLine
   6
CONTINUOUS
  62
7
  10
 179.27500000000
  20
 130.63750000000
  30
0.0
  11
 179.27500000000
  21
 136.03750000000
  31
0.0
   0
LINE
   5
2E8
 100
AcDbEntity
   8
LEVEL002
 370
30
 100
AcDbLine
   6
CONTINUOUS
  62
7
  10
 179.27500000000
  20
 136.03750000000
  30
0.0
  11
 175.67500000000
  21
 130.63750000000
  31
0.0
   0
LINE
   5
2E9
 100
AcDbEntity
   8
LEVEL002
 370
30
 100
AcDbLine
   6
CONTINUOUS
  62
7
  10
 175.67500000000
  20
 130.63750000000
  30
0.0
  11
 172.97500000000
  21
 130.63750000000
  31
0.0
   0
LINE
   5
2EA
 100
AcDbEntity
   8
LEVEL002
 370
30
 100
AcDbLine
   6
CONTINUOUS
  62
7
  10
 178.67500000000
  20
 134.05583461735
  30
0.0
  11
 176.39611025510
  21
 130.63750000000
  31
0.0
   0
LINE
   5
2EB
 100
AcDbEntity
   8
LEVEL002
 370
30
 100
AcDbLine
   6
CONTINUOUS
  62
7
  10
 176.39611025510
  20
 130.63750000000
  30
0.0
  11
 178.67500000000
  21
 130.63750000000
  31
0.0
   0
LINE
   5
2EC
 100
AcDbEntity
   8
LEVEL002
 370
30
 100
AcDbLine
   6
CONTINUOUS
  62
7
  10
 178.67500000000
  20
 130.63750000000
  30
0.0
  11
 178.67500000000
  21
 134.05583461735
  31
0.0
   0
ARC
   5
2ED
 100
AcDbEntity
   8
LEVEL002
 370
30
   6
CONTINUOUS
  62
7
 100
AcDbCircle
  10
 195.47500000000
  20
 133.33750000000
  30
0.0
  40
 2.7000000000000
 100
AcDbArc
  50
 90.000000000000
  51
 270.00000000000
   0
ARC
   5
2EE
 100
AcDbEntity
   8
LEVEL002
 370
30
   6
CONTINUOUS
  62
7
 100
AcDbCircle
  10
 195.47500000000
  20
 133.33750000000
  30
0.0
  40
 0.90000000000000
 100
AcDbArc
  50
 90.000000000000
  51
 270.00000000000
   0
LINE
   5
2EF
 100
AcDbEntity
   8
LEVEL002
 370
30
 100
AcDbLine
   6
CONTINUOUS
  62
7
  10
 195.47500000000
  20
 136.03750000000
  30
0.0
  11
 198.17500000000
  21
 136.03750000000
  31
0.0
   0
LINE
   5
2F0
 100
AcDbEntity
   8
LEVEL002
 370
30
 100
AcDbLine
   6
CONTINUOUS
  62
7
  10
 198.17500000000
  20
 136.03750000000
  30
0.0
  11
 198.17500000000
  21
 134.23750000000
  31
0.0
   0
LINE
   5
2F1
 100
AcDbEntity
   8
LEVEL002
 370
30
 100
AcDbLine
   6
CONTINUOUS
  62
7
  10
 198.17500000000
  20
 134.23750000000
  30
0.0
  11
 195.47500000000
  21
 134.23750000000
  31
0.0
   0
LINE
   5
2F2
 100
AcDbEntity
   8
LEVEL002
 370
30
 100
AcDbLine
   6
CONTINUOUS
  62
7
  10
 168.47500000000
  20
 136.03750000000
  30
0.0
  11
 168.47500000000
  21
 130.63750000000
  31
0.0
   0
LINE
   5
2F3
 100
AcDbEntity
   8
LEVEL002
 370
30
 100
AcDbLine
   6
CONTINUOUS
  62
7
  10
 168.47500000000
  20
 130.63750000000
  30
0.0
  11
 170.27500000000
  21
 130.63750000000
  31
0.0
   0
LINE
   5
2F4
 100
AcDbEntity
   8
LEVEL002
 370
30
 100
AcDbLine
   6
CONTINUOUS
  62
7
  10
 170.27500000000
  20
 130.63750000000
  30
0.0
  11
 170.27500000000
  21
 131.53750000000
  31
0.0
   0
LINE
   5
2F5
 100
AcDbEntity
   8
LEVEL002
 370
30
 100
AcDbLine
   6
CONTINUOUS
  62
7
  10
 170.27500000000
  20
 131.53750000000
  30
0.0
  11
 172.07500000000
  21
 131.53750000000
  31
0.0
   0
ARC
   5
2F6
 100
AcDbEntity
   8
LEVEL002
 370
30
   6
CONTINUOUS
  62
7
 100
AcDbCircle
  10
 172.07500000000
  20
 133.78750000000
  30
0.0
  40
 2.2500000000000
 100
AcDbArc
  50
 270.00000000000
  51
 90.000000000000
   0
LINE
   5
2F7
 100
AcDbEntity
   8
LEVEL002
 370
30
 100
AcDbLine
   6
CONTINUOUS
  62
7
  10
 172.07500000000
  20
 136.03750000000
  30
0.0
  11
 168.47500000000
  21
 136.03750000000
  31
0.0
   0
LINE
   5
2F8
 100
AcDbEntity
   8
LEVEL002
 370
30
 100
AcDbLine
   6
CONTINUOUS
  62
7
  10
 170.27500000000
  20
 134.23750000000
  30
0.0
  11
 170.27500000000
  21
 133.33750000000
  31
0.0
   0
LINE
   5
2F9
 100
AcDbEntity
   8
LEVEL002
 370
30
 100
AcDbLine
   6
CONTINUOUS
  62
7
  10
 170.27500000000
  20
 133.33750000000
  30
0.0
  11
 172.07500000000
  21
 133.33750000000
  31
0.0
   0
ARC
   5
2FA
 100
AcDbEntity
   8
LEVEL002
 370
30
   6
CONTINUOUS
  62
7
 100
AcDbCircle
  10
 172.07500000000
  20
 133.78750000000
  30
0.0
  40
 0.45000000000000
 100
AcDbArc
  50
 270.00000000000
  51
 90.000000000000
   0
LINE
   5
2FB
 100
AcDbEntity
   8
LEVEL002
 370
30
 100
AcDbLine
   6
CONTINUOUS
  62
7
  10
 172.07500000000
  20
 134.23750000000
  30
0.0
  11
 170.27500000000
  21
 134.23750000000
  31
0.0
   0
LINE
   5
2FC
 100
AcDbEntity
   8
LEVEL002
 370
30
 100
AcDbLine
   6
CONTINUOUS
  62
7
  10
 176.57500000000
  20
 136.03750000000
  30
0.0
  11
 172.97500000000
  21
 130.63750000000
  31
0.0
   0
LINE
   5
2FD
 100
AcDbEntity
   8
LEVEL002
 370
30
 100
AcDbLine
   6
CONTINUOUS
  62
7
  10
 172.97500000000
  20
 130.63750000000
  30
0.0
  11
 175.67500000000
  21
 130.63750000000
  31
0.0
   0
LINE
   5
2FE
 100
AcDbEntity
   8
LEVEL002
 370
30
 100
AcDbLine
   6
CONTINUOUS
  62
7
  10
 175.67500000000
  20
 130.63750000000
  30
0.0
  11
 179.27500000000
  21
 136.03750000000
  31
0.0
   0
LINE
   5
2FF
 100
AcDbEntity
   8
LEVEL002
 370
30
 100
AcDbLine
   6
CONTINUOUS
  62
7
  10
 179.27500000000
  20
 136.03750000000
  30
0.0
  11
 176.57500000000
  21
 136.03750000000
  31
0.0
   0
LINE
   5
300
 100
AcDbEntity
   8
LEVEL002
 370
30
 100
AcDbLine
   6
CONTINUOUS
  62
7
  10
 178.67500000000
  20
 130.63750000000
  30
0.0
  11
 178.67500000000
  21
 134.05583461735
  31
0.0
   0
LINE
   5
301
 100
AcDbEntity
   8
LEVEL002
 370
30
 100
AcDbLine
   6
CONTINUOUS
  62
7
  10
 178.67500000000
  20
 134.05583461735
  30
0.0
  11
 176.39611025510
  21
 130.63750000000
  31
0.0
   0
LINE
   5
302
 100
AcDbEntity
   8
LEVEL002
 370
30
 100
AcDbLine
   6
CONTINUOUS
  62
7
  10
 176.39611025510
  20
 130.63750000000
  30
0.0
  11
 178.67500000000
  21
 130.63750000000
  31
0.0
   0
LINE
   5
303
 100
AcDbEntity
   8
LEVEL002
 370
30
 100
AcDbLine
   6
CONTINUOUS
  62
7
  10
 179.27500000000
  20
 130.63750000000
  30
0.0
  11
 185.57500000000
  21
 130.63750000000
  31
0.0
   0
LINE
   5
304
 100
AcDbEntity
   8
LEVEL002
 370
30
 100
AcDbLine
   6
CONTINUOUS
  62
7
  10
 185.57500000000
  20
 130.63750000000
  30
0.0
  11
 185.57500000000
  21
 134.23750000000
  31
0.0
   0
LINE
   5
305
 100
AcDbEntity
   8
LEVEL002
 370
30
 100
AcDbLine
   6
CONTINUOUS
  62
7
  10
 185.57500000000
  20
 134.23750000000
  30
0.0
  11
 187.37500000000
  21
 134.23750000000
  31
0.0
   0
LINE
   5
306
 100
AcDbEntity
   8
LEVEL002
 370
30
 100
AcDbLine
   6
CONTINUOUS
  62
7
  10
 187.37500000000
  20
 134.23750000000
  30
0.0
  11
 187.37500000000
  21
 130.63750000000
  31
0.0
   0
LINE
   5
307
 100
AcDbEntity
   8
LEVEL002
 370
30
 100
AcDbLine
   6
CONTINUOUS
  62
7
  10
 187.37500000000
  20
 130.63750000000
  30
0.0
  11
 192.77500000000
  21
 130.63750000000
  31
0.0
   0
LINE
   5
308
 100
AcDbEntity
   8
LEVEL002
 370
30
 100
AcDbLine
   6
CONTINUOUS
  62
7
  10
 192.77500000000
  20
 130.63750000000
  30
0.0
  11
 192.77500000000
  21
 132.43750000000
  31
0.0
   0
LINE
   5
309
 100
AcDbEntity
   8
LEVEL002
 370
30
 100
AcDbLine
   6
CONTINUOUS
  62
7
  10
 192.77500000000
  20
 132.43750000000
  30
0.0
  11
 189.17500000000
  21
 132.43750000000
  31
0.0
   0
LINE
   5
30A
 100
AcDbEntity
   8
LEVEL002
 370
30
 100
AcDbLine
   6
CONTINUOUS
  62
7
  10
 189.17500000000
  20
 132.43750000000
  30
0.0
  11
 189.17500000000
  21
 132.88750000000
  31
0.0
   0
LINE
   5
30B
 100
AcDbEntity
   8
LEVEL002
 370
30
 100
AcDbLine
   6
CONTINUOUS
  62
7
  10
 189.17500000000
  20
 132.88750000000
  30
0.0
  11
 192.32500000000
  21
 132.88750000000
  31
0.0
   0
LINE
   5
30C
 100
AcDbEntity
   8
LEVEL002
 370
30
 100
AcDbLine
   6
CONTINUOUS
  62
7
  10
 192.32500000000
  20
 132.88750000000
  30
0.0
  11
 192.32500000000
  21
 133.78750000000
  31
0.0
   0
LINE
   5
30D
 100
AcDbEntity
   8
LEVEL002
 370
30
 100
AcDbLine
   6
CONTINUOUS
  62
7
  10
 192.32500000000
  20
 133.78750000000
  30
0.0
  11
 189.17500000000
  21
 133.78750000000
  31
0.0
   0
LINE
   5
30E
 100
AcDbEntity
   8
LEVEL002
 370
30
 100
AcDbLine
   6
CONTINUOUS
  62
7
  10
 189.17500000000
  20
 133.78750000000
  30
0.0
  11
 189.17500000000
  21
 134.23750000000
  31
0.0
   0
LINE
   5
30F
 100
AcDbEntity
   8
LEVEL002
 370
30
 100
AcDbLine
   6
CONTINUOUS
  62
7
  10
 189.17500000000
  20
 134.23750000000
  30
0.0
  11
 192.77500000000
  21
 134.23750000000
  31
0.0
   0
LINE
   5
310
 100
AcDbEntity
   8
LEVEL002
 370
30
 100
AcDbLine
   6
CONTINUOUS
  62
7
  10
 192.77500000000
  20
 134.23750000000
  30
0.0
  11
 192.77500000000
  21
 136.03750000000
  31
0.0
   0
LINE
   5
311
 100
AcDbEntity
   8
LEVEL002
 370
30
 100
AcDbLine
   6
CONTINUOUS
  62
7
  10
 192.77500000000
  20
 136.03750000000
  30
0.0
  11
 181.97500000000
  21
 136.03750000000
  31
0.0
   0
LINE
   5
312
 100
AcDbEntity
   8
LEVEL002
 370
30
 100
AcDbLine
   6
CONTINUOUS
  62
7
  10
 181.97500000000
  20
 136.03750000000
  30
0.0
  11
 181.97500000000
  21
 134.23750000000
  31
0.0
   0
LINE
   5
313
 100
AcDbEntity
   8
LEVEL002
 370
30
 100
AcDbLine
   6
CONTINUOUS
  62
7
  10
 181.97500000000
  20
 134.23750000000
  30
0.0
  11
 183.77500000000
  21
 134.23750000000
  31
0.0
   0
LINE
   5
314
 100
AcDbEntity
   8
LEVEL002
 370
30
 100
AcDbLine
   6
CONTINUOUS
  62
7
  10
 183.77500000000
  20
 134.23750000000
  30
0.0
  11
 183.77500000000
  21
 132.43750000000
  31
0.0
   0
LINE
   5
315
 100
AcDbEntity
   8
LEVEL002
 370
30
 100
AcDbLine
   6
CONTINUOUS
  62
7
  10
 183.77500000000
  20
 132.43750000000
  30
0.0
  11
 181.07500000000
  21
 132.43750000000
  31
0.0
   0
LINE
   5
316
 100
AcDbEntity
   8
LEVEL002
 370
30
 100
AcDbLine
   6
CONTINUOUS
  62
7
  10
 181.07500000000
  20
 132.43750000000
  30
0.0
  11
 181.07500000000
  21
 136.03750000000
  31
0.0
   0
LINE
   5
317
 100
AcDbEntity
   8
LEVEL002
 370
30
 100
AcDbLine
   6
CONTINUOUS
  62
7
  10
 181.07500000000
  20
 136.03750000000
  30
0.0
  11
 179.27500000000
  21
 136.03750000000
  31
0.0
   0
LINE
   5
318
 100
AcDbEntity
   8
LEVEL002
 370
30
 100
AcDbLine
   6
CONTINUOUS
  62
7
  10
 179.27500000000
  20
 136.03750000000
  30
0.0
  11
 179.27500000000
  21
 130.63750000000
  31
0.0
   0
LINE
   5
319
 100
AcDbEntity
   8
LEVEL002
 370
30
 100
AcDbLine
   6
CONTINUOUS
  62
7
  10
 195.47500000000
  20
 130.63750000000
  30
0.0
  11
 198.17500000000
  21
 130.63750000000
  31
0.0
   0
LINE
   5
31A
 100
AcDbEntity
   8
LEVEL002
 370
30
 100
AcDbLine
   6
CONTINUOUS
  62
7
  10
 198.17500000000
  20
 130.63750000000
  30
0.0
  11
 198.17500000000
  21
 132.43750000000
  31
0.0
   0
LINE
   5
31B
 100
AcDbEntity
   8
LEVEL002
 370
30
 100
AcDbLine
   6
CONTINUOUS
  62
7
  10
 198.17500000000
  20
 132.43750000000
  30
0.0
  11
 195.47500000000
  21
 132.43750000000
  31
0.0
   0
ARC
   5
31C
 100
AcDbEntity
   8
LEVEL002
 370
30
   6
CONTINUOUS
  62
7
 100
AcDbCircle
  10
 195.47500000000
  20
 133.33750000000
  30
0.0
  40
 0.90000000000000
 100
AcDbArc
  50
 90.000000000000
  51
 270.00000000000
   0
LINE
   5
31D
 100
AcDbEntity
   8
LEVEL002
 370
30
 100
AcDbLine
   6
CONTINUOUS
  62
7
  10
 195.47500000000
  20
 134.23750000000
  30
0.0
  11
 198.17500000000
  21
 134.23750000000
  31
0.0
   0
LINE
   5
31E
 100
AcDbEntity
   8
LEVEL002
 370
30
 100
AcDbLine
   6
CONTINUOUS
  62
7
  10
 198.17500000000
  20
 134.23750000000
  30
0.0
  11
 198.17500000000
  21
 136.03750000000
  31
0.0
   0
LINE
   5
31F
 100
AcDbEntity
   8
LEVEL002
 370
30
 100
AcDbLine
   6
CONTINUOUS
  62
7
  10
 198.17500000000
  20
 136.03750000000
  30
0.0
  11
 195.47500000000
  21
 136.03750000000
  31
0.0
   0
ARC
   5
320
 100
AcDbEntity
   8
LEVEL002
 370
30
   6
CONTINUOUS
  62
7
 100
AcDbCircle
  10
 195.47500000000
  20
 133.33750000000
  30
0.0
  40
 2.7000000000000
 100
AcDbArc
  50
 90.000000000000
  51
 270.00000000000
   0
MTEXT
   5
322
 100
AcDbEntity
   8
LEVEL002
 370
30
  62
7
 100
AcDbMText
  10
 168.47500000000
  20
 136.93750000000
  30
0.0
  40
 1.8750000000000
  41
0.0
  71
7
  72
1
   1
\T1.000000;ケージーパルテック株式会社
   7
GMM001
  44
 0.79999984000003
   0
LINE
   5
323
 100
AcDbEntity
   8
LEVEL002
 370
30
 100
AcDbLine
   6
CONTINUOUS
  62
7
  10
 166.67500000000
  20
 131.83750000000
  30
0.0
  11
 164.42500000000
  21
 135.43750000000
  31
0.0
   0
LINE
   5
324
 100
AcDbEntity
   8
LEVEL002
 370
30
 100
AcDbLine
   6
CONTINUOUS
  62
7
  10
 164.42500000000
  20
 135.43750000000
  30
0.0
  11
 166.67500000000
  21
 135.43750000000
  31
0.0
   0
LINE
   5
325
 100
AcDbEntity
   8
LEVEL002
 370
30
 100
AcDbLine
   6
CONTINUOUS
  62
7
  10
 166.67500000000
  20
 135.43750000000
  30
0.0
  11
 166.67500000000
  21
 131.83750000000
  31
0.0
   0
LINE
   5
326
 100
AcDbEntity
   8
LEVEL002
 370
30
 100
AcDbLine
   6
CONTINUOUS
  62
7
  10
 164.42500000000
  20
 135.43750000000
  30
0.0
  11
 166.67500000000
  21
 131.83750000000
  31
0.0
   0
LINE
   5
327
 100
AcDbEntity
   8
LEVEL002
 370
30
 100
AcDbLine
   6
CONTINUOUS
  62
7
  10
 166.67500000000
  20
 131.83750000000
  30
0.0
  11
 166.67500000000
  21
 135.43750000000
  31
0.0
   0
LINE
   5
328
 100
AcDbEntity
   8
LEVEL002
 370
30
 100
AcDbLine
   6
CONTINUOUS
  62
7
  10
 166.67500000000
  20
 135.43750000000
  30
0.0
  11
 164.42500000000
  21
 135.43750000000
  31
0.0
   0
LINE
   5
329
 100
AcDbEntity
   8
LEVEL002
 370
30
 100
AcDbLine
   6
CONTINUOUS
  62
7
  10
 159.52500000000
  20
 140.23750000000
  30
0.0
  11
 156.32500000000
  21
 135.43750000000
  31
0.0
   0
LINE
   5
32A
 100
AcDbEntity
   8
LEVEL002
 370
30
 100
AcDbLine
   6
CONTINUOUS
  62
7
  10
 156.32500000000
  20
 135.43750000000
  30
0.0
  11
 159.52500000000
  21
 130.63750000000
  31
0.0
   0
LINE
   5
32B
 100
AcDbEntity
   8
LEVEL002
 370
30
 100
AcDbLine
   6
CONTINUOUS
  62
7
  10
 162.22500000000
  20
 130.63750000000
  30
0.0
  11
 159.02500000000
  21
 135.43750000000
  31
0.0
   0
LINE
   5
32C
 100
AcDbEntity
   8
LEVEL002
 370
30
 100
AcDbLine
   6
CONTINUOUS
  62
7
  10
 159.02500000000
  20
 135.43750000000
  30
0.0
  11
 162.22500000000
  21
 140.23750000000
  31
0.0
   0
LINE
   5
32D
 100
AcDbEntity
   8
LEVEL002
 370
30
 100
AcDbLine
   6
CONTINUOUS
  62
7
  10
 163.57500000000
  20
 140.23750000000
  30
0.0
  11
 160.37500000000
  21
 135.43750000000
  31
0.0
   0
LINE
   5
32E
 100
AcDbEntity
   8
LEVEL002
 370
30
 100
AcDbLine
   6
CONTINUOUS
  62
7
  10
 160.37500000000
  20
 135.43750000000
  30
0.0
  11
 163.57500000000
  21
 130.63750000000
  31
0.0
   0
LINE
   5
32F
 100
AcDbEntity
   8
LEVEL002
 370
30
 100
AcDbLine
   6
CONTINUOUS
  62
7
  10
 166.27500000000
  20
 130.63750000000
  30
0.0
  11
 163.07500000000
  21
 135.43750000000
  31
0.0
   0
LINE
   5
330
 100
AcDbEntity
   8
LEVEL002
 370
30
 100
AcDbLine
   6
CONTINUOUS
  62
7
  10
 163.07500000000
  20
 135.43750000000
  30
0.0
  11
 166.27500000000
  21
 140.23750000000
  31
0.0
   0
LINE
   5
331
 100
AcDbEntity
   8
LEVEL002
 370
30
 100
AcDbLine
   6
CONTINUOUS
  62
7
  10
 159.52500000000
  20
 130.63750000000
  30
0.0
  11
 156.32500000000
  21
 135.43750000000
  31
0.0
   0
LINE
   5
332
 100
AcDbEntity
   8
LEVEL002
 370
30
 100
AcDbLine
   6
CONTINUOUS
  62
7
  10
 156.32500000000
  20
 135.43750000000
  30
0.0
  11
 159.52500000000
  21
 140.23750000000
  31
0.0
   0
LINE
   5
333
 100
AcDbEntity
   8
LEVEL002
 370
30
 100
AcDbLine
   6
CONTINUOUS
  62
7
  10
 159.52500000000
  20
 140.23750000000
  30
0.0
  11
 162.22500000000
  21
 140.23750000000
  31
0.0
   0
LINE
   5
334
 100
AcDbEntity
   8
LEVEL002
 370
30
 100
AcDbLine
   6
CONTINUOUS
  62
7
  10
 162.22500000000
  20
 140.23750000000
  30
0.0
  11
 159.02500000000
  21
 135.43750000000
  31
0.0
   0
LINE
   5
335
 100
AcDbEntity
   8
LEVEL002
 370
30
 100
AcDbLine
   6
CONTINUOUS
  62
7
  10
 159.02500000000
  20
 135.43750000000
  30
0.0
  11
 162.22500000000
  21
 130.63750000000
  31
0.0
   0
LINE
   5
336
 100
AcDbEntity
   8
LEVEL002
 370
30
 100
AcDbLine
   6
CONTINUOUS
  62
7
  10
 162.22500000000
  20
 130.63750000000
  30
0.0
  11
 159.52500000000
  21
 130.63750000000
  31
0.0
   0
LINE
   5
337
 100
AcDbEntity
   8
LEVEL002
 370
30
 100
AcDbLine
   6
CONTINUOUS
  62
7
  10
 163.57500000000
  20
 130.63750000000
  30
0.0
  11
 160.37500000000
  21
 135.43750000000
  31
0.0
   0
LINE
   5
338
 100
AcDbEntity
   8
LEVEL002
 370
30
 100
AcDbLine
   6
CONTINUOUS
  62
7
  10
 160.37500000000
  20
 135.43750000000
  30
0.0
  11
 163.57500000000
  21
 140.23750000000
  31
0.0
   0
LINE
   5
339
 100
AcDbEntity
   8
LEVEL002
 370
30
 100
AcDbLine
   6
CONTINUOUS
  62
7
  10
 163.57500000000
  20
 140.23750000000
  30
0.0
  11
 166.27500000000
  21
 140.23750000000
  31
0.0
   0
LINE
   5
33A
 100
AcDbEntity
   8
LEVEL002
 370
30
 100
AcDbLine
   6
CONTINUOUS
  62
7
  10
 166.27500000000
  20
 140.23750000000
  30
0.0
  11
 163.07500000000
  21
 135.43750000000
  31
0.0
   0
LINE
   5
33B
 100
AcDbEntity
   8
LEVEL002
 370
30
 100
AcDbLine
   6
CONTINUOUS
  62
7
  10
 163.07500000000
  20
 135.43750000000
  30
0.0
  11
 166.27500000000
  21
 130.63750000000
  31
0.0
   0
LINE
   5
33C
 100
AcDbEntity
   8
LEVEL002
 370
30
 100
AcDbLine
   6
CONTINUOUS
  62
7
  10
 166.27500000000
  20
 130.63750000000
  30
0.0
  11
 163.57500000000
  21
 130.63750000000
  31
0.0
   0
LINE
   5
33D
 100
AcDbEntity
   8
LEVEL001
 370
30
 100
AcDbLine
   6
DOT
  62
7
  10
0.0
  20
0.0
  30
0.0
  11
 210.00000000000
  21
0.0
  31
0.0
   0
LINE
   5
33E
 100
AcDbEntity
   8
LEVEL001
 370
30
 100
AcDbLine
   6
DOT
  62
7
  10
 210.00000000000
  20
0.0
  30
0.0
  11
 210.00000000000
  21
 148.50000000000
  31
0.0
   0
LINE
   5
33F
 100
AcDbEntity
   8
LEVEL001
 370
30
 100
AcDbLine
   6
DOT
  62
7
  10
 210.00000000000
  20
 148.50000000000
  30
0.0
  11
0.0
  21
 148.50000000000
  31
0.0
   0
LINE
   5
340
 100
AcDbEntity
   8
LEVEL001
 370
30
 100
AcDbLine
   6
DOT
  62
7
  10
0.0
  20
 148.50000000000
  30
0.0
  11
0.0
  21
0.0
  31
0.0
   0
LINE
   5
341
 100
AcDbEntity
   8
LEVEL002
 370
40
 100
AcDbLine
   6
CONTINUOUS
  62
3
  10
 7.7499999999750
  20
 137.50000000000
  30
0.0
  11
 152.24999999997
  21
 137.50000000000
  31
0.0
   0
LINE
   5
342
 100
AcDbEntity
   8
LEVEL002
 370
40
 100
AcDbLine
   6
CONTINUOUS
  62
3
  10
 152.24999999997
  20
 128.37500000000
  30
0.0
  11
 202.24999999997
  21
 128.37500000000
  31
0.0
   0
LINE
   5
343
 100
AcDbEntity
   8
LEVEL002
 370
40
 100
AcDbLine
   6
CONTINUOUS
  62
3
  10
 152.24999999997
  20
 118.37500000000
  30
0.0
  11
 202.24999999997
  21
 118.37500000000
  31
0.0
   0
LINE
   5
344
 100
AcDbEntity
   8
LEVEL002
 370
40
 100
AcDbLine
   6
CONTINUOUS
  62
3
  10
 152.24999999997
  20
 108.37500000000
  30
0.0
  11
 202.24999999997
  21
 108.37500000000
  31
0.0
   0
LINE
   5
345
 100
AcDbEntity
   8
LEVEL002
 370
40
 100
AcDbLine
   6
CONTINUOUS
  62
3
  10
 152.24999999997
  20
 36.000000000005
  30
0.0
  11
 202.24999999997
  21
 36.000000000005
  31
0.0
   0
LINE
   5
346
 100
AcDbEntity
   8
LEVEL002
 370
40
 100
AcDbLine
   6
CONTINUOUS
  62
3
  10
 152.24999999997
  20
 26.000000000005
  30
0.0
  11
 202.24999999997
  21
 26.000000000005
  31
0.0
   0
LINE
   5
347
 100
AcDbEntity
   8
LEVEL002
 370
40
 100
AcDbLine
   6
CONTINUOUS
  62
3
  10
 152.24999999997
  20
 16.000000000005
  30
0.0
  11
 202.24999999997
  21
 16.000000000005
  31
0.0
   0
LINE
   5
348
 100
AcDbEntity
   8
LEVEL002
 370
40
 100
AcDbLine
   6
CONTINUOUS
  62
3
  10
 177.24999999997
  20
 26.000000000005
  30
0.0
  11
 177.24999999997
  21
 6.0000000000050
  31
0.0
   0
LINE
   5
349
 100
AcDbEntity
   8
LEVEL002
 370
40
 100
AcDbLine
   6
CONTINUOUS
  62
3
  10
 177.24999999997
  20
 19.333333333340
  30
0.0
  11
 202.24999999997
  21
 19.333333333340
  31
0.0
   0
LINE
   5
34A
 100
AcDbEntity
   8
LEVEL002
 370
40
 100
AcDbLine
   6
CONTINUOUS
  62
3
  10
 177.24999999997
  20
 22.666666666673
  30
0.0
  11
 202.24999999997
  21
 22.666666666673
  31
0.0
   0
LINE
   5
34B
 100
AcDbEntity
   8
LEVEL002
 370
50
 100
AcDbLine
   6
CONTINUOUS
  62
4
  10
 202.24999999997
  20
 142.50000000000
  30
0.0
  11
 7.7499999999750
  21
 142.50000000000
  31
0.0
   0
LINE
   5
34C
 100
AcDbEntity
   8
LEVEL002
 370
50
 100
AcDbLine
   6
CONTINUOUS
  62
4
  10
 152.24999999997
  20
 142.50000000000
  30
0.0
  11
 152.24999999997
  21
 6.0000000000050
  31
0.0
   0
LINE
   5
34D
 100
AcDbEntity
   8
LEVEL002
 370
50
 100
AcDbLine
   6
CONTINUOUS
  62
4
  10
 202.24999999997
  20
 6.0000000000050
  30
0.0
  11
 202.24999999997
  21
 142.50000000000
  31
0.0
   0
LINE
   5
34E
 100
AcDbEntity
   8
LEVEL002
 370
50
 100
AcDbLine
   6
CONTINUOUS
  62
4
  10
 7.7499999999750
  20
 142.50000000000
  30
0.0
  11
 7.7499999999750
  21
 6.0000000000050
  31
0.0
   0
LINE
   5
34F
 100
AcDbEntity
   8
LEVEL002
 370
50
 100
AcDbLine
   6
CONTINUOUS
  62
4
  10
 7.7499999999750
  20
 6.0000000000050
  30
0.0
  11
 202.24999999997
  21
 6.0000000000050
  31
0.0
   0
HATCH
   5
350
 100
AcDbEntity
   8
LEVEL001
  62
1
 100
AcDbHatch
  10
0.0
  20
0.0
  30
0.0
 210
0.0
 220
0.0
 230
 1.0000000000000
   2
SOLID
  70
1
  71
1
  91
7
  92
1
  93
6
  72
1
  10
 162.22500000000
  20
 140.23750000000
  11
 159.02500000000
  21
 135.43750000000
  72
1
  10
 159.02500000000
  20
 135.43750000000
  11
 162.22500000000
  21
 130.63750000000
  72
1
  10
 162.22500000000
  20
 130.63750000000
  11
 159.52500000000
  21
 130.63750000000
  72
1
  10
 159.52500000000
  20
 130.63750000000
  11
 156.32500000000
  21
 135.43750000000
  72
1
  10
 156.32500000000
  20
 135.43750000000
  11
 159.52500000000
  21
 140.23750000000
  72
1
  10
 159.52500000000
  20
 140.23750000000
  11
 162.22500000000
  21
 140.23750000000
  97
1
 330

  92
16
  93
6
  72
1
  10
 163.57500000000
  20
 140.23750000000
  11
 166.27500000000
  21
 140.23750000000
  72
1
  10
 166.27500000000
  20
 140.23750000000
  11
 163.07500000000
  21
 135.43750000000
  72
1
  10
 163.07500000000
  20
 135.43750000000
  11
 166.27500000000
  21
 130.63750000000
  72
1
  10
 166.27500000000
  20
 130.63750000000
  11
 163.57500000000
  21
 130.63750000000
  72
1
  10
 163.57500000000
  20
 130.63750000000
  11
 160.37500000000
  21
 135.43750000000
  72
1
  10
 160.37500000000
  20
 135.43750000000
  11
 163.57500000000
  21
 140.23750000000
  97
1
 330

  92
16
  93
3
  72
1
  10
 166.67500000000
  20
 135.43750000000
  11
 164.42500000000
  21
 135.43750000000
  72
1
  10
 164.42500000000
  20
 135.43750000000
  11
 166.67500000000
  21
 131.83750000000
  72
1
  10
 166.67500000000
  20
 131.83750000000
  11
 166.67500000000
  21
 135.43750000000
  97
1
 330

  92
16
  93
6
  72
1
  10
 168.47500000000
  20
 136.03750000000
  11
 172.07500000000
  21
 136.03750000000
  72
2
  10
 172.07500000000
  20
 133.78750000000
  40
 2.2500000000000
  50
 270.00000000000
  51
 90.000000000000
  73
0
  72
1
  10
 172.07500000000
  20
 131.53750000000
  11
 170.27500000000
  21
 131.53750000000
  72
1
  10
 170.27500000000
  20
 131.53750000000
  11
 170.27500000000
  21
 130.63750000000
  72
1
  10
 170.27500000000
  20
 130.63750000000
  11
 168.47500000000
  21
 130.63750000000
  72
1
  10
 168.47500000000
  20
 130.63750000000
  11
 168.47500000000
  21
 136.03750000000
  97
1
 330

  92
16
  93
4
  72
1
  10
 172.07500000000
  20
 134.23750000000
  11
 170.27500000000
  21
 134.23750000000
  72
1
  10
 170.27500000000
  20
 134.23750000000
  11
 170.27500000000
  21
 133.33750000000
  72
1
  10
 170.27500000000
  20
 133.33750000000
  11
 172.07500000000
  21
 133.33750000000
  72
2
  10
 172.07500000000
  20
 133.78750000000
  40
 0.45000000000000
  50
 270.00000000000
  51
 90.000000000000
  73
1
  97
1
 330

  92
16
  93
4
  72
1
  10
 172.97500000000
  20
 130.63750000000
  11
 176.57500000000
  21
 136.03750000000
  72
1
  10
 176.57500000000
  20
 136.03750000000
  11
 179.27500000000
  21
 136.03750000000
  72
1
  10
 179.27500000000
  20
 136.03750000000
  11
 175.67500000000
  21
 130.63750000000
  72
1
  10
 175.67500000000
  20
 130.63750000000
  11
 172.97500000000
  21
 130.63750000000
  97
1
 330

  92
16
  93
3
  72
1
  10
 178.67500000000
  20
 134.05583461735
  11
 176.39611025510
  21
 130.63750000000
  72
1
  10
 176.39611025510
  20
 130.63750000000
  11
 178.67500000000
  21
 130.63750000000
  72
1
  10
 178.67500000000
  20
 130.63750000000
  11
 178.67500000000
  21
 134.05583461735
  97
1
 330

  75
0
  76
1
  98
1
  10
0.0
  20
0.0
   0
HATCH
   5
351
 100
AcDbEntity
   8
LEVEL001
  62
1
 100
AcDbHatch
  10
0.0
  20
0.0
  30
0.0
 210
0.0
 220
0.0
 230
 1.0000000000000
   2
SOLID
  70
1
  71
1
  91
1
  92
1
  93
22
  72
1
  10
 179.27500000000
  20
 136.03750000000
  11
 181.07500000000
  21
 136.03750000000
  72
1
  10
 181.07500000000
  20
 136.03750000000
  11
 181.07500000000
  21
 132.43750000000
  72
1
  10
 181.07500000000
  20
 132.43750000000
  11
 183.77500000000
  21
 132.43750000000
  72
1
  10
 183.77500000000
  20
 132.43750000000
  11
 183.77500000000
  21
 134.23750000000
  72
1
  10
 183.77500000000
  20
 134.23750000000
  11
 181.97500000000
  21
 134.23750000000
  72
1
  10
 181.97500000000
  20
 134.23750000000
  11
 181.97500000000
  21
 136.03750000000
  72
1
  10
 181.97500000000
  20
 136.03750000000
  11
 192.77500000000
  21
 136.03750000000
  72
1
  10
 192.77500000000
  20
 136.03750000000
  11
 192.77500000000
  21
 134.23750000000
  72
1
  10
 192.77500000000
  20
 134.23750000000
  11
 189.17500000000
  21
 134.23750000000
  72
1
  10
 189.17500000000
  20
 134.23750000000
  11
 189.17500000000
  21
 133.78750000000
  72
1
  10
 189.17500000000
  20
 133.78750000000
  11
 192.32500000000
  21
 133.78750000000
  72
1
  10
 192.32500000000
  20
 133.78750000000
  11
 192.32500000000
  21
 132.88750000000
  72
1
  10
 192.32500000000
  20
 132.88750000000
  11
 189.17500000000
  21
 132.88750000000
  72
1
  10
 189.17500000000
  20
 132.88750000000
  11
 189.17500000000
  21
 132.43750000000
  72
1
  10
 189.17500000000
  20
 132.43750000000
  11
 192.77500000000
  21
 132.43750000000
  72
1
  10
 192.77500000000
  20
 132.43750000000
  11
 192.77500000000
  21
 130.63750000000
  72
1
  10
 192.77500000000
  20
 130.63750000000
  11
 187.37500000000
  21
 130.63750000000
  72
1
  10
 187.37500000000
  20
 130.63750000000
  11
 187.37500000000
  21
 134.23750000000
  72
1
  10
 187.37500000000
  20
 134.23750000000
  11
 185.57500000000
  21
 134.23750000000
  72
1
  10
 185.57500000000
  20
 134.23750000000
  11
 185.57500000000
  21
 130.63750000000
  72
1
  10
 185.57500000000
  20
 130.63750000000
  11
 179.27500000000
  21
 130.63750000000
  72
1
  10
 179.27500000000
  20
 130.63750000000
  11
 179.27500000000
  21
 136.03750000000
  97
1
 330

  75
0
  76
1
  98
1
  10
0.0
  20
0.0
   0
HATCH
   5
352
 100
AcDbEntity
   8
LEVEL001
  62
1
 100
AcDbHatch
  10
0.0
  20
0.0
  30
0.0
 210
0.0
 220
0.0
 230
 1.0000000000000
   2
SOLID
  70
1
  71
1
  91
1
  92
1
  93
8
  72
1
  10
 198.17500000000
  20
 136.03750000000
  11
 195.47500000000
  21
 136.03750000000
  72
2
  10
 195.47500000000
  20
 133.33750000000
  40
 2.7000000000000
  50
 90.000000000000
  51
 270.00000000000
  73
1
  72
1
  10
 195.47500000000
  20
 130.63750000000
  11
 198.17500000000
  21
 130.63750000000
  72
1
  10
 198.17500000000
  20
 130.63750000000
  11
 198.17500000000
  21
 132.43750000000
  72
1
  10
 198.17500000000
  20
 132.43750000000
  11
 195.47500000000
  21
 132.43750000000
  72
2
  10
 195.47500000000
  20
 133.33750000000
  40
 0.90000000000000
  50
 90.000000000000
  51
 270.00000000000
  73
0
  72
1
  10
 195.47500000000
  20
 134.23750000000
  11
 198.17500000000
  21
 134.23750000000
  72
1
  10
 198.17500000000
  20
 134.23750000000
  11
 198.17500000000
  21
 136.03750000000
  97
1
 330

  75
0
  76
1
  98
1
  10
0.0
  20
0.0
   0
MTEXT
   5
354
 100
AcDbEntity
   8
LEVEL002
 370
15
  62
8
 100
AcDbMText
  10
 155.39999999997
  20
 14.125000000005
  30
0.0
  40
 1.5000000000000
  41
0.0
  71
5
  72
1
   1
\T1.000000;サイズ：
   7
GMM002
  44
 0.79999984000003
   0
MTEXT
   5
356
 100
AcDbEntity
   8
LEVEL002
 370
15
  62
8
 100
AcDbMText
  10
 154.64999999997
  20
 24.125000000005
  30
0.0
  40
 1.5000000000000
  41
0.0
  71
5
  72
1
   1
\T1.000000;縮尺：
   7
GMM002
  44
 0.79999984000003
   0
MTEXT
   5
358
 100
AcDbEntity
   8
LEVEL002
 370
15
  62
8
 100
AcDbMText
  10
 156.14999999997
  20
 34.125000000005
  30
0.0
  40
 1.5000000000000
  41
0.0
  71
5
  72
1
   1
\T1.000000;図面名称：
   7
GMM002
  44
 0.79999984000003
   0
MTEXT
   5
35A
 100
AcDbEntity
   8
LEVEL002
 370
15
  62
8
 100
AcDbMText
  10
 181.89999999997
  20
 14.125000000005
  30
0.0
  40
 1.5000000000000
  41
0.0
  71
5
  72
1
   1
\T1.000000;ファイル名：
   7
GMM002
  44
 0.79999984000003
   0
MTEXT
   5
35C
 100
AcDbEntity
   8
LEVEL002
 370
15
  62
8
 100
AcDbMText
  10
 181.14999999997
  20
 21.000000000005
  30
0.0
  40
 1.4000000000000
  41
0.0
  71
5
  72
1
   1
\T1.000000;変更日付：
   7
GMM003
  44
 0.79999984000003
   0
MTEXT
   5
35E
 100
AcDbEntity
   8
LEVEL002
 370
15
  62
8
 100
AcDbMText
  10
 164.74999999997
  20
 9.1250000000050
  30
0.0
  40
 1.8750000000000
  41
0.0
  71
5
  72
1
   1
\T1.000000;Ａ３
   7
GMM002
  44
 0.79999984000003
   0
MTEXT
   5
360
 100
AcDbEntity
   8
LEVEL002
 370
15
  62
8
 100
AcDbMText
  10
 154.64999999997
  20
 106.50000000000
  30
0.0
  40
 1.5000000000000
  41
0.0
  71
5
  72
1
   1
\T1.000000;仕様：
   7
GMM002
  44
 0.79999984000003
   0
MTEXT
   5
362
 100
AcDbEntity
   8
LEVEL002
 370
15
  62
8
 100
AcDbMText
  10
 154.64999999997
  20
 116.50000000000
  30
0.0
  40
 1.5000000000000
  41
0.0
  71
5
  72
1
   1
\T1.000000;形式：
   7
GMM002
  44
 0.79999984000003
   0
MTEXT
   5
364
 100
AcDbEntity
   8
LEVEL002
 370
15
  62
8
 100
AcDbMText
  10
 155.39999999997
  20
 126.50000000000
  30
0.0
  40
 1.5000000000000
  41
0.0
  71
5
  72
1
   1
\T1.000000;商品名：
   7
GMM002
  44
 0.79999984000003
   0
MTEXT
   5
366
 100
AcDbEntity
   8
LEVEL002
 370
15
  62
8
 100
AcDbMText
  10
 173.44999999998
  20
 38.435401729506
  30
0.0
  40
 2.0000000000000
  41
0.0
  71
5
  72
1
   1
\T1.000000;　※本製品は予告無しに変更する事があります。
   7
GMM002
  44
 0.79999984000003
   0
LINE
   5
367
 100
AcDbEntity
   8
LEVEL001
 370
40
 100
AcDbLine
   6
CONTINUOUS
  62
3
  10
 43.874999999975
  20
 142.50000000000
  30
0.0
  11
 43.874999999975
  21
 6.0000000000050
  31
0.0
   0
LINE
   5
368
 100
AcDbEntity
   8
LEVEL001
 370
40
 100
AcDbLine
   6
CONTINUOUS
  62
3
  10
 79.999999999975
  20
 142.50000000000
  30
0.0
  11
 79.999999999975
  21
 6.0000000000050
  31
0.0
   0
LINE
   5
369
 100
AcDbEntity
   8
LEVEL001
 370
40
 100
AcDbLine
   6
CONTINUOUS
  62
3
  10
 116.12499999997
  20
 142.50000000000
  30
0.0
  11
 116.12499999997
  21
 6.0000000000050
  31
0.0
   0
MTEXT
   5
36B
 100
AcDbEntity
   8
LEVEL002
 370
15
  62
8
 100
AcDbMText
  10
 181.14999999997
  20
 24.333333333340
  30
0.0
  40
 1.4000000000000
  41
0.0
  71
5
  72
1
   1
\T1.000000;作成日付：
   7
GMM003
  44
 0.79999984000003
   0
MTEXT
   5
36D
 100
AcDbEntity
   8
LEVEL002
 370
15
  62
8
 100
AcDbMText
  10
 193.60754228038
  20
 21.000000000005
  30
0.0
  40
 1.5000000000000
  41
0.0
  71
5
  72
1
   1
\T1.000000;令和　　年　　月　　日
   7
GMM002
  44
 0.79999984000003
   0
MTEXT
   5
36F
 100
AcDbEntity
   8
LEVEL002
 370
15
  62
8
 100
AcDbMText
  10
 193.60754228038
  20
 17.666666666673
  30
0.0
  40
 1.5000000000000
  41
0.0
  71
5
  72
1
   1
\T1.000000;令和　　年　　月　　日
   7
GMM002
  44
 0.79999984000003
   0
LINE
   5
370
 100
AcDbEntity
   8
LEVEL002
 370
40
 100
AcDbLine
   6
CONTINUOUS
  62
3
  10
 7.7499999999750
  20
 35.125000000004
  30
0.0
  11
 152.24999999997
  21
 35.125000000004
  31
0.0
   0
LINE
   5
371
 100
AcDbEntity
   8
LEVEL002
 370
40
 100
AcDbLine
   6
CONTINUOUS
  62
3
  10
 7.7499999999750
  20
 40.125000000004
  30
0.0
  11
 152.24999999997
  21
 40.125000000004
  31
0.0
   0
LINE
   5
372
 100
AcDbEntity
   8
LEVEL002
 370
40
 100
AcDbLine
   6
CONTINUOUS
  62
3
  10
 7.7499999999750
  20
 69.250000000003
  30
0.0
  11
 152.24999999997
  21
 69.250000000003
  31
0.0
   0
LINE
   5
373
 100
AcDbEntity
   8
LEVEL002
 370
40
 100
AcDbLine
   6
CONTINUOUS
  62
3
  10
 7.7499999999750
  20
 74.250000000003
  30
0.0
  11
 152.24999999997
  21
 74.250000000003
  31
0.0
   0
LINE
   5
374
 100
AcDbEntity
   8
LEVEL002
 370
40
 100
AcDbLine
   6
CONTINUOUS
  62
3
  10
 7.7499999999750
  20
 103.37500000000
  30
0.0
  11
 152.24999999997
  21
 103.37500000000
  31
0.0
   0
LINE
   5
375
 100
AcDbEntity
   8
LEVEL002
 370
40
 100
AcDbLine
   6
CONTINUOUS
  62
3
  10
 7.7499999999750
  20
 108.37500000000
  30
0.0
  11
 152.24999999997
  21
 108.37500000000
  31
0.0
   0
MTEXT
   5
377
 100
AcDbEntity
   8
LEVEL002
 370
15
  62
8
 100
AcDbMText
  10
 164.74999999997
  20
 19.125000000005
  30
0.0
  40
 1.8750000000000
  41
0.0
  71
5
  72
1
   1
\T1.000000;Ｓ＝２：１
   7
GMM002
  44
 0.79999984000003
   0
MTEXT
   5
379
 100
AcDbEntity
   8
LEVEL001
 370
15
  62
8
 100
AcDbMText
  10
 7.8999999999750
  20
 140.00000000000
  30
0.0
  40
 1.5000000000000
  41
0.0
  71
4
  72
1
   1
\W0.500000;\T1.000000; \W1.000000;\T1.000000;　ＴＡ１２
   7
GMM002
  44
 0.79999984000003
   0
MTEXT
   5
37B
 100
AcDbEntity
   8
LEVEL001
 370
15
  62
8
 100
AcDbMText
  10
 80.149999999975
  20
 140.00000000000
  30
0.0
  40
 1.5000000000000
  41
0.0
  71
4
  72
1
   1
\W0.500000;\T1.000000; \W1.000000;\T1.000000;　ＴＡ９
   7
GMM002
  44
 0.79999984000003
   0
LINE
   5
37C
 100
AcDbEntity
   8
LEVEL002
 370
15
 100
AcDbLine
   6
DASHDOT
  62
8
  10
 98.372076023392
  20
 123.46881737163
  30
0.0
  11
 98.372076023392
  21
 112.19699262747
  31
0.0
   0
DIMENSION
   5
37D
 100
AcDbEntity
   8
LEVEL001
 370
15
   6
CONTINUOUS
  62
8
 100
AcDbDimension
   2
*D1
  10
 91.372076023392
  20
 122.37500000000
  30
0.0
  11
 91.372076023392
  21
 120.72500000008
  31
0.0
  70
0
   3
GMM001
 100
AcDbAlignedDimension
  13
 96.372076023342
  23
 119.07500000017
  33
0.0
  14
 94.072076023392
  24
 122.37500000000
  34
0.0
  50
 90.000000000000
 100
AcDbRotatedDimension
   0
DIMENSION
   5
37E
 100
AcDbEntity
   8
LEVEL001
 370
15
   6
CONTINUOUS
  62
8
 100
AcDbDimension
   2
*D2
  10
 88.872076023392
  20
 122.37500000000
  30
0.0
  11
 88.872076023392
  21
 117.87500000000
  31
0.0
  70
0
   3
GMM001
 100
AcDbAlignedDimension
  13
 94.623459594865
  23
 113.37500000000
  33
0.0
  14
 91.872076023392
  24
 122.37500000000
  34
0.0
  50
 90.000000000000
 100
AcDbRotatedDimension
   0
LINE
   5
37F
 100
AcDbEntity
   8
LEVEL002
 370
30
 100
AcDbLine
   6
CONTINUOUS
  62
7
  10
 94.572076023506
  20
 122.37500000000
  30
0.0
  11
 95.572076023506
  21
 121.37500000000
  31
0.0
   0
LINE
   5
380
 100
AcDbEntity
   8
LEVEL002
 370
30
 100
AcDbLine
   6
CONTINUOUS
  62
7
  10
 102.17207602328
  20
 122.37500000000
  30
0.0
  11
 101.17207602328
  21
 121.37500000000
  31
0.0
   0
ARC
   5
381
 100
AcDbEntity
   8
LEVEL002
 370
30
   6
CONTINUOUS
  62
7
 100
AcDbCircle
  10
 95.672076023392
  20
 118.07500000017
  30
0.0
  40
 0.30000000000000
 100
AcDbArc
  50
0.0
  51
 180.00000000000
   0
ARC
   5
382
 100
AcDbEntity
   8
LEVEL002
 370
30
   6
CONTINUOUS
  62
7
 100
AcDbCircle
  10
 101.07207602339
  20
 118.07500000017
  30
0.0
  40
 0.30000000000000
 100
AcDbArc
  50
0.0
  51
 180.00000000000
   0
LINE
   5
383
 100
AcDbEntity
   8
LEVEL002
 370
30
 100
AcDbLine
   6
CONTINUOUS
  62
7
  10
 95.972076023392
  20
 118.07500000017
  30
0.0
  11
 100.77207602339
  21
 118.07500000017
  31
0.0
   0
LINE
   5
384
 100
AcDbEntity
   8
LEVEL002
 370
30
 100
AcDbLine
   6
CONTINUOUS
  62
7
  10
 101.37207602339
  20
 118.07500000017
  30
0.0
  11
 101.37207602339
  21
 114.37500000000
  31
0.0
   0
LINE
   5
385
 100
AcDbEntity
   8
LEVEL002
 370
30
 100
AcDbLine
   6
CONTINUOUS
  62
7
  10
 95.372076023392
  20
 118.07500000017
  30
0.0
  11
 95.372076023392
  21
 114.37500000000
  31
0.0
   0
LINE
   5
386
 100
AcDbEntity
   8
LEVEL002
 370
30
 100
AcDbLine
   6
CONTINUOUS
  62
7
  10
 95.572076023506
  20
 121.37500000000
  30
0.0
  11
 95.572076023506
  21
 120.57500000017
  31
0.0
   0
LINE
   5
387
 100
AcDbEntity
   8
LEVEL002
 370
30
 100
AcDbLine
   6
CONTINUOUS
  62
7
  10
 95.572076023506
  20
 120.57500000017
  30
0.0
  11
 96.072076023342
  21
 120.57500000017
  31
0.0
   0
ARC
   5
388
 100
AcDbEntity
   8
LEVEL002
 370
30
   6
CONTINUOUS
  62
7
 100
AcDbCircle
  10
 96.072076023342
  20
 120.27500000017
  30
0.0
  40
 0.30000000000000
 100
AcDbArc
  50
0.0
  51
 90.000000000000
   0
LINE
   5
389
 100
AcDbEntity
   8
LEVEL002
 370
30
 100
AcDbLine
   6
CONTINUOUS
  62
7
  10
 96.372076023342
  20
 120.27500000017
  30
0.0
  11
 96.372076023342
  21
 119.07500000017
  31
0.0
   0
LINE
   5
38A
 100
AcDbEntity
   8
LEVEL002
 370
30
 100
AcDbLine
   6
CONTINUOUS
  62
7
  10
 96.372076023342
  20
 119.07500000017
  30
0.0
  11
 100.37207602337
  21
 119.07500000017
  31
0.0
   0
LINE
   5
38B
 100
AcDbEntity
   8
LEVEL002
 370
30
 100
AcDbLine
   6
CONTINUOUS
  62
7
  10
 100.37207602337
  20
 119.07500000017
  30
0.0
  11
 100.37207602337
  21
 120.27500000017
  31
0.0
   0
LINE
   5
38C
 100
AcDbEntity
   8
LEVEL002
 370
30
 100
AcDbLine
   6
CONTINUOUS
  62
7
  10
 100.67207602337
  20
 120.57500000017
  30
0.0
  11
 101.17207602328
  21
 120.57500000017
  31
0.0
   0
LINE
   5
38D
 100
AcDbEntity
   8
LEVEL002
 370
30
 100
AcDbLine
   6
CONTINUOUS
  62
7
  10
 101.17207602328
  20
 120.57500000017
  30
0.0
  11
 101.17207602328
  21
 121.37500000000
  31
0.0
   0
ARC
   5
38E
 100
AcDbEntity
   8
LEVEL002
 370
30
   6
CONTINUOUS
  62
7
 100
AcDbCircle
  10
 100.67207602337
  20
 120.27500000017
  30
0.0
  40
 0.30000000000000
 100
AcDbArc
  50
 90.000000000003
  51
 180.00000000000
   0
ARC
   5
38F
 100
AcDbEntity
   8
LEVEL002
 370
30
   6
CONTINUOUS
  62
7
 100
AcDbCircle
  10
 96.372076023392
  20
 113.87500000000
  30
0.0
  40
 0.50000000000000
 100
AcDbArc
  50
 270.00000000000
  51
 90.000000000000
   0
LINE
   5
390
 100
AcDbEntity
   8
LEVEL002
 370
30
 100
AcDbLine
   6
CONTINUOUS
  62
7
  10
 95.372076023392
  20
 114.37500000000
  30
0.0
  11
 96.372076023392
  21
 114.37500000000
  31
0.0
   0
LINE
   5
391
 100
AcDbEntity
   8
LEVEL002
 370
30
 100
AcDbLine
   6
CONTINUOUS
  62
7
  10
 93.872076023392
  20
 120.37500000000
  30
0.0
  11
 94.421583880176
  21
 120.06188482098
  31
0.0
   0
LINE
   5
392
 100
AcDbEntity
   8
LEVEL002
 370
30
 100
AcDbLine
   6
CONTINUOUS
  62
7
  10
 94.372076023392
  20
 119.87500000000
  30
0.0
  11
 94.172076023392
  21
 119.87500000000
  31
0.0
   0
LINE
   5
393
 100
AcDbEntity
   8
LEVEL002
 370
30
 100
AcDbLine
   6
CONTINUOUS
  62
7
  10
 93.988997761946
  20
 119.59448695643
  30
0.0
  11
 94.463615154116
  21
 118.51525652179
  31
0.0
   0
LINE
   5
394
 100
AcDbEntity
   8
LEVEL002
 370
30
 100
AcDbLine
   6
CONTINUOUS
  62
7
  10
 94.372076023392
  20
 118.37500000000
  30
0.0
  11
 94.172076023392
  21
 118.37500000000
  31
0.0
   0
LINE
   5
395
 100
AcDbEntity
   8
LEVEL002
 370
30
 100
AcDbLine
   6
CONTINUOUS
  62
7
  10
 93.988997761946
  20
 118.09448695643
  30
0.0
  11
 94.463615154116
  21
 117.01525652179
  31
0.0
   0
LINE
   5
396
 100
AcDbEntity
   8
LEVEL002
 370
30
 100
AcDbLine
   6
CONTINUOUS
  62
7
  10
 94.372076023392
  20
 116.87500000000
  30
0.0
  11
 94.172076023392
  21
 116.87500000000
  31
0.0
   0
LINE
   5
397
 100
AcDbEntity
   8
LEVEL002
 370
30
 100
AcDbLine
   6
CONTINUOUS
  62
7
  10
 93.988997761946
  20
 116.59448695643
  30
0.0
  11
 94.463615154116
  21
 115.51525652179
  31
0.0
   0
LINE
   5
398
 100
AcDbEntity
   8
LEVEL002
 370
30
 100
AcDbLine
   6
CONTINUOUS
  62
7
  10
 94.372076023392
  20
 115.37500000000
  30
0.0
  11
 94.172076023392
  21
 115.37500000000
  31
0.0
   0
ARC
   5
399
 100
AcDbEntity
   8
LEVEL002
 370
30
   6
CONTINUOUS
  62
7
 100
AcDbCircle
  10
 94.372076023392
  20
 119.97500000000
  30
0.0
  40
 0.10000000000000
 100
AcDbArc
  50
 270.00000000024
  51
 60.325068677296
   0
ARC
   5
39A
 100
AcDbEntity
   8
LEVEL002
 370
30
   6
CONTINUOUS
  62
7
 100
AcDbCircle
  10
 94.072076023392
  20
 122.17500000000
  30
0.0
  40
 0.20000000000000
 100
AcDbArc
  50
 90.000000000000
  51
 180.00000000005
   0
LINE
   5
39B
 100
AcDbEntity
   8
LEVEL002
 370
30
 100
AcDbLine
   6
CONTINUOUS
  62
7
  10
 93.872076023392
  20
 122.17500000000
  30
0.0
  11
 93.872076023392
  21
 120.37500000000
  31
0.0
   0
LINE
   5
39C
 100
AcDbEntity
   8
LEVEL002
 370
30
 100
AcDbLine
   6
CONTINUOUS
  62
7
  10
 94.072076023392
  20
 122.37500000000
  30
0.0
  11
 94.572076023506
  21
 122.37500000000
  31
0.0
   0
ARC
   5
39D
 100
AcDbEntity
   8
LEVEL002
 370
30
   6
CONTINUOUS
  62
7
 100
AcDbCircle
  10
 94.172076023392
  20
 119.67500000000
  30
0.0
  40
 0.20000000000000
 100
AcDbArc
  50
 90.000000000004
  51
 203.73864088811
   0
ARC
   5
39E
 100
AcDbEntity
   8
LEVEL002
 370
30
   6
CONTINUOUS
  62
7
 100
AcDbCircle
  10
 94.372076023392
  20
 118.47500000000
  30
0.0
  40
 0.10000000000000
 100
AcDbArc
  50
 270.00000000001
  51
 23.738640888097
   0
ARC
   5
39F
 100
AcDbEntity
   8
LEVEL002
 370
30
   6
CONTINUOUS
  62
7
 100
AcDbCircle
  10
 94.172076023392
  20
 118.17500000000
  30
0.0
  40
 0.20000000000000
 100
AcDbArc
  50
 89.999999999935
  51
 203.73864088827
   0
ARC
   5
3A0
 100
AcDbEntity
   8
LEVEL002
 370
30
   6
CONTINUOUS
  62
7
 100
AcDbCircle
  10
 94.172076023392
  20
 116.67500000000
  30
0.0
  40
 0.20000000000000
 100
AcDbArc
  50
 89.999999999972
  51
 203.73864088818
   0
ARC
   5
3A1
 100
AcDbEntity
   8
LEVEL002
 370
30
   6
CONTINUOUS
  62
7
 100
AcDbCircle
  10
 94.372076023392
  20
 116.97500000000
  30
0.0
  40
 0.10000000000000
 100
AcDbArc
  50
 269.99999999994
  51
 23.738640888239
   0
ARC
   5
3A2
 100
AcDbEntity
   8
LEVEL002
 370
30
   6
CONTINUOUS
  62
7
 100
AcDbCircle
  10
 94.172076023392
  20
 115.17500000000
  30
0.0
  40
 0.20000000000000
 100
AcDbArc
  50
 90.000000000008
  51
 195.75454113496
   0
ARC
   5
3A3
 100
AcDbEntity
   8
LEVEL002
 370
30
   6
CONTINUOUS
  62
7
 100
AcDbCircle
  10
 94.372076023392
  20
 115.47500000000
  30
0.0
  40
 0.10000000000000
 100
AcDbArc
  50
 269.99999999999
  51
 23.738640888115
   0
LINE
   5
3A4
 100
AcDbEntity
   8
LEVEL002
 370
30
 100
AcDbLine
   6
CONTINUOUS
  62
7
  10
 102.87207602339
  20
 120.37500000000
  30
0.0
  11
 102.32256816661
  21
 120.06188482098
  31
0.0
   0
LINE
   5
3A5
 100
AcDbEntity
   8
LEVEL002
 370
30
 100
AcDbLine
   6
CONTINUOUS
  62
7
  10
 102.75515428484
  20
 119.59448695643
  30
0.0
  11
 102.28053689267
  21
 118.51525652179
  31
0.0
   0
LINE
   5
3A6
 100
AcDbEntity
   8
LEVEL002
 370
30
 100
AcDbLine
   6
CONTINUOUS
  62
7
  10
 102.75515428484
  20
 118.09448695643
  30
0.0
  11
 102.28053689267
  21
 117.01525652179
  31
0.0
   0
LINE
   5
3A7
 100
AcDbEntity
   8
LEVEL002
 370
30
 100
AcDbLine
   6
CONTINUOUS
  62
7
  10
 102.75515428484
  20
 116.59448695643
  30
0.0
  11
 102.28053689267
  21
 115.51525652179
  31
0.0
   0
ARC
   5
3A8
 100
AcDbEntity
   8
LEVEL002
 370
30
   6
CONTINUOUS
  62
7
 100
AcDbCircle
  10
 102.67207602339
  20
 122.17500000000
  30
0.0
  40
 0.20000000000000
 100
AcDbArc
  50
0.0
  51
 90.000000000000
   0
LINE
   5
3A9
 100
AcDbEntity
   8
LEVEL002
 370
30
 100
AcDbLine
   6
CONTINUOUS
  62
7
  10
 102.87207602339
  20
 122.17500000000
  30
0.0
  11
 102.87207602339
  21
 120.37500000000
  31
0.0
   0
LINE
   5
3AA
 100
AcDbEntity
   8
LEVEL002
 370
30
 100
AcDbLine
   6
CONTINUOUS
  62
7
  10
 102.67207602339
  20
 122.37500000000
  30
0.0
  11
 102.17207602328
  21
 122.37500000000
  31
0.0
   0
ARC
   5
3AB
 100
AcDbEntity
   8
LEVEL002
 370
30
   6
CONTINUOUS
  62
7
 100
AcDbCircle
  10
 102.57207602339
  20
 119.67500000000
  30
0.0
  40
 0.20000000000000
 100
AcDbArc
  50
 336.26135911189
  51
 89.999999999988
   0
ARC
   5
3AC
 100
AcDbEntity
   8
LEVEL002
 370
30
   6
CONTINUOUS
  62
7
 100
AcDbCircle
  10
 102.57207602339
  20
 118.17500000000
  30
0.0
  40
 0.20000000000000
 100
AcDbArc
  50
 336.26135911184
  51
 90.000000000016
   0
ARC
   5
3AD
 100
AcDbEntity
   8
LEVEL002
 370
30
   6
CONTINUOUS
  62
7
 100
AcDbCircle
  10
 102.57207602339
  20
 116.67500000000
  30
0.0
  40
 0.20000000000000
 100
AcDbArc
  50
 336.26135911184
  51
 90.000000000020
   0
ARC
   5
3AE
 100
AcDbEntity
   8
LEVEL002
 370
30
   6
CONTINUOUS
  62
7
 100
AcDbCircle
  10
 102.57207602339
  20
 115.17500000000
  30
0.0
  40
 0.20000000000000
 100
AcDbArc
  50
 344.24545886507
  51
 89.999999999980
   0
LINE
   5
3AF
 100
AcDbEntity
   8
LEVEL002
 370
30
 100
AcDbLine
   6
CONTINUOUS
  62
7
  10
 102.37207602339
  20
 119.87500000000
  30
0.0
  11
 102.57207602339
  21
 119.87500000000
  31
0.0
   0
LINE
   5
3B0
 100
AcDbEntity
   8
LEVEL002
 370
30
 100
AcDbLine
   6
CONTINUOUS
  62
7
  10
 102.37207602339
  20
 118.37500000000
  30
0.0
  11
 102.57207602339
  21
 118.37500000000
  31
0.0
   0
LINE
   5
3B1
 100
AcDbEntity
   8
LEVEL002
 370
30
 100
AcDbLine
   6
CONTINUOUS
  62
7
  10
 102.37207602339
  20
 116.87500000000
  30
0.0
  11
 102.57207602339
  21
 116.87500000000
  31
0.0
   0
LINE
   5
3B2
 100
AcDbEntity
   8
LEVEL002
 370
30
 100
AcDbLine
   6
CONTINUOUS
  62
7
  10
 102.37207602339
  20
 115.37500000000
  30
0.0
  11
 102.57207602339
  21
 115.37500000000
  31
0.0
   0
ARC
   5
3B3
 100
AcDbEntity
   8
LEVEL002
 370
30
   6
CONTINUOUS
  62
7
 100
AcDbCircle
  10
 102.37207602339
  20
 119.97500000000
  30
0.0
  40
 0.10000000000000
 100
AcDbArc
  50
 119.67493132205
  51
 270.00000000031
   0
ARC
   5
3B4
 100
AcDbEntity
   8
LEVEL002
 370
30
   6
CONTINUOUS
  62
7
 100
AcDbCircle
  10
 102.37207602339
  20
 118.47500000000
  30
0.0
  40
 0.10000000000000
 100
AcDbArc
  50
 156.26135911153
  51
 270.00000000015
   0
ARC
   5
3B5
 100
AcDbEntity
   8
LEVEL002
 370
30
   6
CONTINUOUS
  62
7
 100
AcDbCircle
  10
 102.37207602339
  20
 116.97500000000
  30
0.0
  40
 0.10000000000000
 100
AcDbArc
  50
 156.26135911172
  51
 270.00000000007
   0
ARC
   5
3B6
 100
AcDbEntity
   8
LEVEL002
 370
30
   6
CONTINUOUS
  62
7
 100
AcDbCircle
  10
 102.37207602339
  20
 115.47500000000
  30
0.0
  40
 0.10000000000000
 100
AcDbArc
  50
 156.26135911185
  51
 270.00000000001
   0
ARC
   5
3B7
 100
AcDbEntity
   8
LEVEL002
 370
30
   6
CONTINUOUS
  62
7
 100
AcDbCircle
  10
 100.37207602339
  20
 113.87500000000
  30
0.0
  40
 0.50000000000000
 100
AcDbArc
  50
 90.000000000000
  51
 270.00000000000
   0
LINE
   5
3B8
 100
AcDbEntity
   8
LEVEL002
 370
30
 100
AcDbLine
   6
CONTINUOUS
  62
7
  10
 101.37207602339
  20
 114.37500000000
  30
0.0
  11
 100.37207602339
  21
 114.37500000000
  31
0.0
   0
LINE
   5
3B9
 100
AcDbEntity
   8
LEVEL002
 370
30
 100
AcDbLine
   6
CONTINUOUS
  62
7
  10
 94.430972850931
  20
 113.52069665379
  30
0.0
  11
 93.979589279459
  21
 115.12069665379
  31
0.0
   0
ARC
   5
3BA
 100
AcDbEntity
   8
LEVEL002
 370
30
   6
CONTINUOUS
  62
7
 100
AcDbCircle
  10
 94.623459594865
  20
 113.57500000000
  30
0.0
  40
 0.20000000000000
 100
AcDbArc
  50
 195.75454113500
  51
 270.00000000001
   0
LINE
   5
3BB
 100
AcDbEntity
   8
LEVEL002
 370
30
 100
AcDbLine
   6
CONTINUOUS
  62
7
  10
 94.623459594865
  20
 113.37500000000
  30
0.0
  11
 96.372076023392
  21
 113.37500000000
  31
0.0
   0
LINE
   5
3BC
 100
AcDbEntity
   8
LEVEL002
 370
30
 100
AcDbLine
   6
CONTINUOUS
  62
7
  10
 102.12069245192
  20
 113.37500000000
  30
0.0
  11
 100.37207602339
  21
 113.37500000000
  31
0.0
   0
ARC
   5
3BD
 100
AcDbEntity
   8
LEVEL002
 370
30
   6
CONTINUOUS
  62
7
 100
AcDbCircle
  10
 102.12069245192
  20
 113.57500000000
  30
0.0
  40
 0.20000000000000
 100
AcDbArc
  50
 269.99999999998
  51
 344.24545886494
   0
LINE
   5
3BE
 100
AcDbEntity
   8
LEVEL002
 370
30
 100
AcDbLine
   6
CONTINUOUS
  62
7
  10
 102.31317919585
  20
 113.52069665379
  30
0.0
  11
 102.76456276733
  21
 115.12069665379
  31
0.0
   0
LINE
   5
3BF
 100
AcDbEntity
   8
LEVEL002
 370
15
 100
AcDbLine
   6
DASHDOT
  62
8
  10
 26.330886092042
  20
 111.80024762012
  30
0.0
  11
 26.330886092042
  21
 127.09207968284
  31
0.0
   0
DIMENSION
   5
3C0
 100
AcDbEntity
   8
LEVEL001
 370
15
   6
CONTINUOUS
  62
8
 100
AcDbDimension
   2
*D3
  10
 17.730886092042
  20
 125.37500000000
  30
0.0
  11
 17.730886092042
  21
 123.72500000008
  31
0.0
  70
0
   3
GMM001
 100
AcDbAlignedDimension
  13
 24.330886092042
  23
 122.07500000017
  33
0.0
  14
 20.230886092042
  24
 125.37500000000
  34
0.0
  50
 90.000000000000
 100
AcDbRotatedDimension
   0
DIMENSION
   5
3C1
 100
AcDbEntity
   8
LEVEL001
 370
15
   6
CONTINUOUS
  62
8
 100
AcDbDimension
   2
*D4
  10
 15.230886092042
  20
 125.37500000000
  30
0.0
  11
 15.230886092042
  21
 119.37500000000
  31
0.0
  70
0
   3
GMM001
 100
AcDbAlignedDimension
  13
 21.380886092042
  23
 113.37500000000
  33
0.0
  14
 18.230886092041
  24
 125.37500000000
  34
0.0
  50
 90.000000000000
 100
AcDbRotatedDimension
   0
LINE
   5
3C2
 100
AcDbEntity
   8
LEVEL002
 370
30
 100
AcDbLine
   6
CONTINUOUS
  62
7
  10
 31.780886092042
  20
 123.37500000000
  30
0.0
  11
 32.257894362977
  21
 122.46810248128
  31
0.0
   0
LINE
   5
3C3
 100
AcDbEntity
   8
LEVEL002
 370
30
 100
AcDbLine
   6
CONTINUOUS
  62
7
  10
 31.780886092042
  20
 120.37500000000
  30
0.0
  11
 32.274769826003
  21
 122.32591743991
  31
0.0
   0
LINE
   5
3C4
 100
AcDbEntity
   8
LEVEL002
 370
30
 100
AcDbLine
   6
CONTINUOUS
  62
7
  10
 31.780886092042
  20
 118.37500000000
  30
0.0
  11
 32.273372835976
  21
 120.12069665379
  31
0.0
   0
LINE
   5
3C5
 100
AcDbEntity
   8
LEVEL002
 370
30
 100
AcDbLine
   6
CONTINUOUS
  62
7
  10
 31.780886092042
  20
 116.37500000000
  30
0.0
  11
 32.273372835976
  21
 118.12069665379
  31
0.0
   0
LINE
   5
3C6
 100
AcDbEntity
   8
LEVEL002
 370
30
 100
AcDbLine
   6
CONTINUOUS
  62
7
  10
 31.780886092042
  20
 114.87500000000
  30
0.0
  11
 32.171637537129
  21
 116.11488439307
  31
0.0
   0
LINE
   5
3C7
 100
AcDbEntity
   8
LEVEL002
 370
30
 100
AcDbLine
   6
CONTINUOUS
  62
7
  10
 31.280886092042
  20
 113.37500000000
  30
0.0
  11
 32.142513252499
  21
 114.55720075976
  31
0.0
   0
LINE
   5
3C8
 100
AcDbEntity
   8
LEVEL002
 370
30
 100
AcDbLine
   6
CONTINUOUS
  62
7
  10
 31.780886092042
  20
 120.37500000000
  30
0.0
  11
 32.080886092042
  21
 120.37500000000
  31
0.0
   0
LINE
   5
3C9
 100
AcDbEntity
   8
LEVEL002
 370
30
 100
AcDbLine
   6
CONTINUOUS
  62
7
  10
 31.780886092042
  20
 118.37500000000
  30
0.0
  11
 32.080886092042
  21
 118.37500000000
  31
0.0
   0
LINE
   5
3CA
 100
AcDbEntity
   8
LEVEL002
 370
30
 100
AcDbLine
   6
CONTINUOUS
  62
7
  10
 31.780886092042
  20
 116.37500000000
  30
0.0
  11
 31.980886092042
  21
 116.37500000000
  31
0.0
   0
LINE
   5
3CB
 100
AcDbEntity
   8
LEVEL002
 370
30
 100
AcDbLine
   6
CONTINUOUS
  62
7
  10
 31.780886092042
  20
 114.87500000000
  30
0.0
  11
 31.980886092042
  21
 114.87500000000
  31
0.0
   0
ARC
   5
3CC
 100
AcDbEntity
   8
LEVEL002
 370
30
   6
CONTINUOUS
  62
7
 100
AcDbCircle
  10
 32.080886092041
  20
 122.37500000000
  30
0.0
  40
 0.20000000000000
 100
AcDbArc
  50
 345.79376974214
  51
 27.743389151193
   0
ARC
   5
3CD
 100
AcDbEntity
   8
LEVEL002
 370
30
   6
CONTINUOUS
  62
7
 100
AcDbCircle
  10
 32.080886092042
  20
 120.17500000000
  30
0.0
  40
 0.20000000000000
 100
AcDbArc
  50
 344.24545886500
  51
 90.000000000035
   0
ARC
   5
3CE
 100
AcDbEntity
   8
LEVEL002
 370
30
   6
CONTINUOUS
  62
7
 100
AcDbCircle
  10
 32.080886092041
  20
 118.17500000000
  30
0.0
  40
 0.20000000000000
 100
AcDbArc
  50
 344.24545886505
  51
 89.999999999868
   0
ARC
   5
3CF
 100
AcDbEntity
   8
LEVEL002
 370
30
   6
CONTINUOUS
  62
7
 100
AcDbCircle
  10
 31.980886092042
  20
 116.17500000000
  30
0.0
  40
 0.20000000000000
 100
AcDbArc
  50
 342.50767547489
  51
 90.000000000005
   0
ARC
   5
3D0
 100
AcDbEntity
   8
LEVEL002
 370
30
   6
CONTINUOUS
  62
7
 100
AcDbCircle
  10
 31.980886092042
  20
 114.67500000000
  30
0.0
  40
 0.20000000000000
 100
AcDbArc
  50
 323.91419209051
  51
 90.000000000018
   0
LINE
   5
3D1
 100
AcDbEntity
   8
LEVEL002
 370
30
 100
AcDbLine
   6
CONTINUOUS
  62
7
  10
 20.880886092042
  20
 123.37500000000
  30
0.0
  11
 20.403877821107
  21
 122.46810248128
  31
0.0
   0
LINE
   5
3D2
 100
AcDbEntity
   8
LEVEL002
 370
30
 100
AcDbLine
   6
CONTINUOUS
  62
7
  10
 20.880886092042
  20
 120.37500000000
  30
0.0
  11
 20.387002358081
  21
 122.32591743991
  31
0.0
   0
LINE
   5
3D3
 100
AcDbEntity
   8
LEVEL002
 370
30
 100
AcDbLine
   6
CONTINUOUS
  62
7
  10
 20.880886092042
  20
 118.37500000000
  30
0.0
  11
 20.388399348108
  21
 120.12069665379
  31
0.0
   0
LINE
   5
3D4
 100
AcDbEntity
   8
LEVEL002
 370
30
 100
AcDbLine
   6
CONTINUOUS
  62
7
  10
 20.880886092042
  20
 116.37500000000
  30
0.0
  11
 20.388399348108
  21
 118.12069665379
  31
0.0
   0
LINE
   5
3D5
 100
AcDbEntity
   8
LEVEL002
 370
30
 100
AcDbLine
   6
CONTINUOUS
  62
7
  10
 20.880886092042
  20
 114.87500000000
  30
0.0
  11
 20.490134646955
  21
 116.11488439307
  31
0.0
   0
LINE
   5
3D6
 100
AcDbEntity
   8
LEVEL002
 370
30
 100
AcDbLine
   6
CONTINUOUS
  62
7
  10
 21.380886092042
  20
 113.37500000000
  30
0.0
  11
 20.519258931585
  21
 114.55720075976
  31
0.0
   0
LINE
   5
3D7
 100
AcDbEntity
   8
LEVEL002
 370
30
 100
AcDbLine
   6
CONTINUOUS
  62
7
  10
 20.880886092042
  20
 120.37500000000
  30
0.0
  11
 20.580886092042
  21
 120.37500000000
  31
0.0
   0
LINE
   5
3D8
 100
AcDbEntity
   8
LEVEL002
 370
30
 100
AcDbLine
   6
CONTINUOUS
  62
7
  10
 20.880886092042
  20
 118.37500000000
  30
0.0
  11
 20.580886092042
  21
 118.37500000000
  31
0.0
   0
LINE
   5
3D9
 100
AcDbEntity
   8
LEVEL002
 370
30
 100
AcDbLine
   6
CONTINUOUS
  62
7
  10
 20.880886092042
  20
 116.37500000000
  30
0.0
  11
 20.680886092042
  21
 116.37500000000
  31
0.0
   0
LINE
   5
3DA
 100
AcDbEntity
   8
LEVEL002
 370
30
 100
AcDbLine
   6
CONTINUOUS
  62
7
  10
 20.880886092042
  20
 114.87500000000
  30
0.0
  11
 20.680886092042
  21
 114.87500000000
  31
0.0
   0
ARC
   5
3DB
 100
AcDbEntity
   8
LEVEL002
 370
30
   6
CONTINUOUS
  62
7
 100
AcDbCircle
  10
 20.580886092042
  20
 122.37500000000
  30
0.0
  40
 0.20000000000000
 100
AcDbArc
  50
 152.25661084870
  51
 194.20623025778
   0
ARC
   5
3DC
 100
AcDbEntity
   8
LEVEL002
 370
30
   6
CONTINUOUS
  62
7
 100
AcDbCircle
  10
 20.580886092042
  20
 120.17500000000
  30
0.0
  40
 0.20000000000000
 100
AcDbArc
  50
 90.000000000059
  51
 195.75454113496
   0
ARC
   5
3DD
 100
AcDbEntity
   8
LEVEL002
 370
30
   6
CONTINUOUS
  62
7
 100
AcDbCircle
  10
 20.580886092042
  20
 118.17500000000
  30
0.0
  40
 0.20000000000000
 100
AcDbArc
  50
 89.999999999891
  51
 195.75454113501
   0
ARC
   5
3DE
 100
AcDbEntity
   8
LEVEL002
 370
30
   6
CONTINUOUS
  62
7
 100
AcDbCircle
  10
 20.680886092042
  20
 116.17500000000
  30
0.0
  40
 0.20000000000000
 100
AcDbArc
  50
 90.000000000018
  51
 197.49232452510
   0
ARC
   5
3DF
 100
AcDbEntity
   8
LEVEL002
 370
30
   6
CONTINUOUS
  62
7
 100
AcDbCircle
  10
 20.680886092042
  20
 114.67500000000
  30
0.0
  40
 0.20000000000000
 100
AcDbArc
  50
 90.000000000000
  51
 216.08580790948
   0
ARC
   5
3E0
 100
AcDbEntity
   8
LEVEL002
 370
30
   6
CONTINUOUS
  62
7
 100
AcDbCircle
  10
 29.480886092042
  20
 113.57500000000
  30
0.0
  40
 0.20000000000000
 100
AcDbArc
  50
 165.52248781408
  51
 269.99999999996
   0
ARC
   5
3E1
 100
AcDbEntity
   8
LEVEL002
 370
30
   6
CONTINUOUS
  62
7
 100
AcDbCircle
  10
 30.255482761283
  20
 113.37500000000
  30
0.0
  40
 1.0000000000000
 100
AcDbArc
  50
 90.000000000000
  51
 165.52248781407
   0
LINE
   5
3E2
 100
AcDbEntity
   8
LEVEL002
 370
30
 100
AcDbLine
   6
CONTINUOUS
  62
7
  10
 29.480886092042
  20
 113.37500000000
  30
0.0
  11
 31.280886092042
  21
 113.37500000000
  31
0.0
   0
ARC
   5
3E3
 100
AcDbEntity
   8
LEVEL002
 370
30
   6
CONTINUOUS
  62
7
 100
AcDbCircle
  10
 22.406289422800
  20
 113.37500000000
  30
0.0
  40
 1.0000000000000
 100
AcDbArc
  50
 14.477512185932
  51
 90.000000000001
   0
ARC
   5
3E4
 100
AcDbEntity
   8
LEVEL002
 370
30
   6
CONTINUOUS
  62
7
 100
AcDbCircle
  10
 23.180886092042
  20
 113.57500000000
  30
0.0
  40
 0.20000000000000
 100
AcDbArc
  50
 270.00000000005
  51
 14.477512185921
   0
LINE
   5
3E5
 100
AcDbEntity
   8
LEVEL002
 370
30
 100
AcDbLine
   6
CONTINUOUS
  62
7
  10
 23.180886092042
  20
 113.37500000000
  30
0.0
  11
 21.380886092042
  21
 113.37500000000
  31
0.0
   0
LINE
   5
3E6
 100
AcDbEntity
   8
LEVEL002
 370
30
 100
AcDbLine
   6
CONTINUOUS
  62
7
  10
 20.230886092042
  20
 125.37500000000
  30
0.0
  11
 20.230886092042
  21
 124.37500000000
  31
0.0
   0
LINE
   5
3E7
 100
AcDbEntity
   8
LEVEL002
 370
30
 100
AcDbLine
   6
CONTINUOUS
  62
7
  10
 20.230886092042
  20
 124.37500000000
  30
0.0
  11
 20.880886092042
  21
 123.37500000000
  31
0.0
   0
LINE
   5
3E8
 100
AcDbEntity
   8
LEVEL002
 370
30
 100
AcDbLine
   6
CONTINUOUS
  62
7
  10
 32.430886092042
  20
 125.37500000000
  30
0.0
  11
 32.430886092042
  21
 124.37500000000
  31
0.0
   0
LINE
   5
3E9
 100
AcDbEntity
   8
LEVEL002
 370
30
 100
AcDbLine
   6
CONTINUOUS
  62
7
  10
 32.430886092042
  20
 124.37500000000
  30
0.0
  11
 31.780886092042
  21
 123.37500000000
  31
0.0
   0
ARC
   5
3EA
 100
AcDbEntity
   8
LEVEL002
 370
30
   6
CONTINUOUS
  62
7
 100
AcDbCircle
  10
 22.180886092128
  20
 122.73406272885
  30
0.0
  40
 0.30000000000000
 100
AcDbArc
  50
 51.340191751297
  51
 179.99999999972
   0
LINE
   5
3EB
 100
AcDbEntity
   8
LEVEL002
 370
30
 100
AcDbLine
   6
CONTINUOUS
  62
7
  10
 21.180886092030
  20
 125.37500000000
  30
0.0
  11
 22.180886092028
  21
 124.37500000000
  31
0.0
   0
ARC
   5
3EC
 100
AcDbEntity
   8
LEVEL002
 370
30
   6
CONTINUOUS
  62
7
 100
AcDbCircle
  10
 21.930886092042
  20
 121.26925042719
  30
0.0
  40
 1.6000000000000
 100
AcDbArc
  50
0.0
  51
 51.340191751664
   0
LINE
   5
3ED
 100
AcDbEntity
   8
LEVEL002
 370
30
 100
AcDbLine
   6
CONTINUOUS
  62
7
  10
 22.930398168004
  20
 122.51864052240
  30
0.0
  11
 22.368294606285
  21
 122.96832337168
  31
0.0
   0
LINE
   5
3EE
 100
AcDbEntity
   8
LEVEL002
 370
30
 100
AcDbLine
   6
CONTINUOUS
  62
7
  10
 23.530886092042
  20
 121.26925042719
  30
0.0
  11
 23.530886092042
  21
 121.07500000017
  31
0.0
   0
LINE
   5
3EF
 100
AcDbEntity
   8
LEVEL002
 370
30
 100
AcDbLine
   6
CONTINUOUS
  62
7
  10
 23.530886092042
  20
 121.07500000017
  30
0.0
  11
 29.130886092042
  21
 121.07500000017
  31
0.0
   0
LINE
   5
3F0
 100
AcDbEntity
   8
LEVEL002
 370
30
 100
AcDbLine
   6
CONTINUOUS
  62
7
  10
 29.130886092042
  20
 121.07500000017
  30
0.0
  11
 29.130886092042
  21
 121.26925042719
  31
0.0
   0
ARC
   5
3F1
 100
AcDbEntity
   8
LEVEL002
 370
30
   6
CONTINUOUS
  62
7
 100
AcDbCircle
  10
 30.480886092042
  20
 122.73406272883
  30
0.0
  40
 0.30000000000000
 100
AcDbArc
  50
 0.27140733281822E-11
  51
 128.65980824835
   0
LINE
   5
3F2
 100
AcDbEntity
   8
LEVEL002
 370
30
 100
AcDbLine
   6
CONTINUOUS
  62
7
  10
 31.480886091989
  20
 125.37500000000
  30
0.0
  11
 30.480886092028
  21
 124.37500000000
  31
0.0
   0
ARC
   5
3F3
 100
AcDbEntity
   8
LEVEL002
 370
30
   6
CONTINUOUS
  62
7
 100
AcDbCircle
  10
 30.730886092042
  20
 121.26925042719
  30
0.0
  40
 1.6000000000000
 100
AcDbArc
  50
 128.65980824834
  51
 179.99999999993
   0
LINE
   5
3F4
 100
AcDbEntity
   8
LEVEL002
 370
30
 100
AcDbLine
   6
CONTINUOUS
  62
7
  10
 29.731374016079
  20
 122.51864052240
  30
0.0
  11
 30.293477577799
  21
 122.96832337168
  31
0.0
   0
LINE
   5
3F5
 100
AcDbEntity
   8
LEVEL002
 370
30
 100
AcDbLine
   6
CONTINUOUS
  62
7
  10
 20.230886092042
  20
 125.37500000000
  30
0.0
  11
 21.180886092030
  21
 125.37500000000
  31
0.0
   0
LINE
   5
3F6
 100
AcDbEntity
   8
LEVEL002
 370
30
 100
AcDbLine
   6
CONTINUOUS
  62
7
  10
 31.480886091989
  20
 125.37500000000
  30
0.0
  11
 32.430886092042
  21
 125.37500000000
  31
0.0
   0
LINE
   5
3F7
 100
AcDbEntity
   8
LEVEL002
 370
30
 100
AcDbLine
   6
CONTINUOUS
  62
7
  10
 30.255482761283
  20
 114.37500000000
  30
0.0
  11
 30.780886092042
  21
 114.37500000000
  31
0.0
   0
LINE
   5
3F8
 100
AcDbEntity
   8
LEVEL002
 370
30
 100
AcDbLine
   6
CONTINUOUS
  62
7
  10
 30.780886092042
  20
 114.37500000000
  30
0.0
  11
 30.780886092042
  21
 122.73406272883
  31
0.0
   0
LINE
   5
3F9
 100
AcDbEntity
   8
LEVEL002
 370
30
 100
AcDbLine
   6
CONTINUOUS
  62
7
  10
 22.406289422800
  20
 114.37500000000
  30
0.0
  11
 21.880886092042
  21
 114.37500000000
  31
0.0
   0
LINE
   5
3FA
 100
AcDbEntity
   8
LEVEL002
 370
30
 100
AcDbLine
   6
CONTINUOUS
  62
7
  10
 21.880886092042
  20
 114.37500000000
  30
0.0
  11
 21.880886092042
  21
 122.73406272885
  31
0.0
   0
LINE
   5
3FB
 100
AcDbEntity
   8
LEVEL002
 370
30
 100
AcDbLine
   6
CONTINUOUS
  62
7
  10
 22.180886092028
  20
 124.37500000000
  30
0.0
  11
 23.330886092205
  21
 124.37500000000
  31
0.0
   0
ARC
   5
3FC
 100
AcDbEntity
   8
LEVEL002
 370
30
   6
CONTINUOUS
  62
7
 100
AcDbCircle
  10
 23.330886092205
  20
 124.17500000000
  30
0.0
  40
 0.20000000000000
 100
AcDbArc
  50
 0.40711099922733E-11
  51
 90.000000000001
   0
LINE
   5
3FD
 100
AcDbEntity
   8
LEVEL002
 370
30
 100
AcDbLine
   6
CONTINUOUS
  62
7
  10
 23.530886092205
  20
 124.17500000000
  30
0.0
  11
 23.530886092205
  21
 123.57500000017
  31
0.0
   0
LINE
   5
3FE
 100
AcDbEntity
   8
LEVEL002
 370
30
 100
AcDbLine
   6
CONTINUOUS
  62
7
  10
 23.530886092205
  20
 123.57500000017
  30
0.0
  11
 24.130886092042
  21
 123.57500000017
  31
0.0
   0
ARC
   5
3FF
 100
AcDbEntity
   8
LEVEL002
 370
30
   6
CONTINUOUS
  62
7
 100
AcDbCircle
  10
 24.130886092042
  20
 123.37500000017
  30
0.0
  40
 0.20000000000000
 100
AcDbArc
  50
 0.40711099922733E-11
  51
 90.000000000001
   0
LINE
   5
400
 100
AcDbEntity
   8
LEVEL002
 370
30
 100
AcDbLine
   6
CONTINUOUS
  62
7
  10
 24.330886092042
  20
 123.37500000017
  30
0.0
  11
 24.330886092042
  21
 122.07500000017
  31
0.0
   0
LINE
   5
401
 100
AcDbEntity
   8
LEVEL002
 370
30
 100
AcDbLine
   6
CONTINUOUS
  62
7
  10
 24.330886092042
  20
 122.07500000017
  30
0.0
  11
 28.330886092042
  21
 122.07500000017
  31
0.0
   0
LINE
   5
402
 100
AcDbEntity
   8
LEVEL002
 370
30
 100
AcDbLine
   6
CONTINUOUS
  62
7
  10
 28.330886092042
  20
 122.07500000017
  30
0.0
  11
 28.330886092129
  21
 123.37500000019
  31
0.0
   0
ARC
   5
403
 100
AcDbEntity
   8
LEVEL002
 370
30
   6
CONTINUOUS
  62
7
 100
AcDbCircle
  10
 28.530886092129
  20
 123.37500000017
  30
0.0
  40
 0.20000000000000
 100
AcDbArc
  50
 90.000000002346
  51
 179.99999999617
   0
LINE
   5
404
 100
AcDbEntity
   8
LEVEL002
 370
30
 100
AcDbLine
   6
CONTINUOUS
  62
7
  10
 28.530886092121
  20
 123.57500000017
  30
0.0
  11
 29.130886092014
  21
 123.57500000020
  31
0.0
   0
LINE
   5
405
 100
AcDbEntity
   8
LEVEL002
 370
30
 100
AcDbLine
   6
CONTINUOUS
  62
7
  10
 29.130886092014
  20
 123.57500000020
  30
0.0
  11
 29.130886091988
  21
 124.17499999999
  31
0.0
   0
LINE
   5
406
 100
AcDbEntity
   8
LEVEL002
 370
30
 100
AcDbLine
   6
CONTINUOUS
  62
7
  10
 29.330886091988
  20
 124.37500000000
  30
0.0
  11
 30.480886092028
  21
 124.37500000000
  31
0.0
   0
ARC
   5
407
 100
AcDbEntity
   8
LEVEL002
 370
30
   6
CONTINUOUS
  62
7
 100
AcDbCircle
  10
 29.330886091988
  20
 124.17500000000
  30
0.0
  40
 0.20000000000000
 100
AcDbArc
  50
 89.999999999999
  51
 180.00000000253
   0
MTEXT
   5
409
 100
AcDbEntity
   8
LEVEL001
 370
15
  62
8
 100
AcDbMText
  10
 44.024999999975
  20
 140.00000000000
  30
0.0
  40
 1.5000000000000
  41
0.0
  71
4
  72
1
   1
\W0.500000;\T1.000000; \W1.000000;\T1.000000;　ＴＡ７
   7
GMM002
  44
 0.79999984000003
   0
DIMENSION
   5
40A
 100
AcDbEntity
   8
LEVEL001
 370
15
   6
CONTINUOUS
  62
8
 100
AcDbDimension
   2
*D5
  10
 54.652510806001
  20
 120.37500000000
  30
0.0
  11
 54.652510806001
  21
 118.72500000008
  31
0.0
  70
0
   3
GMM001
 100
AcDbAlignedDimension
  13
 61.252510805951
  23
 117.07500000016
  33
0.0
  14
 57.152510806001
  24
 120.37500000000
  34
0.0
  50
 90.000000000000
 100
AcDbRotatedDimension
   0
DIMENSION
   5
40B
 100
AcDbEntity
   8
LEVEL001
 370
15
   6
CONTINUOUS
  62
8
 100
AcDbDimension
   2
*D6
  10
 52.152510806001
  20
 120.37500000000
  30
0.0
  11
 52.152510806001
  21
 116.87500000000
  31
0.0
  70
0
   3
GMM001
 100
AcDbAlignedDimension
  13
 57.802510806001
  23
 113.37500000000
  33
0.0
  14
 57.152510806001
  24
 120.37500000000
  34
0.0
  50
 90.000000000000
 100
AcDbRotatedDimension
   0
LINE
   5
40C
 100
AcDbEntity
   8
LEVEL002
 370
30
 100
AcDbLine
   6
CONTINUOUS
  62
7
  10
 68.702510806001
  20
 113.37500000000
  30
0.0
  11
 69.194997549935
  21
 115.12069665379
  31
0.0
   0
LINE
   5
40D
 100
AcDbEntity
   8
LEVEL002
 370
30
 100
AcDbLine
   6
CONTINUOUS
  62
7
  10
 68.702510806001
  20
 113.37500000000
  30
0.0
  11
 66.502510806001
  21
 113.37500000000
  31
0.0
   0
ARC
   5
40E
 100
AcDbEntity
   8
LEVEL002
 370
30
   6
CONTINUOUS
  62
7
 100
AcDbCircle
  10
 67.277107475242
  20
 113.37500000000
  30
0.0
  40
 1.0000000000000
 100
AcDbArc
  50
 90.000000000002
  51
 165.52248781407
   0
ARC
   5
40F
 100
AcDbEntity
   8
LEVEL002
 370
30
   6
CONTINUOUS
  62
7
 100
AcDbCircle
  10
 66.502510806001
  20
 113.57500000000
  30
0.0
  40
 0.20000000000000
 100
AcDbArc
  50
 165.52248781407
  51
 269.99999999999
   0
ARC
   5
410
 100
AcDbEntity
   8
LEVEL002
 370
30
   6
CONTINUOUS
  62
7
 100
AcDbCircle
  10
 69.002510806001
  20
 115.17500000000
  30
0.0
  40
 0.20000000000000
 100
AcDbArc
  50
 344.24545886501
  51
 89.999999999988
   0
LINE
   5
411
 100
AcDbEntity
   8
LEVEL002
 370
30
 100
AcDbLine
   6
CONTINUOUS
  62
7
  10
 57.802510806001
  20
 113.37500000000
  30
0.0
  11
 57.310024062067
  21
 115.12069665379
  31
0.0
   0
LINE
   5
412
 100
AcDbEntity
   8
LEVEL002
 370
30
 100
AcDbLine
   6
CONTINUOUS
  62
7
  10
 57.802510806001
  20
 113.37500000000
  30
0.0
  11
 60.002510806001
  21
 113.37500000000
  31
0.0
   0
ARC
   5
413
 100
AcDbEntity
   8
LEVEL002
 370
30
   6
CONTINUOUS
  62
7
 100
AcDbCircle
  10
 59.227914136759
  20
 113.37500000000
  30
0.0
  40
 1.0000000000000
 100
AcDbArc
  50
 14.477512185927
  51
 89.999999999999
   0
ARC
   5
414
 100
AcDbEntity
   8
LEVEL002
 370
30
   6
CONTINUOUS
  62
7
 100
AcDbCircle
  10
 60.002510806001
  20
 113.57500000000
  30
0.0
  40
 0.20000000000000
 100
AcDbArc
  50
 270.00000000007
  51
 14.477512185904
   0
ARC
   5
415
 100
AcDbEntity
   8
LEVEL002
 370
30
   6
CONTINUOUS
  62
7
 100
AcDbCircle
  10
 57.502510806001
  20
 115.17500000000
  30
0.0
  40
 0.20000000000000
 100
AcDbArc
  50
 89.999999999984
  51
 195.75454113499
   0
ARC
   5
416
 100
AcDbEntity
   8
LEVEL002
 370
30
   6
CONTINUOUS
  62
7
 100
AcDbCircle
  10
 67.637622005377
  20
 116.29276704510
  30
0.0
  40
 1.6000000000000
 100
AcDbArc
  50
 134.77527917924
  51
 172.17751299205
   0
LINE
   5
417
 100
AcDbEntity
   8
LEVEL002
 370
30
 100
AcDbLine
   6
CONTINUOUS
  62
7
  10
 58.102510805970
  20
 120.37500000000
  30
0.0
  11
 59.102510805888
  21
 119.37500000000
  31
0.0
   0
ARC
   5
418
 100
AcDbEntity
   8
LEVEL002
 370
30
   6
CONTINUOUS
  62
7
 100
AcDbCircle
  10
 58.867399606625
  20
 116.29276704510
  30
0.0
  40
 1.6000000000000
 100
AcDbArc
  50
 7.8224870079414
  51
 45.224720820760
   0
LINE
   5
419
 100
AcDbEntity
   8
LEVEL002
 370
30
 100
AcDbLine
   6
CONTINUOUS
  62
7
  10
 67.402510805888
  20
 119.37500000011
  30
0.0
  11
 68.402510805781
  21
 120.37500000000
  31
0.0
   0
LINE
   5
41A
 100
AcDbEntity
   8
LEVEL002
 370
30
 100
AcDbLine
   6
CONTINUOUS
  62
7
  10
 69.002510806001
  20
 115.37500000000
  30
0.0
  11
 68.702510806001
  21
 115.37500000000
  31
0.0
   0
LINE
   5
41B
 100
AcDbEntity
   8
LEVEL002
 370
30
 100
AcDbLine
   6
CONTINUOUS
  62
7
  10
 68.702510806001
  20
 115.37500000000
  30
0.0
  11
 69.202510806001
  21
 117.37500000000
  31
0.0
   0
LINE
   5
41C
 100
AcDbEntity
   8
LEVEL002
 370
30
 100
AcDbLine
   6
CONTINUOUS
  62
7
  10
 69.202510806001
  20
 117.37500000000
  30
0.0
  11
 68.352510806001
  21
 118.12500000000
  31
0.0
   0
LINE
   5
41D
 100
AcDbEntity
   8
LEVEL002
 370
30
 100
AcDbLine
   6
CONTINUOUS
  62
7
  10
 68.352510806001
  20
 118.12500000000
  30
0.0
  11
 69.352510806001
  21
 118.87500000000
  31
0.0
   0
LINE
   5
41E
 100
AcDbEntity
   8
LEVEL002
 370
30
 100
AcDbLine
   6
CONTINUOUS
  62
7
  10
 69.352510806001
  20
 118.87500000000
  30
0.0
  11
 69.352510806001
  21
 120.37500000000
  31
0.0
   0
LINE
   5
41F
 100
AcDbEntity
   8
LEVEL002
 370
30
 100
AcDbLine
   6
CONTINUOUS
  62
7
  10
 69.352510806001
  20
 120.37500000000
  30
0.0
  11
 68.402510805781
  21
 120.37500000000
  31
0.0
   0
LINE
   5
420
 100
AcDbEntity
   8
LEVEL002
 370
30
 100
AcDbLine
   6
CONTINUOUS
  62
7
  10
 57.502510806001
  20
 115.37500000000
  30
0.0
  11
 57.802510806001
  21
 115.37500000000
  31
0.0
   0
LINE
   5
421
 100
AcDbEntity
   8
LEVEL002
 370
30
 100
AcDbLine
   6
CONTINUOUS
  62
7
  10
 57.802510806001
  20
 115.37500000000
  30
0.0
  11
 57.302510806001
  21
 117.37500000000
  31
0.0
   0
LINE
   5
422
 100
AcDbEntity
   8
LEVEL002
 370
30
 100
AcDbLine
   6
CONTINUOUS
  62
7
  10
 57.302510806001
  20
 117.37500000000
  30
0.0
  11
 58.152510806001
  21
 118.12500000000
  31
0.0
   0
LINE
   5
423
 100
AcDbEntity
   8
LEVEL002
 370
30
 100
AcDbLine
   6
CONTINUOUS
  62
7
  10
 58.152510806001
  20
 118.12500000000
  30
0.0
  11
 57.152510806001
  21
 118.87500000000
  31
0.0
   0
LINE
   5
424
 100
AcDbEntity
   8
LEVEL002
 370
30
 100
AcDbLine
   6
CONTINUOUS
  62
7
  10
 57.152510806001
  20
 118.87500000000
  30
0.0
  11
 57.152510806001
  21
 120.37500000000
  31
0.0
   0
LINE
   5
425
 100
AcDbEntity
   8
LEVEL002
 370
30
 100
AcDbLine
   6
CONTINUOUS
  62
7
  10
 57.152510806001
  20
 120.37500000000
  30
0.0
  11
 58.102510805970
  21
 120.37500000000
  31
0.0
   0
LINE
   5
426
 100
AcDbEntity
   8
LEVEL002
 370
30
 100
AcDbLine
   6
CONTINUOUS
  62
7
  10
 60.452510805923
  20
 116.51053409003
  30
0.0
  11
 60.452510805923
  21
 116.07500000016
  31
0.0
   0
LINE
   5
427
 100
AcDbEntity
   8
LEVEL002
 370
30
 100
AcDbLine
   6
CONTINUOUS
  62
7
  10
 60.452510805923
  20
 116.07500000016
  30
0.0
  11
 66.052510806079
  21
 116.07500000016
  31
0.0
   0
LINE
   5
428
 100
AcDbEntity
   8
LEVEL002
 370
30
 100
AcDbLine
   6
CONTINUOUS
  62
7
  10
 66.052510806079
  20
 116.07500000016
  30
0.0
  11
 66.052510806079
  21
 116.51053409003
  31
0.0
   0
LINE
   5
429
 100
AcDbEntity
   8
LEVEL002
 370
30
 100
AcDbLine
   6
CONTINUOUS
  62
7
  10
 59.227914136759
  20
 114.37500000000
  30
0.0
  11
 58.802510806001
  21
 114.37500000000
  31
0.0
   0
LINE
   5
42A
 100
AcDbEntity
   8
LEVEL002
 370
30
 100
AcDbLine
   6
CONTINUOUS
  62
7
  10
 58.802510806001
  20
 114.37500000000
  30
0.0
  11
 58.802510806001
  21
 117.89080204189
  31
0.0
   0
ARC
   5
42B
 100
AcDbEntity
   8
LEVEL002
 370
30
   6
CONTINUOUS
  62
7
 100
AcDbCircle
  10
 59.102510806001
  20
 117.89080204189
  30
0.0
  40
 0.30000000000000
 100
AcDbArc
  50
 45.224720820756
  51
 180.00000000001
   0
LINE
   5
42C
 100
AcDbEntity
   8
LEVEL002
 370
30
 100
AcDbLine
   6
CONTINUOUS
  62
7
  10
 59.994324395742
  20
 117.42856655191
  30
0.0
  11
 59.313809203960
  21
 118.10376444942
  31
0.0
   0
LINE
   5
42D
 100
AcDbEntity
   8
LEVEL002
 370
30
 100
AcDbLine
   6
CONTINUOUS
  62
7
  10
 66.510697216260
  20
 117.42856655191
  30
0.0
  11
 67.191212408042
  21
 118.10376444942
  31
0.0
   0
ARC
   5
42E
 100
AcDbEntity
   8
LEVEL002
 370
30
   6
CONTINUOUS
  62
7
 100
AcDbCircle
  10
 67.402510806001
  20
 117.89080204189
  30
0.0
  40
 0.30000000000000
 100
AcDbArc
  50
0.0
  51
 134.77527917919
   0
LINE
   5
42F
 100
AcDbEntity
   8
LEVEL002
 370
30
 100
AcDbLine
   6
CONTINUOUS
  62
7
  10
 67.277107475242
  20
 114.37500000000
  30
0.0
  11
 67.702510806001
  21
 114.37500000000
  31
0.0
   0
LINE
   5
430
 100
AcDbEntity
   8
LEVEL002
 370
30
 100
AcDbLine
   6
CONTINUOUS
  62
7
  10
 67.702510806001
  20
 114.37500000000
  30
0.0
  11
 67.702510806001
  21
 117.89080204189
  31
0.0
   0
LINE
   5
431
 100
AcDbEntity
   8
LEVEL002
 370
30
 100
AcDbLine
   6
CONTINUOUS
  62
7
  10
 59.102510805888
  20
 119.37500000000
  30
0.0
  11
 60.252510806105
  21
 119.37500000000
  31
0.0
   0
ARC
   5
432
 100
AcDbEntity
   8
LEVEL002
 370
30
   6
CONTINUOUS
  62
7
 100
AcDbCircle
  10
 60.252510806105
  20
 119.17500000000
  30
0.0
  40
 0.20000000000000
 100
AcDbArc
  50
0.0
  51
 90.000000000000
   0
LINE
   5
433
 100
AcDbEntity
   8
LEVEL002
 370
30
 100
AcDbLine
   6
CONTINUOUS
  62
7
  10
 60.452510806105
  20
 119.17499999999
  30
0.0
  11
 60.452510806079
  21
 118.57500000016
  31
0.0
   0
LINE
   5
434
 100
AcDbEntity
   8
LEVEL002
 370
30
 100
AcDbLine
   6
CONTINUOUS
  62
7
  10
 60.452510806079
  20
 118.57500000016
  30
0.0
  11
 61.052510805951
  21
 118.57500000016
  31
0.0
   0
ARC
   5
435
 100
AcDbEntity
   8
LEVEL002
 370
30
   6
CONTINUOUS
  62
7
 100
AcDbCircle
  10
 61.052510805951
  20
 118.37500000016
  30
0.0
  40
 0.20000000000000
 100
AcDbArc
  50
0.0
  51
 90.000000000000
   0
LINE
   5
436
 100
AcDbEntity
   8
LEVEL002
 370
30
 100
AcDbLine
   6
CONTINUOUS
  62
7
  10
 61.252510805951
  20
 118.37500000016
  30
0.0
  11
 61.252510805951
  21
 117.07500000016
  31
0.0
   0
LINE
   5
437
 100
AcDbEntity
   8
LEVEL002
 370
30
 100
AcDbLine
   6
CONTINUOUS
  62
7
  10
 61.252510805951
  20
 117.07500000016
  30
0.0
  11
 65.252510805996
  21
 117.07500000016
  31
0.0
   0
LINE
   5
438
 100
AcDbEntity
   8
LEVEL002
 370
30
 100
AcDbLine
   6
CONTINUOUS
  62
7
  10
 65.252510805996
  20
 117.07500000016
  30
0.0
  11
 65.252510805996
  21
 118.37500000016
  31
0.0
   0
ARC
   5
439
 100
AcDbEntity
   8
LEVEL002
 370
30
   6
CONTINUOUS
  62
7
 100
AcDbCircle
  10
 65.452510805996
  20
 118.37500000016
  30
0.0
  40
 0.20000000000000
 100
AcDbArc
  50
 90.000000000000
  51
 180.00000000000
   0
LINE
   5
43A
 100
AcDbEntity
   8
LEVEL002
 370
30
 100
AcDbLine
   6
CONTINUOUS
  62
7
  10
 65.452510805996
  20
 118.57500000016
  30
0.0
  11
 66.052510806079
  21
 118.57500000016
  31
0.0
   0
LINE
   5
43B
 100
AcDbEntity
   8
LEVEL002
 370
30
 100
AcDbLine
   6
CONTINUOUS
  62
7
  10
 66.052510806079
  20
 118.57500000016
  30
0.0
  11
 66.052510805935
  21
 119.17499999997
  31
0.0
   0
LINE
   5
43C
 100
AcDbEntity
   8
LEVEL002
 370
30
 100
AcDbLine
   6
CONTINUOUS
  62
7
  10
 66.252510805920
  20
 119.37500000002
  30
0.0
  11
 67.402510805888
  21
 119.37500000011
  31
0.0
   0
ARC
   5
43D
 100
AcDbEntity
   8
LEVEL002
 370
30
   6
CONTINUOUS
  62
7
 100
AcDbCircle
  10
 66.252510805935
  20
 119.17500000002
  30
0.0
  40
 0.20000000000000
 100
AcDbArc
  50
 90.000000004539
  51
 180.00000001369
   0
LINE
   5
43E
 100
AcDbEntity
   8
LEVEL002
 370
15
 100
AcDbLine
   6
DASHDOT
  62
8
  10
 63.252510806001
  20
 112.70913127361
  30
0.0
  11
 63.252510806001
  21
 121.44086872639
  31
0.0
   0
DIMENSION
   5
43F
 100
AcDbEntity
   8
LEVEL001
 370
15
   6
CONTINUOUS
  62
8
 100
AcDbDimension
   2
*D7
  10
 28.330886092129
  20
 128.37500000000
  30
0.0
  11
 26.330886092085
  21
 128.37500000000
  31
0.0
  70
0
   3
GMM002
 100
AcDbAlignedDimension
  13
 24.330886092042
  23
 123.37500000017
  33
0.0
  14
 28.330886092129
  24
 123.37500000019
  34
0.0
 100
AcDbRotatedDimension
   0
DIMENSION
   5
440
 100
AcDbEntity
   8
LEVEL001
 370
15
   6
CONTINUOUS
  62
8
 100
AcDbDimension
   2
*D8
  10
 32.430886092042
  20
 131.37500000000
  30
0.0
  11
 26.330886092042
  21
 131.37500000000
  31
0.0
  70
0
   3
GMM002
 100
AcDbAlignedDimension
  13
 20.230886092042
  23
 125.37500000000
  33
0.0
  14
 32.430886092042
  24
 125.37500000000
  34
0.0
 100
AcDbRotatedDimension
   0
DIMENSION
   5
441
 100
AcDbEntity
   8
LEVEL001
 370
15
   6
CONTINUOUS
  62
8
 100
AcDbDimension
   2
*D9
  10
 65.252510805996
  20
 123.37500000000
  30
0.0
  11
 63.252510805973
  21
 123.37500000000
  31
0.0
  70
0
   3
GMM001
 100
AcDbAlignedDimension
  13
 61.252510805951
  23
 118.37500000016
  33
0.0
  14
 65.252510805996
  24
 118.37500000016
  34
0.0
 100
AcDbRotatedDimension
   0
DIMENSION
   5
442
 100
AcDbEntity
   8
LEVEL001
 370
15
   6
CONTINUOUS
  62
8
 100
AcDbDimension
   2
*D10
  10
 69.352510806001
  20
 126.37500000000
  30
0.0
  11
 63.252510806001
  21
 126.37500000000
  31
0.0
  70
0
   3
GMM001
 100
AcDbAlignedDimension
  13
 57.152510806001
  23
 120.37500000000
  33
0.0
  14
 69.352510806001
  24
 120.37500000000
  34
0.0
 100
AcDbRotatedDimension
   0
DIMENSION
   5
443
 100
AcDbEntity
   8
LEVEL001
 370
15
   6
CONTINUOUS
  62
8
 100
AcDbDimension
   2
*D11
  10
 100.37207602337
  20
 125.37500000000
  30
0.0
  11
 98.372076023358
  21
 125.37500000000
  31
0.0
  70
0
   3
GMM001
 100
AcDbAlignedDimension
  13
 96.372076023342
  23
 120.27500000017
  33
0.0
  14
 100.37207602337
  24
 120.27500000017
  34
0.0
 100
AcDbRotatedDimension
   0
DIMENSION
   5
444
 100
AcDbEntity
   8
LEVEL001
 370
15
   6
CONTINUOUS
  62
8
 100
AcDbDimension
   2
*D12
  10
 102.87207602339
  20
 128.37500000000
  30
0.0
  11
 98.372076023392
  21
 128.37500000000
  31
0.0
  70
0
   3
GMM001
 100
AcDbAlignedDimension
  13
 93.872076023392
  23
 122.17500000000
  33
0.0
  14
 102.87207602339
  24
 122.17500000000
  34
0.0
 100
AcDbRotatedDimension
   0
MTEXT
   5
446
 100
AcDbEntity
   8
LEVEL001
 370
15
  62
8
 100
AcDbMText
  10
 116.27499999997
  20
 140.00000000000
  30
0.0
  40
 1.5000000000000
  41
0.0
  71
4
  72
1
   1
\W0.500000;\T1.000000; \W1.000000;\T1.000000;　ＴＡ６５
   7
GMM002
  44
 0.79999984000003
   0
DIMENSION
   5
447
 100
AcDbEntity
   8
LEVEL001
 370
15
   6
CONTINUOUS
  62
8
 100
AcDbDimension
   2
*D13
  10
 137.09774839676
  20
 122.87500000000
  30
0.0
  11
 135.09774839676
  21
 122.87500000000
  31
0.0
  70
0
   3
GMM001
 100
AcDbAlignedDimension
  13
 133.09774839676
  23
 117.77500000000
  33
0.0
  14
 137.09774839676
  24
 117.77500000000
  34
0.0
 100
AcDbRotatedDimension
   0
DIMENSION
   5
448
 100
AcDbEntity
   8
LEVEL001
 370
15
   6
CONTINUOUS
  62
8
 100
AcDbDimension
   2
*D14
  10
 139.59774839676
  20
 125.87500000000
  30
0.0
  11
 135.09774839676
  21
 125.87500000000
  31
0.0
  70
0
   3
GMM001
 100
AcDbAlignedDimension
  13
 130.59774839676
  23
 119.87500000000
  33
0.0
  14
 139.59774839676
  24
 119.87500000000
  34
0.0
 100
AcDbRotatedDimension
   0
DIMENSION
   5
449
 100
AcDbEntity
   8
LEVEL001
 370
15
   6
CONTINUOUS
  62
8
 100
AcDbDimension
   2
*D15
  10
 128.09774839676
  20
 119.87500000000
  30
0.0
  11
 128.09774839676
  21
 118.22500000000
  31
0.0
  70
0
   3
GMM001
 100
AcDbAlignedDimension
  13
 133.09774839676
  23
 116.57500000000
  33
0.0
  14
 130.59774839676
  24
 119.87500000000
  34
0.0
  50
 90.000000000000
 100
AcDbRotatedDimension
   0
DIMENSION
   5
44A
 100
AcDbEntity
   8
LEVEL001
 370
15
   6
CONTINUOUS
  62
8
 100
AcDbDimension
   2
*D16
  10
 125.59774839676
  20
 119.87500000000
  30
0.0
  11
 125.59774839676
  21
 116.62500000000
  31
0.0
  70
0
   3
GMM001
 100
AcDbAlignedDimension
  13
 131.09774839676
  23
 113.37500000000
  33
0.0
  14
 130.59774839676
  24
 119.87500000000
  34
0.0
  50
 90.000000000000
 100
AcDbRotatedDimension
   0
LINE
   5
44B
 100
AcDbEntity
   8
LEVEL002
 370
30
 100
AcDbLine
   6
CONTINUOUS
  62
7
  10
 130.59774839676
  20
 117.87500000000
  30
0.0
  11
 131.15774839676
  21
 117.45500000000
  31
0.0
   0
LINE
   5
44C
 100
AcDbEntity
   8
LEVEL002
 370
30
 100
AcDbLine
   6
CONTINUOUS
  62
7
  10
 131.09774839676
  20
 117.27500000000
  30
0.0
  11
 130.79774839676
  21
 117.27500000000
  31
0.0
   0
LINE
   5
44D
 100
AcDbEntity
   8
LEVEL002
 370
30
 100
AcDbLine
   6
CONTINUOUS
  62
7
  10
 130.63077591969
  20
 116.96490825688
  30
0.0
  11
 131.18123463529
  21
 116.13004587156
  31
0.0
   0
LINE
   5
44E
 100
AcDbEntity
   8
LEVEL002
 370
30
 100
AcDbLine
   6
CONTINUOUS
  62
7
  10
 131.09774839676
  20
 115.97500000000
  30
0.0
  11
 130.79774839676
  21
 115.97500000000
  31
0.0
   0
LINE
   5
44F
 100
AcDbEntity
   8
LEVEL002
 370
30
 100
AcDbLine
   6
CONTINUOUS
  62
7
  10
 130.63077591969
  20
 115.66490825688
  30
0.0
  11
 131.18123463529
  21
 114.83004587156
  31
0.0
   0
LINE
   5
450
 100
AcDbEntity
   8
LEVEL002
 370
30
 100
AcDbLine
   6
CONTINUOUS
  62
7
  10
 131.09774839676
  20
 114.67500000000
  30
0.0
  11
 130.79774839676
  21
 114.67500000000
  31
0.0
   0
LINE
   5
451
 100
AcDbEntity
   8
LEVEL002
 370
30
 100
AcDbLine
   6
CONTINUOUS
  62
7
  10
 131.19774839676
  20
 113.37500000000
  30
0.0
  11
 130.62423279305
  21
 114.37553978047
  31
0.0
   0
LINE
   5
452
 100
AcDbEntity
   8
LEVEL002
 370
30
 100
AcDbLine
   6
CONTINUOUS
  62
7
  10
 131.29774839676
  20
 119.87500000000
  30
0.0
  11
 132.29774839676
  21
 118.87500000000
  31
0.0
   0
LINE
   5
453
 100
AcDbEntity
   8
LEVEL002
 370
30
 100
AcDbLine
   6
CONTINUOUS
  62
7
  10
 132.29774839676
  20
 118.87500000000
  30
0.0
  11
 132.29774839676
  21
 118.07500000000
  31
0.0
   0
LINE
   5
454
 100
AcDbEntity
   8
LEVEL002
 370
30
 100
AcDbLine
   6
CONTINUOUS
  62
7
  10
 132.29774839676
  20
 118.07500000000
  30
0.0
  11
 132.79774839676
  21
 118.07500000000
  31
0.0
   0
LINE
   5
455
 100
AcDbEntity
   8
LEVEL002
 370
30
 100
AcDbLine
   6
CONTINUOUS
  62
7
  10
 133.09774839676
  20
 117.77500000000
  30
0.0
  11
 133.09774839676
  21
 116.57500000000
  31
0.0
   0
LINE
   5
456
 100
AcDbEntity
   8
LEVEL002
 370
30
 100
AcDbLine
   6
CONTINUOUS
  62
7
  10
 133.09774839676
  20
 116.57500000000
  30
0.0
  11
 135.09774839676
  21
 116.57500000000
  31
0.0
   0
ARC
   5
457
 100
AcDbEntity
   8
LEVEL002
 370
30
   6
CONTINUOUS
  62
7
 100
AcDbCircle
  10
 132.79774839676
  20
 117.77500000000
  30
0.0
  40
 0.30000000000000
 100
AcDbArc
  50
0.0
  51
 90.000000000000
   0
ARC
   5
458
 100
AcDbEntity
   8
LEVEL002
 370
30
   6
CONTINUOUS
  62
7
 100
AcDbCircle
  10
 131.09774839676
  20
 117.37500000000
  30
0.0
  40
 0.10000000000000
 100
AcDbArc
  50
 270.00000000002
  51
 53.130102354136
   0
ARC
   5
459
 100
AcDbEntity
   8
LEVEL002
 370
30
   6
CONTINUOUS
  62
7
 100
AcDbCircle
  10
 130.79774839676
  20
 117.07500000000
  30
0.0
  40
 0.20000000000000
 100
AcDbArc
  50
 90.000000000000
  51
 213.39848846800
   0
ARC
   5
45A
 100
AcDbEntity
   8
LEVEL002
 370
30
   6
CONTINUOUS
  62
7
 100
AcDbCircle
  10
 131.09774839676
  20
 116.07500000000
  30
0.0
  40
 0.10000000000000
 100
AcDbArc
  50
 269.99999999998
  51
 33.398488468005
   0
ARC
   5
45B
 100
AcDbEntity
   8
LEVEL002
 370
30
   6
CONTINUOUS
  62
7
 100
AcDbCircle
  10
 130.79774839676
  20
 115.77500000000
  30
0.0
  40
 0.20000000000000
 100
AcDbArc
  50
 90.000000000008
  51
 213.39848846798
   0
ARC
   5
45C
 100
AcDbEntity
   8
LEVEL002
 370
30
   6
CONTINUOUS
  62
7
 100
AcDbCircle
  10
 131.09774839676
  20
 114.77500000000
  30
0.0
  40
 0.10000000000000
 100
AcDbArc
  50
 270.00000000000
  51
 33.398488467982
   0
ARC
   5
45D
 100
AcDbEntity
   8
LEVEL002
 370
30
   6
CONTINUOUS
  62
7
 100
AcDbCircle
  10
 130.79774839676
  20
 114.47500000000
  30
0.0
  40
 0.20000000000000
 100
AcDbArc
  50
 90.000000000000
  51
 209.82160211869
   0
LINE
   5
45E
 100
AcDbEntity
   8
LEVEL002
 370
30
 100
AcDbLine
   6
CONTINUOUS
  62
7
  10
 131.19774839676
  20
 113.37500000000
  30
0.0
  11
 132.29774839676
  21
 113.37500000000
  31
0.0
   0
LINE
   5
45F
 100
AcDbEntity
   8
LEVEL002
 370
30
 100
AcDbLine
   6
CONTINUOUS
  62
7
  10
 131.29774839676
  20
 119.87500000000
  30
0.0
  11
 130.59774839676
  21
 119.87500000000
  31
0.0
   0
LINE
   5
460
 100
AcDbEntity
   8
LEVEL002
 370
30
 100
AcDbLine
   6
CONTINUOUS
  62
7
  10
 130.59774839676
  20
 119.87500000000
  30
0.0
  11
 130.59774839676
  21
 117.87500000000
  31
0.0
   0
LINE
   5
461
 100
AcDbEntity
   8
LEVEL002
 370
30
 100
AcDbLine
   6
CONTINUOUS
  62
7
  10
 135.09774839676
  20
 115.57500000000
  30
0.0
  11
 132.69774839676
  21
 115.57500000000
  31
0.0
   0
LINE
   5
462
 100
AcDbEntity
   8
LEVEL002
 370
30
 100
AcDbLine
   6
CONTINUOUS
  62
7
  10
 132.29774839676
  20
 115.57500000000
  30
0.0
  11
 132.29774839676
  21
 113.37500000000
  31
0.0
   0
ARC
   5
463
 100
AcDbEntity
   8
LEVEL002
 370
30
   6
CONTINUOUS
  62
7
 100
AcDbCircle
  10
 132.49774839676
  20
 115.57500000000
  30
0.0
  40
 0.20000000000000
 100
AcDbArc
  50
0.0
  51
 180.00000000000
   0
LINE
   5
464
 100
AcDbEntity
   8
LEVEL002
 370
30
 100
AcDbLine
   6
CONTINUOUS
  62
7
  10
 139.59774839676
  20
 117.87500000000
  30
0.0
  11
 139.03774839676
  21
 117.45500000000
  31
0.0
   0
LINE
   5
465
 100
AcDbEntity
   8
LEVEL002
 370
30
 100
AcDbLine
   6
CONTINUOUS
  62
7
  10
 139.09774839676
  20
 117.27500000000
  30
0.0
  11
 139.39774839676
  21
 117.27500000000
  31
0.0
   0
LINE
   5
466
 100
AcDbEntity
   8
LEVEL002
 370
30
 100
AcDbLine
   6
CONTINUOUS
  62
7
  10
 139.56472087382
  20
 116.96490825688
  30
0.0
  11
 139.01426215823
  21
 116.13004587156
  31
0.0
   0
LINE
   5
467
 100
AcDbEntity
   8
LEVEL002
 370
30
 100
AcDbLine
   6
CONTINUOUS
  62
7
  10
 139.09774839676
  20
 115.97500000000
  30
0.0
  11
 139.39774839676
  21
 115.97500000000
  31
0.0
   0
LINE
   5
468
 100
AcDbEntity
   8
LEVEL002
 370
30
 100
AcDbLine
   6
CONTINUOUS
  62
7
  10
 139.56472087382
  20
 115.66490825688
  30
0.0
  11
 139.01426215823
  21
 114.83004587156
  31
0.0
   0
LINE
   5
469
 100
AcDbEntity
   8
LEVEL002
 370
30
 100
AcDbLine
   6
CONTINUOUS
  62
7
  10
 139.09774839676
  20
 114.67500000000
  30
0.0
  11
 139.39774839676
  21
 114.67500000000
  31
0.0
   0
LINE
   5
46A
 100
AcDbEntity
   8
LEVEL002
 370
30
 100
AcDbLine
   6
CONTINUOUS
  62
7
  10
 138.99774839676
  20
 113.37500000000
  30
0.0
  11
 139.57126400047
  21
 114.37553978047
  31
0.0
   0
LINE
   5
46B
 100
AcDbEntity
   8
LEVEL002
 370
30
 100
AcDbLine
   6
CONTINUOUS
  62
7
  10
 138.89774839676
  20
 119.87500000000
  30
0.0
  11
 137.89774839676
  21
 118.87500000000
  31
0.0
   0
LINE
   5
46C
 100
AcDbEntity
   8
LEVEL002
 370
30
 100
AcDbLine
   6
CONTINUOUS
  62
7
  10
 137.89774839676
  20
 118.87500000000
  30
0.0
  11
 137.89774839676
  21
 118.07500000000
  31
0.0
   0
LINE
   5
46D
 100
AcDbEntity
   8
LEVEL002
 370
30
 100
AcDbLine
   6
CONTINUOUS
  62
7
  10
 137.89774839676
  20
 118.07500000000
  30
0.0
  11
 137.39774839676
  21
 118.07500000000
  31
0.0
   0
LINE
   5
46E
 100
AcDbEntity
   8
LEVEL002
 370
30
 100
AcDbLine
   6
CONTINUOUS
  62
7
  10
 137.09774839676
  20
 117.77500000000
  30
0.0
  11
 137.09774839676
  21
 116.57500000000
  31
0.0
   0
LINE
   5
46F
 100
AcDbEntity
   8
LEVEL002
 370
30
 100
AcDbLine
   6
CONTINUOUS
  62
7
  10
 137.09774839676
  20
 116.57500000000
  30
0.0
  11
 135.09774839676
  21
 116.57500000000
  31
0.0
   0
ARC
   5
470
 100
AcDbEntity
   8
LEVEL002
 370
30
   6
CONTINUOUS
  62
7
 100
AcDbCircle
  10
 137.39774839676
  20
 117.77500000000
  30
0.0
  40
 0.30000000000000
 100
AcDbArc
  50
 90.000000000005
  51
 180.00000000001
   0
ARC
   5
471
 100
AcDbEntity
   8
LEVEL002
 370
30
   6
CONTINUOUS
  62
7
 100
AcDbCircle
  10
 139.09774839676
  20
 117.37500000000
  30
0.0
  40
 0.10000000000000
 100
AcDbArc
  50
 126.86989764584
  51
 270.00000000000
   0
ARC
   5
472
 100
AcDbEntity
   8
LEVEL002
 370
30
   6
CONTINUOUS
  62
7
 100
AcDbCircle
  10
 139.39774839676
  20
 117.07500000000
  30
0.0
  40
 0.20000000000000
 100
AcDbArc
  50
 326.60151153199
  51
 90.000000000008
   0
ARC
   5
473
 100
AcDbEntity
   8
LEVEL002
 370
30
   6
CONTINUOUS
  62
7
 100
AcDbCircle
  10
 139.09774839676
  20
 116.07500000000
  30
0.0
  40
 0.10000000000000
 100
AcDbArc
  50
 146.60151153199
  51
 270.00000000002
   0
ARC
   5
474
 100
AcDbEntity
   8
LEVEL002
 370
30
   6
CONTINUOUS
  62
7
 100
AcDbCircle
  10
 139.39774839676
  20
 115.77500000000
  30
0.0
  40
 0.20000000000000
 100
AcDbArc
  50
 326.60151153204
  51
 89.999999999992
   0
ARC
   5
475
 100
AcDbEntity
   8
LEVEL002
 370
30
   6
CONTINUOUS
  62
7
 100
AcDbCircle
  10
 139.09774839676
  20
 114.77500000000
  30
0.0
  40
 0.10000000000000
 100
AcDbArc
  50
 146.60151153202
  51
 270.00000000000
   0
ARC
   5
476
 100
AcDbEntity
   8
LEVEL002
 370
30
   6
CONTINUOUS
  62
7
 100
AcDbCircle
  10
 139.39774839676
  20
 114.47500000000
  30
0.0
  40
 0.20000000000000
 100
AcDbArc
  50
 330.17839788131
  51
 90.000000000000
   0
LINE
   5
477
 100
AcDbEntity
   8
LEVEL002
 370
30
 100
AcDbLine
   6
CONTINUOUS
  62
7
  10
 138.99774839676
  20
 113.37500000000
  30
0.0
  11
 137.89774839676
  21
 113.37500000000
  31
0.0
   0
LINE
   5
478
 100
AcDbEntity
   8
LEVEL002
 370
30
 100
AcDbLine
   6
CONTINUOUS
  62
7
  10
 138.89774839676
  20
 119.87500000000
  30
0.0
  11
 139.59774839676
  21
 119.87500000000
  31
0.0
   0
LINE
   5
479
 100
AcDbEntity
   8
LEVEL002
 370
30
 100
AcDbLine
   6
CONTINUOUS
  62
7
  10
 139.59774839676
  20
 119.87500000000
  30
0.0
  11
 139.59774839676
  21
 117.87500000000
  31
0.0
   0
LINE
   5
47A
 100
AcDbEntity
   8
LEVEL002
 370
30
 100
AcDbLine
   6
CONTINUOUS
  62
7
  10
 135.09774839676
  20
 115.57500000000
  30
0.0
  11
 137.49774839676
  21
 115.57500000000
  31
0.0
   0
LINE
   5
47B
 100
AcDbEntity
   8
LEVEL002
 370
30
 100
AcDbLine
   6
CONTINUOUS
  62
7
  10
 137.89774839676
  20
 115.57500000000
  30
0.0
  11
 137.89774839676
  21
 113.37500000000
  31
0.0
   0
ARC
   5
47C
 100
AcDbEntity
   8
LEVEL002
 370
30
   6
CONTINUOUS
  62
7
 100
AcDbCircle
  10
 137.69774839676
  20
 115.57500000000
  30
0.0
  40
 0.20000000000000
 100
AcDbArc
  50
0.0
  51
 180.00000000000
   0
LINE
   5
47D
 100
AcDbEntity
   8
LEVEL002
 370
15
 100
AcDbLine
   6
DASHDOT
  62
8
  10
 135.09774839676
  20
 112.57740649815
  30
0.0
  11
 135.09774839676
  21
 120.79230011517
  31
0.0
   0
LINE
   5
47E
 100
AcDbEntity
   8
LEVEL002
 370
15
 100
AcDbLine
   6
DASHDOT
  62
8
  10
 26.330886092042
  20
 86.651696380266
  30
0.0
  11
 26.330886092042
  21
 78.384593270609
  31
0.0
   0
DIMENSION
   5
47F
 100
AcDbEntity
   8
LEVEL001
 370
15
   6
CONTINUOUS
  62
8
 100
AcDbDimension
   2
*D17
  10
 28.330886092041
  20
 88.250000000003
  30
0.0
  11
 26.330886092041
  21
 88.250000000003
  31
0.0
  70
0
   3
GMM003
 100
AcDbAlignedDimension
  13
 24.330886092042
  23
 83.150000000002
  33
0.0
  14
 28.330886092041
  24
 83.150000000002
  34
0.0
 100
AcDbRotatedDimension
   0
DIMENSION
   5
480
 100
AcDbEntity
   8
LEVEL001
 370
15
   6
CONTINUOUS
  62
8
 100
AcDbDimension
   2
*D18
  10
 30.830886092042
  20
 91.250000000003
  30
0.0
  11
 26.330886092042
  21
 91.250000000003
  31
0.0
  70
0
   3
GMM003
 100
AcDbAlignedDimension
  13
 21.830886092042
  23
 85.250000000003
  33
0.0
  14
 30.830886092042
  24
 85.250000000003
  34
0.0
 100
AcDbRotatedDimension
   0
DIMENSION
   5
481
 100
AcDbEntity
   8
LEVEL001
 370
15
   6
CONTINUOUS
  62
8
 100
AcDbDimension
   2
*D19
  10
 16.830886092042
  20
 85.250000000003
  30
0.0
  11
 16.830886092042
  21
 82.250000000003
  31
0.0
  70
0
   3
GMM003
 100
AcDbAlignedDimension
  13
 22.230886092042
  23
 79.250000000003
  33
0.0
  14
 19.830886092042
  24
 85.250000000003
  34
0.0
  50
 90.000000000000
 100
AcDbRotatedDimension
   0
DIMENSION
   5
482
 100
AcDbEntity
   8
LEVEL001
 370
15
   6
CONTINUOUS
  62
8
 100
AcDbDimension
   2
*D20
  10
 19.330886092042
  20
 85.250000000003
  30
0.0
  11
 19.330886092042
  21
 83.600000000003
  31
0.0
  70
0
   3
GMM003
 100
AcDbAlignedDimension
  13
 24.330886092042
  23
 81.950000000003
  33
0.0
  14
 21.830886092042
  24
 85.250000000003
  34
0.0
  50
 90.000000000000
 100
AcDbRotatedDimension
   0
LINE
   5
483
 100
AcDbEntity
   8
LEVEL002
 370
30
 100
AcDbLine
   6
CONTINUOUS
  62
7
  10
 30.830886092042
  20
 85.250000000003
  30
0.0
  11
 30.830886092042
  21
 83.750000000003
  31
0.0
   0
LINE
   5
484
 100
AcDbEntity
   8
LEVEL002
 370
30
 100
AcDbLine
   6
CONTINUOUS
  62
7
  10
 30.830886092042
  20
 83.750000000003
  30
0.0
  11
 30.270886092042
  21
 83.330000000003
  31
0.0
   0
LINE
   5
485
 100
AcDbEntity
   8
LEVEL002
 370
30
 100
AcDbLine
   6
CONTINUOUS
  62
7
  10
 30.330886092042
  20
 83.150000000002
  30
0.0
  11
 30.530886092042
  21
 83.150000000002
  31
0.0
   0
LINE
   5
486
 100
AcDbEntity
   8
LEVEL002
 370
30
 100
AcDbLine
   6
CONTINUOUS
  62
7
  10
 30.230886092042
  20
 79.250000000003
  30
0.0
  11
 30.711616390139
  21
 80.264346282339
  31
0.0
   0
LINE
   5
487
 100
AcDbEntity
   8
LEVEL002
 370
30
 100
AcDbLine
   6
CONTINUOUS
  62
7
  10
 26.330886092042
  20
 80.950000000003
  30
0.0
  11
 28.330886092042
  21
 80.950000000003
  31
0.0
   0
ARC
   5
488
 100
AcDbEntity
   8
LEVEL002
 370
30
   6
CONTINUOUS
  62
7
 100
AcDbCircle
  10
 28.730886092042
  20
 80.950000000003
  30
0.0
  40
 0.40000000000000
 100
AcDbArc
  50
0.0
  51
 180.00000000000
   0
LINE
   5
489
 100
AcDbEntity
   8
LEVEL002
 370
30
 100
AcDbLine
   6
CONTINUOUS
  62
7
  10
 26.330886092042
  20
 81.950000000003
  30
0.0
  11
 28.330886092042
  21
 81.950000000003
  31
0.0
   0
LINE
   5
48A
 100
AcDbEntity
   8
LEVEL002
 370
30
 100
AcDbLine
   6
CONTINUOUS
  62
7
  10
 28.330886092042
  20
 81.950000000003
  30
0.0
  11
 28.330886092042
  21
 83.150000000002
  31
0.0
   0
LINE
   5
48B
 100
AcDbEntity
   8
LEVEL002
 370
30
 100
AcDbLine
   6
CONTINUOUS
  62
7
  10
 28.630886092042
  20
 83.450000000003
  30
0.0
  11
 29.130886092042
  21
 83.450000000003
  31
0.0
   0
LINE
   5
48C
 100
AcDbEntity
   8
LEVEL002
 370
30
 100
AcDbLine
   6
CONTINUOUS
  62
7
  10
 29.130886092042
  20
 83.450000000003
  30
0.0
  11
 29.130886092042
  21
 84.250000000003
  31
0.0
   0
LINE
   5
48D
 100
AcDbEntity
   8
LEVEL002
 370
30
 100
AcDbLine
   6
CONTINUOUS
  62
7
  10
 29.130886092042
  20
 84.250000000003
  30
0.0
  11
 30.130886092042
  21
 85.250000000003
  31
0.0
   0
LINE
   5
48E
 100
AcDbEntity
   8
LEVEL002
 370
30
 100
AcDbLine
   6
CONTINUOUS
  62
7
  10
 30.130886092042
  20
 85.250000000003
  30
0.0
  11
 30.830886092042
  21
 85.250000000003
  31
0.0
   0
ARC
   5
48F
 100
AcDbEntity
   8
LEVEL002
 370
30
   6
CONTINUOUS
  62
7
 100
AcDbCircle
  10
 28.630886092041
  20
 83.150000000003
  30
0.0
  40
 0.30000000000000
 100
AcDbArc
  50
 89.999999999965
  51
 180.00000000001
   0
LINE
   5
490
 100
AcDbEntity
   8
LEVEL002
 370
30
 100
AcDbLine
   6
CONTINUOUS
  62
7
  10
 30.330886092042
  20
 81.850000000003
  30
0.0
  11
 30.530886092042
  21
 81.850000000003
  31
0.0
   0
LINE
   5
491
 100
AcDbEntity
   8
LEVEL002
 370
30
 100
AcDbLine
   6
CONTINUOUS
  62
7
  10
 30.330886092042
  20
 80.550000000003
  30
0.0
  11
 30.530886092042
  21
 80.550000000003
  31
0.0
   0
LINE
   5
492
 100
AcDbEntity
   8
LEVEL002
 370
30
 100
AcDbLine
   6
CONTINUOUS
  62
7
  10
 30.242936146418
  20
 80.697589989128
  30
0.0
  11
 30.706785983288
  21
 81.554820021753
  31
0.0
   0
LINE
   5
493
 100
AcDbEntity
   8
LEVEL002
 370
30
 100
AcDbLine
   6
CONTINUOUS
  62
7
  10
 30.242936146418
  20
 81.997589989128
  30
0.0
  11
 30.706785983288
  21
 82.854820021754
  31
0.0
   0
ARC
   5
494
 100
AcDbEntity
   8
LEVEL002
 370
30
   6
CONTINUOUS
  62
7
 100
AcDbCircle
  10
 30.330886092042
  20
 83.250000000002
  30
0.0
  40
 0.10000000000000
 100
AcDbArc
  50
 126.86989764622
  51
 269.99999999954
   0
ARC
   5
495
 100
AcDbEntity
   8
LEVEL002
 370
30
   6
CONTINUOUS
  62
7
 100
AcDbCircle
  10
 30.530886092042
  20
 82.950000000002
  30
0.0
  40
 0.20000000000000
 100
AcDbArc
  50
 331.58204196036
  51
 89.999999999986
   0
ARC
   5
496
 100
AcDbEntity
   8
LEVEL002
 370
30
   6
CONTINUOUS
  62
7
 100
AcDbCircle
  10
 30.330886092042
  20
 81.950000000003
  30
0.0
  40
 0.10000000000000
 100
AcDbArc
  50
 151.58204196036
  51
 269.99999999995
   0
ARC
   5
497
 100
AcDbEntity
   8
LEVEL002
 370
30
   6
CONTINUOUS
  62
7
 100
AcDbCircle
  10
 30.530886092042
  20
 81.650000000003
  30
0.0
  40
 0.20000000000000
 100
AcDbArc
  50
 331.58204196029
  51
 90.000000000054
   0
ARC
   5
498
 100
AcDbEntity
   8
LEVEL002
 370
30
   6
CONTINUOUS
  62
7
 100
AcDbCircle
  10
 30.330886092042
  20
 80.650000000003
  30
0.0
  40
 0.10000000000000
 100
AcDbArc
  50
 151.58204196051
  51
 269.99999999969
   0
ARC
   5
499
 100
AcDbEntity
   8
LEVEL002
 370
30
   6
CONTINUOUS
  62
7
 100
AcDbCircle
  10
 30.530886092042
  20
 80.350000000003
  30
0.0
  40
 0.20000000000000
 100
AcDbArc
  50
 334.64226950522
  51
 90.000000000073
   0
LINE
   5
49A
 100
AcDbEntity
   8
LEVEL002
 370
30
 100
AcDbLine
   6
CONTINUOUS
  62
7
  10
 21.830886092042
  20
 85.250000000003
  30
0.0
  11
 21.830886092042
  21
 83.750000000003
  31
0.0
   0
LINE
   5
49B
 100
AcDbEntity
   8
LEVEL002
 370
30
 100
AcDbLine
   6
CONTINUOUS
  62
7
  10
 21.830886092042
  20
 83.750000000003
  30
0.0
  11
 22.390886092042
  21
 83.330000000003
  31
0.0
   0
LINE
   5
49C
 100
AcDbEntity
   8
LEVEL002
 370
30
 100
AcDbLine
   6
CONTINUOUS
  62
7
  10
 22.330886092042
  20
 83.150000000002
  30
0.0
  11
 22.130886092042
  21
 83.150000000002
  31
0.0
   0
LINE
   5
49D
 100
AcDbEntity
   8
LEVEL002
 370
30
 100
AcDbLine
   6
CONTINUOUS
  62
7
  10
 22.430886092042
  20
 79.250000000003
  30
0.0
  11
 21.950155793944
  21
 80.264346282339
  31
0.0
   0
LINE
   5
49E
 100
AcDbEntity
   8
LEVEL002
 370
30
 100
AcDbLine
   6
CONTINUOUS
  62
7
  10
 26.330886092042
  20
 80.950000000003
  30
0.0
  11
 24.330886092042
  21
 80.950000000003
  31
0.0
   0
ARC
   5
49F
 100
AcDbEntity
   8
LEVEL002
 370
30
   6
CONTINUOUS
  62
7
 100
AcDbCircle
  10
 23.930886092042
  20
 80.950000000003
  30
0.0
  40
 0.40000000000000
 100
AcDbArc
  50
0.0
  51
 180.00000000000
   0
LINE
   5
4A0
 100
AcDbEntity
   8
LEVEL002
 370
30
 100
AcDbLine
   6
CONTINUOUS
  62
7
  10
 26.330886092042
  20
 81.950000000003
  30
0.0
  11
 24.330886092042
  21
 81.950000000003
  31
0.0
   0
LINE
   5
4A1
 100
AcDbEntity
   8
LEVEL002
 370
30
 100
AcDbLine
   6
CONTINUOUS
  62
7
  10
 24.330886092042
  20
 81.950000000003
  30
0.0
  11
 24.330886092042
  21
 83.150000000002
  31
0.0
   0
LINE
   5
4A2
 100
AcDbEntity
   8
LEVEL002
 370
30
 100
AcDbLine
   6
CONTINUOUS
  62
7
  10
 24.030886092042
  20
 83.450000000003
  30
0.0
  11
 23.530886092042
  21
 83.450000000003
  31
0.0
   0
LINE
   5
4A3
 100
AcDbEntity
   8
LEVEL002
 370
30
 100
AcDbLine
   6
CONTINUOUS
  62
7
  10
 23.530886092042
  20
 83.450000000003
  30
0.0
  11
 23.530886092042
  21
 84.250000000003
  31
0.0
   0
LINE
   5
4A4
 100
AcDbEntity
   8
LEVEL002
 370
30
 100
AcDbLine
   6
CONTINUOUS
  62
7
  10
 23.530886092042
  20
 84.250000000003
  30
0.0
  11
 22.530886092042
  21
 85.250000000003
  31
0.0
   0
LINE
   5
4A5
 100
AcDbEntity
   8
LEVEL002
 370
30
 100
AcDbLine
   6
CONTINUOUS
  62
7
  10
 22.530886092042
  20
 85.250000000003
  30
0.0
  11
 21.830886092042
  21
 85.250000000003
  31
0.0
   0
ARC
   5
4A6
 100
AcDbEntity
   8
LEVEL002
 370
30
   6
CONTINUOUS
  62
7
 100
AcDbCircle
  10
 24.030886092042
  20
 83.150000000003
  30
0.0
  40
 0.30000000000000
 100
AcDbArc
  50
0.0
  51
 90.000000000013
   0
LINE
   5
4A7
 100
AcDbEntity
   8
LEVEL002
 370
30
 100
AcDbLine
   6
CONTINUOUS
  62
7
  10
 22.330886092042
  20
 81.850000000003
  30
0.0
  11
 22.130886092042
  21
 81.850000000003
  31
0.0
   0
LINE
   5
4A8
 100
AcDbEntity
   8
LEVEL002
 370
30
 100
AcDbLine
   6
CONTINUOUS
  62
7
  10
 22.330886092042
  20
 80.550000000003
  30
0.0
  11
 22.130886092042
  21
 80.550000000003
  31
0.0
   0
LINE
   5
4A9
 100
AcDbEntity
   8
LEVEL002
 370
30
 100
AcDbLine
   6
CONTINUOUS
  62
7
  10
 22.418836037665
  20
 80.697589989128
  30
0.0
  11
 21.954986200795
  21
 81.554820021753
  31
0.0
   0
LINE
   5
4AA
 100
AcDbEntity
   8
LEVEL002
 370
30
 100
AcDbLine
   6
CONTINUOUS
  62
7
  10
 22.418836037665
  20
 81.997589989128
  30
0.0
  11
 21.954986200795
  21
 82.854820021754
  31
0.0
   0
ARC
   5
4AB
 100
AcDbEntity
   8
LEVEL002
 370
30
   6
CONTINUOUS
  62
7
 100
AcDbCircle
  10
 22.330886092041
  20
 83.250000000002
  30
0.0
  40
 0.10000000000000
 100
AcDbArc
  50
 270.00000000022
  51
 53.130102354001
   0
ARC
   5
4AC
 100
AcDbEntity
   8
LEVEL002
 370
30
   6
CONTINUOUS
  62
7
 100
AcDbCircle
  10
 22.130886092042
  20
 82.950000000002
  30
0.0
  40
 0.20000000000000
 100
AcDbArc
  50
 89.999999999963
  51
 208.41795803967
   0
ARC
   5
4AD
 100
AcDbEntity
   8
LEVEL002
 370
30
   6
CONTINUOUS
  62
7
 100
AcDbCircle
  10
 22.330886092042
  20
 81.950000000003
  30
0.0
  40
 0.10000000000000
 100
AcDbArc
  50
 269.99999999980
  51
 28.417958039751
   0
ARC
   5
4AE
 100
AcDbEntity
   8
LEVEL002
 370
30
   6
CONTINUOUS
  62
7
 100
AcDbCircle
  10
 22.130886092042
  20
 81.650000000003
  30
0.0
  40
 0.20000000000000
 100
AcDbArc
  50
 89.999999999963
  51
 208.41795803967
   0
ARC
   5
4AF
 100
AcDbEntity
   8
LEVEL002
 370
30
   6
CONTINUOUS
  62
7
 100
AcDbCircle
  10
 22.330886092041
  20
 80.650000000003
  30
0.0
  40
 0.10000000000000
 100
AcDbArc
  50
 270.00000000005
  51
 28.417958039640
   0
ARC
   5
4B0
 100
AcDbEntity
   8
LEVEL002
 370
30
   6
CONTINUOUS
  62
7
 100
AcDbCircle
  10
 22.130886092042
  20
 80.350000000003
  30
0.0
  40
 0.20000000000000
 100
AcDbArc
  50
 90.000000000007
  51
 205.35773049474
   0
LINE
   5
4B1
 100
AcDbEntity
   8
LEVEL002
 370
30
 100
AcDbLine
   6
CONTINUOUS
  62
7
  10
 29.130886092042
  20
 79.250000000003
  30
0.0
  11
 29.130886092042
  21
 80.950000000003
  31
0.0
   0
LINE
   5
4B2
 100
AcDbEntity
   8
LEVEL002
 370
30
 100
AcDbLine
   6
CONTINUOUS
  62
7
  10
 23.530886092042
  20
 79.250000000003
  30
0.0
  11
 23.530886092042
  21
 80.950000000003
  31
0.0
   0
LINE
   5
4B3
 100
AcDbEntity
   8
LEVEL002
 370
30
 100
AcDbLine
   6
CONTINUOUS
  62
7
  10
 29.480886092688
  20
 79.250000000003
  30
0.0
  11
 29.680886092212
  21
 79.449999999528
  31
0.0
   0
LINE
   5
4B4
 100
AcDbEntity
   8
LEVEL002
 370
30
 100
AcDbLine
   6
CONTINUOUS
  62
7
  10
 29.680886092212
  20
 79.449999999528
  30
0.0
  11
 29.880886091736
  21
 79.250000000003
  31
0.0
   0
LINE
   5
4B5
 100
AcDbEntity
   8
LEVEL002
 370
30
 100
AcDbLine
   6
CONTINUOUS
  62
7
  10
 29.480886092688
  20
 79.250000000003
  30
0.0
  11
 29.130886092042
  21
 79.250000000003
  31
0.0
   0
LINE
   5
4B6
 100
AcDbEntity
   8
LEVEL002
 370
30
 100
AcDbLine
   6
CONTINUOUS
  62
7
  10
 30.230886092042
  20
 79.250000000003
  30
0.0
  11
 29.880886091736
  21
 79.250000000003
  31
0.0
   0
LINE
   5
4B7
 100
AcDbEntity
   8
LEVEL002
 370
30
 100
AcDbLine
   6
CONTINUOUS
  62
7
  10
 23.180886091396
  20
 79.250000000003
  30
0.0
  11
 22.980886091871
  21
 79.449999999528
  31
0.0
   0
LINE
   5
4B8
 100
AcDbEntity
   8
LEVEL002
 370
30
 100
AcDbLine
   6
CONTINUOUS
  62
7
  10
 22.980886091871
  20
 79.449999999528
  30
0.0
  11
 22.780886092347
  21
 79.250000000003
  31
0.0
   0
LINE
   5
4B9
 100
AcDbEntity
   8
LEVEL002
 370
30
 100
AcDbLine
   6
CONTINUOUS
  62
7
  10
 22.430886092042
  20
 79.250000000003
  30
0.0
  11
 22.780886092347
  21
 79.250000000003
  31
0.0
   0
LINE
   5
4BA
 100
AcDbEntity
   8
LEVEL002
 370
30
 100
AcDbLine
   6
CONTINUOUS
  62
7
  10
 23.180886091396
  20
 79.250000000003
  30
0.0
  11
 23.530886092042
  21
 79.250000000003
  31
0.0
   0
MTEXT
   5
4BC
 100
AcDbEntity
   8
LEVEL001
 370
15
  62
8
 100
AcDbMText
  10
 7.8999999999750
  20
 110.87500000000
  30
0.0
  40
 1.5000000000000
  41
0.0
  71
4
  72
1
   1
\W0.500000;\T1.000000; \W1.000000;\T1.000000;　堀込寸法：１２×１２
   7
GMM002
  44
 0.79999984000003
   0
MTEXT
   5
4BE
 100
AcDbEntity
   8
LEVEL001
 370
15
  62
8
 100
AcDbMText
  10
 44.024999999975
  20
 110.87500000000
  30
0.0
  40
 1.5000000000000
  41
0.0
  71
4
  72
1
   1
\W0.500000;\T1.000000; \W1.000000;\T1.000000;　堀込寸法：１２×７
   7
GMM002
  44
 0.79999984000003
   0
MTEXT
   5
4C0
 100
AcDbEntity
   8
LEVEL001
 370
15
  62
8
 100
AcDbMText
  10
 80.149999999975
  20
 110.87500000000
  30
0.0
  40
 1.5000000000000
  41
0.0
  71
4
  72
1
   1
\W0.500000;\T1.000000; \W1.000000;\T1.000000;　堀込寸法：９×９
   7
GMM002
  44
 0.79999984000003
   0
MTEXT
   5
4C2
 100
AcDbEntity
   8
LEVEL001
 370
15
  62
8
 100
AcDbMText
  10
 116.27499999997
  20
 110.87500000000
  30
0.0
  40
 1.5000000000000
  41
0.0
  71
4
  72
1
   1
\W0.500000;\T1.000000; \W1.000000;\T1.000000;　堀込寸法：９×６\W0.500000;\T1.000000;.\W1.000000;\T1.000000;５
   7
GMM002
  44
 0.79999984000003
   0
MTEXT
   5
4C4
 100
AcDbEntity
   8
LEVEL001
 370
15
  62
8
 100
AcDbMText
  10
 7.8999999999750
  20
 76.750000000003
  30
0.0
  40
 1.5000000000000
  41
0.0
  71
4
  72
1
   1
\W0.500000;\T1.000000; \W1.000000;\T1.000000;　堀込寸法：９×６
   7
GMM002
  44
 0.79999984000003
   0
MTEXT
   5
4C6
 100
AcDbEntity
   8
LEVEL001
 370
15
  62
8
 100
AcDbMText
  10
 7.8999999999750
  20
 42.625000000004
  30
0.0
  40
 1.5000000000000
  41
0.0
  71
4
  72
1
   1
\W0.500000;\T1.000000; \W1.000000;\T1.000000;　堀込寸法：１２×１２
   7
GMM002
  44
 0.79999984000003
   0
MTEXT
   5
4C8
 100
AcDbEntity
   8
LEVEL001
 370
15
  62
8
 100
AcDbMText
  10
 7.8999999999750
  20
 71.750000000003
  30
0.0
  40
 1.5000000000000
  41
0.0
  71
4
  72
1
   1
\W0.500000;\T1.000000; \W1.000000;\T1.000000;　ＤＴＡ１２
   7
GMM002
  44
 0.79999984000003
   0
DIMENSION
   5
4C9
 100
AcDbEntity
   8
LEVEL001
 370
15
   6
CONTINUOUS
  62
8
 100
AcDbDimension
   2
*D21
  10
 28.330886092128
  20
 63.618815690571
  30
0.0
  11
 26.330886092084
  21
 63.618815690571
  31
0.0
  70
0
   3
GMM001
 100
AcDbAlignedDimension
  13
 24.330886092041
  23
 58.618815690735
  33
0.0
  14
 28.330886092128
  24
 58.618815690756
  34
0.0
 100
AcDbRotatedDimension
   0
DIMENSION
   5
4CA
 100
AcDbEntity
   8
LEVEL001
 370
15
   6
CONTINUOUS
  62
8
 100
AcDbDimension
   2
*D22
  10
 34.430886092042
  20
 66.618815690571
  30
0.0
  11
 26.330886092041
  21
 66.618815690571
  31
0.0
  70
0
   3
GMM001
 100
AcDbAlignedDimension
  13
 18.230886092040
  23
 60.118815690571
  33
0.0
  14
 34.430886092042
  24
 60.118815690571
  34
0.0
 100
AcDbRotatedDimension
   0
DIMENSION
   5
4CB
 100
AcDbEntity
   8
LEVEL001
 370
15
   6
CONTINUOUS
  62
8
 100
AcDbDimension
   2
*D23
  10
 32.430886092041
  20
 44.618815690571
  30
0.0
  11
 26.330886092041
  21
 44.618815690571
  31
0.0
  70
0
   3
GMM001
 100
AcDbAlignedDimension
  13
 20.230886092041
  23
 58.618815690571
  33
0.0
  14
 32.430886092041
  24
 58.618815690571
  34
0.0
 100
AcDbRotatedDimension
   0
LINE
   5
4CC
 100
AcDbEntity
   8
LEVEL002
 370
15
 100
AcDbLine
   6
DASHDOT
  62
8
  10
 26.330886092042
  20
 46.705535309016
  30
0.0
  11
 26.330886092042
  21
 60.652936307979
  31
0.0
   0
DIMENSION
   5
4CD
 100
AcDbEntity
   8
LEVEL001
 370
15
   6
CONTINUOUS
  62
8
 100
AcDbDimension
   2
*D24
  10
 36.930886092042
  20
 59.618815690571
  30
0.0
  11
 36.930886092042
  21
 53.618815690571
  31
0.0
  70
0
   3
GMM001
 100
AcDbAlignedDimension
  13
 31.280886092041
  23
 47.618815690571
  33
0.0
  14
 34.130886092041
  24
 59.618815690571
  34
0.0
  50
 90.000000000000
 100
AcDbRotatedDimension
   0
DIMENSION
   5
4CE
 100
AcDbEntity
   8
LEVEL001
 370
15
   6
CONTINUOUS
  62
8
 100
AcDbDimension
   2
*D25
  10
 36.930886092042
  20
 60.618815690571
  30
0.0
  11
 36.930886092042
  21
 61.426274354698
  31
0.0
  70
128
   3
GMM004
 100
AcDbAlignedDimension
  13
 34.130886092041
  23
 59.618815690571
  33
0.0
  14
 31.480886091989
  24
 60.618815690571
  34
0.0
  50
 90.000000000000
 100
AcDbRotatedDimension
   0
DIMENSION
   5
4CF
 100
AcDbEntity
   8
LEVEL001
 370
15
   6
CONTINUOUS
  62
8
 100
AcDbDimension
   2
*D26
  10
 39.430886092042
  20
 60.618815690571
  30
0.0
  11
 39.430886092042
  21
 54.118815690571
  31
0.0
  70
0
   3
GMM001
 100
AcDbAlignedDimension
  13
 36.930886092042
  23
 47.618815690571
  33
0.0
  14
 36.930886092042
  24
 60.618815690571
  34
0.0
  50
 90.000000000000
 100
AcDbRotatedDimension
   0
DIMENSION
   5
4D0
 100
AcDbEntity
   8
LEVEL001
 370
15
   6
CONTINUOUS
  62
8
 100
AcDbDimension
   2
*D27
  10
 15.730886092040
  20
 60.618815690571
  30
0.0
  11
 15.730886092040
  21
 58.968815690653
  31
0.0
  70
0
   3
GMM001
 100
AcDbAlignedDimension
  13
 24.330886092041
  23
 57.318815690735
  33
0.0
  14
 21.062941915290
  24
 60.618815690571
  34
0.0
  50
 90.000000000000
 100
AcDbRotatedDimension
   0
LINE
   5
4D1
 100
AcDbEntity
   8
LEVEL002
 370
30
 100
AcDbLine
   6
CONTINUOUS
  62
7
  10
 31.780886092041
  20
 57.618815690571
  30
0.0
  11
 32.257894362977
  21
 56.711918171852
  31
0.0
   0
LINE
   5
4D2
 100
AcDbEntity
   8
LEVEL002
 370
30
 100
AcDbLine
   6
CONTINUOUS
  62
7
  10
 31.780886092041
  20
 54.618815690571
  30
0.0
  11
 32.274769826002
  21
 56.569733130477
  31
0.0
   0
LINE
   5
4D3
 100
AcDbEntity
   8
LEVEL002
 370
30
 100
AcDbLine
   6
CONTINUOUS
  62
7
  10
 31.780886092041
  20
 52.618815690571
  30
0.0
  11
 32.273372835975
  21
 54.364512344360
  31
0.0
   0
LINE
   5
4D4
 100
AcDbEntity
   8
LEVEL002
 370
30
 100
AcDbLine
   6
CONTINUOUS
  62
7
  10
 31.780886092041
  20
 50.618815690571
  30
0.0
  11
 32.273372835975
  21
 52.364512344360
  31
0.0
   0
LINE
   5
4D5
 100
AcDbEntity
   8
LEVEL002
 370
30
 100
AcDbLine
   6
CONTINUOUS
  62
7
  10
 31.780886092041
  20
 54.618815690571
  30
0.0
  11
 32.080886092041
  21
 54.618815690571
  31
0.0
   0
LINE
   5
4D6
 100
AcDbEntity
   8
LEVEL002
 370
30
 100
AcDbLine
   6
CONTINUOUS
  62
7
  10
 31.780886092041
  20
 52.618815690571
  30
0.0
  11
 32.080886092041
  21
 52.618815690571
  31
0.0
   0
LINE
   5
4D7
 100
AcDbEntity
   8
LEVEL002
 370
30
 100
AcDbLine
   6
CONTINUOUS
  62
7
  10
 31.780886092041
  20
 50.618815690571
  30
0.0
  11
 31.980886092041
  21
 50.618815690571
  31
0.0
   0
ARC
   5
4D8
 100
AcDbEntity
   8
LEVEL002
 370
30
   6
CONTINUOUS
  62
7
 100
AcDbCircle
  10
 32.080886092041
  20
 56.618815690572
  30
0.0
  40
 0.20000000000000
 100
AcDbArc
  50
 345.79376974217
  51
 27.743389151232
   0
ARC
   5
4D9
 100
AcDbEntity
   8
LEVEL002
 370
30
   6
CONTINUOUS
  62
7
 100
AcDbCircle
  10
 32.080886092041
  20
 54.418815690571
  30
0.0
  40
 0.20000000000000
 100
AcDbArc
  50
 344.24545886502
  51
 89.999999999980
   0
ARC
   5
4DA
 100
AcDbEntity
   8
LEVEL002
 370
30
   6
CONTINUOUS
  62
7
 100
AcDbCircle
  10
 32.080886092041
  20
 52.418815690571
  30
0.0
  40
 0.20000000000000
 100
AcDbArc
  50
 344.24545886502
  51
 89.999999999980
   0
ARC
   5
4DB
 100
AcDbEntity
   8
LEVEL002
 370
30
   6
CONTINUOUS
  62
7
 100
AcDbCircle
  10
 31.980886092041
  20
 50.418815690571
  30
0.0
  40
 0.20000000000000
 100
AcDbArc
  50
 342.50767547492
  51
 89.999999999902
   0
LINE
   5
4DC
 100
AcDbEntity
   8
LEVEL002
 370
30
 100
AcDbLine
   6
CONTINUOUS
  62
7
  10
 34.130886092041
  20
 59.618815690571
  30
0.0
  11
 32.430886092041
  21
 59.618815690571
  31
0.0
   0
LINE
   5
4DD
 100
AcDbEntity
   8
LEVEL002
 370
30
 100
AcDbLine
   6
CONTINUOUS
  62
7
  10
 32.430886092041
  20
 59.618815690571
  30
0.0
  11
 32.430886092041
  21
 58.618815690571
  31
0.0
   0
LINE
   5
4DE
 100
AcDbEntity
   8
LEVEL002
 370
30
 100
AcDbLine
   6
CONTINUOUS
  62
7
  10
 32.430886092041
  20
 58.618815690571
  30
0.0
  11
 31.780886092041
  21
 57.618815690571
  31
0.0
   0
ARC
   5
4DF
 100
AcDbEntity
   8
LEVEL002
 370
30
   6
CONTINUOUS
  62
7
 100
AcDbCircle
  10
 34.130886092041
  20
 59.918815690571
  30
0.0
  40
 0.30000000000000
 100
AcDbArc
  50
 270.00000000010
  51
 73.431735658153
   0
LINE
   5
4E0
 100
AcDbEntity
   8
LEVEL002
 370
30
 100
AcDbLine
   6
CONTINUOUS
  62
7
  10
 20.880886092041
  20
 57.618815690571
  30
0.0
  11
 20.403877821106
  21
 56.711918171852
  31
0.0
   0
LINE
   5
4E1
 100
AcDbEntity
   8
LEVEL002
 370
30
 100
AcDbLine
   6
CONTINUOUS
  62
7
  10
 20.880886092041
  20
 54.618815690571
  30
0.0
  11
 20.387002358081
  21
 56.569733130477
  31
0.0
   0
LINE
   5
4E2
 100
AcDbEntity
   8
LEVEL002
 370
30
 100
AcDbLine
   6
CONTINUOUS
  62
7
  10
 20.880886092041
  20
 52.618815690571
  30
0.0
  11
 20.388399348108
  21
 54.364512344360
  31
0.0
   0
LINE
   5
4E3
 100
AcDbEntity
   8
LEVEL002
 370
30
 100
AcDbLine
   6
CONTINUOUS
  62
7
  10
 20.880886092041
  20
 50.618815690571
  30
0.0
  11
 20.388399348108
  21
 52.364512344360
  31
0.0
   0
LINE
   5
4E4
 100
AcDbEntity
   8
LEVEL002
 370
30
 100
AcDbLine
   6
CONTINUOUS
  62
7
  10
 20.880886092041
  20
 54.618815690571
  30
0.0
  11
 20.580886092041
  21
 54.618815690571
  31
0.0
   0
LINE
   5
4E5
 100
AcDbEntity
   8
LEVEL002
 370
30
 100
AcDbLine
   6
CONTINUOUS
  62
7
  10
 20.880886092041
  20
 52.618815690571
  30
0.0
  11
 20.580886092041
  21
 52.618815690571
  31
0.0
   0
LINE
   5
4E6
 100
AcDbEntity
   8
LEVEL002
 370
30
 100
AcDbLine
   6
CONTINUOUS
  62
7
  10
 20.880886092041
  20
 50.618815690571
  30
0.0
  11
 20.680886092041
  21
 50.618815690571
  31
0.0
   0
ARC
   5
4E7
 100
AcDbEntity
   8
LEVEL002
 370
30
   6
CONTINUOUS
  62
7
 100
AcDbCircle
  10
 20.580886092042
  20
 56.618815690572
  30
0.0
  40
 0.20000000000000
 100
AcDbArc
  50
 152.25661084875
  51
 194.20623025782
   0
ARC
   5
4E8
 100
AcDbEntity
   8
LEVEL002
 370
30
   6
CONTINUOUS
  62
7
 100
AcDbCircle
  10
 20.580886092042
  20
 54.418815690571
  30
0.0
  40
 0.20000000000000
 100
AcDbArc
  50
 90.000000000092
  51
 195.75454113496
   0
ARC
   5
4E9
 100
AcDbEntity
   8
LEVEL002
 370
30
   6
CONTINUOUS
  62
7
 100
AcDbCircle
  10
 20.580886092041
  20
 52.418815690571
  30
0.0
  40
 0.20000000000000
 100
AcDbArc
  50
 90.000000000006
  51
 195.75454113499
   0
ARC
   5
4EA
 100
AcDbEntity
   8
LEVEL002
 370
30
   6
CONTINUOUS
  62
7
 100
AcDbCircle
  10
 20.680886092042
  20
 50.418815690571
  30
0.0
  40
 0.20000000000000
 100
AcDbArc
  50
 90.000000000055
  51
 197.49232452509
   0
LINE
   5
4EB
 100
AcDbEntity
   8
LEVEL002
 370
30
 100
AcDbLine
   6
CONTINUOUS
  62
7
  10
 18.530886092041
  20
 59.618815690571
  30
0.0
  11
 20.230886092041
  21
 59.618815690571
  31
0.0
   0
LINE
   5
4EC
 100
AcDbEntity
   8
LEVEL002
 370
30
 100
AcDbLine
   6
CONTINUOUS
  62
7
  10
 20.230886092041
  20
 59.618815690571
  30
0.0
  11
 20.230886092041
  21
 58.618815690571
  31
0.0
   0
LINE
   5
4ED
 100
AcDbEntity
   8
LEVEL002
 370
30
 100
AcDbLine
   6
CONTINUOUS
  62
7
  10
 20.230886092041
  20
 58.618815690571
  30
0.0
  11
 20.880886092041
  21
 57.618815690571
  31
0.0
   0
ARC
   5
4EE
 100
AcDbEntity
   8
LEVEL002
 370
30
   6
CONTINUOUS
  62
7
 100
AcDbCircle
  10
 18.530886092041
  20
 59.918815690571
  30
0.0
  40
 0.30000000000000
 100
AcDbArc
  50
 106.56826434171
  51
 270.00000000003
   0
LINE
   5
4EF
 100
AcDbEntity
   8
LEVEL002
 370
30
 100
AcDbLine
   6
CONTINUOUS
  62
7
  10
 30.780886092041
  20
 48.618815690571
  30
0.0
  11
 30.780886092041
  21
 57.977878419403
  31
0.0
   0
ARC
   5
4F0
 100
AcDbEntity
   8
LEVEL002
 370
30
   6
CONTINUOUS
  62
7
 100
AcDbCircle
  10
 30.480886092042
  20
 57.977878419403
  30
0.0
  40
 0.30000000000000
 100
AcDbArc
  50
0.0
  51
 128.65980824846
   0
ARC
   5
4F1
 100
AcDbEntity
   8
LEVEL002
 370
30
   6
CONTINUOUS
  62
7
 100
AcDbCircle
  10
 22.180886092127
  20
 57.977878419425
  30
0.0
  40
 0.30000000000000
 100
AcDbArc
  50
 51.340191751271
  51
 179.99999999973
   0
LINE
   5
4F2
 100
AcDbEntity
   8
LEVEL002
 370
30
 100
AcDbLine
   6
CONTINUOUS
  62
7
  10
 21.880886092041
  20
 48.618815690571
  30
0.0
  11
 21.880886092041
  21
 57.977878419426
  31
0.0
   0
LINE
   5
4F3
 100
AcDbEntity
   8
LEVEL002
 370
30
 100
AcDbLine
   6
CONTINUOUS
  62
7
  10
 21.180886092030
  20
 60.618815690571
  30
0.0
  11
 22.180886092028
  21
 59.618815690571
  31
0.0
   0
LINE
   5
4F4
 100
AcDbEntity
   8
LEVEL002
 370
30
 100
AcDbLine
   6
CONTINUOUS
  62
7
  10
 31.480886091989
  20
 60.618815690571
  30
0.0
  11
 30.480886092028
  21
 59.618815690571
  31
0.0
   0
LINE
   5
4F5
 100
AcDbEntity
   8
LEVEL002
 370
30
 100
AcDbLine
   6
CONTINUOUS
  62
7
  10
 31.480886091989
  20
 60.618815690571
  30
0.0
  11
 31.598830268765
  21
 60.618815690571
  31
0.0
   0
LINE
   5
4F6
 100
AcDbEntity
   8
LEVEL002
 370
30
 100
AcDbLine
   6
CONTINUOUS
  62
7
  10
 21.062941915290
  20
 60.618815690571
  30
0.0
  11
 21.180886092030
  21
 60.618815690571
  31
0.0
   0
ARC
   5
4F7
 100
AcDbEntity
   8
LEVEL002
 370
30
   6
CONTINUOUS
  62
7
 100
AcDbCircle
  10
 21.296914003666
  20
 50.621553212179
  30
0.0
  40
 10.000000000000
 100
AcDbArc
  50
 91.340683659362
  51
 106.56826434174
   0
ARC
   5
4F8
 100
AcDbEntity
   8
LEVEL002
 370
30
   6
CONTINUOUS
  62
7
 100
AcDbCircle
  10
 31.364858180389
  20
 50.621553212179
  30
0.0
  40
 10.000000000000
 100
AcDbArc
  50
 73.431735658261
  51
 88.659316340638
   0
LINE
   5
4F9
 100
AcDbEntity
   8
LEVEL002
 370
30
 100
AcDbLine
   6
CONTINUOUS
  62
7
  10
 22.180886092028
  20
 59.618815690571
  30
0.0
  11
 23.330886092205
  21
 59.618815690571
  31
0.0
   0
ARC
   5
4FA
 100
AcDbEntity
   8
LEVEL002
 370
30
   6
CONTINUOUS
  62
7
 100
AcDbCircle
  10
 23.330886092205
  20
 59.418815690571
  30
0.0
  40
 0.20000000000000
 100
AcDbArc
  50
0.0
  51
 90.000000000002
   0
LINE
   5
4FB
 100
AcDbEntity
   8
LEVEL002
 370
30
 100
AcDbLine
   6
CONTINUOUS
  62
7
  10
 23.530886092205
  20
 59.418815690571
  30
0.0
  11
 23.530886092205
  21
 58.818815690735
  31
0.0
   0
LINE
   5
4FC
 100
AcDbEntity
   8
LEVEL002
 370
30
 100
AcDbLine
   6
CONTINUOUS
  62
7
  10
 23.530886092205
  20
 58.818815690735
  30
0.0
  11
 24.130886092041
  21
 58.818815690735
  31
0.0
   0
ARC
   5
4FD
 100
AcDbEntity
   8
LEVEL002
 370
30
   6
CONTINUOUS
  62
7
 100
AcDbCircle
  10
 24.130886092041
  20
 58.618815690735
  30
0.0
  40
 0.20000000000000
 100
AcDbArc
  50
0.0
  51
 90.000000000000
   0
LINE
   5
4FE
 100
AcDbEntity
   8
LEVEL002
 370
30
 100
AcDbLine
   6
CONTINUOUS
  62
7
  10
 24.330886092041
  20
 58.618815690735
  30
0.0
  11
 24.330886092041
  21
 57.318815690735
  31
0.0
   0
LINE
   5
4FF
 100
AcDbEntity
   8
LEVEL002
 370
30
 100
AcDbLine
   6
CONTINUOUS
  62
7
  10
 24.330886092041
  20
 57.318815690735
  30
0.0
  11
 28.330886092041
  21
 57.318815690735
  31
0.0
   0
LINE
   5
500
 100
AcDbEntity
   8
LEVEL002
 370
30
 100
AcDbLine
   6
CONTINUOUS
  62
7
  10
 28.330886092041
  20
 57.318815690735
  30
0.0
  11
 28.330886092128
  21
 58.618815690756
  31
0.0
   0
ARC
   5
501
 100
AcDbEntity
   8
LEVEL002
 370
30
   6
CONTINUOUS
  62
7
 100
AcDbCircle
  10
 28.530886092128
  20
 58.618815690743
  30
0.0
  40
 0.20000000000001
 100
AcDbArc
  50
 90.000000002294
  51
 179.99999999614
   0
LINE
   5
502
 100
AcDbEntity
   8
LEVEL002
 370
30
 100
AcDbLine
   6
CONTINUOUS
  62
7
  10
 28.530886092120
  20
 58.818815690743
  30
0.0
  11
 29.130886092014
  21
 58.818815690767
  31
0.0
   0
LINE
   5
503
 100
AcDbEntity
   8
LEVEL002
 370
30
 100
AcDbLine
   6
CONTINUOUS
  62
7
  10
 29.130886092014
  20
 58.818815690767
  30
0.0
  11
 29.130886091987
  21
 59.418815690562
  31
0.0
   0
ARC
   5
504
 100
AcDbEntity
   8
LEVEL002
 370
30
   6
CONTINUOUS
  62
7
 100
AcDbCircle
  10
 29.330886091987
  20
 59.418815690571
  30
0.0
  40
 0.20000000000000
 100
AcDbArc
  50
 90.000000000003
  51
 180.00000000258
   0
LINE
   5
505
 100
AcDbEntity
   8
LEVEL002
 370
30
 100
AcDbLine
   6
CONTINUOUS
  62
7
  10
 29.330886091987
  20
 59.618815690571
  30
0.0
  11
 30.480886092028
  21
 59.618815690571
  31
0.0
   0
ARC
   5
506
 100
AcDbEntity
   8
LEVEL002
 370
30
   6
CONTINUOUS
  62
7
 100
AcDbCircle
  10
 30.730886092041
  20
 56.513066117760
  30
0.0
  40
 1.6000000000000
 100
AcDbArc
  50
 128.65980824834
  51
 179.99999999993
   0
LINE
   5
507
 100
AcDbEntity
   8
LEVEL002
 370
30
 100
AcDbLine
   6
CONTINUOUS
  62
7
  10
 29.731374016079
  20
 57.762456212971
  30
0.0
  11
 30.293477577799
  21
 58.212139062254
  31
0.0
   0
ARC
   5
508
 100
AcDbEntity
   8
LEVEL002
 370
30
   6
CONTINUOUS
  62
7
 100
AcDbCircle
  10
 21.930886092041
  20
 56.513066117760
  30
0.0
  40
 1.6000000000000
 100
AcDbArc
  50
 0.25444437451708E-12
  51
 51.340191751665
   0
LINE
   5
509
 100
AcDbEntity
   8
LEVEL002
 370
30
 100
AcDbLine
   6
CONTINUOUS
  62
7
  10
 22.930398168004
  20
 57.762456212971
  30
0.0
  11
 22.368294606284
  21
 58.212139062254
  31
0.0
   0
LINE
   5
50A
 100
AcDbEntity
   8
LEVEL002
 370
30
 100
AcDbLine
   6
CONTINUOUS
  62
7
  10
 23.530886092041
  20
 56.513066117762
  30
0.0
  11
 23.530886092041
  21
 56.318815690735
  31
0.0
   0
LINE
   5
50B
 100
AcDbEntity
   8
LEVEL002
 370
30
 100
AcDbLine
   6
CONTINUOUS
  62
7
  10
 23.530886092041
  20
 56.318815690735
  30
0.0
  11
 29.130886092041
  21
 56.318815690735
  31
0.0
   0
LINE
   5
50C
 100
AcDbEntity
   8
LEVEL002
 370
30
 100
AcDbLine
   6
CONTINUOUS
  62
7
  10
 29.130886092041
  20
 56.318815690735
  30
0.0
  11
 29.130886092041
  21
 56.513066117762
  31
0.0
   0
LINE
   5
50D
 100
AcDbEntity
   8
LEVEL002
 370
30
 100
AcDbLine
   6
CONTINUOUS
  62
7
  10
 31.280886092041
  20
 47.618815690571
  30
0.0
  11
 32.171086832194
  21
 50.356979791247
  31
0.0
   0
LINE
   5
50E
 100
AcDbEntity
   8
LEVEL002
 370
30
 100
AcDbLine
   6
CONTINUOUS
  62
7
  10
 21.380886092041
  20
 47.618815690571
  30
0.0
  11
 20.490685351889
  21
 50.356979791247
  31
0.0
   0
ARC
   5
50F
 100
AcDbEntity
   8
LEVEL002
 370
30
   6
CONTINUOUS
  62
7
 100
AcDbCircle
  10
 29.480886092042
  20
 47.818815690571
  30
0.0
  40
 0.20000000000000
 100
AcDbArc
  50
 165.52248781408
  51
 269.99999999995
   0
ARC
   5
510
 100
AcDbEntity
   8
LEVEL002
 370
30
   6
CONTINUOUS
  62
7
 100
AcDbCircle
  10
 30.255482761283
  20
 47.618815690571
  30
0.0
  40
 1.0000000000000
 100
AcDbArc
  50
 90.000000000000
  51
 165.52248781407
   0
LINE
   5
511
 100
AcDbEntity
   8
LEVEL002
 370
30
 100
AcDbLine
   6
CONTINUOUS
  62
7
  10
 29.480886092041
  20
 47.618815690571
  30
0.0
  11
 31.280886092041
  21
 47.618815690571
  31
0.0
   0
ARC
   5
512
 100
AcDbEntity
   8
LEVEL002
 370
30
   6
CONTINUOUS
  62
7
 100
AcDbCircle
  10
 22.406289422800
  20
 47.618815690571
  30
0.0
  40
 1.0000000000000
 100
AcDbArc
  50
 14.477512185928
  51
 90.000000000000
   0
ARC
   5
513
 100
AcDbEntity
   8
LEVEL002
 370
30
   6
CONTINUOUS
  62
7
 100
AcDbCircle
  10
 23.180886092041
  20
 47.818815690571
  30
0.0
  40
 0.20000000000000
 100
AcDbArc
  50
 270.00000000002
  51
 14.477512185929
   0
LINE
   5
514
 100
AcDbEntity
   8
LEVEL002
 370
30
 100
AcDbLine
   6
CONTINUOUS
  62
7
  10
 23.180886092041
  20
 47.618815690571
  30
0.0
  11
 21.380886092041
  21
 47.618815690571
  31
0.0
   0
LINE
   5
515
 100
AcDbEntity
   8
LEVEL002
 370
30
 100
AcDbLine
   6
CONTINUOUS
  62
7
  10
 30.255482761283
  20
 48.618815690571
  30
0.0
  11
 30.780886092041
  21
 48.618815690571
  31
0.0
   0
LINE
   5
516
 100
AcDbEntity
   8
LEVEL002
 370
30
 100
AcDbLine
   6
CONTINUOUS
  62
7
  10
 22.406289422800
  20
 48.618815690571
  30
0.0
  11
 21.880886092041
  21
 48.618815690571
  31
0.0
   0
MTEXT
   5
518
 100
AcDbEntity
   8
LEVEL001
 370
15
  62
8
 100
AcDbMText
  10
 80.149999999975
  20
 71.750000000003
  30
0.0
  40
 1.5000000000000
  41
0.0
  71
4
  72
1
   1
\W0.500000;\T1.000000; \W1.000000;\T1.000000;　ＤＴＡ９
   7
GMM002
  44
 0.79999984000003
   0
MTEXT
   5
51A
 100
AcDbEntity
   8
LEVEL001
 370
15
  62
8
 100
AcDbMText
  10
 80.149999999975
  20
 42.625000000004
  30
0.0
  40
 1.5000000000000
  41
0.0
  71
4
  72
1
   1
\W0.500000;\T1.000000; \W1.000000;\T1.000000;　堀込寸法：９×９
   7
GMM002
  44
 0.79999984000003
   0
LINE
   5
51B
 100
AcDbEntity
   8
LEVEL002
 370
30
 100
AcDbLine
   6
CONTINUOUS
  62
7
  10
 96.372076023313
  20
 47.618815690571
  30
0.0
  11
 94.672076023352
  21
 47.618815690571
  31
0.0
   0
LINE
   5
51C
 100
AcDbEntity
   8
LEVEL002
 370
30
 100
AcDbLine
   6
CONTINUOUS
  62
7
  10
 95.572076023352
  20
 56.618815690571
  30
0.0
  11
 94.572076023352
  21
 57.618815690346
  31
0.0
   0
LINE
   5
51D
 100
AcDbEntity
   8
LEVEL002
 370
30
 100
AcDbLine
   6
CONTINUOUS
  62
7
  10
 94.572076023352
  20
 57.618815690346
  30
0.0
  11
 93.845396077623
  21
 57.618815690571
  31
0.0
   0
ARC
   5
51E
 100
AcDbEntity
   8
LEVEL002
 370
30
   6
CONTINUOUS
  62
7
 100
AcDbCircle
  10
 93.845396076381
  20
 53.618815690571
  30
0.0
  40
 4.0000000000000
 100
AcDbArc
  50
 90.000000000000
  51
 116.88804761773
   0
ARC
   5
51F
 100
AcDbEntity
   8
LEVEL002
 370
30
   6
CONTINUOUS
  62
7
 100
AcDbCircle
  10
 92.172076023313
  20
 56.918815690571
  30
0.0
  40
 0.30000000000000
 100
AcDbArc
  50
 116.88804761778
  51
 270.00000000017
   0
ARC
   5
520
 100
AcDbEntity
   8
LEVEL002
 370
30
   6
CONTINUOUS
  62
7
 100
AcDbCircle
  10
 96.372076023313
  20
 48.118815690571
  30
0.0
  40
 0.50000000000000
 100
AcDbArc
  50
 270.00000000000
  51
 90.000000000000
   0
LINE
   5
521
 100
AcDbEntity
   8
LEVEL002
 370
30
 100
AcDbLine
   6
CONTINUOUS
  62
7
  10
 98.372076023352
  20
 53.318815690571
  30
0.0
  11
 95.972076023337
  21
 53.318815690521
  31
0.0
   0
ARC
   5
522
 100
AcDbEntity
   8
LEVEL002
 370
30
   6
CONTINUOUS
  62
7
 100
AcDbCircle
  10
 95.672076023337
  20
 53.318815690533
  30
0.0
  40
 0.30000000000000
 100
AcDbArc
  50
0.0
  51
 180.00000000000
   0
LINE
   5
523
 100
AcDbEntity
   8
LEVEL002
 370
30
 100
AcDbLine
   6
CONTINUOUS
  62
7
  10
 95.372076023313
  20
 53.318815690533
  30
0.0
  11
 95.372076023313
  21
 48.618815690571
  31
0.0
   0
LINE
   5
524
 100
AcDbEntity
   8
LEVEL002
 370
30
 100
AcDbLine
   6
CONTINUOUS
  62
7
  10
 95.372076023313
  20
 48.618815690571
  30
0.0
  11
 96.372076023313
  21
 48.618815690571
  31
0.0
   0
LINE
   5
525
 100
AcDbEntity
   8
LEVEL002
 370
30
 100
AcDbLine
   6
CONTINUOUS
  62
7
  10
 98.372076023352
  20
 54.318815690571
  30
0.0
  11
 96.372076023352
  21
 54.318815690571
  31
0.0
   0
LINE
   5
526
 100
AcDbEntity
   8
LEVEL002
 370
30
 100
AcDbLine
   6
CONTINUOUS
  62
7
  10
 96.372076023352
  20
 54.318815690571
  30
0.0
  11
 96.372076023352
  21
 55.618815690571
  31
0.0
   0
ARC
   5
527
 100
AcDbEntity
   8
LEVEL002
 370
30
   6
CONTINUOUS
  62
7
 100
AcDbCircle
  10
 96.172076023352
  20
 55.618815690571
  30
0.0
  40
 0.20000000000000
 100
AcDbArc
  50
0.0
  51
 90.000000000012
   0
LINE
   5
528
 100
AcDbEntity
   8
LEVEL002
 370
30
 100
AcDbLine
   6
CONTINUOUS
  62
7
  10
 96.172076023352
  20
 55.818815690571
  30
0.0
  11
 95.572076023352
  21
 55.818815690571
  31
0.0
   0
LINE
   5
529
 100
AcDbEntity
   8
LEVEL002
 370
30
 100
AcDbLine
   6
CONTINUOUS
  62
7
  10
 95.572076023352
  20
 55.818815690571
  30
0.0
  11
 95.572076023352
  21
 56.618815690571
  31
0.0
   0
LINE
   5
52A
 100
AcDbEntity
   8
LEVEL002
 370
30
 100
AcDbLine
   6
CONTINUOUS
  62
7
  10
 93.872076023252
  20
 55.618815690571
  30
0.0
  11
 94.672076023352
  21
 54.868815690571
  31
0.0
   0
LINE
   5
52B
 100
AcDbEntity
   8
LEVEL002
 370
30
 100
AcDbLine
   6
CONTINUOUS
  62
7
  10
 94.672076023352
  20
 54.868815690571
  30
0.0
  11
 93.972076023352
  21
 54.118815690571
  31
0.0
   0
LINE
   5
52C
 100
AcDbEntity
   8
LEVEL002
 370
30
 100
AcDbLine
   6
CONTINUOUS
  62
7
  10
 93.972076023352
  20
 54.118815690571
  30
0.0
  11
 94.661206013934
  21
 52.764157115106
  31
0.0
   0
LINE
   5
52D
 100
AcDbEntity
   8
LEVEL002
 370
30
 100
AcDbLine
   6
CONTINUOUS
  62
7
  10
 94.572076023352
  20
 52.618815690571
  30
0.0
  11
 94.172076023352
  21
 52.618815690571
  31
0.0
   0
LINE
   5
52E
 100
AcDbEntity
   8
LEVEL002
 370
30
 100
AcDbLine
   6
CONTINUOUS
  62
7
  10
 94.002752937441
  20
 52.312374661934
  30
0.0
  11
 94.656737566308
  21
 51.272036204890
  31
0.0
   0
LINE
   5
52F
 100
AcDbEntity
   8
LEVEL002
 370
30
 100
AcDbLine
   6
CONTINUOUS
  62
7
  10
 94.572076023352
  20
 51.118815690571
  30
0.0
  11
 94.172076023352
  21
 51.118815690571
  31
0.0
   0
LINE
   5
530
 100
AcDbEntity
   8
LEVEL002
 370
30
 100
AcDbLine
   6
CONTINUOUS
  62
7
  10
 93.872076023252
  20
 55.618815690571
  30
0.0
  11
 93.872076023252
  21
 56.618815690571
  31
0.0
   0
LINE
   5
531
 100
AcDbEntity
   8
LEVEL002
 370
30
 100
AcDbLine
   6
CONTINUOUS
  62
7
  10
 93.872076023252
  20
 56.618815690571
  30
0.0
  11
 92.172076023314
  21
 56.618815690571
  31
0.0
   0
ARC
   5
532
 100
AcDbEntity
   8
LEVEL002
 370
30
   6
CONTINUOUS
  62
7
 100
AcDbCircle
  10
 94.572076023353
  20
 52.718815690571
  30
0.0
  40
 0.10000000000000
 100
AcDbArc
  50
 269.99999999992
  51
 26.962950318138
   0
ARC
   5
533
 100
AcDbEntity
   8
LEVEL002
 370
30
   6
CONTINUOUS
  62
7
 100
AcDbCircle
  10
 94.172076023353
  20
 52.418815690571
  30
0.0
  40
 0.20000000000000
 100
AcDbArc
  50
 90.000000000106
  51
 212.15456889808
   0
ARC
   5
534
 100
AcDbEntity
   8
LEVEL002
 370
30
   6
CONTINUOUS
  62
7
 100
AcDbCircle
  10
 94.572076023353
  20
 51.218815690571
  30
0.0
  40
 0.10000000000000
 100
AcDbArc
  50
 269.99999999980
  51
 32.154568898604
   0
ARC
   5
535
 100
AcDbEntity
   8
LEVEL002
 370
30
   6
CONTINUOUS
  62
7
 100
AcDbCircle
  10
 94.172076023352
  20
 50.918815690571
  30
0.0
  40
 0.20000000000000
 100
AcDbArc
  50
 89.999999999984
  51
 192.41305570844
   0
LINE
   5
536
 100
AcDbEntity
   8
LEVEL002
 370
30
 100
AcDbLine
   6
CONTINUOUS
  62
7
  10
 94.672076023352
  20
 47.618815690571
  30
0.0
  11
 93.976483588446
  21
 50.877059261040
  31
0.0
   0
LINE
   5
537
 100
AcDbEntity
   8
LEVEL002
 370
30
 100
AcDbLine
   6
CONTINUOUS
  62
7
  10
 100.37207602339
  20
 47.618815690571
  30
0.0
  11
 102.07207602335
  21
 47.618815690571
  31
0.0
   0
LINE
   5
538
 100
AcDbEntity
   8
LEVEL002
 370
30
 100
AcDbLine
   6
CONTINUOUS
  62
7
  10
 101.17207602335
  20
 56.618815690571
  30
0.0
  11
 102.17207602335
  21
 57.618815690346
  31
0.0
   0
LINE
   5
539
 100
AcDbEntity
   8
LEVEL002
 370
30
 100
AcDbLine
   6
CONTINUOUS
  62
7
  10
 102.17207602335
  20
 57.618815690346
  30
0.0
  11
 102.89875596908
  21
 57.618815690571
  31
0.0
   0
ARC
   5
53A
 100
AcDbEntity
   8
LEVEL002
 370
30
   6
CONTINUOUS
  62
7
 100
AcDbCircle
  10
 102.89875597032
  20
 53.618815690571
  30
0.0
  40
 4.0000000000000
 100
AcDbArc
  50
 63.111952382268
  51
 90.000000000001
   0
ARC
   5
53B
 100
AcDbEntity
   8
LEVEL002
 370
30
   6
CONTINUOUS
  62
7
 100
AcDbCircle
  10
 104.57207602339
  20
 56.918815690571
  30
0.0
  40
 0.30000000000000
 100
AcDbArc
  50
 269.99999999988
  51
 63.111952382196
   0
ARC
   5
53C
 100
AcDbEntity
   8
LEVEL002
 370
30
   6
CONTINUOUS
  62
7
 100
AcDbCircle
  10
 100.37207602339
  20
 48.118815690571
  30
0.0
  40
 0.50000000000000
 100
AcDbArc
  50
 90.000000000000
  51
 270.00000000000
   0
LINE
   5
53D
 100
AcDbEntity
   8
LEVEL002
 370
30
 100
AcDbLine
   6
CONTINUOUS
  62
7
  10
 98.372076023352
  20
 53.318815690571
  30
0.0
  11
 100.77207602337
  21
 53.318815690521
  31
0.0
   0
ARC
   5
53E
 100
AcDbEntity
   8
LEVEL002
 370
30
   6
CONTINUOUS
  62
7
 100
AcDbCircle
  10
 101.07207602337
  20
 53.318815690533
  30
0.0
  40
 0.30000000000000
 100
AcDbArc
  50
0.0
  51
 180.00000000000
   0
LINE
   5
53F
 100
AcDbEntity
   8
LEVEL002
 370
30
 100
AcDbLine
   6
CONTINUOUS
  62
7
  10
 101.37207602339
  20
 53.318815690533
  30
0.0
  11
 101.37207602339
  21
 48.618815690571
  31
0.0
   0
LINE
   5
540
 100
AcDbEntity
   8
LEVEL002
 370
30
 100
AcDbLine
   6
CONTINUOUS
  62
7
  10
 101.37207602339
  20
 48.618815690571
  30
0.0
  11
 100.37207602339
  21
 48.618815690571
  31
0.0
   0
LINE
   5
541
 100
AcDbEntity
   8
LEVEL002
 370
30
 100
AcDbLine
   6
CONTINUOUS
  62
7
  10
 98.372076023352
  20
 54.318815690571
  30
0.0
  11
 100.37207602335
  21
 54.318815690571
  31
0.0
   0
LINE
   5
542
 100
AcDbEntity
   8
LEVEL002
 370
30
 100
AcDbLine
   6
CONTINUOUS
  62
7
  10
 100.37207602335
  20
 54.318815690571
  30
0.0
  11
 100.37207602335
  21
 55.618815690571
  31
0.0
   0
ARC
   5
543
 100
AcDbEntity
   8
LEVEL002
 370
30
   6
CONTINUOUS
  62
7
 100
AcDbCircle
  10
 100.57207602335
  20
 55.618815690571
  30
0.0
  40
 0.20000000000000
 100
AcDbArc
  50
 90.000000000004
  51
 180.00000000001
   0
LINE
   5
544
 100
AcDbEntity
   8
LEVEL002
 370
30
 100
AcDbLine
   6
CONTINUOUS
  62
7
  10
 100.57207602335
  20
 55.818815690571
  30
0.0
  11
 101.17207602335
  21
 55.818815690571
  31
0.0
   0
LINE
   5
545
 100
AcDbEntity
   8
LEVEL002
 370
30
 100
AcDbLine
   6
CONTINUOUS
  62
7
  10
 101.17207602335
  20
 55.818815690571
  30
0.0
  11
 101.17207602335
  21
 56.618815690571
  31
0.0
   0
LINE
   5
546
 100
AcDbEntity
   8
LEVEL002
 370
30
 100
AcDbLine
   6
CONTINUOUS
  62
7
  10
 102.87207602345
  20
 55.618815690571
  30
0.0
  11
 102.07207602335
  21
 54.868815690571
  31
0.0
   0
LINE
   5
547
 100
AcDbEntity
   8
LEVEL002
 370
30
 100
AcDbLine
   6
CONTINUOUS
  62
7
  10
 102.07207602335
  20
 54.868815690571
  30
0.0
  11
 102.77207602335
  21
 54.118815690571
  31
0.0
   0
LINE
   5
548
 100
AcDbEntity
   8
LEVEL002
 370
30
 100
AcDbLine
   6
CONTINUOUS
  62
7
  10
 102.77207602335
  20
 54.118815690571
  30
0.0
  11
 102.08294603277
  21
 52.764157115106
  31
0.0
   0
LINE
   5
549
 100
AcDbEntity
   8
LEVEL002
 370
30
 100
AcDbLine
   6
CONTINUOUS
  62
7
  10
 102.17207602335
  20
 52.618815690571
  30
0.0
  11
 102.57207602335
  21
 52.618815690571
  31
0.0
   0
LINE
   5
54A
 100
AcDbEntity
   8
LEVEL002
 370
30
 100
AcDbLine
   6
CONTINUOUS
  62
7
  10
 102.74139910926
  20
 52.312374661934
  30
0.0
  11
 102.08741448040
  21
 51.272036204890
  31
0.0
   0
LINE
   5
54B
 100
AcDbEntity
   8
LEVEL002
 370
30
 100
AcDbLine
   6
CONTINUOUS
  62
7
  10
 102.17207602335
  20
 51.118815690571
  30
0.0
  11
 102.57207602335
  21
 51.118815690571
  31
0.0
   0
LINE
   5
54C
 100
AcDbEntity
   8
LEVEL002
 370
30
 100
AcDbLine
   6
CONTINUOUS
  62
7
  10
 102.87207602345
  20
 55.618815690571
  30
0.0
  11
 102.87207602345
  21
 56.618815690571
  31
0.0
   0
LINE
   5
54D
 100
AcDbEntity
   8
LEVEL002
 370
30
 100
AcDbLine
   6
CONTINUOUS
  62
7
  10
 102.87207602345
  20
 56.618815690571
  30
0.0
  11
 104.57207602339
  21
 56.618815690571
  31
0.0
   0
ARC
   5
54E
 100
AcDbEntity
   8
LEVEL002
 370
30
   6
CONTINUOUS
  62
7
 100
AcDbCircle
  10
 102.17207602335
  20
 52.718815690571
  30
0.0
  40
 0.10000000000000
 100
AcDbArc
  50
 153.03704968172
  51
 270.00000000015
   0
ARC
   5
54F
 100
AcDbEntity
   8
LEVEL002
 370
30
   6
CONTINUOUS
  62
7
 100
AcDbCircle
  10
 102.57207602335
  20
 52.418815690571
  30
0.0
  40
 0.20000000000000
 100
AcDbArc
  50
 327.84543110190
  51
 89.999999999923
   0
ARC
   5
550
 100
AcDbEntity
   8
LEVEL002
 370
30
   6
CONTINUOUS
  62
7
 100
AcDbCircle
  10
 102.17207602335
  20
 51.218815690571
  30
0.0
  40
 0.10000000000000
 100
AcDbArc
  50
 147.84543110155
  51
 270.00000000009
   0
ARC
   5
551
 100
AcDbEntity
   8
LEVEL002
 370
30
   6
CONTINUOUS
  62
7
 100
AcDbCircle
  10
 102.57207602335
  20
 50.918815690572
  30
0.0
  40
 0.20000000000000
 100
AcDbArc
  50
 347.58694429155
  51
 90.000000000004
   0
LINE
   5
552
 100
AcDbEntity
   8
LEVEL002
 370
30
 100
AcDbLine
   6
CONTINUOUS
  62
7
  10
 102.07207602335
  20
 47.618815690571
  30
0.0
  11
 102.76766845826
  21
 50.877059261040
  31
0.0
   0
DIMENSION
   5
553
 100
AcDbEntity
   8
LEVEL001
 370
15
   6
CONTINUOUS
  62
8
 100
AcDbDimension
   2
*D28
  10
 100.37207602335
  20
 60.618815690346
  30
0.0
  11
 98.372076023352
  21
 60.618815690346
  31
0.0
  70
0
   3
GMM001
 100
AcDbAlignedDimension
  13
 96.372076023352
  23
 55.618815690571
  33
0.0
  14
 100.37207602335
  24
 55.618815690571
  34
0.0
 100
AcDbRotatedDimension
   0
DIMENSION
   5
554
 100
AcDbEntity
   8
LEVEL001
 370
15
   6
CONTINUOUS
  62
8
 100
AcDbDimension
   2
*D29
  10
 104.87207602339
  20
 63.618815690346
  30
0.0
  11
 98.372076023392
  21
 63.618815690346
  31
0.0
  70
0
   3
GMM001
 100
AcDbAlignedDimension
  13
 91.872076023392
  23
 56.918815690408
  33
0.0
  14
 104.87207602339
  24
 56.918815690408
  34
0.0
 100
AcDbRotatedDimension
   0
DIMENSION
   5
555
 100
AcDbEntity
   8
LEVEL001
 370
15
   6
CONTINUOUS
  62
8
 100
AcDbDimension
   2
*D30
  10
 89.372076023392
  20
 57.618815690571
  30
0.0
  11
 89.372076023392
  21
 55.968815690571
  31
0.0
  70
0
   3
GMM001
 100
AcDbAlignedDimension
  13
 96.372076023352
  23
 54.318815690571
  33
0.0
  14
 93.645396076460
  24
 57.618815690571
  34
0.0
  50
 90.000000000000
 100
AcDbRotatedDimension
   0
DIMENSION
   5
556
 100
AcDbEntity
   8
LEVEL001
 370
15
   6
CONTINUOUS
  62
8
 100
AcDbDimension
   2
*D31
  10
 109.87207602339
  20
 57.618815690346
  30
0.0
  11
 109.87207602339
  21
 52.618815690458
  31
0.0
  70
0
   3
GMM001
 100
AcDbAlignedDimension
  13
 107.37207602339
  23
 47.618815690571
  33
0.0
  14
 107.37207602339
  24
 57.618815690346
  34
0.0
  50
 90.000000000000
 100
AcDbRotatedDimension
   0
DIMENSION
   5
557
 100
AcDbEntity
   8
LEVEL001
 370
15
   6
CONTINUOUS
  62
8
 100
AcDbDimension
   2
*D32
  10
 102.87207602345
  20
 44.618815690571
  30
0.0
  11
 98.372076023353
  21
 44.618815690571
  31
0.0
  70
0
   3
GMM001
 100
AcDbAlignedDimension
  13
 93.872076023252
  23
 55.618815690571
  33
0.0
  14
 102.87207602345
  24
 55.618815690571
  34
0.0
 100
AcDbRotatedDimension
   0
LINE
   5
558
 100
AcDbEntity
   8
LEVEL002
 370
15
 100
AcDbLine
   6
DASHDOT
  62
8
  10
 98.372076023392
  20
 46.939887507896
  30
0.0
  11
 98.372076023392
  21
 58.823868704546
  31
0.0
   0
DIMENSION
   5
559
 100
AcDbEntity
   8
LEVEL001
 370
15
   6
CONTINUOUS
  62
8
 100
AcDbDimension
   2
*D33
  10
 107.37207602339
  20
 56.618815690571
  30
0.0
  11
 107.37207602339
  21
 52.118815690571
  31
0.0
  70
0
   3
GMM001
 100
AcDbAlignedDimension
  13
 102.07207602335
  23
 47.618815690571
  33
0.0
  14
 104.57207602339
  24
 56.618815690571
  34
0.0
  50
 90.000000000000
 100
AcDbRotatedDimension
   0
DIMENSION
   5
55A
 100
AcDbEntity
   8
LEVEL001
 370
15
   6
CONTINUOUS
  62
8
 100
AcDbDimension
   2
*D34
  10
 107.37207602339
  20
 57.618815690346
  30
0.0
  11
 107.37207602339
  21
 58.585959208888
  31
0.0
  70
128
   3
GMM005
 100
AcDbAlignedDimension
  13
 104.57207602339
  23
 56.618815690571
  33
0.0
  14
 102.17207602335
  24
 57.618815690346
  34
0.0
  50
 90.000000000000
 100
AcDbRotatedDimension
   0
ARC
   5
55B
 100
AcDbEntity
   8
LEVEL002
 370
30
   6
CONTINUOUS
  62
7
 100
AcDbCircle
  10
 139.27784740909
  20
 51.318815690571
  30
0.0
  40
 4.0000000000000
 100
AcDbArc
  50
 56.912500019803
  51
 90.000000000000
   0
LINE
   5
55C
 100
AcDbEntity
   8
LEVEL002
 370
30
 100
AcDbLine
   6
CONTINUOUS
  62
7
  10
 139.59774839676
  20
 54.118815690571
  30
0.0
  11
 141.29774839676
  21
 54.118815690571
  31
0.0
   0
LINE
   5
55D
 100
AcDbEntity
   8
LEVEL002
 370
30
 100
AcDbLine
   6
CONTINUOUS
  62
7
  10
 139.59774839676
  20
 54.118815690571
  30
0.0
  11
 139.59774839676
  21
 53.318815690571
  31
0.0
   0
LINE
   5
55E
 100
AcDbEntity
   8
LEVEL002
 370
30
 100
AcDbLine
   6
CONTINUOUS
  62
7
  10
 139.59774839676
  20
 53.318815690571
  30
0.0
  11
 139.19774839676
  21
 53.318815690571
  31
0.0
   0
LINE
   5
55F
 100
AcDbEntity
   8
LEVEL002
 370
30
 100
AcDbLine
   6
CONTINUOUS
  62
7
  10
 139.59774839676
  20
 52.318815690571
  30
0.0
  11
 139.19774839676
  21
 52.318815690571
  31
0.0
   0
ARC
   5
560
 100
AcDbEntity
   8
LEVEL002
 370
30
   6
CONTINUOUS
  62
7
 100
AcDbCircle
  10
 139.19774839676
  20
 52.818815690571
  30
0.0
  40
 0.50000000000000
 100
AcDbArc
  50
 90.000000000000
  51
 270.00000000000
   0
LINE
   5
561
 100
AcDbEntity
   8
LEVEL002
 370
30
 100
AcDbLine
   6
CONTINUOUS
  62
7
  10
 139.59774839676
  20
 52.318815690571
  30
0.0
  11
 139.59774839676
  21
 51.318815690571
  31
0.0
   0
LINE
   5
562
 100
AcDbEntity
   8
LEVEL002
 370
30
 100
AcDbLine
   6
CONTINUOUS
  62
7
  10
 139.59774839676
  20
 51.318815690571
  30
0.0
  11
 138.99774839676
  21
 49.818815690571
  31
0.0
   0
LINE
   5
563
 100
AcDbEntity
   8
LEVEL002
 370
30
 100
AcDbLine
   6
CONTINUOUS
  62
7
  10
 138.99774839676
  20
 49.818815690571
  30
0.0
  11
 139.29774839676
  21
 49.818815690571
  31
0.0
   0
LINE
   5
564
 100
AcDbEntity
   8
LEVEL002
 370
30
 100
AcDbLine
   6
CONTINUOUS
  62
7
  10
 138.99774839676
  20
 48.818815690571
  30
0.0
  11
 139.46337302937
  21
 49.506706453341
  31
0.0
   0
LINE
   5
565
 100
AcDbEntity
   8
LEVEL002
 370
30
 100
AcDbLine
   6
CONTINUOUS
  62
7
  10
 138.99774839676
  20
 48.818815690571
  30
0.0
  11
 139.29774839676
  21
 48.818815690571
  31
0.0
   0
LINE
   5
566
 100
AcDbEntity
   8
LEVEL002
 370
30
 100
AcDbLine
   6
CONTINUOUS
  62
7
  10
 138.99774839676
  20
 47.618815690571
  30
0.0
  11
 139.47475666769
  21
 48.525713209290
  31
0.0
   0
LINE
   5
567
 100
AcDbEntity
   8
LEVEL002
 370
30
 100
AcDbLine
   6
CONTINUOUS
  62
7
  10
 138.99774839676
  20
 47.618815690571
  30
0.0
  11
 138.09774839676
  21
 47.618815690571
  31
0.0
   0
LINE
   5
568
 100
AcDbEntity
   8
LEVEL002
 370
30
 100
AcDbLine
   6
CONTINUOUS
  62
7
  10
 138.89774839676
  20
 55.318815690571
  30
0.0
  11
 139.27784740909
  21
 55.318815690571
  31
0.0
   0
LINE
   5
569
 100
AcDbEntity
   8
LEVEL002
 370
30
 100
AcDbLine
   6
CONTINUOUS
  62
7
  10
 138.09774839676
  20
 47.618815690571
  30
0.0
  11
 138.09774839676
  21
 51.690388565647
  31
0.0
   0
LINE
   5
56A
 100
AcDbEntity
   8
LEVEL002
 370
30
 100
AcDbLine
   6
CONTINUOUS
  62
7
  10
 137.42617552168
  20
 51.018815690571
  30
0.0
  11
 138.09774839676
  21
 51.690388565647
  31
0.0
   0
LINE
   5
56B
 100
AcDbEntity
   8
LEVEL002
 370
30
 100
AcDbLine
   6
CONTINUOUS
  62
7
  10
 137.42617552168
  20
 51.018815690571
  30
0.0
  11
 135.09774839676
  21
 51.018815690571
  31
0.0
   0
LINE
   5
56C
 100
AcDbEntity
   8
LEVEL002
 370
30
 100
AcDbLine
   6
CONTINUOUS
  62
7
  10
 137.09774839676
  20
 53.218815690571
  30
0.0
  11
 137.09774839676
  21
 52.018815690571
  31
0.0
   0
LINE
   5
56D
 100
AcDbEntity
   8
LEVEL002
 370
30
 100
AcDbLine
   6
CONTINUOUS
  62
7
  10
 137.09774839676
  20
 52.018815690571
  30
0.0
  11
 135.09774839676
  21
 52.018815690571
  31
0.0
   0
LINE
   5
56E
 100
AcDbEntity
   8
LEVEL002
 370
30
 100
AcDbLine
   6
CONTINUOUS
  62
7
  10
 138.89774839676
  20
 55.318815690571
  30
0.0
  11
 137.89774839676
  21
 54.318815690571
  31
0.0
   0
LINE
   5
56F
 100
AcDbEntity
   8
LEVEL002
 370
30
 100
AcDbLine
   6
CONTINUOUS
  62
7
  10
 137.89774839676
  20
 54.318815690571
  30
0.0
  11
 137.89774839676
  21
 53.518815690571
  31
0.0
   0
LINE
   5
570
 100
AcDbEntity
   8
LEVEL002
 370
30
 100
AcDbLine
   6
CONTINUOUS
  62
7
  10
 137.89774839676
  20
 53.518815690571
  30
0.0
  11
 137.39774839669
  21
 53.518815690460
  31
0.0
   0
ARC
   5
571
 100
AcDbEntity
   8
LEVEL002
 370
30
   6
CONTINUOUS
  62
7
 100
AcDbCircle
  10
 137.39774839676
  20
 53.218815690571
  30
0.0
  40
 0.30000000000000
 100
AcDbArc
  50
 90.000000000011
  51
 179.99999999999
   0
ARC
   5
572
 100
AcDbEntity
   8
LEVEL002
 370
30
   6
CONTINUOUS
  62
7
 100
AcDbCircle
  10
 141.29774839676
  20
 54.418815690571
  30
0.0
  40
 0.30000000000000
 100
AcDbArc
  50
 269.99999999997
  51
 56.912500019840
   0
ARC
   5
573
 100
AcDbEntity
   8
LEVEL002
 370
30
   6
CONTINUOUS
  62
7
 100
AcDbCircle
  10
 139.29774839676
  20
 49.618815690571
  30
0.0
  40
 0.20000000000000
 100
AcDbArc
  50
 325.90642142677
  51
 89.999999999992
   0
ARC
   5
574
 100
AcDbEntity
   8
LEVEL002
 370
30
   6
CONTINUOUS
  62
7
 100
AcDbCircle
  10
 139.29774839676
  20
 48.618815690571
  30
0.0
  40
 0.20000000000000
 100
AcDbArc
  50
 332.25661084853
  51
 90.000000000008
   0
ARC
   5
575
 100
AcDbEntity
   8
LEVEL002
 370
30
   6
CONTINUOUS
  62
7
 100
AcDbCircle
  10
 130.91764938443
  20
 51.318815690571
  30
0.0
  40
 4.0000000000000
 100
AcDbArc
  50
 90.000000000000
  51
 123.08749998020
   0
LINE
   5
576
 100
AcDbEntity
   8
LEVEL002
 370
30
 100
AcDbLine
   6
CONTINUOUS
  62
7
  10
 130.59774839676
  20
 54.118815690571
  30
0.0
  11
 128.89774839676
  21
 54.118815690571
  31
0.0
   0
LINE
   5
577
 100
AcDbEntity
   8
LEVEL002
 370
30
 100
AcDbLine
   6
CONTINUOUS
  62
7
  10
 130.59774839676
  20
 54.118815690571
  30
0.0
  11
 130.59774839676
  21
 53.318815690571
  31
0.0
   0
LINE
   5
578
 100
AcDbEntity
   8
LEVEL002
 370
30
 100
AcDbLine
   6
CONTINUOUS
  62
7
  10
 130.59774839676
  20
 53.318815690571
  30
0.0
  11
 130.99774839676
  21
 53.318815690571
  31
0.0
   0
LINE
   5
579
 100
AcDbEntity
   8
LEVEL002
 370
30
 100
AcDbLine
   6
CONTINUOUS
  62
7
  10
 130.59774839676
  20
 52.318815690571
  30
0.0
  11
 130.99774839676
  21
 52.318815690571
  31
0.0
   0
ARC
   5
57A
 100
AcDbEntity
   8
LEVEL002
 370
30
   6
CONTINUOUS
  62
7
 100
AcDbCircle
  10
 130.99774839676
  20
 52.818815690571
  30
0.0
  40
 0.50000000000000
 100
AcDbArc
  50
 270.00000000000
  51
 90.000000000000
   0
LINE
   5
57B
 100
AcDbEntity
   8
LEVEL002
 370
30
 100
AcDbLine
   6
CONTINUOUS
  62
7
  10
 130.59774839676
  20
 52.318815690571
  30
0.0
  11
 130.59774839676
  21
 51.318815690571
  31
0.0
   0
LINE
   5
57C
 100
AcDbEntity
   8
LEVEL002
 370
30
 100
AcDbLine
   6
CONTINUOUS
  62
7
  10
 130.59774839676
  20
 51.318815690571
  30
0.0
  11
 131.19774839676
  21
 49.818815690571
  31
0.0
   0
LINE
   5
57D
 100
AcDbEntity
   8
LEVEL002
 370
30
 100
AcDbLine
   6
CONTINUOUS
  62
7
  10
 131.19774839676
  20
 49.818815690571
  30
0.0
  11
 130.89774839676
  21
 49.818815690571
  31
0.0
   0
LINE
   5
57E
 100
AcDbEntity
   8
LEVEL002
 370
30
 100
AcDbLine
   6
CONTINUOUS
  62
7
  10
 131.19774839676
  20
 48.818815690571
  30
0.0
  11
 130.73212376415
  21
 49.506706453341
  31
0.0
   0
LINE
   5
57F
 100
AcDbEntity
   8
LEVEL002
 370
30
 100
AcDbLine
   6
CONTINUOUS
  62
7
  10
 131.19774839676
  20
 48.818815690571
  30
0.0
  11
 130.89774839676
  21
 48.818815690571
  31
0.0
   0
LINE
   5
580
 100
AcDbEntity
   8
LEVEL002
 370
30
 100
AcDbLine
   6
CONTINUOUS
  62
7
  10
 131.19774839676
  20
 47.618815690571
  30
0.0
  11
 130.72074012582
  21
 48.525713209290
  31
0.0
   0
LINE
   5
581
 100
AcDbEntity
   8
LEVEL002
 370
30
 100
AcDbLine
   6
CONTINUOUS
  62
7
  10
 131.19774839676
  20
 47.618815690571
  30
0.0
  11
 132.09774839676
  21
 47.618815690571
  31
0.0
   0
LINE
   5
582
 100
AcDbEntity
   8
LEVEL002
 370
30
 100
AcDbLine
   6
CONTINUOUS
  62
7
  10
 131.29774839676
  20
 55.318815690571
  30
0.0
  11
 130.91764938443
  21
 55.318815690571
  31
0.0
   0
LINE
   5
583
 100
AcDbEntity
   8
LEVEL002
 370
30
 100
AcDbLine
   6
CONTINUOUS
  62
7
  10
 132.09774839676
  20
 47.618815690571
  30
0.0
  11
 132.09774839676
  21
 51.690388565647
  31
0.0
   0
LINE
   5
584
 100
AcDbEntity
   8
LEVEL002
 370
30
 100
AcDbLine
   6
CONTINUOUS
  62
7
  10
 132.76932127183
  20
 51.018815690571
  30
0.0
  11
 132.09774839676
  21
 51.690388565647
  31
0.0
   0
LINE
   5
585
 100
AcDbEntity
   8
LEVEL002
 370
30
 100
AcDbLine
   6
CONTINUOUS
  62
7
  10
 132.76932127183
  20
 51.018815690571
  30
0.0
  11
 135.09774839676
  21
 51.018815690571
  31
0.0
   0
LINE
   5
586
 100
AcDbEntity
   8
LEVEL002
 370
30
 100
AcDbLine
   6
CONTINUOUS
  62
7
  10
 133.09774839676
  20
 53.218815690571
  30
0.0
  11
 133.09774839676
  21
 52.018815690571
  31
0.0
   0
LINE
   5
587
 100
AcDbEntity
   8
LEVEL002
 370
30
 100
AcDbLine
   6
CONTINUOUS
  62
7
  10
 133.09774839676
  20
 52.018815690571
  30
0.0
  11
 135.09774839676
  21
 52.018815690571
  31
0.0
   0
LINE
   5
588
 100
AcDbEntity
   8
LEVEL002
 370
30
 100
AcDbLine
   6
CONTINUOUS
  62
7
  10
 131.29774839676
  20
 55.318815690571
  30
0.0
  11
 132.29774839676
  21
 54.318815690571
  31
0.0
   0
LINE
   5
589
 100
AcDbEntity
   8
LEVEL002
 370
30
 100
AcDbLine
   6
CONTINUOUS
  62
7
  10
 132.29774839676
  20
 54.318815690571
  30
0.0
  11
 132.29774839676
  21
 53.518815690571
  31
0.0
   0
LINE
   5
58A
 100
AcDbEntity
   8
LEVEL002
 370
30
 100
AcDbLine
   6
CONTINUOUS
  62
7
  10
 132.29774839676
  20
 53.518815690571
  30
0.0
  11
 132.79774839682
  21
 53.518815690460
  31
0.0
   0
ARC
   5
58B
 100
AcDbEntity
   8
LEVEL002
 370
30
   6
CONTINUOUS
  62
7
 100
AcDbCircle
  10
 132.79774839676
  20
 53.218815690571
  30
0.0
  40
 0.30000000000000
 100
AcDbArc
  50
0.0
  51
 90.000000000011
   0
ARC
   5
58C
 100
AcDbEntity
   8
LEVEL002
 370
30
   6
CONTINUOUS
  62
7
 100
AcDbCircle
  10
 128.89774839676
  20
 54.418815690571
  30
0.0
  40
 0.30000000000000
 100
AcDbArc
  50
 123.08749998020
  51
 269.99999999998
   0
ARC
   5
58D
 100
AcDbEntity
   8
LEVEL002
 370
30
   6
CONTINUOUS
  62
7
 100
AcDbCircle
  10
 130.89774839676
  20
 49.618815690571
  30
0.0
  40
 0.20000000000000
 100
AcDbArc
  50
 90.000000000008
  51
 214.09357857323
   0
ARC
   5
58E
 100
AcDbEntity
   8
LEVEL002
 370
30
   6
CONTINUOUS
  62
7
 100
AcDbCircle
  10
 130.89774839676
  20
 48.618815690571
  30
0.0
  40
 0.20000000000000
 100
AcDbArc
  50
 89.999999999992
  51
 207.74338915147
   0
DIMENSION
   5
58F
 100
AcDbEntity
   8
LEVEL001
 370
15
   6
CONTINUOUS
  62
8
 100
AcDbDimension
   2
*D35
  10
 137.09774839676
  20
 58.318815690571
  30
0.0
  11
 135.09774839676
  21
 58.318815690571
  31
0.0
  70
0
   3
GMM006
 100
AcDbAlignedDimension
  13
 133.09774839676
  23
 53.218815690571
  33
0.0
  14
 137.09774839676
  24
 53.218815690571
  34
0.0
 100
AcDbRotatedDimension
   0
DIMENSION
   5
590
 100
AcDbEntity
   8
LEVEL001
 370
15
   6
CONTINUOUS
  62
8
 100
AcDbDimension
   2
*D36
  10
 141.59774839676
  20
 61.318815690571
  30
0.0
  11
 135.09774839676
  21
 61.318815690571
  31
0.0
  70
0
   3
GMM006
 100
AcDbAlignedDimension
  13
 128.59774839676
  23
 54.312376701896
  33
0.0
  14
 141.59774839676
  24
 54.401875811990
  34
0.0
 100
AcDbRotatedDimension
   0
DIMENSION
   5
591
 100
AcDbEntity
   8
LEVEL001
 370
15
   6
CONTINUOUS
  62
8
 100
AcDbDimension
   2
*D37
  10
 144.09774839676
  20
 54.118815690571
  30
0.0
  11
 144.09774839676
  21
 50.868815690571
  31
0.0
  70
0
   3
GMM001
 100
AcDbAlignedDimension
  13
 138.99774839676
  23
 47.618815690571
  33
0.0
  14
 141.29774839676
  24
 54.118815690571
  34
0.0
  50
 90.000000000000
 100
AcDbRotatedDimension
   0
DIMENSION
   5
592
 100
AcDbEntity
   8
LEVEL001
 370
15
   6
CONTINUOUS
  62
8
 100
AcDbDimension
   2
*D38
  10
 144.09774839676
  20
 55.318815690571
  30
0.0
  11
 144.09774839676
  21
 55.587739020737
  31
0.0
  70
128
   3
GMM007
 100
AcDbAlignedDimension
  13
 141.29774839676
  23
 54.118815690571
  33
0.0
  14
 139.27784740909
  24
 55.318815690571
  34
0.0
  50
 90.000000000000
 100
AcDbRotatedDimension
   0
DIMENSION
   5
593
 100
AcDbEntity
   8
LEVEL001
 370
15
   6
CONTINUOUS
  62
8
 100
AcDbDimension
   2
*D39
  10
 146.59774839676
  20
 55.318815690571
  30
0.0
  11
 146.59774839676
  21
 51.468815690571
  31
0.0
  70
0
   3
GMM001
 100
AcDbAlignedDimension
  13
 144.09774839676
  23
 47.618815690571
  33
0.0
  14
 144.09774839676
  24
 55.318815690571
  34
0.0
  50
 90.000000000000
 100
AcDbRotatedDimension
   0
DIMENSION
   5
594
 100
AcDbEntity
   8
LEVEL001
 370
15
   6
CONTINUOUS
  62
8
 100
AcDbDimension
   2
*D40
  10
 126.09774839676
  20
 55.318815690571
  30
0.0
  11
 126.09774839676
  21
 53.668815690571
  31
0.0
  70
0
   3
GMM006
 100
AcDbAlignedDimension
  13
 132.89774839676
  23
 52.018815690571
  33
0.0
  14
 130.71764938443
  24
 55.318815690571
  34
0.0
  50
 90.000000000000
 100
AcDbRotatedDimension
   0
LINE
   5
595
 100
AcDbEntity
   8
LEVEL002
 370
15
 100
AcDbLine
   6
DASHDOT
  62
8
  10
 135.09774839676
  20
 56.631254315775
  30
0.0
  11
 135.09774839676
  21
 47.163635283132
  31
0.0
   0
DIMENSION
   5
596
 100
AcDbEntity
   8
LEVEL001
 370
15
   6
CONTINUOUS
  62
8
 100
AcDbDimension
   2
*D41
  10
 139.59774839676
  20
 44.618815690571
  30
0.0
  11
 135.09774839676
  21
 44.618815690571
  31
0.0
  70
0
   3
GMM006
 100
AcDbAlignedDimension
  13
 130.59774839676
  23
 51.318815690571
  33
0.0
  14
 139.59774839676
  24
 51.318815690571
  34
0.0
 100
AcDbRotatedDimension
   0
MTEXT
   5
598
 100
AcDbEntity
   8
LEVEL001
 370
15
  62
8
 100
AcDbMText
  10
 116.27499999997
  20
 71.750000000003
  30
0.0
  40
 1.5000000000000
  41
0.0
  71
4
  72
1
   1
\W0.500000;\T1.000000; \W1.000000;\T1.000000;　ＤＴＡ６５
   7
GMM002
  44
 0.79999984000003
   0
MTEXT
   5
59A
 100
AcDbEntity
   8
LEVEL001
 370
15
  62
8
 100
AcDbMText
  10
 116.27499999997
  20
 42.625000000004
  30
0.0
  40
 1.5000000000000
  41
0.0
  71
4
  72
1
   1
\W0.500000;\T1.000000; \W1.000000;\T1.000000;　堀込寸法：９×６\W0.500000;\T1.000000;.\W1.000000;\T1.000000;５
   7
GMM002
  44
 0.79999984000003
   0
POINT
   5
59B
 100
AcDbEntity
   8
LEVEL001
 100
AcDbPoint
  62
1
  10
 26.330886092051
  20
 17.963142986735
  30
0.0
   0
LINE
   5
59C
 100
AcDbEntity
   8
LEVEL002
 370
15
 100
AcDbLine
   6
DASHDOT
  62
8
  10
 26.330886092042
  20
 20.171429024048
  30
0.0
  11
 26.330886092042
  21
 13.630739232602
  31
0.0
   0
POINT
   5
59D
 100
AcDbEntity
   8
LEVEL001
 100
AcDbPoint
  62
1
  10
 26.330886092050
  20
 17.834666991166
  30
0.0
   0
DIMENSION
   5
59E
 100
AcDbEntity
   8
LEVEL001
 370
15
   6
CONTINUOUS
  62
8
 100
AcDbDimension
   2
*D42
  10
 28.330886092042
  20
 24.200000000005
  30
0.0
  11
 26.330886092042
  21
 24.200000000005
  31
0.0
  70
0
   3
GMM001
 100
AcDbAlignedDimension
  13
 24.330886092042
  23
 19.100000000005
  33
0.0
  14
 28.330886092042
  24
 19.100000000005
  34
0.0
 100
AcDbRotatedDimension
   0
DIMENSION
   5
59F
 100
AcDbEntity
   8
LEVEL001
 370
15
   6
CONTINUOUS
  62
8
 100
AcDbDimension
   2
*D43
  10
 32.830886092042
  20
 27.200000000005
  30
0.0
  11
 26.330886092042
  21
 27.200000000005
  31
0.0
  70
0
   3
GMM001
 100
AcDbAlignedDimension
  13
 19.830886092042
  23
 20.500000000005
  33
0.0
  14
 32.830886092042
  24
 20.500000000005
  34
0.0
 100
AcDbRotatedDimension
   0
DIMENSION
   5
5A0
 100
AcDbEntity
   8
LEVEL001
 370
15
   6
CONTINUOUS
  62
8
 100
AcDbDimension
   2
*D44
  10
 37.830886092042
  20
 21.200000000005
  30
0.0
  11
 37.830886092042
  21
 17.600000000005
  31
0.0
  70
0
   3
GMM001
 100
AcDbAlignedDimension
  13
 35.330886092042
  23
 14.000000000005
  33
0.0
  14
 35.330886092042
  24
 21.200000000005
  34
0.0
  50
 90.000000000000
 100
AcDbRotatedDimension
   0
DIMENSION
   5
5A1
 100
AcDbEntity
   8
LEVEL001
 370
15
   6
CONTINUOUS
  62
8
 100
AcDbDimension
   2
*D45
  10
 35.330886092042
  20
 20.000000000005
  30
0.0
  11
 35.330886092042
  21
 17.000000000005
  31
0.0
  70
0
   3
GMM001
 100
AcDbAlignedDimension
  13
 30.230886092042
  23
 14.000000000005
  33
0.0
  14
 32.530886092042
  24
 20.000000000005
  34
0.0
  50
 90.000000000000
 100
AcDbRotatedDimension
   0
DIMENSION
   5
5A2
 100
AcDbEntity
   8
LEVEL001
 370
15
   6
CONTINUOUS
  62
8
 100
AcDbDimension
   2
*D46
  10
 35.330886092042
  20
 21.200000000005
  30
0.0
  11
 35.330886092042
  21
 21.549880746275
  31
0.0
  70
128
   3
GMM008
 100
AcDbAlignedDimension
  13
 32.530886092042
  23
 20.000000000005
  33
0.0
  14
 30.510985104369
  24
 21.200000000005
  34
0.0
  50
 90.000000000000
 100
AcDbRotatedDimension
   0
DIMENSION
   5
5A3
 100
AcDbEntity
   8
LEVEL001
 370
15
   6
CONTINUOUS
  62
8
 100
AcDbDimension
   2
*D47
  10
 30.830886092042
  20
 11.000000000005
  30
0.0
  11
 26.330886092042
  21
 11.000000000005
  31
0.0
  70
0
   3
GMM001
 100
AcDbAlignedDimension
  13
 21.830886092042
  23
 17.200000000005
  33
0.0
  14
 30.830886092042
  24
 17.200000000005
  34
0.0
 100
AcDbRotatedDimension
   0
DIMENSION
   5
5A4
 100
AcDbEntity
   8
LEVEL001
 370
15
   6
CONTINUOUS
  62
8
 100
AcDbDimension
   2
*D48
  10
 17.330886092042
  20
 21.200000000005
  30
0.0
  11
 17.330886092042
  21
 19.550000000005
  31
0.0
  70
0
   3
GMM001
 100
AcDbAlignedDimension
  13
 24.330886092042
  23
 17.900000000005
  33
0.0
  14
 22.150787079715
  24
 21.200000000005
  34
0.0
  50
 90.000000000000
 100
AcDbRotatedDimension
   0
ARC
   5
5A5
 100
AcDbEntity
   8
LEVEL002
 370
30
   6
CONTINUOUS
  62
7
 100
AcDbCircle
  10
 30.510985104369
  20
 17.200000000005
  30
0.0
  40
 4.0000000000000
 100
AcDbArc
  50
 56.912500019803
  51
 90.000000000000
   0
LINE
   5
5A6
 100
AcDbEntity
   8
LEVEL002
 370
30
 100
AcDbLine
   6
CONTINUOUS
  62
7
  10
 30.130886092042
  20
 21.200000000005
  30
0.0
  11
 30.510985104369
  21
 21.200000000005
  31
0.0
   0
LINE
   5
5A7
 100
AcDbEntity
   8
LEVEL002
 370
30
 100
AcDbLine
   6
CONTINUOUS
  62
7
  10
 28.330886092042
  20
 19.100000000005
  30
0.0
  11
 28.330886092042
  21
 17.900000000005
  31
0.0
   0
LINE
   5
5A8
 100
AcDbEntity
   8
LEVEL002
 370
30
 100
AcDbLine
   6
CONTINUOUS
  62
7
  10
 28.330886092042
  20
 17.900000000005
  30
0.0
  11
 26.330886092042
  21
 17.900000000005
  31
0.0
   0
LINE
   5
5A9
 100
AcDbEntity
   8
LEVEL002
 370
30
 100
AcDbLine
   6
CONTINUOUS
  62
7
  10
 30.130886092042
  20
 21.200000000005
  30
0.0
  11
 29.130886092042
  21
 20.200000000005
  31
0.0
   0
LINE
   5
5AA
 100
AcDbEntity
   8
LEVEL002
 370
30
 100
AcDbLine
   6
CONTINUOUS
  62
7
  10
 29.130886092042
  20
 20.200000000005
  30
0.0
  11
 29.130886092042
  21
 19.400000000005
  31
0.0
   0
LINE
   5
5AB
 100
AcDbEntity
   8
LEVEL002
 370
30
 100
AcDbLine
   6
CONTINUOUS
  62
7
  10
 29.130886092042
  20
 19.400000000005
  30
0.0
  11
 28.630886091975
  21
 19.399999999894
  31
0.0
   0
ARC
   5
5AC
 100
AcDbEntity
   8
LEVEL002
 370
30
   6
CONTINUOUS
  62
7
 100
AcDbCircle
  10
 28.630886092042
  20
 19.100000000005
  30
0.0
  40
 0.30000000000000
 100
AcDbArc
  50
 89.999999999999
  51
 179.99999999999
   0
ARC
   5
5AD
 100
AcDbEntity
   8
LEVEL002
 370
30
   6
CONTINUOUS
  62
7
 100
AcDbCircle
  10
 32.530886092042
  20
 20.300000000005
  30
0.0
  40
 0.30000000000000
 100
AcDbArc
  50
 269.99999999995
  51
 56.912500019856
   0
LINE
   5
5AE
 100
AcDbEntity
   8
LEVEL002
 370
30
 100
AcDbLine
   6
CONTINUOUS
  62
7
  10
 30.830886092042
  20
 17.700000000005
  30
0.0
  11
 30.230886092042
  21
 16.200000000005
  31
0.0
   0
LINE
   5
5AF
 100
AcDbEntity
   8
LEVEL002
 370
30
 100
AcDbLine
   6
CONTINUOUS
  62
7
  10
 30.230886092042
  20
 16.200000000005
  30
0.0
  11
 30.530886092042
  21
 16.200000000005
  31
0.0
   0
LINE
   5
5B0
 100
AcDbEntity
   8
LEVEL002
 370
30
 100
AcDbLine
   6
CONTINUOUS
  62
7
  10
 30.230886092042
  20
 15.200000000005
  30
0.0
  11
 30.696510724654
  21
 15.887890762775
  31
0.0
   0
LINE
   5
5B1
 100
AcDbEntity
   8
LEVEL002
 370
30
 100
AcDbLine
   6
CONTINUOUS
  62
7
  10
 30.230886092042
  20
 15.200000000005
  30
0.0
  11
 30.530886092042
  21
 15.200000000005
  31
0.0
   0
LINE
   5
5B2
 100
AcDbEntity
   8
LEVEL002
 370
30
 100
AcDbLine
   6
CONTINUOUS
  62
7
  10
 30.230886092042
  20
 14.000000000005
  30
0.0
  11
 30.707894362977
  21
 14.906897518724
  31
0.0
   0
ARC
   5
5B3
 100
AcDbEntity
   8
LEVEL002
 370
30
   6
CONTINUOUS
  62
7
 100
AcDbCircle
  10
 30.530886092042
  20
 16.000000000005
  30
0.0
  40
 0.20000000000000
 100
AcDbArc
  50
 325.90642142677
  51
 90.000000000008
   0
ARC
   5
5B4
 100
AcDbEntity
   8
LEVEL002
 370
30
   6
CONTINUOUS
  62
7
 100
AcDbCircle
  10
 30.530886092042
  20
 15.000000000005
  30
0.0
  40
 0.20000000000000
 100
AcDbArc
  50
 332.25661084853
  51
 90.000000000017
   0
LINE
   5
5B5
 100
AcDbEntity
   8
LEVEL002
 370
30
 100
AcDbLine
   6
CONTINUOUS
  62
7
  10
 30.830886092042
  20
 20.000000000005
  30
0.0
  11
 30.830886092042
  21
 17.700000000005
  31
0.0
   0
LINE
   5
5B6
 100
AcDbEntity
   8
LEVEL002
 370
30
 100
AcDbLine
   6
CONTINUOUS
  62
7
  10
 30.830886092042
  20
 20.000000000005
  30
0.0
  11
 32.530886092042
  21
 20.000000000005
  31
0.0
   0
ARC
   5
5B7
 100
AcDbEntity
   8
LEVEL002
 370
30
   6
CONTINUOUS
  62
7
 100
AcDbCircle
  10
 22.150787079715
  20
 17.200000000005
  30
0.0
  40
 4.0000000000000
 100
AcDbArc
  50
 90.000000000000
  51
 123.08749998020
   0
LINE
   5
5B8
 100
AcDbEntity
   8
LEVEL002
 370
30
 100
AcDbLine
   6
CONTINUOUS
  62
7
  10
 22.530886092042
  20
 21.200000000005
  30
0.0
  11
 22.150787079715
  21
 21.200000000005
  31
0.0
   0
LINE
   5
5B9
 100
AcDbEntity
   8
LEVEL002
 370
30
 100
AcDbLine
   6
CONTINUOUS
  62
7
  10
 24.330886092042
  20
 19.100000000005
  30
0.0
  11
 24.330886092042
  21
 17.900000000005
  31
0.0
   0
LINE
   5
5BA
 100
AcDbEntity
   8
LEVEL002
 370
30
 100
AcDbLine
   6
CONTINUOUS
  62
7
  10
 24.330886092042
  20
 17.900000000005
  30
0.0
  11
 26.330886092042
  21
 17.900000000005
  31
0.0
   0
LINE
   5
5BB
 100
AcDbEntity
   8
LEVEL002
 370
30
 100
AcDbLine
   6
CONTINUOUS
  62
7
  10
 22.530886092042
  20
 21.200000000005
  30
0.0
  11
 23.530886092042
  21
 20.200000000005
  31
0.0
   0
LINE
   5
5BC
 100
AcDbEntity
   8
LEVEL002
 370
30
 100
AcDbLine
   6
CONTINUOUS
  62
7
  10
 23.530886092042
  20
 20.200000000005
  30
0.0
  11
 23.530886092042
  21
 19.400000000005
  31
0.0
   0
LINE
   5
5BD
 100
AcDbEntity
   8
LEVEL002
 370
30
 100
AcDbLine
   6
CONTINUOUS
  62
7
  10
 23.530886092042
  20
 19.400000000005
  30
0.0
  11
 24.030886092109
  21
 19.399999999894
  31
0.0
   0
ARC
   5
5BE
 100
AcDbEntity
   8
LEVEL002
 370
30
   6
CONTINUOUS
  62
7
 100
AcDbCircle
  10
 24.030886092042
  20
 19.100000000005
  30
0.0
  40
 0.30000000000000
 100
AcDbArc
  50
 0.10177774980683E-10
  51
 90.000000000001
   0
ARC
   5
5BF
 100
AcDbEntity
   8
LEVEL002
 370
30
   6
CONTINUOUS
  62
7
 100
AcDbCircle
  10
 20.130886092042
  20
 20.300000000005
  30
0.0
  40
 0.30000000000000
 100
AcDbArc
  50
 123.08749998014
  51
 270.00000000005
   0
LINE
   5
5C0
 100
AcDbEntity
   8
LEVEL002
 370
30
 100
AcDbLine
   6
CONTINUOUS
  62
7
  10
 21.830886092042
  20
 17.700000000005
  30
0.0
  11
 22.430886092042
  21
 16.200000000005
  31
0.0
   0
LINE
   5
5C1
 100
AcDbEntity
   8
LEVEL002
 370
30
 100
AcDbLine
   6
CONTINUOUS
  62
7
  10
 22.430886092042
  20
 16.200000000005
  30
0.0
  11
 22.130886092042
  21
 16.200000000005
  31
0.0
   0
LINE
   5
5C2
 100
AcDbEntity
   8
LEVEL002
 370
30
 100
AcDbLine
   6
CONTINUOUS
  62
7
  10
 22.430886092042
  20
 15.200000000005
  30
0.0
  11
 21.965261459430
  21
 15.887890762775
  31
0.0
   0
LINE
   5
5C3
 100
AcDbEntity
   8
LEVEL002
 370
30
 100
AcDbLine
   6
CONTINUOUS
  62
7
  10
 22.430886092042
  20
 15.200000000005
  30
0.0
  11
 22.130886092042
  21
 15.200000000005
  31
0.0
   0
LINE
   5
5C4
 100
AcDbEntity
   8
LEVEL002
 370
30
 100
AcDbLine
   6
CONTINUOUS
  62
7
  10
 22.430886092042
  20
 14.000000000005
  30
0.0
  11
 21.953877821107
  21
 14.906897518724
  31
0.0
   0
ARC
   5
5C5
 100
AcDbEntity
   8
LEVEL002
 370
30
   6
CONTINUOUS
  62
7
 100
AcDbCircle
  10
 22.130886092042
  20
 16.000000000005
  30
0.0
  40
 0.20000000000000
 100
AcDbArc
  50
 89.999999999992
  51
 214.09357857323
   0
ARC
   5
5C6
 100
AcDbEntity
   8
LEVEL002
 370
30
   6
CONTINUOUS
  62
7
 100
AcDbCircle
  10
 22.130886092042
  20
 15.000000000005
  30
0.0
  40
 0.20000000000000
 100
AcDbArc
  50
 89.999999999983
  51
 207.74338915147
   0
LINE
   5
5C7
 100
AcDbEntity
   8
LEVEL002
 370
30
 100
AcDbLine
   6
CONTINUOUS
  62
7
  10
 21.830886092042
  20
 20.000000000005
  30
0.0
  11
 21.830886092042
  21
 17.700000000005
  31
0.0
   0
LINE
   5
5C8
 100
AcDbEntity
   8
LEVEL002
 370
30
 100
AcDbLine
   6
CONTINUOUS
  62
7
  10
 21.830886092042
  20
 20.000000000005
  30
0.0
  11
 20.130886092042
  21
 20.000000000005
  31
0.0
   0
LINE
   5
5C9
 100
AcDbEntity
   8
LEVEL002
 370
30
 100
AcDbLine
   6
CONTINUOUS
  62
7
  10
 22.430886092042
  20
 14.000000000005
  30
0.0
  11
 24.130886092042
  21
 14.000000000005
  31
0.0
   0
LINE
   5
5CA
 100
AcDbEntity
   8
LEVEL002
 370
30
 100
AcDbLine
   6
CONTINUOUS
  62
7
  10
 30.230886092042
  20
 14.000000000005
  30
0.0
  11
 28.530886092042
  21
 14.000000000005
  31
0.0
   0
LINE
   5
5CB
 100
AcDbEntity
   8
LEVEL001
 370
30
 100
AcDbLine
   6
CONTINUOUS
  62
7
  10
 23.330886092042
  20
 15.000000000005
  30
0.0
  11
 24.245080201112
  21
 14.364194109076
  31
0.0
   0
ARC
   5
5CC
 100
AcDbEntity
   8
LEVEL001
 370
30
   6
CONTINUOUS
  62
7
 100
AcDbCircle
  10
 24.130886092042
  20
 14.200000000005
  30
0.0
  40
 0.20000000000000
 100
AcDbArc
  50
 270.00000000000
  51
 55.182067403160
   0
LINE
   5
5CD
 100
AcDbEntity
   8
LEVEL001
 370
30
 100
AcDbLine
   6
CONTINUOUS
  62
7
  10
 29.330886092042
  20
 15.000000000005
  30
0.0
  11
 28.416691982971
  21
 14.364194109076
  31
0.0
   0
ARC
   5
5CE
 100
AcDbEntity
   8
LEVEL001
 370
30
   6
CONTINUOUS
  62
7
 100
AcDbCircle
  10
 28.530886092042
  20
 14.200000000005
  30
0.0
  40
 0.20000000000000
 100
AcDbArc
  50
 124.81793259684
  51
 270.00000000000
   0
LINE
   5
5CF
 100
AcDbEntity
   8
LEVEL002
 370
30
 100
AcDbLine
   6
CONTINUOUS
  62
7
  10
 23.330886092042
  20
 15.000000000005
  30
0.0
  11
 23.330886092042
  21
 16.300000000005
  31
0.0
   0
LINE
   5
5D0
 100
AcDbEntity
   8
LEVEL002
 370
30
 100
AcDbLine
   6
CONTINUOUS
  62
7
  10
 23.330886092042
  20
 16.300000000005
  30
0.0
  11
 26.330886092042
  21
 16.300000000005
  31
0.0
   0
LINE
   5
5D1
 100
AcDbEntity
   8
LEVEL002
 370
30
 100
AcDbLine
   6
CONTINUOUS
  62
7
  10
 29.330886092042
  20
 16.300000000005
  30
0.0
  11
 26.330886092042
  21
 16.300000000005
  31
0.0
   0
LINE
   5
5D2
 100
AcDbEntity
   8
LEVEL002
 370
30
 100
AcDbLine
   6
CONTINUOUS
  62
7
  10
 29.330886092042
  20
 15.000000000005
  30
0.0
  11
 29.330886092042
  21
 16.300000000005
  31
0.0
   0
MTEXT
   5
5D4
 100
AcDbEntity
   8
LEVEL001
 370
15
  62
8
 100
AcDbMText
  10
 7.8999999999750
  20
 8.5000000000050
  30
0.0
  40
 1.5000000000000
  41
0.0
  71
4
  72
1
   1
\W0.500000;\T1.000000; \W1.000000;\T1.000000;　堀込寸法：９×６
   7
GMM002
  44
 0.79999984000003
   0
DIMENSION
   5
5D5
 100
AcDbEntity
   8
LEVEL001
 370
15
   6
CONTINUOUS
  62
8
 100
AcDbDimension
   2
*D49
  10
 52.652510806001
  20
 56.125000000004
  30
0.0
  11
 52.652510806001
  21
 54.475000000085
  31
0.0
  70
0
   3
GMM001
 100
AcDbAlignedDimension
  13
 61.252510805951
  23
 52.825000000167
  33
0.0
  14
 57.902510805970
  24
 56.125000000004
  34
0.0
  50
 90.000000000000
 100
AcDbRotatedDimension
   0
DIMENSION
   5
5D6
 100
AcDbEntity
   8
LEVEL001
 370
15
   6
CONTINUOUS
  62
8
 100
AcDbDimension
   2
*D50
  10
 65.252510806051
  20
 59.125000000003
  30
0.0
  11
 63.252510806001
  21
 59.125000000003
  31
0.0
  70
0
   3
GMM001
 100
AcDbAlignedDimension
  13
 61.252510805951
  23
 54.025000000167
  33
0.0
  14
 65.252510806051
  24
 54.025000000167
  34
0.0
 100
AcDbRotatedDimension
   0
DIMENSION
   5
5D7
 100
AcDbEntity
   8
LEVEL001
 370
15
   6
CONTINUOUS
  62
8
 100
AcDbDimension
   2
*D51
  10
 71.352510806001
  20
 62.125000000003
  30
0.0
  11
 63.252510806001
  21
 62.125000000003
  31
0.0
  70
0
   3
GMM001
 100
AcDbAlignedDimension
  13
 55.152510806001
  23
 55.625000000004
  33
0.0
  14
 71.352510806001
  24
 55.625000000004
  34
0.0
 100
AcDbRotatedDimension
   0
DIMENSION
   5
5D8
 100
AcDbEntity
   8
LEVEL001
 370
15
   6
CONTINUOUS
  62
8
 100
AcDbDimension
   2
*D52
  10
 73.852510806001
  20
 55.125000000004
  30
0.0
  11
 73.852510806001
  21
 51.625000000004
  31
0.0
  70
0
   3
GMM001
 100
AcDbAlignedDimension
  13
 68.702510806001
  23
 48.125000000004
  33
0.0
  14
 71.052510806001
  24
 55.125000000004
  34
0.0
  50
 90.000000000000
 100
AcDbRotatedDimension
   0
DIMENSION
   5
5D9
 100
AcDbEntity
   8
LEVEL001
 370
15
   6
CONTINUOUS
  62
8
 100
AcDbDimension
   2
*D53
  10
 73.852510806001
  20
 56.125000000003
  30
0.0
  11
 73.852510806001
  21
 57.247267794301
  31
0.0
  70
128
   3
GMM009
 100
AcDbAlignedDimension
  13
 71.052510806001
  23
 55.125000000004
  33
0.0
  14
 68.402510806031
  24
 56.125000000003
  34
0.0
  50
 90.000000000000
 100
AcDbRotatedDimension
   0
DIMENSION
   5
5DA
 100
AcDbEntity
   8
LEVEL001
 370
15
   6
CONTINUOUS
  62
8
 100
AcDbDimension
   2
*D54
  10
 76.352510806001
  20
 56.125000000003
  30
0.0
  11
 76.352510806001
  21
 52.125000000003
  31
0.0
  70
0
   3
GMM001
 100
AcDbAlignedDimension
  13
 73.852510806001
  23
 48.125000000004
  33
0.0
  14
 73.852510806001
  24
 56.125000000003
  34
0.0
  50
 90.000000000000
 100
AcDbRotatedDimension
   0
DIMENSION
   5
5DB
 100
AcDbEntity
   8
LEVEL001
 370
15
   6
CONTINUOUS
  62
8
 100
AcDbDimension
   2
*D55
  10
 69.352510806001
  20
 45.125000000004
  30
0.0
  11
 63.252510806001
  21
 45.125000000004
  31
0.0
  70
0
   3
GMM001
 100
AcDbAlignedDimension
  13
 57.152510806001
  23
 53.625000000004
  33
0.0
  14
 69.352510806001
  24
 53.625000000004
  34
0.0
 100
AcDbRotatedDimension
   0
LINE
   5
5DC
 100
AcDbEntity
   8
LEVEL002
 370
15
 100
AcDbLine
   6
DASHDOT
  62
8
  10
 63.252510806001
  20
 47.279304407573
  30
0.0
  11
 63.252510806001
  21
 57.263894807043
  31
0.0
   0
LINE
   5
5DD
 100
AcDbEntity
   8
LEVEL002
 370
30
 100
AcDbLine
   6
CONTINUOUS
  62
7
  10
 58.102510805970
  20
 56.125000000004
  30
0.0
  11
 59.102510805888
  21
 55.125000000004
  31
0.0
   0
ARC
   5
5DE
 100
AcDbEntity
   8
LEVEL002
 370
30
   6
CONTINUOUS
  62
7
 100
AcDbCircle
  10
 59.102510806001
  20
 53.640802041891
  30
0.0
  40
 0.30000000000000
 100
AcDbArc
  50
 45.224720820813
  51
 179.99999999996
   0
LINE
   5
5DF
 100
AcDbEntity
   8
LEVEL002
 370
30
 100
AcDbLine
   6
CONTINUOUS
  62
7
  10
 57.152510806001
  20
 55.125000000004
  30
0.0
  11
 55.452510806001
  21
 55.125000000004
  31
0.0
   0
ARC
   5
5E0
 100
AcDbEntity
   8
LEVEL002
 370
30
   6
CONTINUOUS
  62
7
 100
AcDbCircle
  10
 55.452510806000
  20
 55.425000000004
  30
0.0
  40
 0.30000000000000
 100
AcDbArc
  50
 106.51146440233
  51
 270.00000000025
   0
ARC
   5
5E1
 100
AcDbEntity
   8
LEVEL002
 370
30
   6
CONTINUOUS
  62
7
 100
AcDbCircle
  10
 58.211316705024
  20
 46.125591953707
  30
0.0
  40
 10.000000000000
 100
AcDbArc
  50
 90.623424181514
  51
 106.52376273912
   0
LINE
   5
5E2
 100
AcDbEntity
   8
LEVEL002
 370
30
 100
AcDbLine
   6
CONTINUOUS
  62
7
  10
 61.252510805951
  20
 54.025000000167
  30
0.0
  11
 61.252510805951
  21
 52.825000000167
  31
0.0
   0
LINE
   5
5E3
 100
AcDbEntity
   8
LEVEL002
 370
30
 100
AcDbLine
   6
CONTINUOUS
  62
7
  10
 61.252510805951
  20
 52.825000000167
  30
0.0
  11
 63.252510806001
  21
 52.825000000167
  31
0.0
   0
ARC
   5
5E4
 100
AcDbEntity
   8
LEVEL002
 370
30
   6
CONTINUOUS
  62
7
 100
AcDbCircle
  10
 60.952510805951
  20
 54.025000000167
  30
0.0
  40
 0.30000000000000
 100
AcDbArc
  50
0.0
  51
 89.999999999992
   0
LINE
   5
5E5
 100
AcDbEntity
   8
LEVEL002
 370
30
 100
AcDbLine
   6
CONTINUOUS
  62
7
  10
 59.102510805888
  20
 55.125000000004
  30
0.0
  11
 60.152510806101
  21
 55.125000000004
  31
0.0
   0
LINE
   5
5E6
 100
AcDbEntity
   8
LEVEL002
 370
30
 100
AcDbLine
   6
CONTINUOUS
  62
7
  10
 60.452510806101
  20
 54.824999999990
  30
0.0
  11
 60.452510806079
  21
 54.325000000167
  31
0.0
   0
LINE
   5
5E7
 100
AcDbEntity
   8
LEVEL002
 370
30
 100
AcDbLine
   6
CONTINUOUS
  62
7
  10
 60.452510806079
  20
 54.325000000167
  30
0.0
  11
 60.952510805951
  21
 54.325000000167
  31
0.0
   0
ARC
   5
5E8
 100
AcDbEntity
   8
LEVEL002
 370
30
   6
CONTINUOUS
  62
7
 100
AcDbCircle
  10
 60.152510806101
  20
 54.825000000004
  30
0.0
  40
 0.30000000000000
 100
AcDbArc
  50
0.0
  51
 90.000000000062
   0
LINE
   5
5E9
 100
AcDbEntity
   8
LEVEL002
 370
30
 100
AcDbLine
   6
CONTINUOUS
  62
7
  10
 60.452510805923
  20
 51.975252531841
  30
0.0
  11
 60.452510805923
  21
 51.825000000167
  31
0.0
   0
LINE
   5
5EA
 100
AcDbEntity
   8
LEVEL002
 370
30
 100
AcDbLine
   6
CONTINUOUS
  62
7
  10
 60.452510805923
  20
 51.825000000167
  30
0.0
  11
 63.252510806001
  21
 51.825000000167
  31
0.0
   0
LINE
   5
5EB
 100
AcDbEntity
   8
LEVEL002
 370
30
 100
AcDbLine
   6
CONTINUOUS
  62
7
  10
 57.802510806001
  20
 48.125000000004
  30
0.0
  11
 57.310024062067
  21
 49.870696653792
  31
0.0
   0
LINE
   5
5EC
 100
AcDbEntity
   8
LEVEL002
 370
30
 100
AcDbLine
   6
CONTINUOUS
  62
7
  10
 57.802510806001
  20
 50.125000000004
  30
0.0
  11
 57.502510806001
  21
 50.125000000004
  31
0.0
   0
LINE
   5
5ED
 100
AcDbEntity
   8
LEVEL002
 370
30
 100
AcDbLine
   6
CONTINUOUS
  62
7
  10
 57.802510806001
  20
 50.125000000004
  30
0.0
  11
 57.357496198049
  21
 52.080623174010
  31
0.0
   0
LINE
   5
5EE
 100
AcDbEntity
   8
LEVEL002
 370
30
 100
AcDbLine
   6
CONTINUOUS
  62
7
  10
 57.152510806001
  20
 53.625000000004
  30
0.0
  11
 58.109738224197
  21
 52.957006235172
  31
0.0
   0
LINE
   5
5EF
 100
AcDbEntity
   8
LEVEL002
 370
30
 100
AcDbLine
   6
CONTINUOUS
  62
7
  10
 57.152510806001
  20
 53.625000000004
  30
0.0
  11
 57.152510806001
  21
 55.125000000004
  31
0.0
   0
LINE
   5
5F0
 100
AcDbEntity
   8
LEVEL002
 370
30
 100
AcDbLine
   6
CONTINUOUS
  62
7
  10
 58.802510806001
  20
 48.125000000004
  30
0.0
  11
 58.802510806001
  21
 53.640802041891
  31
0.0
   0
LINE
   5
5F1
 100
AcDbEntity
   8
LEVEL002
 370
30
 100
AcDbLine
   6
CONTINUOUS
  62
7
  10
 57.802510806001
  20
 48.125000000004
  30
0.0
  11
 58.802510806001
  21
 48.125000000004
  31
0.0
   0
LINE
   5
5F2
 100
AcDbEntity
   8
LEVEL002
 370
30
 100
AcDbLine
   6
CONTINUOUS
  62
7
  10
 57.432510806001
  20
 52.285000000004
  30
0.0
  11
 58.112510806001
  21
 52.795000000004
  31
0.0
   0
ARC
   5
5F3
 100
AcDbEntity
   8
LEVEL002
 370
30
   6
CONTINUOUS
  62
7
 100
AcDbCircle
  10
 57.552510806001
  20
 52.125000000003
  30
0.0
  40
 0.20000000000000
 100
AcDbArc
  50
 126.86989764582
  51
 192.81972115280
   0
ARC
   5
5F4
 100
AcDbEntity
   8
LEVEL002
 370
30
   6
CONTINUOUS
  62
7
 100
AcDbCircle
  10
 58.052510806001
  20
 52.875000000003
  30
0.0
  40
 0.10000000000000
 100
AcDbArc
  50
 306.86989764577
  51
 55.091035882742
   0
ARC
   5
5F5
 100
AcDbEntity
   8
LEVEL002
 370
30
   6
CONTINUOUS
  62
7
 100
AcDbCircle
  10
 57.502510806001
  20
 49.925000000004
  30
0.0
  40
 0.20000000000000
 100
AcDbArc
  50
 89.999999999998
  51
 195.75454113501
   0
ARC
   5
5F6
 100
AcDbEntity
   8
LEVEL002
 370
30
   6
CONTINUOUS
  62
7
 100
AcDbCircle
  10
 58.652510805923
  20
 51.975252531841
  30
0.0
  40
 1.8000000000000
 100
AcDbArc
  50
0.0
  51
 46.846422038261
   0
LINE
   5
5F7
 100
AcDbEntity
   8
LEVEL002
 370
30
 100
AcDbLine
   6
CONTINUOUS
  62
7
  10
 59.883632070740
  20
 53.288393967984
  30
0.0
  11
 59.313809203960
  21
 53.853764449418
  31
0.0
   0
LINE
   5
5F8
 100
AcDbEntity
   8
LEVEL002
 370
30
 100
AcDbLine
   6
CONTINUOUS
  62
7
  10
 68.402510806032
  20
 56.125000000004
  30
0.0
  11
 67.402510806114
  21
 55.125000000004
  31
0.0
   0
ARC
   5
5F9
 100
AcDbEntity
   8
LEVEL002
 370
30
   6
CONTINUOUS
  62
7
 100
AcDbCircle
  10
 67.402510806001
  20
 53.640802041891
  30
0.0
  40
 0.30000000000000
 100
AcDbArc
  50
 0.13570366640911E-11
  51
 134.77527917918
   0
LINE
   5
5FA
 100
AcDbEntity
   8
LEVEL002
 370
30
 100
AcDbLine
   6
CONTINUOUS
  62
7
  10
 69.352510806001
  20
 55.125000000004
  30
0.0
  11
 71.052510806001
  21
 55.125000000004
  31
0.0
   0
ARC
   5
5FB
 100
AcDbEntity
   8
LEVEL002
 370
30
   6
CONTINUOUS
  62
7
 100
AcDbCircle
  10
 71.052510806001
  20
 55.425000000004
  30
0.0
  40
 0.30000000000000
 100
AcDbArc
  50
 269.99999999999
  51
 73.488535597444
   0
ARC
   5
5FC
 100
AcDbEntity
   8
LEVEL002
 370
30
   6
CONTINUOUS
  62
7
 100
AcDbCircle
  10
 68.293704906978
  20
 46.125591953707
  30
0.0
  40
 10.000000000000
 100
AcDbArc
  50
 73.476237260881
  51
 89.376575818486
   0
LINE
   5
5FD
 100
AcDbEntity
   8
LEVEL002
 370
30
 100
AcDbLine
   6
CONTINUOUS
  62
7
  10
 65.252510806051
  20
 54.025000000167
  30
0.0
  11
 65.252510806051
  21
 52.825000000167
  31
0.0
   0
LINE
   5
5FE
 100
AcDbEntity
   8
LEVEL002
 370
30
 100
AcDbLine
   6
CONTINUOUS
  62
7
  10
 65.252510806051
  20
 52.825000000167
  30
0.0
  11
 63.252510806001
  21
 52.825000000167
  31
0.0
   0
ARC
   5
5FF
 100
AcDbEntity
   8
LEVEL002
 370
30
   6
CONTINUOUS
  62
7
 100
AcDbCircle
  10
 65.552510806051
  20
 54.025000000167
  30
0.0
  40
 0.30000000000000
 100
AcDbArc
  50
 89.999999999997
  51
 180.00000000000
   0
LINE
   5
600
 100
AcDbEntity
   8
LEVEL002
 370
30
 100
AcDbLine
   6
CONTINUOUS
  62
7
  10
 67.402510806114
  20
 55.125000000004
  30
0.0
  11
 66.352510805901
  21
 55.125000000004
  31
0.0
   0
LINE
   5
601
 100
AcDbEntity
   8
LEVEL002
 370
30
 100
AcDbLine
   6
CONTINUOUS
  62
7
  10
 66.052510805901
  20
 54.824999999990
  30
0.0
  11
 66.052510805923
  21
 54.325000000167
  31
0.0
   0
LINE
   5
602
 100
AcDbEntity
   8
LEVEL002
 370
30
 100
AcDbLine
   6
CONTINUOUS
  62
7
  10
 66.052510805923
  20
 54.325000000167
  30
0.0
  11
 65.552510806051
  21
 54.325000000167
  31
0.0
   0
ARC
   5
603
 100
AcDbEntity
   8
LEVEL002
 370
30
   6
CONTINUOUS
  62
7
 100
AcDbCircle
  10
 66.352510805901
  20
 54.825000000004
  30
0.0
  40
 0.30000000000000
 100
AcDbArc
  50
 89.999999999984
  51
 180.00000000253
   0
LINE
   5
604
 100
AcDbEntity
   8
LEVEL002
 370
30
 100
AcDbLine
   6
CONTINUOUS
  62
7
  10
 66.052510806079
  20
 51.975252531841
  30
0.0
  11
 66.052510806079
  21
 51.825000000167
  31
0.0
   0
LINE
   5
605
 100
AcDbEntity
   8
LEVEL002
 370
30
 100
AcDbLine
   6
CONTINUOUS
  62
7
  10
 66.052510806079
  20
 51.825000000167
  30
0.0
  11
 63.252510806001
  21
 51.825000000167
  31
0.0
   0
LINE
   5
606
 100
AcDbEntity
   8
LEVEL002
 370
30
 100
AcDbLine
   6
CONTINUOUS
  62
7
  10
 68.702510806001
  20
 48.125000000004
  30
0.0
  11
 69.194997549935
  21
 49.870696653792
  31
0.0
   0
LINE
   5
607
 100
AcDbEntity
   8
LEVEL002
 370
30
 100
AcDbLine
   6
CONTINUOUS
  62
7
  10
 68.702510806001
  20
 50.125000000004
  30
0.0
  11
 69.002510806001
  21
 50.125000000004
  31
0.0
   0
LINE
   5
608
 100
AcDbEntity
   8
LEVEL002
 370
30
 100
AcDbLine
   6
CONTINUOUS
  62
7
  10
 68.702510806001
  20
 50.125000000004
  30
0.0
  11
 69.147525413953
  21
 52.080623174010
  31
0.0
   0
LINE
   5
609
 100
AcDbEntity
   8
LEVEL002
 370
30
 100
AcDbLine
   6
CONTINUOUS
  62
7
  10
 69.352510806001
  20
 53.625000000004
  30
0.0
  11
 68.395283387805
  21
 52.957006235172
  31
0.0
   0
LINE
   5
60A
 100
AcDbEntity
   8
LEVEL002
 370
30
 100
AcDbLine
   6
CONTINUOUS
  62
7
  10
 69.352510806001
  20
 53.625000000004
  30
0.0
  11
 69.352510806001
  21
 55.125000000004
  31
0.0
   0
LINE
   5
60B
 100
AcDbEntity
   8
LEVEL002
 370
30
 100
AcDbLine
   6
CONTINUOUS
  62
7
  10
 67.702510806001
  20
 48.125000000004
  30
0.0
  11
 67.702510806001
  21
 53.640802041891
  31
0.0
   0
LINE
   5
60C
 100
AcDbEntity
   8
LEVEL002
 370
30
 100
AcDbLine
   6
CONTINUOUS
  62
7
  10
 68.702510806001
  20
 48.125000000004
  30
0.0
  11
 67.702510806001
  21
 48.125000000004
  31
0.0
   0
LINE
   5
60D
 100
AcDbEntity
   8
LEVEL002
 370
30
 100
AcDbLine
   6
CONTINUOUS
  62
7
  10
 69.072510806001
  20
 52.285000000004
  30
0.0
  11
 68.392510806001
  21
 52.795000000004
  31
0.0
   0
ARC
   5
60E
 100
AcDbEntity
   8
LEVEL002
 370
30
   6
CONTINUOUS
  62
7
 100
AcDbCircle
  10
 68.952510806001
  20
 52.125000000004
  30
0.0
  40
 0.20000000000000
 100
AcDbArc
  50
 347.18027884715
  51
 53.130102354159
   0
ARC
   5
60F
 100
AcDbEntity
   8
LEVEL002
 370
30
   6
CONTINUOUS
  62
7
 100
AcDbCircle
  10
 68.452510806001
  20
 52.875000000004
  30
0.0
  40
 0.10000000000000
 100
AcDbArc
  50
 124.90896411754
  51
 233.13010235413
   0
ARC
   5
610
 100
AcDbEntity
   8
LEVEL002
 370
30
   6
CONTINUOUS
  62
7
 100
AcDbCircle
  10
 69.002510806001
  20
 49.925000000004
  30
0.0
  40
 0.20000000000000
 100
AcDbArc
  50
 344.24545886497
  51
 90.000000000012
   0
ARC
   5
611
 100
AcDbEntity
   8
LEVEL002
 370
30
   6
CONTINUOUS
  62
7
 100
AcDbCircle
  10
 67.852510806079
  20
 51.975252531841
  30
0.0
  40
 1.8000000000000
 100
AcDbArc
  50
 133.15357796174
  51
 180.00000000000
   0
LINE
   5
612
 100
AcDbEntity
   8
LEVEL002
 370
30
 100
AcDbLine
   6
CONTINUOUS
  62
7
  10
 66.621389541262
  20
 53.288393967984
  30
0.0
  11
 67.191212408042
  21
 53.853764449418
  31
0.0
   0
MTEXT
   5
614
 100
AcDbEntity
   8
LEVEL001
 370
15
  62
8
 100
AcDbMText
  10
 44.024999999975
  20
 42.625000000004
  30
0.0
  40
 1.5000000000000
  41
0.0
  71
4
  72
1
   1
\W0.500000;\T1.000000; \W1.000000;\T1.000000;　堀込寸法：１２×７
   7
GMM002
  44
 0.79999984000003
   0
MTEXT
   5
616
 100
AcDbEntity
   8
LEVEL001
 370
15
  62
8
 100
AcDbMText
  10
 44.024999999975
  20
 71.750000000003
  30
0.0
  40
 1.5000000000000
  41
0.0
  71
4
  72
1
   1
\W0.500000;\T1.000000; \W1.000000;\T1.000000;　ＤＴＡ７
   7
GMM002
  44
 0.79999984000003
   0
MTEXT
   5
618
 100
AcDbEntity
   8
LEVEL002
 370
15
  62
8
 100
AcDbMText
  10
 167.24999999997
  20
 122.25000000000
  30
0.0
  40
 2.2500000000000
  41
0.0
  71
7
  72
1
   1
\T1.000000;　パルフラットレール
   7
GMM004
  44
 0.79999984000003
   0
MTEXT
   5
61A
 100
AcDbEntity
   8
LEVEL002
 370
15
  62
8
 100
AcDbMText
  10
 193.60754228038
  20
 24.333333333340
  30
0.0
  40
 1.5000000000000
  41
0.0
  71
5
  72
1
   1
\T1.000000;令和　４年　７月　５日
   7
GMM002
  44
 0.79999984000003
   0
MTEXT
   5
61C
 100
AcDbEntity
   8
LEVEL002
 370
15
  62
8
 100
AcDbMText
  10
 189.74999999997
  20
 10.041666666673
  30
0.0
  40
 1.2500000000000
  41
0.0
  71
5
  72
1
   1
\T1.000000;ＰＦ－１
   7
GMM002
  44
 0.79999984000003
   0
MTEXT
   5
61E
 100
AcDbEntity
   8
LEVEL001
 370
15
  62
8
 100
AcDbMText
  10
 7.8999999999750
  20
 37.625000000004
  30
0.0
  40
 1.5000000000000
  41
0.0
  71
4
  72
1
   1
\W0.500000;\T1.000000; \W1.000000;\T1.000000;　ＤＴＡＧ６
   7
GMM002
  44
 0.79999984000003
   0
MTEXT
   5
620
 100
AcDbEntity
   8
LEVEL002
 370
15
  62
8
 100
AcDbMText
  10
 177.24999999997
  20
 29.125000000005
  30
0.0
  40
 1.8750000000000
  41
0.0
  71
5
  72
1
   1
\T1.000000;断面図
   7
GMM002
  44
 0.79999984000003
   0
MTEXT
   5
622
 100
AcDbEntity
   8
LEVEL002
 370
15
  62
8
 100
AcDbMText
  10
 177.24999999997
  20
 114.70833333333
  30
0.0
  40
 2.0000000000000
  41
0.0
  71
2
  72
1
   1
{\W1.000000;\T1.000000;アルミＴ溝レール（Ｔタイプ）}\P{\W0.500000;\T1.000000;(\W1.000000;\T1.000000;Ｔ型・ＤＴ型\W0.500000;\T1.000000;)}
   7
GMM002
  44
 0.79999984000003
   0
MTEXT
   5
624
 100
AcDbEntity
   8
LEVEL002
 370
15
  62
8
 100
AcDbMText
  10
 159.74999999997
  20
 103.95833333335
  30
0.0
  40
 1.7500000000000
  41
0.0
  71
1
  72
1
   3
{\W1.000000;\T1.000000;材質：Ａ６０６３Ｓ－Ｔ５}\P\P{\W1.000000;\T1.000000;仕上：アルマイト処理}\P\P{\W1.000000;\T1.000000;　色：Ｂ２　シルバー}\P{\W1.000000;\T1.000000;　　　ＵＢ　アーバンブラウン}\P\P{\W1.000000;\T1.000000;長さ（定尺）：１８３０\W0
   3
.500000;\T1.000000;mm}\P{\W1.000000;\T1.000000;　　　　　　　２７４０\W0.500000;\T1.000000;mm}\P{\W1.000000;\T1.000000;　　　　　　　３６６０\W0.500000;\T1.000000;mm}\P{\W1.000000;\T1.000000;　　　　　　　２０１０\W0.500000;\T1.000000;mm}\P{\W1.00000
   3
0;\T1.000000;　　　　　　　３０１０\W0.500000;\T1.000000;mm}\P{\W1.000000;\T1.000000;　　　　　　　４０２０\W0.500000;\T1.000000;mm}\P\P{\W1.000000;\T1.000000;※ＤＴＡＧ６のみ}\P{\W1.000000;\T1.000000;長さ（定尺）：}\P{\W1.000000;\T1.000000;　　　　
   1
　　　２０１０\W0.500000;\T1.000000;mm}\P{\W1.000000;\T1.000000;　　　　　　　３０１０\W0.500000;\T1.000000;mm}\P{\W1.000000;\T1.000000;　　　　　　　４０２０\W0.500000;\T1.000000;mm}
   7
GMM002
  44
 0.79999984000003
   0
MTEXT
   5
626
 100
AcDbEntity
   8
LEVEL001
 370
15
  62
8
 100
AcDbMText
  10
 7.8999999999750
  20
 105.87500000000
  30
0.0
  40
 1.5000000000000
  41
0.0
  71
4
  72
1
   1
\W0.500000;\T1.000000; \W1.000000;\T1.000000;　ＴＡ６
   7
GMM002
  44
 0.79999984000003
   0
ENDSEC
  0
SECTION
  2
OBJECTS
  0
DICTIONARY
  5
C
100
AcDbDictionary
  3
ACAD_GROUP
350
D
  3
ACAD_MLINESTYLE
350
1B
  3
DWGPROPS
350
1C
  0
DICTIONARY
  5
D
102
{ACAD_REACTORS
330
C
102
}
100
AcDbDictionary
  0
DICTIONARY
  5
1B
102
{ACAD_REACTORS
330
C
102
}
100
AcDbDictionary
  3
STANDARD
350
1D
  0
MLINESTYLE
  5
1D
102
{ACAD_REACTORS
330
1B
102
}
100
AcDbMlineStyle
  2
STANDARD
 70
     0
  3

 62
   256
 51
90.0
 52
90.0
 71
     2
 49
0.5
 62
   256
  6
BYLAYER
 49
-0.5
 62
   256
  6
BYLAYER
   0
XRECORD
   5
1C
 102
{ACAD_REACTORS
 330
C
 102
}
 330
C
 100
AcDbXrecord
 280
1
   1
DWGPROPS COOKIE
   2
 
   3
 
   4
ﾊﾙﾅ
   6
 
   7
ﾊﾟﾙﾌﾗｯﾄﾚｰﾙ①(Tﾐｿﾞ)
   8
ﾊﾙﾅ
   9

 300
 = 
 301
 = 
 302
 = 
 303
 = 
 304
 = 
 305
 = 
 306
 = 
 307
 = 
 308
 = 
 309
 = 
  40
0.0
  41
 2459765.5000000
  42
 2460032.5000000
   1

  90
10
   0
ENDSEC
   0
EOF
