   0
SECTION
   2
HEADER
   9
$ACADVER
   1
AC1015
   9
$DWGCODEPAGE
   3
ANSI_932
   9
$LIMMIN
  10
0.0
  20
0.0
   9
$LIMMAX
  10
 210.00000000000
  20
 148.50000000000
   9
$EXTMIN
  10
0.0
  20
0.0
  30
0.0
   9
$EXTMAX
  10
 210.00000000000
  20
 148.50000000000
  30
0.0
   9
$LTSCALE
  40
 4.2000000000000
   9
$HANDSEED
   5
216
   0
ENDSEC
   0
SECTION
   2
TABLES
  0
TABLE
  2
VPORT
  5
8
100
AcDbSymbolTable
 70
     1
  0
VPORT
  5
215
100
AcDbSymbolTableRecord
100
AcDbViewportTableRecord
  2
*ACTIVE
 70
     0
 10
0.0
 20
0.0
 11
1.0
 21
1.0
  12
 105.00000000000
  22
 74.250000000000
 13
0.0
 23
0.0
 14
1.0
 24
1.0
 15
0.0
 25
0.0
 16
0.0
 26
0.0
 36
1.0
 17
0.0
 27
0.0
 37
0.0
  40
 210.00000000000
  41
 1.4787878787879
 42
50.0
 43
0.0
 44
0.0
 50
0.0
 51
0.0
 71
     0
 72
   100
 73
     1
 74
     1
 75
     0
 76
     0
 77
     0
 78
     0
  0
ENDTAB
  0
TABLE
  2
LTYPE
  5
5
100
AcDbSymbolTable
 70
    25
  0
LTYPE
  5
12
100
AcDbSymbolTableRecord
100
AcDbLinetypeTableRecord
  2
BYBLOCK
 70
     0
  3

 72
    65
 73
     0
 40
0.0
  0
LTYPE
  5
13
100
AcDbSymbolTableRecord
100
AcDbLinetypeTableRecord
  2
BYLAYER
 70
     0
  3

 72
    65
 73
     0
 40
0.0
  0
LTYPE
  5
14
100
AcDbSymbolTableRecord
100
AcDbLinetypeTableRecord
  2
CONTINUOUS
 70
     0
  3
Solid line
 72
    65
 73
     0
 40
0.0
  0
LTYPE
  5
20
100
AcDbSymbolTableRecord
100
AcDbLinetypeTableRecord
  2
BORDER
 70
     0
  3
__ __ . __ __ . __ __ . __ __ . __ __ . __ __ .
 72
    65
 73
     6
 40
1.75
 49
0.5
 74
     0
 49
-0.25
 74
     0
 49
0.5
 74
     0
 49
-0.25
 74
     0
 49
0.0
 74
     0
 49
-0.25
 74
     0
  0
LTYPE
  5
21
100
AcDbSymbolTableRecord
100
AcDbLinetypeTableRecord
  2
BORDER2
 70
     0
  3
__.__.__.__.__.__.__.__.__.__.__.__.__.__.__.__
 72
    65
 73
     6
 40
0.875
 49
0.25
 74
     0
 49
-0.125
 74
     0
 49
0.25
 74
     0
 49
-0.125
 74
     0
 49
0.0
 74
     0
 49
-0.125
 74
     0
  0
LTYPE
  5
22
100
AcDbSymbolTableRecord
100
AcDbLinetypeTableRecord
  2
BORDERX2
 70
     0
  3
____  ____  .  ____  ____  .  ____  ____  .  __
 72
    65
 73
     6
 40
3.5
 49
1.0
 74
     0
 49
-0.5
 74
     0
 49
1.0
 74
     0
 49
-0.5
 74
     0
 49
0.0
 74
     0
 49
-0.5
 74
     0
  0
LTYPE
  5
23
100
AcDbSymbolTableRecord
100
AcDbLinetypeTableRecord
  2
CENTER
 70
     0
  3
____ _ ____ _ ____ _ ____ _ ____ _ ____ _ ____ 
 72
    65
 73
     4
 40
2.0
 49
1.25
 74
     0
 49
-0.25
 74
     0
 49
0.25
 74
     0
 49
-0.25
 74
     0
  0
LTYPE
  5
24
100
AcDbSymbolTableRecord
100
AcDbLinetypeTableRecord
  2
CENTER2
 70
     0
  3
___ _ ___ _ ___ _ ___ _ ___ _ ___ _ ___ _ ___ _
 72
    65
 73
     4
 40
1.125
 49
0.75
 74
     0
 49
-0.125
 74
     0
 49
0.125
 74
     0
 49
-0.125
 74
     0
  0
LTYPE
  5
25
100
AcDbSymbolTableRecord
100
AcDbLinetypeTableRecord
  2
CENTERX2
 70
     0
  3
________  __  ________  __  ________  __  _____
 72
    65
 73
     4
 40
4.0
 49
2.5
 74
     0
 49
-0.5
 74
     0
 49
0.5
 74
     0
 49
-0.5
 74
     0
  0
LTYPE
  5
26
100
AcDbSymbolTableRecord
100
AcDbLinetypeTableRecord
  2
DASHDOT
 70
     0
  3
__ . __ . __ . __ . __ . __ . __ . __ . __ . __
 72
    65
 73
     4
 40
1.0
 49
0.5
 74
     0
 49
-0.25
 74
     0
 49
0.0
 74
     0
 49
-0.25
 74
     0
  0
LTYPE
  5
27
100
AcDbSymbolTableRecord
100
AcDbLinetypeTableRecord
  2
DASHDOT2
 70
     0
  3
_._._._._._._._._._._._._._._._._._._._._._._._
 72
    65
 73
     4
 40
0.5
 49
0.25
 74
     0
 49
-0.125
 74
     0
 49
0.0
 74
     0
 49
-0.125
 74
     0
  0
LTYPE
  5
28
100
AcDbSymbolTableRecord
100
AcDbLinetypeTableRecord
  2
DASHDOTX2
 70
     0
  3
____  .  ____  .  ____  .  ____  .  ____  .  __
 72
    65
 73
     4
 40
2.0
 49
1.0
 74
     0
 49
-0.5
 74
     0
 49
0.0
 74
     0
 49
-0.5
 74
     0
  0
LTYPE
  5
29
100
AcDbSymbolTableRecord
100
AcDbLinetypeTableRecord
  2
DASHED
 70
     0
  3
__ __ __ __ __ __ __ __ __ __ __ __ __ __ __ __
 72
    65
 73
     2
 40
0.75
 49
0.5
 74
     0
 49
-0.25
 74
     0
  0
LTYPE
  5
2A
100
AcDbSymbolTableRecord
100
AcDbLinetypeTableRecord
  2
DASHED2
 70
     0
  3
_ _ _ _ _ _ _ _ _ _ _ _ _ _ _ _ _ _ _ _ _ _ _ _
 72
    65
 73
     2
 40
0.375
 49
0.25
 74
     0
 49
-0.125
 74
     0
  0
LTYPE
  5
2B
100
AcDbSymbolTableRecord
100
AcDbLinetypeTableRecord
  2
DASHEDX2
 70
     0
  3
____  ____  ____  ____  ____  ____  ____  ____ 
 72
    65
 73
     2
 40
1.5
 49
1.0
 74
     0
 49
-0.5
 74
     0
  0
LTYPE
  5
2C
100
AcDbSymbolTableRecord
100
AcDbLinetypeTableRecord
  2
DIVIDE
 70
     0
  3
____ . . ____ . . ____ . . ____ . . ____ . . __
 72
    65
 73
     6
 40
1.25
 49
0.5
 74
     0
 49
-0.25
 74
     0
 49
0.0
 74
     0
 49
-0.25
 74
     0
 49
0.0
 74
     0
 49
-0.25
 74
     0
  0
LTYPE
  5
2D
100
AcDbSymbolTableRecord
100
AcDbLinetypeTableRecord
  2
DIVIDE2
 70
     0
  3
__..__..__..__..__..__..__..__..__..__..__..__.
 72
    65
 73
     6
 40
0.625
 49
0.25
 74
     0
 49
-0.125
 74
     0
 49
0.0
 74
     0
 49
-0.125
 74
     0
 49
0.0
 74
     0
 49
-0.125
 74
     0
  0
LTYPE
  5
2E
100
AcDbSymbolTableRecord
100
AcDbLinetypeTableRecord
  2
DIVIDEX2
 70
     0
  3
________  .  .  ________  .  .  ________  .  . 
 72
    65
 73
     6
 40
2.5
 49
1.0
 74
     0
 49
-0.5
 74
     0
 49
0.0
 74
     0
 49
-0.5
 74
     0
 49
0.0
 74
     0
 49
-0.5
 74
     0
  0
LTYPE
  5
2F
100
AcDbSymbolTableRecord
100
AcDbLinetypeTableRecord
  2
DOT
 70
     0
  3
. . . . . . . . . . . . . . . . . . . . . . . .
 72
    65
 73
     2
 40
0.25
 49
0.0
 74
     0
 49
-0.25
 74
     0
  0
LTYPE
  5
30
100
AcDbSymbolTableRecord
100
AcDbLinetypeTableRecord
  2
DOT2
 70
     0
  3
...............................................
 72
    65
 73
     2
 40
0.125
 49
0.0
 74
     0
 49
-0.125
 74
     0
  0
LTYPE
  5
31
100
AcDbSymbolTableRecord
100
AcDbLinetypeTableRecord
  2
DOTX2
 70
     0
  3
.  .  .  .  .  .  .  .  .  .  .  .  .  .  .  . 
 72
    65
 73
     2
 40
0.5
 49
0.0
 74
     0
 49
-0.5
 74
     0
  0
LTYPE
  5
32
100
AcDbSymbolTableRecord
100
AcDbLinetypeTableRecord
  2
HIDDEN
 70
     0
  3
__ __ __ __ __ __ __ __ __ __ __ __ __ __ __ __
 72
    65
 73
     2
 40
0.375
 49
0.25
 74
     0
 49
-0.125
 74
     0
  0
LTYPE
  5
33
100
AcDbSymbolTableRecord
100
AcDbLinetypeTableRecord
  2
HIDDEN2
 70
     0
  3
_ _ _ _ _ _ _ _ _ _ _ _ _ _ _ _ _ _ _ _ _ _ _ _
 72
    65
 73
     2
 40
0.1875
 49
0.125
 74
     0
 49
-0.0625
 74
     0
  0
LTYPE
  5
34
100
AcDbSymbolTableRecord
100
AcDbLinetypeTableRecord
  2
HIDDENX2
 70
     0
  3
____ ____ ____ ____ ____ ____ ____ ____ ____ __
 72
    65
 73
     2
 40
0.75
 49
0.5
 74
     0
 49
-0.25
 74
     0
  0
LTYPE
  5
35
100
AcDbSymbolTableRecord
100
AcDbLinetypeTableRecord
  2
PHANTOM
 70
     0
  3
______  __  __  ______  __  __  ______  __  __ 
 72
    65
 73
     6
 40
2.5
 49
1.25
 74
     0
 49
-0.25
 74
     0
 49
0.25
 74
     0
 49
-0.25
 74
     0
 49
0.25
 74
     0
 49
-0.25
 74
     0
  0
LTYPE
  5
36
100
AcDbSymbolTableRecord
100
AcDbLinetypeTableRecord
  2
PHANTOM2
 70
     0
  3
___ _ _ ___ _ _ ___ _ _ ___ _ _ ___ _ _ ___ _ _
 72
    65
 73
     6
 40
1.25
 49
0.625
 74
     0
 49
-0.125
 74
     0
 49
0.125
 74
     0
 49
-0.125
 74
     0
 49
0.125
 74
     0
 49
-0.125
 74
     0
  0
LTYPE
  5
37
100
AcDbSymbolTableRecord
100
AcDbLinetypeTableRecord
  2
PHANTOMX2
 70
     0
  3
____________    ____    ____    ____________   
 72
    65
 73
     6
 40
5.0
 49
2.5
 74
     0
 49
-0.5
 74
     0
 49
0.5
 74
     0
 49
-0.5
 74
     0
 49
0.5
 74
     0
 49
-0.5
 74
     0
  0
ENDTAB
   0
TABLE
   2
LAYER
   5
2
 100
AcDbSymbolTable
  70
3
   0
LAYER
   5
E
 100
AcDbSymbolTableRecord
 100
AcDbLayerTableRecord
   2
0
  70
0
  62
7
   6
CONTINUOUS
 390
30
   0
LAYER
   5
39
 100
AcDbSymbolTableRecord
 100
AcDbLayerTableRecord
   2
LEVEL001
  70
0
  62
7
   6
CONTINUOUS
 390
30
   0
LAYER
   5
3A
 100
AcDbSymbolTableRecord
 100
AcDbLayerTableRecord
   2
LEVEL002
  70
0
  62
7
   6
CONTINUOUS
 390
30
   0
ENDTAB
  0
TABLE
  2
STYLE
  5
3
100
AcDbSymbolTable
  70
6
  0
STYLE
  5
F
100
AcDbSymbolTableRecord
100
AcDbTextStyleTableRecord
  2
STANDARD
 70
     0
 40
0.0
 41
1.0
 50
0.0
 71
     0
 42
0.2
  3
TXT
  4
BIGFONT
  0
STYLE
  5
38
100
AcDbSymbolTableRecord
100
AcDbTextStyleTableRecord
  2
STANDARD1
 70
     4
 40
0.0
 41
1.0
 50
0.0
 71
     0
 42
0.2
  3
TXT
  4
BIGFONT
   0
STYLE
   5
3B
 100
AcDbSymbolTableRecord
 100
AcDbTextStyleTableRecord
   2
GMM001
  70
0
  40
0.0
  41
 0.80000000000000
  50
0.0
  71
     0
  42
1.0
   3
txt.shx
   4
bigfont.shx
   0
STYLE
   5
3C
 100
AcDbSymbolTableRecord
 100
AcDbTextStyleTableRecord
   2
GMM002
  70
0
  40
0.0
  41
 1.0000000000000
  50
0.0
  71
     0
  42
1.0
   3
txt.shx
   4
bigfont.shx
   0
STYLE
   5
3D
 100
AcDbSymbolTableRecord
 100
AcDbTextStyleTableRecord
   2
GMM003
  70
0
  40
0.0
  41
 1.0714285714286
  50
0.0
  71
     0
  42
1.0
   3
txt.shx
   4
bigfont.shx
   0
STYLE
   5
3E
 100
AcDbSymbolTableRecord
 100
AcDbTextStyleTableRecord
   2
GMM004
  70
0
  40
0.0
  41
 0.88888888888889
  50
0.0
  71
     0
  42
1.0
   3
txt.shx
   4
bigfont.shx
   0
ENDTAB
  0
TABLE
  2
VIEW
  5
6
100
AcDbSymbolTable
 70
     0
  0
ENDTAB
  0
TABLE
  2
UCS
  5
7
100
AcDbSymbolTable
 70
     0
  0
ENDTAB
  0
TABLE
  2
APPID
  5
9
100
AcDbSymbolTable
 70
     1
  0
APPID
  5
10
100
AcDbSymbolTableRecord
100
AcDbRegAppTableRecord
  2
ACAD
 70
     0
  0
ENDTAB
   0
TABLE
   2
DIMSTYLE
   5
A
 100
AcDbSymbolTable
  70
3
 100
AcDbDimStyleTable
  0
DIMSTYLE
105
1D
100
AcDbSymbolTableRecord
100
AcDbDimStyleTableRecord
  2
STANDARD
 70
     0
  3

  4

  5

  6

  7

 40
1.0
 41
0.18
 42
0.0625
 43
0.38
 44
0.18
 45
0.0
 46
0.0
 47
0.0
 48
0.0
140
0.18
141
0.09
142
0.0
143
25.4
144
1.0
145
0.0
146
1.0
147
0.09
 71
     0
 72
     0
 73
     1
 74
     1
 75
     0
 76
     0
 77
     0
 78
     0
170
     0
171
     2
172
     0
173
     0
174
     0
175
     0
176
     0
177
     0
178
     0
270
     2
271
     4
272
     4
273
     2
274
     2
340
F
275
     0
280
     0
281
     0
282
     0
283
     1
284
     0
285
     0
286
     0
287
     3
288
     0
   0
DIMSTYLE
 105
3F
 100
AcDbSymbolTableRecord
 100
AcDbDimStyleTableRecord
   2
GMM001
  70
0
   3

   4

   5

   6

   7

  40
 1.0000000000000
  41
 1.0000000000000
  42
 0.50000000000000
  43
 4.0000000000000
  44
 0.50000000000000
  45
0.0
  46
0.0
  47
0.0
  48
0.0
 140
 1.2500000000000
 141
 0.50000000000000
 142
0.0
 143
 0.39400000000000E-1
 144
 1.0000000000000
 145
0.0
 146
 1.0000000000000
 147
 0.50000000000000
  71
0
  72
0
  73
0
  74
0
  75
0
  76
0
  77
3
  78
8
 170
0
 171
2
 172
1
 173
1
 174
0
 175
0
 176
8
 177
8
 178
8
 270
2
 271
6
 272
0
 273
2
 274
2
 340
3C
 275
0
 280
0
 281
0
 282
0
 283
1
 284
0
 285
0
 286
0
 287
3
 288
0
   0
ENDTAB
  0
TABLE
  2
BLOCK_RECORD
  5
1
100
AcDbSymbolTable
 70
     0
  0
BLOCK_RECORD
  5
18
100
AcDbSymbolTableRecord
100
AcDbBlockTableRecord
  2
*MODEL_SPACE
  0
BLOCK_RECORD
  5
15
100
AcDbSymbolTableRecord
100
AcDbBlockTableRecord
  2
*PAPER_SPACE
   0
BLOCK_RECORD
   5
40
 100
AcDbSymbolTableRecord
 100
AcDbBlockTableRecord
   2
*D1
   0
BLOCK_RECORD
   5
41
 100
AcDbSymbolTableRecord
 100
AcDbBlockTableRecord
   2
*D2
   0
BLOCK_RECORD
   5
42
 100
AcDbSymbolTableRecord
 100
AcDbBlockTableRecord
   2
*D3
   0
BLOCK_RECORD
   5
43
 100
AcDbSymbolTableRecord
 100
AcDbBlockTableRecord
   2
*D4
   0
BLOCK_RECORD
   5
44
 100
AcDbSymbolTableRecord
 100
AcDbBlockTableRecord
   2
*D5
   0
BLOCK_RECORD
   5
45
 100
AcDbSymbolTableRecord
 100
AcDbBlockTableRecord
   2
*D6
   0
BLOCK_RECORD
   5
46
 100
AcDbSymbolTableRecord
 100
AcDbBlockTableRecord
   2
*D7
   0
BLOCK_RECORD
   5
47
 100
AcDbSymbolTableRecord
 100
AcDbBlockTableRecord
   2
*D8
   0
BLOCK_RECORD
   5
48
 100
AcDbSymbolTableRecord
 100
AcDbBlockTableRecord
   2
_ARCHTICK
   0
BLOCK_RECORD
   5
49
 100
AcDbSymbolTableRecord
 100
AcDbBlockTableRecord
   2
_BOXBLANK
   0
BLOCK_RECORD
   5
4A
 100
AcDbSymbolTableRecord
 100
AcDbBlockTableRecord
   2
_BOXFILLED
   0
BLOCK_RECORD
   5
4B
 100
AcDbSymbolTableRecord
 100
AcDbBlockTableRecord
   2
_CLOSED
   0
BLOCK_RECORD
   5
4C
 100
AcDbSymbolTableRecord
 100
AcDbBlockTableRecord
   2
_CLOSEDBLANK
   0
BLOCK_RECORD
   5
4D
 100
AcDbSymbolTableRecord
 100
AcDbBlockTableRecord
   2
_DATUMBLANK
   0
BLOCK_RECORD
   5
4E
 100
AcDbSymbolTableRecord
 100
AcDbBlockTableRecord
   2
_DATUMFILLED
   0
BLOCK_RECORD
   5
4F
 100
AcDbSymbolTableRecord
 100
AcDbBlockTableRecord
   2
_DOT
   0
BLOCK_RECORD
   5
50
 100
AcDbSymbolTableRecord
 100
AcDbBlockTableRecord
   2
_DOTBLANK
   0
BLOCK_RECORD
   5
51
 100
AcDbSymbolTableRecord
 100
AcDbBlockTableRecord
   2
_DOTSMALL
   0
BLOCK_RECORD
   5
52
 100
AcDbSymbolTableRecord
 100
AcDbBlockTableRecord
   2
_INTEGRAL
   0
BLOCK_RECORD
   5
53
 100
AcDbSymbolTableRecord
 100
AcDbBlockTableRecord
   2
_NONE
   0
BLOCK_RECORD
   5
54
 100
AcDbSymbolTableRecord
 100
AcDbBlockTableRecord
   2
_OBLIQUE
   0
BLOCK_RECORD
   5
55
 100
AcDbSymbolTableRecord
 100
AcDbBlockTableRecord
   2
_OPEN
   0
BLOCK_RECORD
   5
56
 100
AcDbSymbolTableRecord
 100
AcDbBlockTableRecord
   2
_OPEN30
   0
BLOCK_RECORD
   5
57
 100
AcDbSymbolTableRecord
 100
AcDbBlockTableRecord
   2
_OPEN90
   0
BLOCK_RECORD
   5
58
 100
AcDbSymbolTableRecord
 100
AcDbBlockTableRecord
   2
_ORIGIN
   0
ENDTAB
   0
ENDSEC
  0
SECTION
  2
BLOCKS
  0
BLOCK
  5
19
100
AcDbEntity
  8
0
100
AcDbBlockBegin
  2
*MODEL_SPACE
 70
     0
 10
0.0
 20
0.0
 30
0.0
  3
*MODEL_SPACE
  1

  0
ENDBLK
  5
1A
100
AcDbEntity
  8
0
100
AcDbBlockEnd
  0
BLOCK
  5
16
100
AcDbEntity
 67
     1
  8
0
100
AcDbBlockBegin
  2
*PAPER_SPACE
 70
     0
 10
0.0
 20
0.0
 30
0.0
  3
*PAPER_SPACE
  1

  0
ENDBLK
  5
17
100
AcDbEntity
 67
     1
  8
0
100
AcDbBlockEnd
   0
BLOCK
   5
59
 100
AcDbEntity
   8
0
 100
AcDbBlockBegin
   2
_ARCHTICK
  70
0
  10
0.0
  20
0.0
  30
0.0
   3
_ARCHTICK
   0
POLYLINE
   5
5A
 100
AcDbEntity
   8
0
 370
-2
   6
BYBLOCK
  62
0
 100
AcDb2dPolyline
  66
1
  10
0.0
  20
0.0
  30
0.0
  70
1
  40
 0.15000000000000
  41
 0.15000000000000
   0
VERTEX
   5
5B
 100
AcDbEntity
   8
0
   6
BYBLOCK
  62
0
 100
AcDbVertex
 100
AcDb2dVertex
  10
-0.50000000000000
  20
-0.50000000000000
  30
0.0
  40
 0.15000000000000
  41
 0.15000000000000
   0
VERTEX
   5
5C
 100
AcDbEntity
   8
0
   6
BYBLOCK
  62
0
 100
AcDbVertex
 100
AcDb2dVertex
  10
 0.50000000000000
  20
 0.50000000000000
  30
0.0
  40
 0.15000000000000
  41
 0.15000000000000
   0
SEQEND
   5
5D
 100
AcDbEntity
   8
0
   6
BYBLOCK
  62
0
   0
ENDBLK
   5
5E
 100
AcDbEntity
   8
0
 100
AcDbBlockEnd
   0
BLOCK
   5
5F
 100
AcDbEntity
   8
0
 100
AcDbBlockBegin
   2
_OBLIQUE
  70
0
  10
0.0
  20
0.0
  30
0.0
   3
_OBLIQUE
   0
LINE
   5
60
 100
AcDbEntity
   8
0
 370
-2
 100
AcDbLine
   6
BYBLOCK
  62
0
  10
-0.50000000000000
  20
-0.50000000000000
  30
0.0
  11
 0.50000000000000
  21
 0.50000000000000
  31
0.0
   0
ENDBLK
   5
61
 100
AcDbEntity
   8
0
 100
AcDbBlockEnd
   0
BLOCK
   5
62
 100
AcDbEntity
   8
0
 100
AcDbBlockBegin
   2
_BOXBLANK
  70
0
  10
0.0
  20
0.0
  30
0.0
   3
_BOXBLANK
   0
LINE
   5
63
 100
AcDbEntity
   8
0
 370
-2
 100
AcDbLine
   6
BYBLOCK
  62
0
  10
-0.50000000000000
  20
-0.50000000000000
  30
0.0
  11
 0.50000000000000
  21
-0.50000000000000
  31
0.0
   0
LINE
   5
64
 100
AcDbEntity
   8
0
 370
-2
 100
AcDbLine
   6
BYBLOCK
  62
0
  10
 0.50000000000000
  20
-0.50000000000000
  30
0.0
  11
 0.50000000000000
  21
 0.50000000000000
  31
0.0
   0
LINE
   5
65
 100
AcDbEntity
   8
0
 370
-2
 100
AcDbLine
   6
BYBLOCK
  62
0
  10
 0.50000000000000
  20
 0.50000000000000
  30
0.0
  11
-0.50000000000000
  21
 0.50000000000000
  31
0.0
   0
LINE
   5
66
 100
AcDbEntity
   8
0
 370
-2
 100
AcDbLine
   6
BYBLOCK
  62
0
  10
-0.50000000000000
  20
 0.50000000000000
  30
0.0
  11
-0.50000000000000
  21
-0.50000000000000
  31
0.0
   0
LINE
   5
67
 100
AcDbEntity
   8
0
 370
-2
 100
AcDbLine
   6
BYBLOCK
  62
0
  10
-0.50000000000000
  20
0.0
  30
0.0
  11
-1.0000000000000
  21
0.0
  31
0.0
   0
ENDBLK
   5
68
 100
AcDbEntity
   8
0
 100
AcDbBlockEnd
   0
BLOCK
   5
69
 100
AcDbEntity
   8
0
 100
AcDbBlockBegin
   2
_BOXFILLED
  70
0
  10
0.0
  20
0.0
  30
0.0
   3
_BOXFILLED
   0
SOLID
   5
6A
 100
AcDbEntity
   8
0
 100
AcDbTrace
   6
BYBLOCK
  62
0
  10
-0.50000000000000
  20
 0.50000000000000
  30
0.0
  11
 0.50000000000000
  21
 0.50000000000000
  31
0.0
  12
-0.50000000000000
  22
-0.50000000000000
  32
0.0
  13
 0.50000000000000
  23
-0.50000000000000
  33
0.0
   0
LINE
   5
6B
 100
AcDbEntity
   8
0
 370
-2
 100
AcDbLine
   6
BYBLOCK
  62
0
  10
-0.50000000000000
  20
0.0
  30
0.0
  11
-1.0000000000000
  21
0.0
  31
0.0
   0
ENDBLK
   5
6C
 100
AcDbEntity
   8
0
 100
AcDbBlockEnd
   0
BLOCK
   5
6D
 100
AcDbEntity
   8
0
 100
AcDbBlockBegin
   2
_CLOSED
  70
0
  10
0.0
  20
0.0
  30
0.0
   3
_CLOSED
   0
LINE
   5
6E
 100
AcDbEntity
   8
0
 370
-2
 100
AcDbLine
   6
BYBLOCK
  62
0
  10
-1.0000000000000
  20
 0.16666666666667
  30
0.0
  11
0.0
  21
0.0
  31
0.0
   0
LINE
   5
6F
 100
AcDbEntity
   8
0
 370
-2
 100
AcDbLine
   6
BYBLOCK
  62
0
  10
0.0
  20
0.0
  30
0.0
  11
-1.0000000000000
  21
-0.16666666666667
  31
0.0
   0
LINE
   5
70
 100
AcDbEntity
   8
0
 370
-2
 100
AcDbLine
   6
BYBLOCK
  62
0
  10
-1.0000000000000
  20
 0.16666666666667
  30
0.0
  11
-1.0000000000000
  21
-0.16666666666667
  31
0.0
   0
LINE
   5
71
 100
AcDbEntity
   8
0
 370
-2
 100
AcDbLine
   6
BYBLOCK
  62
0
  10
0.0
  20
0.0
  30
0.0
  11
-1.0000000000000
  21
0.0
  31
0.0
   0
ENDBLK
   5
72
 100
AcDbEntity
   8
0
 100
AcDbBlockEnd
   0
BLOCK
   5
73
 100
AcDbEntity
   8
0
 100
AcDbBlockBegin
   2
_OPEN
  70
0
  10
0.0
  20
0.0
  30
0.0
   3
_OPEN
   0
LINE
   5
74
 100
AcDbEntity
   8
0
 370
-2
 100
AcDbLine
   6
BYBLOCK
  62
0
  10
-1.0000000000000
  20
 0.16666666666667
  30
0.0
  11
0.0
  21
0.0
  31
0.0
   0
LINE
   5
75
 100
AcDbEntity
   8
0
 370
-2
 100
AcDbLine
   6
BYBLOCK
  62
0
  10
0.0
  20
0.0
  30
0.0
  11
-1.0000000000000
  21
-0.16666666666667
  31
0.0
   0
LINE
   5
76
 100
AcDbEntity
   8
0
 370
-2
 100
AcDbLine
   6
BYBLOCK
  62
0
  10
0.0
  20
0.0
  30
0.0
  11
-1.0000000000000
  21
0.0
  31
0.0
   0
ENDBLK
   5
77
 100
AcDbEntity
   8
0
 100
AcDbBlockEnd
   0
BLOCK
   5
78
 100
AcDbEntity
   8
0
 100
AcDbBlockBegin
   2
_OPEN30
  70
0
  10
0.0
  20
0.0
  30
0.0
   3
_OPEN30
   0
LINE
   5
79
 100
AcDbEntity
   8
0
 370
-2
 100
AcDbLine
   6
BYBLOCK
  62
0
  10
-1.0000000000000
  20
 0.26794919243110
  30
0.0
  11
0.0
  21
0.0
  31
0.0
   0
LINE
   5
7A
 100
AcDbEntity
   8
0
 370
-2
 100
AcDbLine
   6
BYBLOCK
  62
0
  10
0.0
  20
0.0
  30
0.0
  11
-1.0000000000000
  21
-0.26794919243110
  31
0.0
   0
LINE
   5
7B
 100
AcDbEntity
   8
0
 370
-2
 100
AcDbLine
   6
BYBLOCK
  62
0
  10
0.0
  20
0.0
  30
0.0
  11
-1.0000000000000
  21
0.0
  31
0.0
   0
ENDBLK
   5
7C
 100
AcDbEntity
   8
0
 100
AcDbBlockEnd
   0
BLOCK
   5
7D
 100
AcDbEntity
   8
0
 100
AcDbBlockBegin
   2
_OPEN90
  70
0
  10
0.0
  20
0.0
  30
0.0
   3
_OPEN90
   0
LINE
   5
7E
 100
AcDbEntity
   8
0
 370
-2
 100
AcDbLine
   6
BYBLOCK
  62
0
  10
-0.50000000000000
  20
 0.50000000000000
  30
0.0
  11
0.0
  21
0.0
  31
0.0
   0
LINE
   5
7F
 100
AcDbEntity
   8
0
 370
-2
 100
AcDbLine
   6
BYBLOCK
  62
0
  10
0.0
  20
0.0
  30
0.0
  11
-0.50000000000000
  21
-0.50000000000000
  31
0.0
   0
LINE
   5
80
 100
AcDbEntity
   8
0
 370
-2
 100
AcDbLine
   6
BYBLOCK
  62
0
  10
0.0
  20
0.0
  30
0.0
  11
-1.0000000000000
  21
0.0
  31
0.0
   0
ENDBLK
   5
81
 100
AcDbEntity
   8
0
 100
AcDbBlockEnd
   0
BLOCK
   5
82
 100
AcDbEntity
   8
0
 100
AcDbBlockBegin
   2
_CLOSEDBLANK
  70
0
  10
0.0
  20
0.0
  30
0.0
   3
_CLOSEDBLANK
   0
LINE
   5
83
 100
AcDbEntity
   8
0
 370
-2
 100
AcDbLine
   6
BYBLOCK
  62
0
  10
-1.0000000000000
  20
 0.16666666666667
  30
0.0
  11
0.0
  21
0.0
  31
0.0
   0
LINE
   5
84
 100
AcDbEntity
   8
0
 370
-2
 100
AcDbLine
   6
BYBLOCK
  62
0
  10
0.0
  20
0.0
  30
0.0
  11
-1.0000000000000
  21
-0.16666666666667
  31
0.0
   0
LINE
   5
85
 100
AcDbEntity
   8
0
 370
-2
 100
AcDbLine
   6
BYBLOCK
  62
0
  10
-1.0000000000000
  20
 0.16666666666667
  30
0.0
  11
-1.0000000000000
  21
-0.16666666666667
  31
0.0
   0
ENDBLK
   5
86
 100
AcDbEntity
   8
0
 100
AcDbBlockEnd
   0
BLOCK
   5
87
 100
AcDbEntity
   8
0
 100
AcDbBlockBegin
   2
_DOT
  70
0
  10
0.0
  20
0.0
  30
0.0
   3
_DOT
   0
POLYLINE
   5
88
 100
AcDbEntity
   8
0
 370
-2
   6
BYBLOCK
  62
0
 100
AcDb2dPolyline
  66
1
  10
0.0
  20
0.0
  30
0.0
  70
1
  40
 0.50000000000000
  41
 0.50000000000000
   0
VERTEX
   5
89
 100
AcDbEntity
   8
0
   6
BYBLOCK
  62
0
 100
AcDbVertex
 100
AcDb2dVertex
  10
-0.25000000000000
  20
0.0
  30
0.0
  42
 1.0000000000000
  40
 0.50000000000000
  41
 0.50000000000000
   0
VERTEX
   5
8A
 100
AcDbEntity
   8
0
   6
BYBLOCK
  62
0
 100
AcDbVertex
 100
AcDb2dVertex
  10
 0.25000000000000
  20
0.0
  30
0.0
  42
 1.0000000000000
  40
 0.50000000000000
  41
 0.50000000000000
   0
SEQEND
   5
8B
 100
AcDbEntity
   8
0
   6
BYBLOCK
  62
0
   0
LINE
   5
8C
 100
AcDbEntity
   8
0
 370
-2
 100
AcDbLine
   6
BYBLOCK
  62
0
  10
-0.50000000000000
  20
0.0
  30
0.0
  11
-1.0000000000000
  21
0.0
  31
0.0
   0
ENDBLK
   5
8D
 100
AcDbEntity
   8
0
 100
AcDbBlockEnd
   0
BLOCK
   5
8E
 100
AcDbEntity
   8
0
 100
AcDbBlockBegin
   2
_DOTSMALL
  70
0
  10
0.0
  20
0.0
  30
0.0
   3
_DOTSMALL
   0
POLYLINE
   5
8F
 100
AcDbEntity
   8
0
 370
-2
   6
BYBLOCK
  62
0
 100
AcDb2dPolyline
  66
1
  10
0.0
  20
0.0
  30
0.0
  70
1
  40
 0.50000000000000
  41
 0.50000000000000
   0
VERTEX
   5
90
 100
AcDbEntity
   8
0
   6
BYBLOCK
  62
0
 100
AcDbVertex
 100
AcDb2dVertex
  10
-0.62500000000000E-1
  20
0.0
  30
0.0
  42
 1.0000000000000
  40
 0.50000000000000
  41
 0.50000000000000
   0
VERTEX
   5
91
 100
AcDbEntity
   8
0
   6
BYBLOCK
  62
0
 100
AcDbVertex
 100
AcDb2dVertex
  10
 0.62500000000000E-1
  20
0.0
  30
0.0
  42
 1.0000000000000
  40
 0.50000000000000
  41
 0.50000000000000
   0
SEQEND
   5
92
 100
AcDbEntity
   8
0
   6
BYBLOCK
  62
0
   0
ENDBLK
   5
93
 100
AcDbEntity
   8
0
 100
AcDbBlockEnd
   0
BLOCK
   5
94
 100
AcDbEntity
   8
0
 100
AcDbBlockBegin
   2
_DATUMBLANK
  70
0
  10
0.0
  20
0.0
  30
0.0
   3
_DATUMBLANK
   0
LINE
   5
95
 100
AcDbEntity
   8
0
 370
-2
 100
AcDbLine
   6
BYBLOCK
  62
0
  10
0.0
  20
 0.57735027000000
  30
0.0
  11
-1.0000000000000
  21
0.0
  31
0.0
   0
LINE
   5
96
 100
AcDbEntity
   8
0
 370
-2
 100
AcDbLine
   6
BYBLOCK
  62
0
  10
-1.0000000000000
  20
0.0
  30
0.0
  11
0.0
  21
-0.57735027000000
  31
0.0
   0
LINE
   5
97
 100
AcDbEntity
   8
0
 370
-2
 100
AcDbLine
   6
BYBLOCK
  62
0
  10
0.0
  20
-0.57735027000000
  30
0.0
  11
0.0
  21
 0.57735027000000
  31
0.0
   0
ENDBLK
   5
98
 100
AcDbEntity
   8
0
 100
AcDbBlockEnd
   0
BLOCK
   5
99
 100
AcDbEntity
   8
0
 100
AcDbBlockBegin
   2
_DATUMFILLED
  70
0
  10
0.0
  20
0.0
  30
0.0
   3
_DATUMFILLED
   0
SOLID
   5
9A
 100
AcDbEntity
   8
0
 100
AcDbTrace
   6
BYBLOCK
  62
0
  10
0.0
  20
 0.57735027000000
  30
0.0
  11
-1.0000000000000
  21
0.0
  31
0.0
  12
0.0
  22
-0.57735027000000
  32
0.0
  13
0.0
  23
-0.57735027000000
  33
0.0
   0
ENDBLK
   5
9B
 100
AcDbEntity
   8
0
 100
AcDbBlockEnd
   0
BLOCK
   5
9C
 100
AcDbEntity
   8
0
 100
AcDbBlockBegin
   2
_ORIGIN
  70
0
  10
0.0
  20
0.0
  30
0.0
   3
_ORIGIN
   0
CIRCLE
   5
9D
 100
AcDbEntity
   8
0
 370
-2
 100
AcDbCircle
   6
BYBLOCK
  62
0
  10
0.0
  20
0.0
  30
0.0
  40
 0.50000000000000
   0
LINE
   5
9E
 100
AcDbEntity
   8
0
 370
-2
 100
AcDbLine
   6
BYBLOCK
  62
0
  10
0.0
  20
0.0
  30
0.0
  11
-1.0000000000000
  21
0.0
  31
0.0
   0
ENDBLK
   5
9F
 100
AcDbEntity
   8
0
 100
AcDbBlockEnd
   0
BLOCK
   5
A0
 100
AcDbEntity
   8
0
 100
AcDbBlockBegin
   2
_NONE
  70
0
  10
0.0
  20
0.0
  30
0.0
   3
_NONE
   0
CIRCLE
   5
A1
 100
AcDbEntity
   8
0
 370
-2
 100
AcDbCircle
   6
BYBLOCK
  62
0
  10
0.0
  20
0.0
  30
0.0
  40
 0.25000000000000
   0
ENDBLK
   5
A2
 100
AcDbEntity
   8
0
 100
AcDbBlockEnd
   0
BLOCK
   5
A3
 100
AcDbEntity
   8
0
 100
AcDbBlockBegin
   2
_DOTBLANK
  70
0
  10
0.0
  20
0.0
  30
0.0
   3
_DOTBLANK
   0
CIRCLE
   5
A4
 100
AcDbEntity
   8
0
 370
-2
 100
AcDbCircle
   6
BYBLOCK
  62
0
  10
0.0
  20
0.0
  30
0.0
  40
 0.50000000000000
   0
LINE
   5
A5
 100
AcDbEntity
   8
0
 370
-2
 100
AcDbLine
   6
BYBLOCK
  62
0
  10
-0.50000000000000
  20
0.0
  30
0.0
  11
-1.0000000000000
  21
0.0
  31
0.0
   0
ENDBLK
   5
A6
 100
AcDbEntity
   8
0
 100
AcDbBlockEnd
   0
BLOCK
   5
A7
 100
AcDbEntity
   8
0
 100
AcDbBlockBegin
   2
_INTEGRAL
  70
0
  10
0.0
  20
0.0
  30
0.0
   3
_INTEGRAL
   0
ARC
   5
A8
 100
AcDbEntity
   8
0
 370
-2
   6
BYBLOCK
  62
0
 100
AcDbCircle
  10
 0.44488800000000
  20
-0.91335000000000E-1
  30
0.0
  40
 0.45416700000000
 100
AcDbArc
  50
 102.00000000000
  51
 168.00000000000
   0
ARC
   5
A9
 100
AcDbEntity
   8
0
 370
-2
   6
BYBLOCK
  62
0
 100
AcDbCircle
  10
-0.44488800000000
  20
 0.91335000000000E-1
  30
0.0
  40
 0.45416700000000
 100
AcDbArc
  50
 282.00000000000
  51
 348.00000000000
   0
ENDBLK
   5
AA
 100
AcDbEntity
   8
0
 100
AcDbBlockEnd
   0
BLOCK
   5
AB
 100
AcDbEntity
   8
0
 100
AcDbBlockBegin
   2
*D1
  70
65
  10
0.0
  20
0.0
  30
0.0
   3
*D1
   0
LINE
   5
AC
 100
AcDbEntity
   8
LEVEL001
 370
15
 100
AcDbLine
   6
CONTINUOUS
  62
8
  10
 23.140287312515
  20
 123.52449682869
  30
0.0
  11
 23.140287312515
  21
 127.82449682853
  31
0.0
   0
LINE
   5
AD
 100
AcDbEntity
   8
LEVEL001
 370
15
 100
AcDbLine
   6
CONTINUOUS
  62
8
  10
 27.640287312515
  20
 123.52449682869
  30
0.0
  11
 27.640287312515
  21
 127.82449682853
  31
0.0
   0
LINE
   5
AE
 100
AcDbEntity
   8
LEVEL001
 370
15
 100
AcDbLine
   6
CONTINUOUS
  62
8
  10
 23.140287312515
  20
 127.32449682853
  30
0.0
  11
 25.390287312515
  21
 127.32449682853
  31
0.0
   0
LINE
   5
AF
 100
AcDbEntity
   8
LEVEL001
 370
15
 100
AcDbLine
   6
CONTINUOUS
  62
8
  10
 27.640287312515
  20
 127.32449682853
  30
0.0
  11
 25.390287312515
  21
 127.32449682853
  31
0.0
   0
SOLID
   5
B0
 100
AcDbEntity
   8
LEVEL001
 100
AcDbTrace
   6
CONTINUOUS
  62
8
  10
 23.140287312515
  20
 127.32449682853
  30
0.0
  11
 24.140287312515
  21
 127.14816984782
  31
0.0
  12
 24.140287312515
  22
 127.50082380924
  32
0.0
  13
 24.140287312515
  23
 127.50082380924
  33
0.0
   0
SOLID
   5
B1
 100
AcDbEntity
   8
LEVEL001
 100
AcDbTrace
   6
CONTINUOUS
  62
8
  10
 27.640287312515
  20
 127.32449682853
  30
0.0
  11
 26.640287312515
  21
 127.50082380924
  31
0.0
  12
 26.640287312515
  22
 127.14816984782
  32
0.0
  13
 26.640287312515
  23
 127.14816984782
  33
0.0
   0
MTEXT
   5
B2
 100
AcDbEntity
   8
LEVEL001
 370
15
  62
8
 100
AcDbMText
  10
 25.390287312515
  20
 127.82449682853
  30
0.0
  40
 1.2500000000000
  41
0.0
  71
8
  72
1
   1
\A1;4.5
   7
GMM002
   0
ENDBLK
   5
B3
 100
AcDbEntity
   8
0
 100
AcDbBlockEnd
   0
BLOCK
   5
B4
 100
AcDbEntity
   8
0
 100
AcDbBlockBegin
   2
*D2
  70
65
  10
0.0
  20
0.0
  30
0.0
   3
*D2
   0
LINE
   5
B5
 100
AcDbEntity
   8
LEVEL001
 370
15
 100
AcDbLine
   6
CONTINUOUS
  62
8
  10
 20.890287312445
  20
 125.32449682853
  30
0.0
  11
 20.890287312445
  21
 130.32449682853
  31
0.0
   0
LINE
   5
B6
 100
AcDbEntity
   8
LEVEL001
 370
15
 100
AcDbLine
   6
CONTINUOUS
  62
8
  10
 29.890287312624
  20
 125.32449682853
  30
0.0
  11
 29.890287312624
  21
 130.32449682853
  31
0.0
   0
LINE
   5
B7
 100
AcDbEntity
   8
LEVEL001
 370
15
 100
AcDbLine
   6
CONTINUOUS
  62
8
  10
 20.890287312445
  20
 129.82449682853
  30
0.0
  11
 25.390287312535
  21
 129.82449682853
  31
0.0
   0
LINE
   5
B8
 100
AcDbEntity
   8
LEVEL001
 370
15
 100
AcDbLine
   6
CONTINUOUS
  62
8
  10
 29.890287312624
  20
 129.82449682853
  30
0.0
  11
 25.390287312535
  21
 129.82449682853
  31
0.0
   0
SOLID
   5
B9
 100
AcDbEntity
   8
LEVEL001
 100
AcDbTrace
   6
CONTINUOUS
  62
8
  10
 20.890287312445
  20
 129.82449682853
  30
0.0
  11
 21.890287312445
  21
 129.64816984782
  31
0.0
  12
 21.890287312445
  22
 130.00082380924
  32
0.0
  13
 21.890287312445
  23
 130.00082380924
  33
0.0
   0
SOLID
   5
BA
 100
AcDbEntity
   8
LEVEL001
 100
AcDbTrace
   6
CONTINUOUS
  62
8
  10
 29.890287312624
  20
 129.82449682853
  30
0.0
  11
 28.890287312624
  21
 130.00082380924
  31
0.0
  12
 28.890287312624
  22
 129.64816984782
  32
0.0
  13
 28.890287312624
  23
 129.64816984782
  33
0.0
   0
MTEXT
   5
BB
 100
AcDbEntity
   8
LEVEL001
 370
15
  62
8
 100
AcDbMText
  10
 25.390287312535
  20
 130.32449682853
  30
0.0
  40
 1.2500000000000
  41
0.0
  71
8
  72
1
   1
\A1;9
   7
GMM002
   0
ENDBLK
   5
BC
 100
AcDbEntity
   8
0
 100
AcDbBlockEnd
   0
BLOCK
   5
BD
 100
AcDbEntity
   8
0
 100
AcDbBlockBegin
   2
*D3
  70
65
  10
0.0
  20
0.0
  30
0.0
   3
*D3
   0
LINE
   5
BE
 100
AcDbEntity
   8
LEVEL001
 370
15
 100
AcDbLine
   6
CONTINUOUS
  62
8
  10
 29.090287312534
  20
 116.82449682853
  30
0.0
  11
 33.390287312624
  21
 116.82449682853
  31
0.0
   0
LINE
   5
BF
 100
AcDbEntity
   8
LEVEL001
 370
15
 100
AcDbLine
   6
CONTINUOUS
  62
8
  10
 30.390287312624
  20
 124.82449682853
  30
0.0
  11
 33.390287312624
  21
 124.82449682853
  31
0.0
   0
LINE
   5
C0
 100
AcDbEntity
   8
LEVEL001
 370
15
 100
AcDbLine
   6
CONTINUOUS
  62
8
  10
 32.890287312624
  20
 116.82449682853
  30
0.0
  11
 32.890287312624
  21
 120.82449682853
  31
0.0
   0
LINE
   5
C1
 100
AcDbEntity
   8
LEVEL001
 370
15
 100
AcDbLine
   6
CONTINUOUS
  62
8
  10
 32.890287312624
  20
 124.82449682853
  30
0.0
  11
 32.890287312624
  21
 120.82449682853
  31
0.0
   0
SOLID
   5
C2
 100
AcDbEntity
   8
LEVEL001
 100
AcDbTrace
   6
CONTINUOUS
  62
8
  10
 32.890287312624
  20
 116.82449682853
  30
0.0
  11
 33.066614293333
  21
 117.82449682853
  31
0.0
  12
 32.713960331916
  22
 117.82449682853
  32
0.0
  13
 32.713960331916
  23
 117.82449682853
  33
0.0
   0
SOLID
   5
C3
 100
AcDbEntity
   8
LEVEL001
 100
AcDbTrace
   6
CONTINUOUS
  62
8
  10
 32.890287312624
  20
 124.82449682853
  30
0.0
  11
 32.713960331916
  21
 123.82449682853
  31
0.0
  12
 33.066614293333
  22
 123.82449682853
  32
0.0
  13
 33.066614293333
  23
 123.82449682853
  33
0.0
   0
MTEXT
   5
C4
 100
AcDbEntity
   8
LEVEL001
 370
15
  62
8
 100
AcDbMText
  10
 32.390287312624
  20
 120.82449682853
  30
0.0
  40
 1.2500000000000
  41
0.0
  71
8
  72
1
   1
\A1;8
   7
GMM002
  11
0.0
  21
 1.0000000000000
  31
0.0
   0
ENDBLK
   5
C5
 100
AcDbEntity
   8
0
 100
AcDbBlockEnd
   0
BLOCK
   5
C6
 100
AcDbEntity
   8
0
 100
AcDbBlockBegin
   2
*D4
  70
65
  10
0.0
  20
0.0
  30
0.0
   3
*D4
   0
LINE
   5
C7
 100
AcDbEntity
   8
LEVEL001
 370
15
 100
AcDbLine
   6
CONTINUOUS
  62
8
  10
 28.590287312515
  20
 115.82449682853
  30
0.0
  11
 36.390287312624
  21
 115.82449682853
  31
0.0
   0
LINE
   5
C8
 100
AcDbEntity
   8
LEVEL001
 370
15
 100
AcDbLine
   6
CONTINUOUS
  62
8
  10
 33.390287312624
  20
 124.82449682853
  30
0.0
  11
 36.390287312624
  21
 124.82449682853
  31
0.0
   0
LINE
   5
C9
 100
AcDbEntity
   8
LEVEL001
 370
15
 100
AcDbLine
   6
CONTINUOUS
  62
8
  10
 35.890287312624
  20
 115.82449682853
  30
0.0
  11
 35.890287312624
  21
 120.32449682853
  31
0.0
   0
LINE
   5
CA
 100
AcDbEntity
   8
LEVEL001
 370
15
 100
AcDbLine
   6
CONTINUOUS
  62
8
  10
 35.890287312624
  20
 124.82449682853
  30
0.0
  11
 35.890287312624
  21
 120.32449682853
  31
0.0
   0
SOLID
   5
CB
 100
AcDbEntity
   8
LEVEL001
 100
AcDbTrace
   6
CONTINUOUS
  62
8
  10
 35.890287312624
  20
 115.82449682853
  30
0.0
  11
 36.066614293333
  21
 116.82449682853
  31
0.0
  12
 35.713960331916
  22
 116.82449682853
  32
0.0
  13
 35.713960331916
  23
 116.82449682853
  33
0.0
   0
SOLID
   5
CC
 100
AcDbEntity
   8
LEVEL001
 100
AcDbTrace
   6
CONTINUOUS
  62
8
  10
 35.890287312624
  20
 124.82449682853
  30
0.0
  11
 35.713960331916
  21
 123.82449682853
  31
0.0
  12
 36.066614293333
  22
 123.82449682853
  32
0.0
  13
 36.066614293333
  23
 123.82449682853
  33
0.0
   0
MTEXT
   5
CD
 100
AcDbEntity
   8
LEVEL001
 370
15
  62
8
 100
AcDbMText
  10
 35.390287312624
  20
 120.32449682853
  30
0.0
  40
 1.2500000000000
  41
0.0
  71
8
  72
1
   1
\A1;9
   7
GMM002
  11
0.0
  21
 1.0000000000000
  31
0.0
   0
ENDBLK
   5
CE
 100
AcDbEntity
   8
0
 100
AcDbBlockEnd
   0
BLOCK
   5
CF
 100
AcDbEntity
   8
0
 100
AcDbBlockBegin
   2
*D5
  70
65
  10
0.0
  20
0.0
  30
0.0
   3
*D5
   0
LINE
   5
D0
 100
AcDbEntity
   8
LEVEL001
 370
15
 100
AcDbLine
   6
CONTINUOUS
  62
8
  10
 59.613971523041
  20
 120.52449682869
  30
0.0
  11
 59.613971523041
  21
 124.82449682853
  31
0.0
   0
LINE
   5
D1
 100
AcDbEntity
   8
LEVEL001
 370
15
 100
AcDbLine
   6
CONTINUOUS
  62
8
  10
 64.113971523041
  20
 120.52449682869
  30
0.0
  11
 64.113971523041
  21
 124.82449682853
  31
0.0
   0
LINE
   5
D2
 100
AcDbEntity
   8
LEVEL001
 370
15
 100
AcDbLine
   6
CONTINUOUS
  62
8
  10
 59.613971523041
  20
 124.32449682853
  30
0.0
  11
 61.863971523041
  21
 124.32449682853
  31
0.0
   0
LINE
   5
D3
 100
AcDbEntity
   8
LEVEL001
 370
15
 100
AcDbLine
   6
CONTINUOUS
  62
8
  10
 64.113971523041
  20
 124.32449682853
  30
0.0
  11
 61.863971523041
  21
 124.32449682853
  31
0.0
   0
SOLID
   5
D4
 100
AcDbEntity
   8
LEVEL001
 100
AcDbTrace
   6
CONTINUOUS
  62
8
  10
 59.613971523041
  20
 124.32449682853
  30
0.0
  11
 60.613971523041
  21
 124.14816984782
  31
0.0
  12
 60.613971523041
  22
 124.50082380924
  32
0.0
  13
 60.613971523041
  23
 124.50082380924
  33
0.0
   0
SOLID
   5
D5
 100
AcDbEntity
   8
LEVEL001
 100
AcDbTrace
   6
CONTINUOUS
  62
8
  10
 64.113971523041
  20
 124.32449682853
  30
0.0
  11
 63.113971523041
  21
 124.50082380924
  31
0.0
  12
 63.113971523041
  22
 124.14816984782
  32
0.0
  13
 63.113971523041
  23
 124.14816984782
  33
0.0
   0
MTEXT
   5
D6
 100
AcDbEntity
   8
LEVEL001
 370
15
  62
8
 100
AcDbMText
  10
 61.863971523041
  20
 124.82449682853
  30
0.0
  40
 1.2500000000000
  41
0.0
  71
8
  72
1
   1
\A1;4.5
   7
GMM002
   0
ENDBLK
   5
D7
 100
AcDbEntity
   8
0
 100
AcDbBlockEnd
   0
BLOCK
   5
D8
 100
AcDbEntity
   8
0
 100
AcDbBlockBegin
   2
*D6
  70
65
  10
0.0
  20
0.0
  30
0.0
   3
*D6
   0
LINE
   5
D9
 100
AcDbEntity
   8
LEVEL001
 370
15
 100
AcDbLine
   6
CONTINUOUS
  62
8
  10
 57.363971522972
  20
 122.32449682853
  30
0.0
  11
 57.363971522972
  21
 127.32449682853
  31
0.0
   0
LINE
   5
DA
 100
AcDbEntity
   8
LEVEL001
 370
15
 100
AcDbLine
   6
CONTINUOUS
  62
8
  10
 66.363971523150
  20
 122.32449682853
  30
0.0
  11
 66.363971523150
  21
 127.32449682853
  31
0.0
   0
LINE
   5
DB
 100
AcDbEntity
   8
LEVEL001
 370
15
 100
AcDbLine
   6
CONTINUOUS
  62
8
  10
 57.363971522972
  20
 126.82449682853
  30
0.0
  11
 61.863971523061
  21
 126.82449682853
  31
0.0
   0
LINE
   5
DC
 100
AcDbEntity
   8
LEVEL001
 370
15
 100
AcDbLine
   6
CONTINUOUS
  62
8
  10
 66.363971523150
  20
 126.82449682853
  30
0.0
  11
 61.863971523061
  21
 126.82449682853
  31
0.0
   0
SOLID
   5
DD
 100
AcDbEntity
   8
LEVEL001
 100
AcDbTrace
   6
CONTINUOUS
  62
8
  10
 57.363971522972
  20
 126.82449682853
  30
0.0
  11
 58.363971522972
  21
 126.64816984782
  31
0.0
  12
 58.363971522972
  22
 127.00082380924
  32
0.0
  13
 58.363971522972
  23
 127.00082380924
  33
0.0
   0
SOLID
   5
DE
 100
AcDbEntity
   8
LEVEL001
 100
AcDbTrace
   6
CONTINUOUS
  62
8
  10
 66.363971523150
  20
 126.82449682853
  30
0.0
  11
 65.363971523150
  21
 127.00082380924
  31
0.0
  12
 65.363971523150
  22
 126.64816984782
  32
0.0
  13
 65.363971523150
  23
 126.64816984782
  33
0.0
   0
MTEXT
   5
DF
 100
AcDbEntity
   8
LEVEL001
 370
15
  62
8
 100
AcDbMText
  10
 61.863971523061
  20
 127.32449682853
  30
0.0
  40
 1.2500000000000
  41
0.0
  71
8
  72
1
   1
\A1;9
   7
GMM002
   0
ENDBLK
   5
E0
 100
AcDbEntity
   8
0
 100
AcDbBlockEnd
   0
BLOCK
   5
E1
 100
AcDbEntity
   8
0
 100
AcDbBlockBegin
   2
*D7
  70
65
  10
0.0
  20
0.0
  30
0.0
   3
*D7
   0
LINE
   5
E2
 100
AcDbEntity
   8
LEVEL001
 370
15
 100
AcDbLine
   6
CONTINUOUS
  62
8
  10
 65.163971523061
  20
 116.82449682853
  30
0.0
  11
 69.863971523151
  21
 116.82449682853
  31
0.0
   0
LINE
   5
E3
 100
AcDbEntity
   8
LEVEL001
 370
15
 100
AcDbLine
   6
CONTINUOUS
  62
8
  10
 66.863971523150
  20
 121.82449682853
  30
0.0
  11
 69.863971523151
  21
 121.82449682853
  31
0.0
   0
LINE
   5
E4
 100
AcDbEntity
   8
LEVEL001
 370
15
 100
AcDbLine
   6
CONTINUOUS
  62
8
  10
 69.363971523151
  20
 116.82449682853
  30
0.0
  11
 69.363971523151
  21
 119.32449682853
  31
0.0
   0
LINE
   5
E5
 100
AcDbEntity
   8
LEVEL001
 370
15
 100
AcDbLine
   6
CONTINUOUS
  62
8
  10
 69.363971523151
  20
 121.82449682853
  30
0.0
  11
 69.363971523151
  21
 119.32449682853
  31
0.0
   0
SOLID
   5
E6
 100
AcDbEntity
   8
LEVEL001
 100
AcDbTrace
   6
CONTINUOUS
  62
8
  10
 69.363971523151
  20
 116.82449682853
  30
0.0
  11
 69.540298503859
  21
 117.82449682853
  31
0.0
  12
 69.187644542442
  22
 117.82449682853
  32
0.0
  13
 69.187644542442
  23
 117.82449682853
  33
0.0
   0
SOLID
   5
E7
 100
AcDbEntity
   8
LEVEL001
 100
AcDbTrace
   6
CONTINUOUS
  62
8
  10
 69.363971523151
  20
 121.82449682853
  30
0.0
  11
 69.187644542442
  21
 120.82449682853
  31
0.0
  12
 69.540298503859
  22
 120.82449682853
  32
0.0
  13
 69.540298503859
  23
 120.82449682853
  33
0.0
   0
MTEXT
   5
E8
 100
AcDbEntity
   8
LEVEL001
 370
15
  62
8
 100
AcDbMText
  10
 68.863971523151
  20
 119.32449682853
  30
0.0
  40
 1.2500000000000
  41
0.0
  71
8
  72
1
   1
\A1;5
   7
GMM002
  11
0.0
  21
 1.0000000000000
  31
0.0
   0
ENDBLK
   5
E9
 100
AcDbEntity
   8
0
 100
AcDbBlockEnd
   0
BLOCK
   5
EA
 100
AcDbEntity
   8
0
 100
AcDbBlockBegin
   2
*D8
  70
65
  10
0.0
  20
0.0
  30
0.0
   3
*D8
   0
LINE
   5
EB
 100
AcDbEntity
   8
LEVEL001
 370
15
 100
AcDbLine
   6
CONTINUOUS
  62
8
  10
 65.163971523050
  20
 115.82449682853
  30
0.0
  11
 72.863971523151
  21
 115.82449682853
  31
0.0
   0
LINE
   5
EC
 100
AcDbEntity
   8
LEVEL001
 370
15
 100
AcDbLine
   6
CONTINUOUS
  62
8
  10
 67.063971523150
  20
 121.82449682853
  30
0.0
  11
 72.863971523151
  21
 121.82449682853
  31
0.0
   0
LINE
   5
ED
 100
AcDbEntity
   8
LEVEL001
 370
15
 100
AcDbLine
   6
CONTINUOUS
  62
8
  10
 72.363971523151
  20
 115.82449682853
  30
0.0
  11
 72.363971523151
  21
 118.82449682853
  31
0.0
   0
LINE
   5
EE
 100
AcDbEntity
   8
LEVEL001
 370
15
 100
AcDbLine
   6
CONTINUOUS
  62
8
  10
 72.363971523151
  20
 121.82449682853
  30
0.0
  11
 72.363971523151
  21
 118.82449682853
  31
0.0
   0
SOLID
   5
EF
 100
AcDbEntity
   8
LEVEL001
 100
AcDbTrace
   6
CONTINUOUS
  62
8
  10
 72.363971523151
  20
 115.82449682853
  30
0.0
  11
 72.540298503859
  21
 116.82449682853
  31
0.0
  12
 72.187644542442
  22
 116.82449682853
  32
0.0
  13
 72.187644542442
  23
 116.82449682853
  33
0.0
   0
SOLID
   5
F0
 100
AcDbEntity
   8
LEVEL001
 100
AcDbTrace
   6
CONTINUOUS
  62
8
  10
 72.363971523151
  20
 121.82449682853
  30
0.0
  11
 72.187644542442
  21
 120.82449682853
  31
0.0
  12
 72.540298503859
  22
 120.82449682853
  32
0.0
  13
 72.540298503859
  23
 120.82449682853
  33
0.0
   0
MTEXT
   5
F1
 100
AcDbEntity
   8
LEVEL001
 370
15
  62
8
 100
AcDbMText
  10
 71.863971523151
  20
 118.82449682853
  30
0.0
  40
 1.2500000000000
  41
0.0
  71
8
  72
1
   1
\A1;6
   7
GMM002
  11
0.0
  21
 1.0000000000000
  31
0.0
   0
ENDBLK
   5
F2
 100
AcDbEntity
   8
0
 100
AcDbBlockEnd
   0
ENDSEC
   0
SECTION
   2
ENTITIES
   0
LINE
   5
F3
 100
AcDbEntity
   8
LEVEL002
 370
30
 100
AcDbLine
   6
CONTINUOUS
  62
7
  10
 172.07500000000
  20
 136.03750000000
  30
0.0
  11
 168.47500000000
  21
 136.03750000000
  31
0.0
   0
LINE
   5
F4
 100
AcDbEntity
   8
LEVEL002
 370
30
 100
AcDbLine
   6
CONTINUOUS
  62
7
  10
 168.47500000000
  20
 136.03750000000
  30
0.0
  11
 168.47500000000
  21
 130.63750000000
  31
0.0
   0
LINE
   5
F5
 100
AcDbEntity
   8
LEVEL002
 370
30
 100
AcDbLine
   6
CONTINUOUS
  62
7
  10
 168.47500000000
  20
 130.63750000000
  30
0.0
  11
 170.27500000000
  21
 130.63750000000
  31
0.0
   0
LINE
   5
F6
 100
AcDbEntity
   8
LEVEL002
 370
30
 100
AcDbLine
   6
CONTINUOUS
  62
7
  10
 170.27500000000
  20
 130.63750000000
  30
0.0
  11
 170.27500000000
  21
 131.53750000000
  31
0.0
   0
LINE
   5
F7
 100
AcDbEntity
   8
LEVEL002
 370
30
 100
AcDbLine
   6
CONTINUOUS
  62
7
  10
 170.27500000000
  20
 131.53750000000
  30
0.0
  11
 172.07500000000
  21
 131.53750000000
  31
0.0
   0
ARC
   5
F8
 100
AcDbEntity
   8
LEVEL002
 370
30
   6
CONTINUOUS
  62
7
 100
AcDbCircle
  10
 172.07500000000
  20
 133.78750000000
  30
0.0
  40
 2.2500000000000
 100
AcDbArc
  50
 270.00000000000
  51
 90.000000000000
   0
LINE
   5
F9
 100
AcDbEntity
   8
LEVEL002
 370
30
 100
AcDbLine
   6
CONTINUOUS
  62
7
  10
 170.27500000000
  20
 133.33750000000
  30
0.0
  11
 172.07500000000
  21
 133.33750000000
  31
0.0
   0
ARC
   5
FA
 100
AcDbEntity
   8
LEVEL002
 370
30
   6
CONTINUOUS
  62
7
 100
AcDbCircle
  10
 172.07500000000
  20
 133.78750000000
  30
0.0
  40
 0.45000000000000
 100
AcDbArc
  50
 270.00000000000
  51
 90.000000000000
   0
LINE
   5
FB
 100
AcDbEntity
   8
LEVEL002
 370
30
 100
AcDbLine
   6
CONTINUOUS
  62
7
  10
 172.07500000000
  20
 134.23750000000
  30
0.0
  11
 170.27500000000
  21
 134.23750000000
  31
0.0
   0
LINE
   5
FC
 100
AcDbEntity
   8
LEVEL002
 370
30
 100
AcDbLine
   6
CONTINUOUS
  62
7
  10
 170.27500000000
  20
 134.23750000000
  30
0.0
  11
 170.27500000000
  21
 133.33750000000
  31
0.0
   0
LINE
   5
FD
 100
AcDbEntity
   8
LEVEL002
 370
30
 100
AcDbLine
   6
CONTINUOUS
  62
7
  10
 172.97500000000
  20
 130.63750000000
  30
0.0
  11
 176.57500000000
  21
 136.03750000000
  31
0.0
   0
LINE
   5
FE
 100
AcDbEntity
   8
LEVEL002
 370
30
 100
AcDbLine
   6
CONTINUOUS
  62
7
  10
 176.57500000000
  20
 136.03750000000
  30
0.0
  11
 181.07500000000
  21
 136.03750000000
  31
0.0
   0
LINE
   5
FF
 100
AcDbEntity
   8
LEVEL002
 370
30
 100
AcDbLine
   6
CONTINUOUS
  62
7
  10
 181.07500000000
  20
 136.03750000000
  30
0.0
  11
 181.07500000000
  21
 132.43750000000
  31
0.0
   0
LINE
   5
100
 100
AcDbEntity
   8
LEVEL002
 370
30
 100
AcDbLine
   6
CONTINUOUS
  62
7
  10
 181.07500000000
  20
 132.43750000000
  30
0.0
  11
 183.77500000000
  21
 132.43750000000
  31
0.0
   0
LINE
   5
101
 100
AcDbEntity
   8
LEVEL002
 370
30
 100
AcDbLine
   6
CONTINUOUS
  62
7
  10
 183.77500000000
  20
 132.43750000000
  30
0.0
  11
 183.77500000000
  21
 134.23750000000
  31
0.0
   0
LINE
   5
102
 100
AcDbEntity
   8
LEVEL002
 370
30
 100
AcDbLine
   6
CONTINUOUS
  62
7
  10
 183.77500000000
  20
 134.23750000000
  30
0.0
  11
 181.97500000000
  21
 134.23750000000
  31
0.0
   0
LINE
   5
103
 100
AcDbEntity
   8
LEVEL002
 370
30
 100
AcDbLine
   6
CONTINUOUS
  62
7
  10
 181.97500000000
  20
 134.23750000000
  30
0.0
  11
 181.97500000000
  21
 136.03750000000
  31
0.0
   0
LINE
   5
104
 100
AcDbEntity
   8
LEVEL002
 370
30
 100
AcDbLine
   6
CONTINUOUS
  62
7
  10
 181.97500000000
  20
 136.03750000000
  30
0.0
  11
 192.77500000000
  21
 136.03750000000
  31
0.0
   0
LINE
   5
105
 100
AcDbEntity
   8
LEVEL002
 370
30
 100
AcDbLine
   6
CONTINUOUS
  62
7
  10
 192.77500000000
  20
 136.03750000000
  30
0.0
  11
 192.77500000000
  21
 134.23750000000
  31
0.0
   0
LINE
   5
106
 100
AcDbEntity
   8
LEVEL002
 370
30
 100
AcDbLine
   6
CONTINUOUS
  62
7
  10
 192.77500000000
  20
 134.23750000000
  30
0.0
  11
 189.17500000000
  21
 134.23750000000
  31
0.0
   0
LINE
   5
107
 100
AcDbEntity
   8
LEVEL002
 370
30
 100
AcDbLine
   6
CONTINUOUS
  62
7
  10
 189.17500000000
  20
 134.23750000000
  30
0.0
  11
 189.17500000000
  21
 133.78750000000
  31
0.0
   0
LINE
   5
108
 100
AcDbEntity
   8
LEVEL002
 370
30
 100
AcDbLine
   6
CONTINUOUS
  62
7
  10
 189.17500000000
  20
 133.78750000000
  30
0.0
  11
 192.32500000000
  21
 133.78750000000
  31
0.0
   0
LINE
   5
109
 100
AcDbEntity
   8
LEVEL002
 370
30
 100
AcDbLine
   6
CONTINUOUS
  62
7
  10
 192.32500000000
  20
 133.78750000000
  30
0.0
  11
 192.32500000000
  21
 132.88750000000
  31
0.0
   0
LINE
   5
10A
 100
AcDbEntity
   8
LEVEL002
 370
30
 100
AcDbLine
   6
CONTINUOUS
  62
7
  10
 192.32500000000
  20
 132.88750000000
  30
0.0
  11
 189.17500000000
  21
 132.88750000000
  31
0.0
   0
LINE
   5
10B
 100
AcDbEntity
   8
LEVEL002
 370
30
 100
AcDbLine
   6
CONTINUOUS
  62
7
  10
 189.17500000000
  20
 132.88750000000
  30
0.0
  11
 189.17500000000
  21
 132.43750000000
  31
0.0
   0
LINE
   5
10C
 100
AcDbEntity
   8
LEVEL002
 370
30
 100
AcDbLine
   6
CONTINUOUS
  62
7
  10
 189.17500000000
  20
 132.43750000000
  30
0.0
  11
 192.77500000000
  21
 132.43750000000
  31
0.0
   0
LINE
   5
10D
 100
AcDbEntity
   8
LEVEL002
 370
30
 100
AcDbLine
   6
CONTINUOUS
  62
7
  10
 192.77500000000
  20
 132.43750000000
  30
0.0
  11
 192.77500000000
  21
 130.63750000000
  31
0.0
   0
LINE
   5
10E
 100
AcDbEntity
   8
LEVEL002
 370
30
 100
AcDbLine
   6
CONTINUOUS
  62
7
  10
 192.77500000000
  20
 130.63750000000
  30
0.0
  11
 187.37500000000
  21
 130.63750000000
  31
0.0
   0
LINE
   5
10F
 100
AcDbEntity
   8
LEVEL002
 370
30
 100
AcDbLine
   6
CONTINUOUS
  62
7
  10
 187.37500000000
  20
 130.63750000000
  30
0.0
  11
 187.37500000000
  21
 134.23750000000
  31
0.0
   0
LINE
   5
110
 100
AcDbEntity
   8
LEVEL002
 370
30
 100
AcDbLine
   6
CONTINUOUS
  62
7
  10
 187.37500000000
  20
 134.23750000000
  30
0.0
  11
 185.57500000000
  21
 134.23750000000
  31
0.0
   0
LINE
   5
111
 100
AcDbEntity
   8
LEVEL002
 370
30
 100
AcDbLine
   6
CONTINUOUS
  62
7
  10
 185.57500000000
  20
 134.23750000000
  30
0.0
  11
 185.57500000000
  21
 130.63750000000
  31
0.0
   0
LINE
   5
112
 100
AcDbEntity
   8
LEVEL002
 370
30
 100
AcDbLine
   6
CONTINUOUS
  62
7
  10
 185.57500000000
  20
 130.63750000000
  30
0.0
  11
 179.27500000000
  21
 130.63750000000
  31
0.0
   0
LINE
   5
113
 100
AcDbEntity
   8
LEVEL002
 370
30
 100
AcDbLine
   6
CONTINUOUS
  62
7
  10
 179.27500000000
  20
 130.63750000000
  30
0.0
  11
 179.27500000000
  21
 136.03750000000
  31
0.0
   0
LINE
   5
114
 100
AcDbEntity
   8
LEVEL002
 370
30
 100
AcDbLine
   6
CONTINUOUS
  62
7
  10
 179.27500000000
  20
 136.03750000000
  30
0.0
  11
 175.67500000000
  21
 130.63750000000
  31
0.0
   0
LINE
   5
115
 100
AcDbEntity
   8
LEVEL002
 370
30
 100
AcDbLine
   6
CONTINUOUS
  62
7
  10
 175.67500000000
  20
 130.63750000000
  30
0.0
  11
 172.97500000000
  21
 130.63750000000
  31
0.0
   0
LINE
   5
116
 100
AcDbEntity
   8
LEVEL002
 370
30
 100
AcDbLine
   6
CONTINUOUS
  62
7
  10
 178.67500000000
  20
 134.05583461735
  30
0.0
  11
 176.39611025510
  21
 130.63750000000
  31
0.0
   0
LINE
   5
117
 100
AcDbEntity
   8
LEVEL002
 370
30
 100
AcDbLine
   6
CONTINUOUS
  62
7
  10
 176.39611025510
  20
 130.63750000000
  30
0.0
  11
 178.67500000000
  21
 130.63750000000
  31
0.0
   0
LINE
   5
118
 100
AcDbEntity
   8
LEVEL002
 370
30
 100
AcDbLine
   6
CONTINUOUS
  62
7
  10
 178.67500000000
  20
 130.63750000000
  30
0.0
  11
 178.67500000000
  21
 134.05583461735
  31
0.0
   0
ARC
   5
119
 100
AcDbEntity
   8
LEVEL002
 370
30
   6
CONTINUOUS
  62
7
 100
AcDbCircle
  10
 195.47500000000
  20
 133.33750000000
  30
0.0
  40
 2.7000000000000
 100
AcDbArc
  50
 90.000000000000
  51
 270.00000000000
   0
ARC
   5
11A
 100
AcDbEntity
   8
LEVEL002
 370
30
   6
CONTINUOUS
  62
7
 100
AcDbCircle
  10
 195.47500000000
  20
 133.33750000000
  30
0.0
  40
 0.90000000000000
 100
AcDbArc
  50
 90.000000000000
  51
 270.00000000000
   0
LINE
   5
11B
 100
AcDbEntity
   8
LEVEL002
 370
30
 100
AcDbLine
   6
CONTINUOUS
  62
7
  10
 195.47500000000
  20
 136.03750000000
  30
0.0
  11
 198.17500000000
  21
 136.03750000000
  31
0.0
   0
LINE
   5
11C
 100
AcDbEntity
   8
LEVEL002
 370
30
 100
AcDbLine
   6
CONTINUOUS
  62
7
  10
 198.17500000000
  20
 136.03750000000
  30
0.0
  11
 198.17500000000
  21
 134.23750000000
  31
0.0
   0
LINE
   5
11D
 100
AcDbEntity
   8
LEVEL002
 370
30
 100
AcDbLine
   6
CONTINUOUS
  62
7
  10
 198.17500000000
  20
 134.23750000000
  30
0.0
  11
 195.47500000000
  21
 134.23750000000
  31
0.0
   0
LINE
   5
11E
 100
AcDbEntity
   8
LEVEL002
 370
30
 100
AcDbLine
   6
CONTINUOUS
  62
7
  10
 168.47500000000
  20
 136.03750000000
  30
0.0
  11
 168.47500000000
  21
 130.63750000000
  31
0.0
   0
LINE
   5
11F
 100
AcDbEntity
   8
LEVEL002
 370
30
 100
AcDbLine
   6
CONTINUOUS
  62
7
  10
 168.47500000000
  20
 130.63750000000
  30
0.0
  11
 170.27500000000
  21
 130.63750000000
  31
0.0
   0
LINE
   5
120
 100
AcDbEntity
   8
LEVEL002
 370
30
 100
AcDbLine
   6
CONTINUOUS
  62
7
  10
 170.27500000000
  20
 130.63750000000
  30
0.0
  11
 170.27500000000
  21
 131.53750000000
  31
0.0
   0
LINE
   5
121
 100
AcDbEntity
   8
LEVEL002
 370
30
 100
AcDbLine
   6
CONTINUOUS
  62
7
  10
 170.27500000000
  20
 131.53750000000
  30
0.0
  11
 172.07500000000
  21
 131.53750000000
  31
0.0
   0
ARC
   5
122
 100
AcDbEntity
   8
LEVEL002
 370
30
   6
CONTINUOUS
  62
7
 100
AcDbCircle
  10
 172.07500000000
  20
 133.78750000000
  30
0.0
  40
 2.2500000000000
 100
AcDbArc
  50
 270.00000000000
  51
 90.000000000000
   0
LINE
   5
123
 100
AcDbEntity
   8
LEVEL002
 370
30
 100
AcDbLine
   6
CONTINUOUS
  62
7
  10
 172.07500000000
  20
 136.03750000000
  30
0.0
  11
 168.47500000000
  21
 136.03750000000
  31
0.0
   0
LINE
   5
124
 100
AcDbEntity
   8
LEVEL002
 370
30
 100
AcDbLine
   6
CONTINUOUS
  62
7
  10
 170.27500000000
  20
 134.23750000000
  30
0.0
  11
 170.27500000000
  21
 133.33750000000
  31
0.0
   0
LINE
   5
125
 100
AcDbEntity
   8
LEVEL002
 370
30
 100
AcDbLine
   6
CONTINUOUS
  62
7
  10
 170.27500000000
  20
 133.33750000000
  30
0.0
  11
 172.07500000000
  21
 133.33750000000
  31
0.0
   0
ARC
   5
126
 100
AcDbEntity
   8
LEVEL002
 370
30
   6
CONTINUOUS
  62
7
 100
AcDbCircle
  10
 172.07500000000
  20
 133.78750000000
  30
0.0
  40
 0.45000000000000
 100
AcDbArc
  50
 270.00000000000
  51
 90.000000000000
   0
LINE
   5
127
 100
AcDbEntity
   8
LEVEL002
 370
30
 100
AcDbLine
   6
CONTINUOUS
  62
7
  10
 172.07500000000
  20
 134.23750000000
  30
0.0
  11
 170.27500000000
  21
 134.23750000000
  31
0.0
   0
LINE
   5
128
 100
AcDbEntity
   8
LEVEL002
 370
30
 100
AcDbLine
   6
CONTINUOUS
  62
7
  10
 176.57500000000
  20
 136.03750000000
  30
0.0
  11
 172.97500000000
  21
 130.63750000000
  31
0.0
   0
LINE
   5
129
 100
AcDbEntity
   8
LEVEL002
 370
30
 100
AcDbLine
   6
CONTINUOUS
  62
7
  10
 172.97500000000
  20
 130.63750000000
  30
0.0
  11
 175.67500000000
  21
 130.63750000000
  31
0.0
   0
LINE
   5
12A
 100
AcDbEntity
   8
LEVEL002
 370
30
 100
AcDbLine
   6
CONTINUOUS
  62
7
  10
 175.67500000000
  20
 130.63750000000
  30
0.0
  11
 179.27500000000
  21
 136.03750000000
  31
0.0
   0
LINE
   5
12B
 100
AcDbEntity
   8
LEVEL002
 370
30
 100
AcDbLine
   6
CONTINUOUS
  62
7
  10
 179.27500000000
  20
 136.03750000000
  30
0.0
  11
 176.57500000000
  21
 136.03750000000
  31
0.0
   0
LINE
   5
12C
 100
AcDbEntity
   8
LEVEL002
 370
30
 100
AcDbLine
   6
CONTINUOUS
  62
7
  10
 178.67500000000
  20
 130.63750000000
  30
0.0
  11
 178.67500000000
  21
 134.05583461735
  31
0.0
   0
LINE
   5
12D
 100
AcDbEntity
   8
LEVEL002
 370
30
 100
AcDbLine
   6
CONTINUOUS
  62
7
  10
 178.67500000000
  20
 134.05583461735
  30
0.0
  11
 176.39611025510
  21
 130.63750000000
  31
0.0
   0
LINE
   5
12E
 100
AcDbEntity
   8
LEVEL002
 370
30
 100
AcDbLine
   6
CONTINUOUS
  62
7
  10
 176.39611025510
  20
 130.63750000000
  30
0.0
  11
 178.67500000000
  21
 130.63750000000
  31
0.0
   0
LINE
   5
12F
 100
AcDbEntity
   8
LEVEL002
 370
30
 100
AcDbLine
   6
CONTINUOUS
  62
7
  10
 179.27500000000
  20
 130.63750000000
  30
0.0
  11
 185.57500000000
  21
 130.63750000000
  31
0.0
   0
LINE
   5
130
 100
AcDbEntity
   8
LEVEL002
 370
30
 100
AcDbLine
   6
CONTINUOUS
  62
7
  10
 185.57500000000
  20
 130.63750000000
  30
0.0
  11
 185.57500000000
  21
 134.23750000000
  31
0.0
   0
LINE
   5
131
 100
AcDbEntity
   8
LEVEL002
 370
30
 100
AcDbLine
   6
CONTINUOUS
  62
7
  10
 185.57500000000
  20
 134.23750000000
  30
0.0
  11
 187.37500000000
  21
 134.23750000000
  31
0.0
   0
LINE
   5
132
 100
AcDbEntity
   8
LEVEL002
 370
30
 100
AcDbLine
   6
CONTINUOUS
  62
7
  10
 187.37500000000
  20
 134.23750000000
  30
0.0
  11
 187.37500000000
  21
 130.63750000000
  31
0.0
   0
LINE
   5
133
 100
AcDbEntity
   8
LEVEL002
 370
30
 100
AcDbLine
   6
CONTINUOUS
  62
7
  10
 187.37500000000
  20
 130.63750000000
  30
0.0
  11
 192.77500000000
  21
 130.63750000000
  31
0.0
   0
LINE
   5
134
 100
AcDbEntity
   8
LEVEL002
 370
30
 100
AcDbLine
   6
CONTINUOUS
  62
7
  10
 192.77500000000
  20
 130.63750000000
  30
0.0
  11
 192.77500000000
  21
 132.43750000000
  31
0.0
   0
LINE
   5
135
 100
AcDbEntity
   8
LEVEL002
 370
30
 100
AcDbLine
   6
CONTINUOUS
  62
7
  10
 192.77500000000
  20
 132.43750000000
  30
0.0
  11
 189.17500000000
  21
 132.43750000000
  31
0.0
   0
LINE
   5
136
 100
AcDbEntity
   8
LEVEL002
 370
30
 100
AcDbLine
   6
CONTINUOUS
  62
7
  10
 189.17500000000
  20
 132.43750000000
  30
0.0
  11
 189.17500000000
  21
 132.88750000000
  31
0.0
   0
LINE
   5
137
 100
AcDbEntity
   8
LEVEL002
 370
30
 100
AcDbLine
   6
CONTINUOUS
  62
7
  10
 189.17500000000
  20
 132.88750000000
  30
0.0
  11
 192.32500000000
  21
 132.88750000000
  31
0.0
   0
LINE
   5
138
 100
AcDbEntity
   8
LEVEL002
 370
30
 100
AcDbLine
   6
CONTINUOUS
  62
7
  10
 192.32500000000
  20
 132.88750000000
  30
0.0
  11
 192.32500000000
  21
 133.78750000000
  31
0.0
   0
LINE
   5
139
 100
AcDbEntity
   8
LEVEL002
 370
30
 100
AcDbLine
   6
CONTINUOUS
  62
7
  10
 192.32500000000
  20
 133.78750000000
  30
0.0
  11
 189.17500000000
  21
 133.78750000000
  31
0.0
   0
LINE
   5
13A
 100
AcDbEntity
   8
LEVEL002
 370
30
 100
AcDbLine
   6
CONTINUOUS
  62
7
  10
 189.17500000000
  20
 133.78750000000
  30
0.0
  11
 189.17500000000
  21
 134.23750000000
  31
0.0
   0
LINE
   5
13B
 100
AcDbEntity
   8
LEVEL002
 370
30
 100
AcDbLine
   6
CONTINUOUS
  62
7
  10
 189.17500000000
  20
 134.23750000000
  30
0.0
  11
 192.77500000000
  21
 134.23750000000
  31
0.0
   0
LINE
   5
13C
 100
AcDbEntity
   8
LEVEL002
 370
30
 100
AcDbLine
   6
CONTINUOUS
  62
7
  10
 192.77500000000
  20
 134.23750000000
  30
0.0
  11
 192.77500000000
  21
 136.03750000000
  31
0.0
   0
LINE
   5
13D
 100
AcDbEntity
   8
LEVEL002
 370
30
 100
AcDbLine
   6
CONTINUOUS
  62
7
  10
 192.77500000000
  20
 136.03750000000
  30
0.0
  11
 181.97500000000
  21
 136.03750000000
  31
0.0
   0
LINE
   5
13E
 100
AcDbEntity
   8
LEVEL002
 370
30
 100
AcDbLine
   6
CONTINUOUS
  62
7
  10
 181.97500000000
  20
 136.03750000000
  30
0.0
  11
 181.97500000000
  21
 134.23750000000
  31
0.0
   0
LINE
   5
13F
 100
AcDbEntity
   8
LEVEL002
 370
30
 100
AcDbLine
   6
CONTINUOUS
  62
7
  10
 181.97500000000
  20
 134.23750000000
  30
0.0
  11
 183.77500000000
  21
 134.23750000000
  31
0.0
   0
LINE
   5
140
 100
AcDbEntity
   8
LEVEL002
 370
30
 100
AcDbLine
   6
CONTINUOUS
  62
7
  10
 183.77500000000
  20
 134.23750000000
  30
0.0
  11
 183.77500000000
  21
 132.43750000000
  31
0.0
   0
LINE
   5
141
 100
AcDbEntity
   8
LEVEL002
 370
30
 100
AcDbLine
   6
CONTINUOUS
  62
7
  10
 183.77500000000
  20
 132.43750000000
  30
0.0
  11
 181.07500000000
  21
 132.43750000000
  31
0.0
   0
LINE
   5
142
 100
AcDbEntity
   8
LEVEL002
 370
30
 100
AcDbLine
   6
CONTINUOUS
  62
7
  10
 181.07500000000
  20
 132.43750000000
  30
0.0
  11
 181.07500000000
  21
 136.03750000000
  31
0.0
   0
LINE
   5
143
 100
AcDbEntity
   8
LEVEL002
 370
30
 100
AcDbLine
   6
CONTINUOUS
  62
7
  10
 181.07500000000
  20
 136.03750000000
  30
0.0
  11
 179.27500000000
  21
 136.03750000000
  31
0.0
   0
LINE
   5
144
 100
AcDbEntity
   8
LEVEL002
 370
30
 100
AcDbLine
   6
CONTINUOUS
  62
7
  10
 179.27500000000
  20
 136.03750000000
  30
0.0
  11
 179.27500000000
  21
 130.63750000000
  31
0.0
   0
LINE
   5
145
 100
AcDbEntity
   8
LEVEL002
 370
30
 100
AcDbLine
   6
CONTINUOUS
  62
7
  10
 195.47500000000
  20
 130.63750000000
  30
0.0
  11
 198.17500000000
  21
 130.63750000000
  31
0.0
   0
LINE
   5
146
 100
AcDbEntity
   8
LEVEL002
 370
30
 100
AcDbLine
   6
CONTINUOUS
  62
7
  10
 198.17500000000
  20
 130.63750000000
  30
0.0
  11
 198.17500000000
  21
 132.43750000000
  31
0.0
   0
LINE
   5
147
 100
AcDbEntity
   8
LEVEL002
 370
30
 100
AcDbLine
   6
CONTINUOUS
  62
7
  10
 198.17500000000
  20
 132.43750000000
  30
0.0
  11
 195.47500000000
  21
 132.43750000000
  31
0.0
   0
ARC
   5
148
 100
AcDbEntity
   8
LEVEL002
 370
30
   6
CONTINUOUS
  62
7
 100
AcDbCircle
  10
 195.47500000000
  20
 133.33750000000
  30
0.0
  40
 0.90000000000000
 100
AcDbArc
  50
 90.000000000000
  51
 270.00000000000
   0
LINE
   5
149
 100
AcDbEntity
   8
LEVEL002
 370
30
 100
AcDbLine
   6
CONTINUOUS
  62
7
  10
 195.47500000000
  20
 134.23750000000
  30
0.0
  11
 198.17500000000
  21
 134.23750000000
  31
0.0
   0
LINE
   5
14A
 100
AcDbEntity
   8
LEVEL002
 370
30
 100
AcDbLine
   6
CONTINUOUS
  62
7
  10
 198.17500000000
  20
 134.23750000000
  30
0.0
  11
 198.17500000000
  21
 136.03750000000
  31
0.0
   0
LINE
   5
14B
 100
AcDbEntity
   8
LEVEL002
 370
30
 100
AcDbLine
   6
CONTINUOUS
  62
7
  10
 198.17500000000
  20
 136.03750000000
  30
0.0
  11
 195.47500000000
  21
 136.03750000000
  31
0.0
   0
ARC
   5
14C
 100
AcDbEntity
   8
LEVEL002
 370
30
   6
CONTINUOUS
  62
7
 100
AcDbCircle
  10
 195.47500000000
  20
 133.33750000000
  30
0.0
  40
 2.7000000000000
 100
AcDbArc
  50
 90.000000000000
  51
 270.00000000000
   0
MTEXT
   5
14E
 100
AcDbEntity
   8
LEVEL002
 370
30
  62
7
 100
AcDbMText
  10
 168.47500000000
  20
 136.93750000000
  30
0.0
  40
 1.8750000000000
  41
0.0
  71
7
  72
1
   1
\T1.000000;ケージーパルテック株式会社
   7
GMM001
  44
 0.79999984000003
   0
LINE
   5
14F
 100
AcDbEntity
   8
LEVEL002
 370
30
 100
AcDbLine
   6
CONTINUOUS
  62
7
  10
 166.67500000000
  20
 131.83750000000
  30
0.0
  11
 164.42500000000
  21
 135.43750000000
  31
0.0
   0
LINE
   5
150
 100
AcDbEntity
   8
LEVEL002
 370
30
 100
AcDbLine
   6
CONTINUOUS
  62
7
  10
 164.42500000000
  20
 135.43750000000
  30
0.0
  11
 166.67500000000
  21
 135.43750000000
  31
0.0
   0
LINE
   5
151
 100
AcDbEntity
   8
LEVEL002
 370
30
 100
AcDbLine
   6
CONTINUOUS
  62
7
  10
 166.67500000000
  20
 135.43750000000
  30
0.0
  11
 166.67500000000
  21
 131.83750000000
  31
0.0
   0
LINE
   5
152
 100
AcDbEntity
   8
LEVEL002
 370
30
 100
AcDbLine
   6
CONTINUOUS
  62
7
  10
 164.42500000000
  20
 135.43750000000
  30
0.0
  11
 166.67500000000
  21
 131.83750000000
  31
0.0
   0
LINE
   5
153
 100
AcDbEntity
   8
LEVEL002
 370
30
 100
AcDbLine
   6
CONTINUOUS
  62
7
  10
 166.67500000000
  20
 131.83750000000
  30
0.0
  11
 166.67500000000
  21
 135.43750000000
  31
0.0
   0
LINE
   5
154
 100
AcDbEntity
   8
LEVEL002
 370
30
 100
AcDbLine
   6
CONTINUOUS
  62
7
  10
 166.67500000000
  20
 135.43750000000
  30
0.0
  11
 164.42500000000
  21
 135.43750000000
  31
0.0
   0
LINE
   5
155
 100
AcDbEntity
   8
LEVEL002
 370
30
 100
AcDbLine
   6
CONTINUOUS
  62
7
  10
 159.52500000000
  20
 140.23750000000
  30
0.0
  11
 156.32500000000
  21
 135.43750000000
  31
0.0
   0
LINE
   5
156
 100
AcDbEntity
   8
LEVEL002
 370
30
 100
AcDbLine
   6
CONTINUOUS
  62
7
  10
 156.32500000000
  20
 135.43750000000
  30
0.0
  11
 159.52500000000
  21
 130.63750000000
  31
0.0
   0
LINE
   5
157
 100
AcDbEntity
   8
LEVEL002
 370
30
 100
AcDbLine
   6
CONTINUOUS
  62
7
  10
 162.22500000000
  20
 130.63750000000
  30
0.0
  11
 159.02500000000
  21
 135.43750000000
  31
0.0
   0
LINE
   5
158
 100
AcDbEntity
   8
LEVEL002
 370
30
 100
AcDbLine
   6
CONTINUOUS
  62
7
  10
 159.02500000000
  20
 135.43750000000
  30
0.0
  11
 162.22500000000
  21
 140.23750000000
  31
0.0
   0
LINE
   5
159
 100
AcDbEntity
   8
LEVEL002
 370
30
 100
AcDbLine
   6
CONTINUOUS
  62
7
  10
 163.57500000000
  20
 140.23750000000
  30
0.0
  11
 160.37500000000
  21
 135.43750000000
  31
0.0
   0
LINE
   5
15A
 100
AcDbEntity
   8
LEVEL002
 370
30
 100
AcDbLine
   6
CONTINUOUS
  62
7
  10
 160.37500000000
  20
 135.43750000000
  30
0.0
  11
 163.57500000000
  21
 130.63750000000
  31
0.0
   0
LINE
   5
15B
 100
AcDbEntity
   8
LEVEL002
 370
30
 100
AcDbLine
   6
CONTINUOUS
  62
7
  10
 166.27500000000
  20
 130.63750000000
  30
0.0
  11
 163.07500000000
  21
 135.43750000000
  31
0.0
   0
LINE
   5
15C
 100
AcDbEntity
   8
LEVEL002
 370
30
 100
AcDbLine
   6
CONTINUOUS
  62
7
  10
 163.07500000000
  20
 135.43750000000
  30
0.0
  11
 166.27500000000
  21
 140.23750000000
  31
0.0
   0
LINE
   5
15D
 100
AcDbEntity
   8
LEVEL002
 370
30
 100
AcDbLine
   6
CONTINUOUS
  62
7
  10
 159.52500000000
  20
 130.63750000000
  30
0.0
  11
 156.32500000000
  21
 135.43750000000
  31
0.0
   0
LINE
   5
15E
 100
AcDbEntity
   8
LEVEL002
 370
30
 100
AcDbLine
   6
CONTINUOUS
  62
7
  10
 156.32500000000
  20
 135.43750000000
  30
0.0
  11
 159.52500000000
  21
 140.23750000000
  31
0.0
   0
LINE
   5
15F
 100
AcDbEntity
   8
LEVEL002
 370
30
 100
AcDbLine
   6
CONTINUOUS
  62
7
  10
 159.52500000000
  20
 140.23750000000
  30
0.0
  11
 162.22500000000
  21
 140.23750000000
  31
0.0
   0
LINE
   5
160
 100
AcDbEntity
   8
LEVEL002
 370
30
 100
AcDbLine
   6
CONTINUOUS
  62
7
  10
 162.22500000000
  20
 140.23750000000
  30
0.0
  11
 159.02500000000
  21
 135.43750000000
  31
0.0
   0
LINE
   5
161
 100
AcDbEntity
   8
LEVEL002
 370
30
 100
AcDbLine
   6
CONTINUOUS
  62
7
  10
 159.02500000000
  20
 135.43750000000
  30
0.0
  11
 162.22500000000
  21
 130.63750000000
  31
0.0
   0
LINE
   5
162
 100
AcDbEntity
   8
LEVEL002
 370
30
 100
AcDbLine
   6
CONTINUOUS
  62
7
  10
 162.22500000000
  20
 130.63750000000
  30
0.0
  11
 159.52500000000
  21
 130.63750000000
  31
0.0
   0
LINE
   5
163
 100
AcDbEntity
   8
LEVEL002
 370
30
 100
AcDbLine
   6
CONTINUOUS
  62
7
  10
 163.57500000000
  20
 130.63750000000
  30
0.0
  11
 160.37500000000
  21
 135.43750000000
  31
0.0
   0
LINE
   5
164
 100
AcDbEntity
   8
LEVEL002
 370
30
 100
AcDbLine
   6
CONTINUOUS
  62
7
  10
 160.37500000000
  20
 135.43750000000
  30
0.0
  11
 163.57500000000
  21
 140.23750000000
  31
0.0
   0
LINE
   5
165
 100
AcDbEntity
   8
LEVEL002
 370
30
 100
AcDbLine
   6
CONTINUOUS
  62
7
  10
 163.57500000000
  20
 140.23750000000
  30
0.0
  11
 166.27500000000
  21
 140.23750000000
  31
0.0
   0
LINE
   5
166
 100
AcDbEntity
   8
LEVEL002
 370
30
 100
AcDbLine
   6
CONTINUOUS
  62
7
  10
 166.27500000000
  20
 140.23750000000
  30
0.0
  11
 163.07500000000
  21
 135.43750000000
  31
0.0
   0
LINE
   5
167
 100
AcDbEntity
   8
LEVEL002
 370
30
 100
AcDbLine
   6
CONTINUOUS
  62
7
  10
 163.07500000000
  20
 135.43750000000
  30
0.0
  11
 166.27500000000
  21
 130.63750000000
  31
0.0
   0
LINE
   5
168
 100
AcDbEntity
   8
LEVEL002
 370
30
 100
AcDbLine
   6
CONTINUOUS
  62
7
  10
 166.27500000000
  20
 130.63750000000
  30
0.0
  11
 163.57500000000
  21
 130.63750000000
  31
0.0
   0
LINE
   5
169
 100
AcDbEntity
   8
LEVEL001
 370
30
 100
AcDbLine
   6
DOT
  62
7
  10
0.0
  20
0.0
  30
0.0
  11
 210.00000000000
  21
0.0
  31
0.0
   0
LINE
   5
16A
 100
AcDbEntity
   8
LEVEL001
 370
30
 100
AcDbLine
   6
DOT
  62
7
  10
 210.00000000000
  20
 148.50000000000
  30
0.0
  11
0.0
  21
 148.50000000000
  31
0.0
   0
LINE
   5
16B
 100
AcDbEntity
   8
LEVEL001
 370
30
 100
AcDbLine
   6
DOT
  62
7
  10
0.0
  20
 148.50000000000
  30
0.0
  11
0.0
  21
0.0
  31
0.0
   0
LINE
   5
16C
 100
AcDbEntity
   8
LEVEL002
 370
40
 100
AcDbLine
   6
CONTINUOUS
  62
3
  10
 7.7499999999750
  20
 137.50000000000
  30
0.0
  11
 152.24999999997
  21
 137.50000000000
  31
0.0
   0
LINE
   5
16D
 100
AcDbEntity
   8
LEVEL002
 370
40
 100
AcDbLine
   6
CONTINUOUS
  62
3
  10
 152.24999999997
  20
 128.37500000000
  30
0.0
  11
 202.24999999997
  21
 128.37500000000
  31
0.0
   0
LINE
   5
16E
 100
AcDbEntity
   8
LEVEL002
 370
40
 100
AcDbLine
   6
CONTINUOUS
  62
3
  10
 152.24999999997
  20
 118.37500000000
  30
0.0
  11
 202.24999999997
  21
 118.37500000000
  31
0.0
   0
LINE
   5
16F
 100
AcDbEntity
   8
LEVEL002
 370
40
 100
AcDbLine
   6
CONTINUOUS
  62
3
  10
 152.24999999997
  20
 108.37500000000
  30
0.0
  11
 202.24999999997
  21
 108.37500000000
  31
0.0
   0
LINE
   5
170
 100
AcDbEntity
   8
LEVEL002
 370
40
 100
AcDbLine
   6
CONTINUOUS
  62
3
  10
 152.24999999997
  20
 36.000000000005
  30
0.0
  11
 202.24999999997
  21
 36.000000000005
  31
0.0
   0
LINE
   5
171
 100
AcDbEntity
   8
LEVEL002
 370
40
 100
AcDbLine
   6
CONTINUOUS
  62
3
  10
 152.24999999997
  20
 26.000000000005
  30
0.0
  11
 202.24999999997
  21
 26.000000000005
  31
0.0
   0
LINE
   5
172
 100
AcDbEntity
   8
LEVEL002
 370
40
 100
AcDbLine
   6
CONTINUOUS
  62
3
  10
 152.24999999997
  20
 16.000000000005
  30
0.0
  11
 202.24999999997
  21
 16.000000000005
  31
0.0
   0
LINE
   5
173
 100
AcDbEntity
   8
LEVEL002
 370
40
 100
AcDbLine
   6
CONTINUOUS
  62
3
  10
 177.24999999997
  20
 26.000000000005
  30
0.0
  11
 177.24999999997
  21
 6.0000000000050
  31
0.0
   0
LINE
   5
174
 100
AcDbEntity
   8
LEVEL002
 370
40
 100
AcDbLine
   6
CONTINUOUS
  62
3
  10
 177.24999999997
  20
 19.333333333340
  30
0.0
  11
 202.24999999997
  21
 19.333333333340
  31
0.0
   0
LINE
   5
175
 100
AcDbEntity
   8
LEVEL002
 370
40
 100
AcDbLine
   6
CONTINUOUS
  62
3
  10
 177.24999999997
  20
 22.666666666673
  30
0.0
  11
 202.24999999997
  21
 22.666666666673
  31
0.0
   0
LINE
   5
176
 100
AcDbEntity
   8
LEVEL002
 370
50
 100
AcDbLine
   6
CONTINUOUS
  62
4
  10
 202.24999999997
  20
 142.50000000000
  30
0.0
  11
 7.7499999999750
  21
 142.50000000000
  31
0.0
   0
LINE
   5
177
 100
AcDbEntity
   8
LEVEL002
 370
50
 100
AcDbLine
   6
CONTINUOUS
  62
4
  10
 152.24999999997
  20
 142.50000000000
  30
0.0
  11
 152.24999999997
  21
 6.0000000000050
  31
0.0
   0
LINE
   5
178
 100
AcDbEntity
   8
LEVEL002
 370
50
 100
AcDbLine
   6
CONTINUOUS
  62
4
  10
 202.24999999997
  20
 6.0000000000050
  30
0.0
  11
 202.24999999997
  21
 142.50000000000
  31
0.0
   0
LINE
   5
179
 100
AcDbEntity
   8
LEVEL002
 370
50
 100
AcDbLine
   6
CONTINUOUS
  62
4
  10
 7.7499999999750
  20
 142.50000000000
  30
0.0
  11
 7.7499999999750
  21
 6.0000000000050
  31
0.0
   0
LINE
   5
17A
 100
AcDbEntity
   8
LEVEL002
 370
50
 100
AcDbLine
   6
CONTINUOUS
  62
4
  10
 7.7499999999750
  20
 6.0000000000050
  30
0.0
  11
 202.24999999997
  21
 6.0000000000050
  31
0.0
   0
HATCH
   5
17B
 100
AcDbEntity
   8
LEVEL001
  62
1
 100
AcDbHatch
  10
0.0
  20
0.0
  30
0.0
 210
0.0
 220
0.0
 230
 1.0000000000000
   2
SOLID
  70
1
  71
1
  91
7
  92
1
  93
6
  72
1
  10
 162.22500000000
  20
 140.23750000000
  11
 159.02500000000
  21
 135.43750000000
  72
1
  10
 159.02500000000
  20
 135.43750000000
  11
 162.22500000000
  21
 130.63750000000
  72
1
  10
 162.22500000000
  20
 130.63750000000
  11
 159.52500000000
  21
 130.63750000000
  72
1
  10
 159.52500000000
  20
 130.63750000000
  11
 156.32500000000
  21
 135.43750000000
  72
1
  10
 156.32500000000
  20
 135.43750000000
  11
 159.52500000000
  21
 140.23750000000
  72
1
  10
 159.52500000000
  20
 140.23750000000
  11
 162.22500000000
  21
 140.23750000000
  97
1
 330

  92
16
  93
6
  72
1
  10
 163.57500000000
  20
 140.23750000000
  11
 166.27500000000
  21
 140.23750000000
  72
1
  10
 166.27500000000
  20
 140.23750000000
  11
 163.07500000000
  21
 135.43750000000
  72
1
  10
 163.07500000000
  20
 135.43750000000
  11
 166.27500000000
  21
 130.63750000000
  72
1
  10
 166.27500000000
  20
 130.63750000000
  11
 163.57500000000
  21
 130.63750000000
  72
1
  10
 163.57500000000
  20
 130.63750000000
  11
 160.37500000000
  21
 135.43750000000
  72
1
  10
 160.37500000000
  20
 135.43750000000
  11
 163.57500000000
  21
 140.23750000000
  97
1
 330

  92
16
  93
3
  72
1
  10
 166.67500000000
  20
 135.43750000000
  11
 164.42500000000
  21
 135.43750000000
  72
1
  10
 164.42500000000
  20
 135.43750000000
  11
 166.67500000000
  21
 131.83750000000
  72
1
  10
 166.67500000000
  20
 131.83750000000
  11
 166.67500000000
  21
 135.43750000000
  97
1
 330

  92
16
  93
6
  72
1
  10
 168.47500000000
  20
 136.03750000000
  11
 172.07500000000
  21
 136.03750000000
  72
2
  10
 172.07500000000
  20
 133.78750000000
  40
 2.2500000000000
  50
 270.00000000000
  51
 90.000000000000
  73
0
  72
1
  10
 172.07500000000
  20
 131.53750000000
  11
 170.27500000000
  21
 131.53750000000
  72
1
  10
 170.27500000000
  20
 131.53750000000
  11
 170.27500000000
  21
 130.63750000000
  72
1
  10
 170.27500000000
  20
 130.63750000000
  11
 168.47500000000
  21
 130.63750000000
  72
1
  10
 168.47500000000
  20
 130.63750000000
  11
 168.47500000000
  21
 136.03750000000
  97
1
 330

  92
16
  93
4
  72
1
  10
 172.07500000000
  20
 134.23750000000
  11
 170.27500000000
  21
 134.23750000000
  72
1
  10
 170.27500000000
  20
 134.23750000000
  11
 170.27500000000
  21
 133.33750000000
  72
1
  10
 170.27500000000
  20
 133.33750000000
  11
 172.07500000000
  21
 133.33750000000
  72
2
  10
 172.07500000000
  20
 133.78750000000
  40
 0.45000000000000
  50
 270.00000000000
  51
 90.000000000000
  73
1
  97
1
 330

  92
16
  93
4
  72
1
  10
 172.97500000000
  20
 130.63750000000
  11
 176.57500000000
  21
 136.03750000000
  72
1
  10
 176.57500000000
  20
 136.03750000000
  11
 179.27500000000
  21
 136.03750000000
  72
1
  10
 179.27500000000
  20
 136.03750000000
  11
 175.67500000000
  21
 130.63750000000
  72
1
  10
 175.67500000000
  20
 130.63750000000
  11
 172.97500000000
  21
 130.63750000000
  97
1
 330

  92
16
  93
3
  72
1
  10
 178.67500000000
  20
 134.05583461735
  11
 176.39611025510
  21
 130.63750000000
  72
1
  10
 176.39611025510
  20
 130.63750000000
  11
 178.67500000000
  21
 130.63750000000
  72
1
  10
 178.67500000000
  20
 130.63750000000
  11
 178.67500000000
  21
 134.05583461735
  97
1
 330

  75
0
  76
1
  98
1
  10
0.0
  20
0.0
   0
HATCH
   5
17C
 100
AcDbEntity
   8
LEVEL001
  62
1
 100
AcDbHatch
  10
0.0
  20
0.0
  30
0.0
 210
0.0
 220
0.0
 230
 1.0000000000000
   2
SOLID
  70
1
  71
1
  91
1
  92
1
  93
22
  72
1
  10
 179.27500000000
  20
 136.03750000000
  11
 181.07500000000
  21
 136.03750000000
  72
1
  10
 181.07500000000
  20
 136.03750000000
  11
 181.07500000000
  21
 132.43750000000
  72
1
  10
 181.07500000000
  20
 132.43750000000
  11
 183.77500000000
  21
 132.43750000000
  72
1
  10
 183.77500000000
  20
 132.43750000000
  11
 183.77500000000
  21
 134.23750000000
  72
1
  10
 183.77500000000
  20
 134.23750000000
  11
 181.97500000000
  21
 134.23750000000
  72
1
  10
 181.97500000000
  20
 134.23750000000
  11
 181.97500000000
  21
 136.03750000000
  72
1
  10
 181.97500000000
  20
 136.03750000000
  11
 192.77500000000
  21
 136.03750000000
  72
1
  10
 192.77500000000
  20
 136.03750000000
  11
 192.77500000000
  21
 134.23750000000
  72
1
  10
 192.77500000000
  20
 134.23750000000
  11
 189.17500000000
  21
 134.23750000000
  72
1
  10
 189.17500000000
  20
 134.23750000000
  11
 189.17500000000
  21
 133.78750000000
  72
1
  10
 189.17500000000
  20
 133.78750000000
  11
 192.32500000000
  21
 133.78750000000
  72
1
  10
 192.32500000000
  20
 133.78750000000
  11
 192.32500000000
  21
 132.88750000000
  72
1
  10
 192.32500000000
  20
 132.88750000000
  11
 189.17500000000
  21
 132.88750000000
  72
1
  10
 189.17500000000
  20
 132.88750000000
  11
 189.17500000000
  21
 132.43750000000
  72
1
  10
 189.17500000000
  20
 132.43750000000
  11
 192.77500000000
  21
 132.43750000000
  72
1
  10
 192.77500000000
  20
 132.43750000000
  11
 192.77500000000
  21
 130.63750000000
  72
1
  10
 192.77500000000
  20
 130.63750000000
  11
 187.37500000000
  21
 130.63750000000
  72
1
  10
 187.37500000000
  20
 130.63750000000
  11
 187.37500000000
  21
 134.23750000000
  72
1
  10
 187.37500000000
  20
 134.23750000000
  11
 185.57500000000
  21
 134.23750000000
  72
1
  10
 185.57500000000
  20
 134.23750000000
  11
 185.57500000000
  21
 130.63750000000
  72
1
  10
 185.57500000000
  20
 130.63750000000
  11
 179.27500000000
  21
 130.63750000000
  72
1
  10
 179.27500000000
  20
 130.63750000000
  11
 179.27500000000
  21
 136.03750000000
  97
1
 330

  75
0
  76
1
  98
1
  10
0.0
  20
0.0
   0
HATCH
   5
17D
 100
AcDbEntity
   8
LEVEL001
  62
1
 100
AcDbHatch
  10
0.0
  20
0.0
  30
0.0
 210
0.0
 220
0.0
 230
 1.0000000000000
   2
SOLID
  70
1
  71
1
  91
1
  92
1
  93
8
  72
1
  10
 198.17500000000
  20
 136.03750000000
  11
 195.47500000000
  21
 136.03750000000
  72
2
  10
 195.47500000000
  20
 133.33750000000
  40
 2.7000000000000
  50
 90.000000000000
  51
 270.00000000000
  73
1
  72
1
  10
 195.47500000000
  20
 130.63750000000
  11
 198.17500000000
  21
 130.63750000000
  72
1
  10
 198.17500000000
  20
 130.63750000000
  11
 198.17500000000
  21
 132.43750000000
  72
1
  10
 198.17500000000
  20
 132.43750000000
  11
 195.47500000000
  21
 132.43750000000
  72
2
  10
 195.47500000000
  20
 133.33750000000
  40
 0.90000000000000
  50
 90.000000000000
  51
 270.00000000000
  73
0
  72
1
  10
 195.47500000000
  20
 134.23750000000
  11
 198.17500000000
  21
 134.23750000000
  72
1
  10
 198.17500000000
  20
 134.23750000000
  11
 198.17500000000
  21
 136.03750000000
  97
1
 330

  75
0
  76
1
  98
1
  10
0.0
  20
0.0
   0
MTEXT
   5
17F
 100
AcDbEntity
   8
LEVEL002
 370
15
  62
8
 100
AcDbMText
  10
 155.39999999997
  20
 14.125000000005
  30
0.0
  40
 1.5000000000000
  41
0.0
  71
5
  72
1
   1
\T1.000000;サイズ：
   7
GMM002
  44
 0.79999984000003
   0
MTEXT
   5
181
 100
AcDbEntity
   8
LEVEL002
 370
15
  62
8
 100
AcDbMText
  10
 154.64999999997
  20
 24.125000000005
  30
0.0
  40
 1.5000000000000
  41
0.0
  71
5
  72
1
   1
\T1.000000;縮尺：
   7
GMM002
  44
 0.79999984000003
   0
MTEXT
   5
183
 100
AcDbEntity
   8
LEVEL002
 370
15
  62
8
 100
AcDbMText
  10
 156.14999999997
  20
 34.125000000005
  30
0.0
  40
 1.5000000000000
  41
0.0
  71
5
  72
1
   1
\T1.000000;図面名称：
   7
GMM002
  44
 0.79999984000003
   0
MTEXT
   5
185
 100
AcDbEntity
   8
LEVEL002
 370
15
  62
8
 100
AcDbMText
  10
 181.89999999997
  20
 14.125000000005
  30
0.0
  40
 1.5000000000000
  41
0.0
  71
5
  72
1
   1
\T1.000000;ファイル名：
   7
GMM002
  44
 0.79999984000003
   0
MTEXT
   5
187
 100
AcDbEntity
   8
LEVEL002
 370
15
  62
8
 100
AcDbMText
  10
 181.14999999997
  20
 21.000000000005
  30
0.0
  40
 1.4000000000000
  41
0.0
  71
5
  72
1
   1
\T1.000000;変更日付：
   7
GMM003
  44
 0.79999984000003
   0
MTEXT
   5
189
 100
AcDbEntity
   8
LEVEL002
 370
15
  62
8
 100
AcDbMText
  10
 164.74999999997
  20
 9.1250000000050
  30
0.0
  40
 1.8750000000000
  41
0.0
  71
5
  72
1
   1
\T1.000000;Ａ３
   7
GMM002
  44
 0.79999984000003
   0
MTEXT
   5
18B
 100
AcDbEntity
   8
LEVEL002
 370
15
  62
8
 100
AcDbMText
  10
 154.64999999997
  20
 106.50000000000
  30
0.0
  40
 1.5000000000000
  41
0.0
  71
5
  72
1
   1
\T1.000000;仕様：
   7
GMM002
  44
 0.79999984000003
   0
MTEXT
   5
18D
 100
AcDbEntity
   8
LEVEL002
 370
15
  62
8
 100
AcDbMText
  10
 154.64999999997
  20
 116.50000000000
  30
0.0
  40
 1.5000000000000
  41
0.0
  71
5
  72
1
   1
\T1.000000;形式：
   7
GMM002
  44
 0.79999984000003
   0
MTEXT
   5
18F
 100
AcDbEntity
   8
LEVEL002
 370
15
  62
8
 100
AcDbMText
  10
 155.39999999997
  20
 126.50000000000
  30
0.0
  40
 1.5000000000000
  41
0.0
  71
5
  72
1
   1
\T1.000000;商品名：
   7
GMM002
  44
 0.79999984000003
   0
MTEXT
   5
191
 100
AcDbEntity
   8
LEVEL002
 370
15
  62
8
 100
AcDbMText
  10
 173.44999999998
  20
 38.435401729506
  30
0.0
  40
 2.0000000000000
  41
0.0
  71
5
  72
1
   1
\T1.000000;　※本製品は予告無しに変更する事があります。
   7
GMM002
  44
 0.79999984000003
   0
LINE
   5
192
 100
AcDbEntity
   8
LEVEL001
 370
40
 100
AcDbLine
   6
CONTINUOUS
  62
3
  10
 79.999999999975
  20
 142.50000000000
  30
0.0
  11
 79.999999999975
  21
 6.0000000000050
  31
0.0
   0
LINE
   5
193
 100
AcDbEntity
   8
LEVEL001
 370
40
 100
AcDbLine
   6
CONTINUOUS
  62
3
  10
 116.12499999997
  20
 142.50000000000
  30
0.0
  11
 116.12499999997
  21
 6.0000000000050
  31
0.0
   0
MTEXT
   5
195
 100
AcDbEntity
   8
LEVEL002
 370
15
  62
8
 100
AcDbMText
  10
 181.14999999997
  20
 24.333333333340
  30
0.0
  40
 1.4000000000000
  41
0.0
  71
5
  72
1
   1
\T1.000000;作成日付：
   7
GMM003
  44
 0.79999984000003
   0
MTEXT
   5
197
 100
AcDbEntity
   8
LEVEL002
 370
15
  62
8
 100
AcDbMText
  10
 193.60754228038
  20
 21.000000000005
  30
0.0
  40
 1.5000000000000
  41
0.0
  71
5
  72
1
   1
\T1.000000;令和　　年　　月　　日
   7
GMM002
  44
 0.79999984000003
   0
MTEXT
   5
199
 100
AcDbEntity
   8
LEVEL002
 370
15
  62
8
 100
AcDbMText
  10
 193.60754228038
  20
 17.666666666673
  30
0.0
  40
 1.5000000000000
  41
0.0
  71
5
  72
1
   1
\T1.000000;令和　　年　　月　　日
   7
GMM002
  44
 0.79999984000003
   0
LINE
   5
19A
 100
AcDbEntity
   8
LEVEL002
 370
40
 100
AcDbLine
   6
CONTINUOUS
  62
3
  10
 7.7499999999750
  20
 35.125000000004
  30
0.0
  11
 152.24999999997
  21
 35.125000000004
  31
0.0
   0
LINE
   5
19B
 100
AcDbEntity
   8
LEVEL002
 370
40
 100
AcDbLine
   6
CONTINUOUS
  62
3
  10
 7.7499999999750
  20
 40.125000000004
  30
0.0
  11
 152.24999999997
  21
 40.125000000004
  31
0.0
   0
LINE
   5
19C
 100
AcDbEntity
   8
LEVEL002
 370
40
 100
AcDbLine
   6
CONTINUOUS
  62
3
  10
 7.7499999999750
  20
 69.250000000003
  30
0.0
  11
 152.24999999997
  21
 69.250000000003
  31
0.0
   0
LINE
   5
19D
 100
AcDbEntity
   8
LEVEL002
 370
40
 100
AcDbLine
   6
CONTINUOUS
  62
3
  10
 7.7499999999750
  20
 74.250000000003
  30
0.0
  11
 152.24999999997
  21
 74.250000000003
  31
0.0
   0
LINE
   5
19E
 100
AcDbEntity
   8
LEVEL002
 370
40
 100
AcDbLine
   6
CONTINUOUS
  62
3
  10
 7.7499999999750
  20
 103.37500000000
  30
0.0
  11
 152.24999999997
  21
 103.37500000000
  31
0.0
   0
LINE
   5
19F
 100
AcDbEntity
   8
LEVEL002
 370
40
 100
AcDbLine
   6
CONTINUOUS
  62
3
  10
 7.7499999999750
  20
 108.37500000000
  30
0.0
  11
 152.24999999997
  21
 108.37500000000
  31
0.0
   0
MTEXT
   5
1A1
 100
AcDbEntity
   8
LEVEL002
 370
15
  62
8
 100
AcDbMText
  10
 164.74999999997
  20
 19.125000000005
  30
0.0
  40
 1.8750000000000
  41
0.0
  71
5
  72
1
   1
\T1.000000;Ｓ＝２：１
   7
GMM002
  44
 0.79999984000003
   0
MTEXT
   5
1A3
 100
AcDbEntity
   8
LEVEL002
 370
15
  62
8
 100
AcDbMText
  10
 167.24999999997
  20
 122.25000000000
  30
0.0
  40
 2.2500000000000
  41
0.0
  71
7
  72
1
   1
\T1.000000;　パルフラットレール
   7
GMM004
  44
 0.79999984000003
   0
MTEXT
   5
1A5
 100
AcDbEntity
   8
LEVEL002
 370
15
  62
8
 100
AcDbMText
  10
 177.24999999997
  20
 29.125000000005
  30
0.0
  40
 1.8750000000000
  41
0.0
  71
5
  72
1
   1
\T1.000000;断面図
   7
GMM002
  44
 0.79999984000003
   0
LINE
   5
1A6
 100
AcDbEntity
   8
LEVEL001
 370
40
 100
AcDbLine
   6
CONTINUOUS
  62
3
  10
 43.874999999975
  20
 142.50000000000
  30
0.0
  11
 43.874999999975
  21
 6.0000000000050
  31
0.0
   0
LINE
   5
1A7
 100
AcDbEntity
   8
LEVEL001
 370
30
 100
AcDbLine
   6
DOT
  62
7
  10
 210.00000000000
  20
0.0
  30
0.0
  11
 210.00000000000
  21
 148.50000000000
  31
0.0
   0
MTEXT
   5
1A9
 100
AcDbEntity
   8
LEVEL001
 370
15
  62
8
 100
AcDbMText
  10
 7.8999999999750
  20
 110.87500000000
  30
0.0
  40
 1.5000000000000
  41
0.0
  71
4
  72
1
   1
\W0.500000;\T1.000000; \W1.000000;\T1.000000;　堀込寸法：９×９
   7
GMM002
  44
 0.79999984000003
   0
MTEXT
   5
1AB
 100
AcDbEntity
   8
LEVEL001
 370
15
  62
8
 100
AcDbMText
  10
 7.8999999999750
  20
 140.00000000000
  30
0.0
  40
 1.5000000000000
  41
0.0
  71
4
  72
1
   1
\W0.500000;\T1.000000; \W1.000000;\T1.000000;　ＵＳＡ９
   7
GMM002
  44
 0.79999984000003
   0
MTEXT
   5
1AD
 100
AcDbEntity
   8
LEVEL001
 370
15
  62
8
 100
AcDbMText
  10
 44.024999999975
  20
 140.00000000000
  30
0.0
  40
 1.5000000000000
  41
0.0
  71
4
  72
1
   1
\W0.500000;\T1.000000; \W1.000000;\T1.000000;　ＵＳＡ６
   7
GMM002
  44
 0.79999984000003
   0
MTEXT
   5
1AF
 100
AcDbEntity
   8
LEVEL001
 370
15
  62
8
 100
AcDbMText
  10
 44.024999999975
  20
 110.87500000000
  30
0.0
  40
 1.5000000000000
  41
0.0
  71
4
  72
1
   1
\W0.500000;\T1.000000; \W1.000000;\T1.000000;　堀込寸法：９×６
   7
GMM002
  44
 0.79999984000003
   0
MTEXT
   5
1B1
 100
AcDbEntity
   8
LEVEL002
 370
15
  62
8
 100
AcDbMText
  10
 177.24999999997
  20
 114.70833333333
  30
0.0
  40
 2.0000000000000
  41
0.0
  71
2
  72
1
   1
{\W1.000000;\T1.000000;アルミＵ溝レール（Ｕタイプ）}\P{\W0.500000;\T1.000000;(\W1.000000;\T1.000000;ＵＳ型）}
   7
GMM002
  44
 0.79999984000003
   0
MTEXT
   5
1B3
 100
AcDbEntity
   8
LEVEL002
 370
15
  62
8
 100
AcDbMText
  10
 159.74999999997
  20
 103.95833333335
  30
0.0
  40
 1.7500000000000
  41
0.0
  71
1
  72
1
   3
{\W1.000000;\T1.000000;材質：Ａ６０６３Ｓ－Ｔ５}\P\P{\W1.000000;\T1.000000;仕上：アルマイト処理}\P\P{\W1.000000;\T1.000000;　色：Ｂ２　シルバー}\P{\W1.000000;\T1.000000;　　　ＵＢ　アーバンブラウン}\P\P{\W1.000000;\T1.000000;長さ（定尺）：２０１０\W0
   1
.500000;\T1.000000;mm}\P{\W1.000000;\T1.000000;　　　　　　　３０１０\W0.500000;\T1.000000;mm}\P{\W1.000000;\T1.000000;　　　　　　　４０２０\W0.500000;\T1.000000;mm}\P\P{\W1.000000;\T1.000000;備考：抜け防止タイプ}
   7
GMM002
  44
 0.79999984000003
   0
MTEXT
   5
1B5
 100
AcDbEntity
   8
LEVEL002
 370
15
  62
8
 100
AcDbMText
  10
 189.74999999997
  20
 10.041666666673
  30
0.0
  40
 1.2500000000000
  41
0.0
  71
5
  72
1
   1
\T1.000000;ＰＦ－１１
   7
GMM002
  44
 0.79999984000003
   0
DIMENSION
   5
1B6
 100
AcDbEntity
   8
LEVEL001
 370
15
   6
CONTINUOUS
  62
8
 100
AcDbDimension
   2
*D1
  10
 27.640287312515
  20
 127.32449682853
  30
0.0
  11
 25.390287312515
  21
 127.32449682853
  31
0.0
  70
0
   3
GMM001
 100
AcDbAlignedDimension
  13
 23.140287312515
  23
 123.02449682869
  33
0.0
  14
 27.640287312515
  24
 123.02449682869
  34
0.0
 100
AcDbRotatedDimension
   0
DIMENSION
   5
1B7
 100
AcDbEntity
   8
LEVEL001
 370
15
   6
CONTINUOUS
  62
8
 100
AcDbDimension
   2
*D2
  10
 29.890287312624
  20
 129.82449682853
  30
0.0
  11
 25.390287312535
  21
 129.82449682853
  31
0.0
  70
0
   3
GMM001
 100
AcDbAlignedDimension
  13
 20.890287312445
  23
 124.82449682853
  33
0.0
  14
 29.890287312624
  24
 124.82449682853
  34
0.0
 100
AcDbRotatedDimension
   0
DIMENSION
   5
1B8
 100
AcDbEntity
   8
LEVEL001
 370
15
   6
CONTINUOUS
  62
8
 100
AcDbDimension
   2
*D3
  10
 32.890287312624
  20
 124.82449682853
  30
0.0
  11
 32.890287312624
  21
 120.82449682853
  31
0.0
  70
0
   3
GMM001
 100
AcDbAlignedDimension
  13
 28.590287312534
  23
 116.82449682853
  33
0.0
  14
 29.890287312624
  24
 124.82449682853
  34
0.0
  50
 90.000000000000
 100
AcDbRotatedDimension
   0
DIMENSION
   5
1B9
 100
AcDbEntity
   8
LEVEL001
 370
15
   6
CONTINUOUS
  62
8
 100
AcDbDimension
   2
*D4
  10
 35.890287312624
  20
 124.82449682853
  30
0.0
  11
 35.890287312624
  21
 120.32449682853
  31
0.0
  70
0
   3
GMM001
 100
AcDbAlignedDimension
  13
 28.090287312515
  23
 115.82449682853
  33
0.0
  14
 32.890287312624
  24
 124.82449682853
  34
0.0
  50
 90.000000000000
 100
AcDbRotatedDimension
   0
LINE
   5
1BA
 100
AcDbEntity
   8
LEVEL002
 370
15
 100
AcDbLine
   6
DASHDOT
  62
8
  10
 25.390287312484
  20
 115.12174457943
  30
0.0
  11
 25.390287312484
  21
 125.52724907763
  31
0.0
   0
LINE
   5
1BB
 100
AcDbEntity
   8
LEVEL002
 370
30
 100
AcDbLine
   6
CONTINUOUS
  62
7
  10
 20.890287312534
  20
 124.82449682853
  30
0.0
  11
 21.090287312534
  21
 124.82449682853
  31
0.0
   0
LINE
   5
1BC
 100
AcDbEntity
   8
LEVEL002
 370
30
 100
AcDbLine
   6
CONTINUOUS
  62
7
  10
 29.690287312534
  20
 124.82449682853
  30
0.0
  11
 29.890287312534
  21
 124.82449682853
  31
0.0
   0
LINE
   5
1BD
 100
AcDbEntity
   8
LEVEL002
 370
30
 100
AcDbLine
   6
CONTINUOUS
  62
7
  10
 21.590287312648
  20
 124.82449682853
  30
0.0
  11
 22.590287312648
  21
 123.82449682853
  31
0.0
   0
LINE
   5
1BE
 100
AcDbEntity
   8
LEVEL002
 370
30
 100
AcDbLine
   6
CONTINUOUS
  62
7
  10
 29.190287312421
  20
 124.82449682853
  30
0.0
  11
 28.190287312421
  21
 123.82449682853
  31
0.0
   0
LINE
   5
1BF
 100
AcDbEntity
   8
LEVEL002
 370
30
 100
AcDbLine
   6
CONTINUOUS
  62
7
  10
 29.190287312421
  20
 124.82449682853
  30
0.0
  11
 29.890287312523
  21
 124.82449682853
  31
0.0
   0
LINE
   5
1C0
 100
AcDbEntity
   8
LEVEL002
 370
30
 100
AcDbLine
   6
CONTINUOUS
  62
7
  10
 20.890287312523
  20
 124.82449682853
  30
0.0
  11
 21.590287312648
  21
 124.82449682853
  31
0.0
   0
LINE
   5
1C1
 100
AcDbEntity
   8
LEVEL002
 370
30
 100
AcDbLine
   6
CONTINUOUS
  62
7
  10
 22.590287312648
  20
 123.82449682853
  30
0.0
  11
 22.590287312648
  21
 123.02449682869
  31
0.0
   0
LINE
   5
1C2
 100
AcDbEntity
   8
LEVEL002
 370
30
 100
AcDbLine
   6
CONTINUOUS
  62
7
  10
 22.590287312648
  20
 123.02449682869
  30
0.0
  11
 23.140287312515
  21
 123.02449682869
  31
0.0
   0
LINE
   5
1C3
 100
AcDbEntity
   8
LEVEL002
 370
30
 100
AcDbLine
   6
CONTINUOUS
  62
7
  10
 27.640287312515
  20
 123.02449682869
  30
0.0
  11
 28.190287312421
  21
 123.02449682869
  31
0.0
   0
LINE
   5
1C4
 100
AcDbEntity
   8
LEVEL002
 370
30
 100
AcDbLine
   6
CONTINUOUS
  62
7
  10
 28.190287312421
  20
 123.02449682869
  30
0.0
  11
 28.190287312421
  21
 123.82449682853
  31
0.0
   0
LINE
   5
1C5
 100
AcDbEntity
   8
LEVEL002
 370
30
 100
AcDbLine
   6
CONTINUOUS
  62
7
  10
 23.140287312515
  20
 123.02449682869
  30
0.0
  11
 23.140287312515
  21
 121.82449682869
  31
0.0
   0
LINE
   5
1C6
 100
AcDbEntity
   8
LEVEL002
 370
30
 100
AcDbLine
   6
CONTINUOUS
  62
7
  10
 27.640287312515
  20
 123.02449682869
  30
0.0
  11
 27.640287312515
  21
 121.82449682869
  31
0.0
   0
LINE
   5
1C7
 100
AcDbEntity
   8
LEVEL002
 370
30
 100
AcDbLine
   6
CONTINUOUS
  62
7
  10
 21.890287312434
  20
 121.82449682869
  30
0.0
  11
 23.140287312515
  21
 121.82449682869
  31
0.0
   0
LINE
   5
1C8
 100
AcDbEntity
   8
LEVEL002
 370
30
 100
AcDbLine
   6
CONTINUOUS
  62
7
  10
 27.640287312515
  20
 121.82449682869
  30
0.0
  11
 28.890287312534
  21
 121.82449682869
  31
0.0
   0
ARC
   5
1C9
 100
AcDbEntity
   8
LEVEL002
 370
30
   6
CONTINUOUS
  62
7
 100
AcDbCircle
  10
 29.840287312623
  20
 121.82449682853
  30
0.0
  40
 0.30000000000000
 100
AcDbArc
  50
 279.59406822695
  51
 80.405931773041
   0
ARC
   5
1CA
 100
AcDbEntity
   8
LEVEL002
 370
30
   6
CONTINUOUS
  62
7
 100
AcDbCircle
  10
 20.940287312446
  20
 121.82449682853
  30
0.0
  40
 0.30000000000000
 100
AcDbArc
  50
 99.594068226959
  51
 260.40593177305
   0
LINE
   5
1CB
 100
AcDbEntity
   8
LEVEL002
 370
30
 100
AcDbLine
   6
CONTINUOUS
  62
7
  10
 20.890287312445
  20
 124.82449682853
  30
0.0
  11
 20.890287312445
  21
 122.12030081769
  31
0.0
   0
LINE
   5
1CC
 100
AcDbEntity
   8
LEVEL002
 370
30
 100
AcDbLine
   6
CONTINUOUS
  62
7
  10
 29.890287312624
  20
 124.82449682853
  30
0.0
  11
 29.890287312624
  21
 122.12030081769
  31
0.0
   0
LINE
   5
1CD
 100
AcDbEntity
   8
LEVEL002
 370
30
 100
AcDbLine
   6
CONTINUOUS
  62
7
  10
 22.390287312434
  20
 116.82449682853
  30
0.0
  11
 28.390287312534
  21
 116.82449682853
  31
0.0
   0
ARC
   5
1CE
 100
AcDbEntity
   8
LEVEL002
 370
30
   6
CONTINUOUS
  62
7
 100
AcDbCircle
  10
 29.740287312515
  20
 117.82449682853
  30
0.0
  40
 0.30000000000000
 100
AcDbArc
  50
 279.59406822672
  51
 78.863054139314
   0
ARC
   5
1CF
 100
AcDbEntity
   8
LEVEL002
 370
30
   6
CONTINUOUS
  62
7
 100
AcDbCircle
  10
 29.790287312515
  20
 119.82449682853
  30
0.0
  40
 0.30000000000000
 100
AcDbArc
  50
 278.81814358878
  51
 78.089046726344
   0
LINE
   5
1D0
 100
AcDbEntity
   8
LEVEL002
 370
30
 100
AcDbLine
   6
CONTINUOUS
  62
7
  10
 29.798233719628
  20
 118.11884732352
  30
0.0
  11
 29.836276942407
  21
 119.52804286256
  31
0.0
   0
LINE
   5
1D1
 100
AcDbEntity
   8
LEVEL002
 370
30
 100
AcDbLine
   6
CONTINUOUS
  62
7
  10
 29.852204685675
  20
 120.11803769264
  30
0.0
  11
 29.890287312624
  21
 121.52869283938
  31
0.0
   0
ARC
   5
1D2
 100
AcDbEntity
   8
LEVEL002
 370
30
   6
CONTINUOUS
  62
7
 100
AcDbCircle
  10
 21.040287312514
  20
 117.82449682853
  30
0.0
  40
 0.30000000000000
 100
AcDbArc
  50
 101.13694586001
  51
 260.40593177335
   0
ARC
   5
1D3
 100
AcDbEntity
   8
LEVEL002
 370
30
   6
CONTINUOUS
  62
7
 100
AcDbCircle
  10
 20.990287312514
  20
 119.82449682853
  30
0.0
  40
 0.30000000000000
 100
AcDbArc
  50
 101.91095326897
  51
 261.18185641469
   0
LINE
   5
1D4
 100
AcDbEntity
   8
LEVEL002
 370
30
 100
AcDbLine
   6
CONTINUOUS
  62
7
  10
 20.890287312445
  20
 121.52869283938
  30
0.0
  11
 20.928369939379
  21
 120.11803769264
  31
0.0
   0
LINE
   5
1D5
 100
AcDbEntity
   8
LEVEL002
 370
30
 100
AcDbLine
   6
CONTINUOUS
  62
7
  10
 20.944297682640
  20
 119.52804286255
  30
0.0
  11
 20.982340905404
  21
 118.11884732352
  31
0.0
   0
LINE
   5
1D6
 100
AcDbEntity
   8
LEVEL002
 370
30
 100
AcDbLine
   6
CONTINUOUS
  62
7
  10
 20.990287312515
  20
 117.52869283938
  30
0.0
  11
 20.990287312515
  21
 117.52449682853
  31
0.0
   0
ARC
   5
1D7
 100
AcDbEntity
   8
LEVEL002
 370
30
   6
CONTINUOUS
  62
7
 100
AcDbCircle
  10
 22.690287312515
  20
 117.52449682853
  30
0.0
  40
 1.7000000000000
 100
AcDbArc
  50
 180.00000000000
  51
 270.00000000000
   0
LINE
   5
1D8
 100
AcDbEntity
   8
LEVEL002
 370
30
 100
AcDbLine
   6
CONTINUOUS
  62
7
  10
 22.690287312515
  20
 115.82449682853
  30
0.0
  11
 28.090287312515
  21
 115.82449682853
  31
0.0
   0
LINE
   5
1D9
 100
AcDbEntity
   8
LEVEL002
 370
30
 100
AcDbLine
   6
CONTINUOUS
  62
7
  10
 29.790287312515
  20
 117.52449682853
  30
0.0
  11
 29.790287312515
  21
 117.52869283938
  31
0.0
   0
ARC
   5
1DA
 100
AcDbEntity
   8
LEVEL002
 370
30
   6
CONTINUOUS
  62
7
 100
AcDbCircle
  10
 28.090287312515
  20
 117.52449682853
  30
0.0
  40
 1.7000000000000
 100
AcDbArc
  50
 270.00000000000
  51
0.0
   0
LINE
   5
1DB
 100
AcDbEntity
   8
LEVEL002
 370
30
 100
AcDbLine
   6
CONTINUOUS
  62
7
  10
 22.390287312434
  20
 117.12449682853
  30
0.0
  11
 22.390287312434
  21
 116.82449682853
  31
0.0
   0
ARC
   5
1DC
 100
AcDbEntity
   8
LEVEL002
 370
30
   6
CONTINUOUS
  62
7
 100
AcDbCircle
  10
 22.190287312434
  20
 117.12449682853
  30
0.0
  40
 0.20000000000000
 100
AcDbArc
  50
0.0
  51
 89.999999999975
   0
LINE
   5
1DD
 100
AcDbEntity
   8
LEVEL002
 370
30
 100
AcDbLine
   6
CONTINUOUS
  62
7
  10
 21.890287312434
  20
 117.32449682853
  30
0.0
  11
 22.376221893847
  21
 118.55081961744
  31
0.0
   0
LINE
   5
1DE
 100
AcDbEntity
   8
LEVEL002
 370
30
 100
AcDbLine
   6
CONTINUOUS
  62
7
  10
 21.890287312434
  20
 118.82449682853
  30
0.0
  11
 22.376221893847
  21
 120.05081961744
  31
0.0
   0
LINE
   5
1DF
 100
AcDbEntity
   8
LEVEL002
 370
30
 100
AcDbLine
   6
CONTINUOUS
  62
7
  10
 21.890287312434
  20
 121.82449682853
  30
0.0
  11
 21.890287312434
  21
 120.32449682853
  31
0.0
   0
LINE
   5
1E0
 100
AcDbEntity
   8
LEVEL002
 370
30
 100
AcDbLine
   6
CONTINUOUS
  62
7
  10
 21.890287312434
  20
 120.32449682853
  30
0.0
  11
 22.190287312434
  21
 120.32449682853
  31
0.0
   0
ARC
   5
1E1
 100
AcDbEntity
   8
LEVEL002
 370
30
   6
CONTINUOUS
  62
7
 100
AcDbCircle
  10
 22.190287312434
  20
 120.12449682853
  30
0.0
  40
 0.20000000000000
 100
AcDbArc
  50
 338.38388447005
  51
 89.999999999968
   0
LINE
   5
1E2
 100
AcDbEntity
   8
LEVEL002
 370
30
 100
AcDbLine
   6
CONTINUOUS
  62
7
  10
 21.890287312434
  20
 118.82449682853
  30
0.0
  11
 22.190287312434
  21
 118.82449682853
  31
0.0
   0
LINE
   5
1E3
 100
AcDbEntity
   8
LEVEL002
 370
30
 100
AcDbLine
   6
CONTINUOUS
  62
7
  10
 21.890287312434
  20
 117.32449682853
  30
0.0
  11
 22.190287312434
  21
 117.32449682853
  31
0.0
   0
ARC
   5
1E4
 100
AcDbEntity
   8
LEVEL002
 370
30
   6
CONTINUOUS
  62
7
 100
AcDbCircle
  10
 22.190287312434
  20
 118.62449682853
  30
0.0
  40
 0.20000000000000
 100
AcDbArc
  50
 338.38388447002
  51
 90.000000000051
   0
ARC
   5
1E5
 100
AcDbEntity
   8
LEVEL002
 370
30
   6
CONTINUOUS
  62
7
 100
AcDbCircle
  10
 28.590287312535
  20
 117.12449682853
  30
0.0
  40
 0.20000000000000
 100
AcDbArc
  50
 90.000000000072
  51
 180.00000000000
   0
LINE
   5
1E6
 100
AcDbEntity
   8
LEVEL002
 370
30
 100
AcDbLine
   6
CONTINUOUS
  62
7
  10
 28.890287312534
  20
 117.32449682853
  30
0.0
  11
 28.404352731121
  21
 118.55081961744
  31
0.0
   0
LINE
   5
1E7
 100
AcDbEntity
   8
LEVEL002
 370
30
 100
AcDbLine
   6
CONTINUOUS
  62
7
  10
 28.890287312534
  20
 118.82449682853
  30
0.0
  11
 28.404352731121
  21
 120.05081961744
  31
0.0
   0
ARC
   5
1E8
 100
AcDbEntity
   8
LEVEL002
 370
30
   6
CONTINUOUS
  62
7
 100
AcDbCircle
  10
 28.590287312534
  20
 120.12449682853
  30
0.0
  40
 0.20000000000000
 100
AcDbArc
  50
 89.999999999959
  51
 201.61611552998
   0
ARC
   5
1E9
 100
AcDbEntity
   8
LEVEL002
 370
30
   6
CONTINUOUS
  62
7
 100
AcDbCircle
  10
 28.590287312534
  20
 118.62449682853
  30
0.0
  40
 0.20000000000000
 100
AcDbArc
  50
 90.000000000013
  51
 201.61611552996
   0
LINE
   5
1EA
 100
AcDbEntity
   8
LEVEL002
 370
30
 100
AcDbLine
   6
CONTINUOUS
  62
7
  10
 28.390287312534
  20
 117.12449682853
  30
0.0
  11
 28.390287312534
  21
 116.82449682853
  31
0.0
   0
LINE
   5
1EB
 100
AcDbEntity
   8
LEVEL002
 370
30
 100
AcDbLine
   6
CONTINUOUS
  62
7
  10
 28.890287312534
  20
 117.32449682853
  30
0.0
  11
 28.590287312534
  21
 117.32449682853
  31
0.0
   0
LINE
   5
1EC
 100
AcDbEntity
   8
LEVEL002
 370
30
 100
AcDbLine
   6
CONTINUOUS
  62
7
  10
 28.890287312534
  20
 121.82449682853
  30
0.0
  11
 28.890287312534
  21
 120.32449682853
  31
0.0
   0
LINE
   5
1ED
 100
AcDbEntity
   8
LEVEL002
 370
30
 100
AcDbLine
   6
CONTINUOUS
  62
7
  10
 28.890287312534
  20
 120.32449682853
  30
0.0
  11
 28.590287312534
  21
 120.32449682853
  31
0.0
   0
LINE
   5
1EE
 100
AcDbEntity
   8
LEVEL002
 370
30
 100
AcDbLine
   6
CONTINUOUS
  62
7
  10
 28.890287312534
  20
 118.82449682853
  30
0.0
  11
 28.590287312534
  21
 118.82449682853
  31
0.0
   0
DIMENSION
   5
1EF
 100
AcDbEntity
   8
LEVEL001
 370
15
   6
CONTINUOUS
  62
8
 100
AcDbDimension
   2
*D5
  10
 64.113971523041
  20
 124.32449682853
  30
0.0
  11
 61.863971523041
  21
 124.32449682853
  31
0.0
  70
0
   3
GMM001
 100
AcDbAlignedDimension
  13
 59.613971523041
  23
 120.02449682869
  33
0.0
  14
 64.113971523041
  24
 120.02449682869
  34
0.0
 100
AcDbRotatedDimension
   0
DIMENSION
   5
1F0
 100
AcDbEntity
   8
LEVEL001
 370
15
   6
CONTINUOUS
  62
8
 100
AcDbDimension
   2
*D6
  10
 66.363971523150
  20
 126.82449682853
  30
0.0
  11
 61.863971523061
  21
 126.82449682853
  31
0.0
  70
0
   3
GMM001
 100
AcDbAlignedDimension
  13
 57.363971522972
  23
 121.82449682853
  33
0.0
  14
 66.363971523150
  24
 121.82449682853
  34
0.0
 100
AcDbRotatedDimension
   0
DIMENSION
   5
1F1
 100
AcDbEntity
   8
LEVEL001
 370
15
   6
CONTINUOUS
  62
8
 100
AcDbDimension
   2
*D7
  10
 69.363971523151
  20
 121.82449682853
  30
0.0
  11
 69.363971523151
  21
 119.32449682853
  31
0.0
  70
0
   3
GMM001
 100
AcDbAlignedDimension
  13
 64.663971523061
  23
 116.82449682853
  33
0.0
  14
 66.363971523150
  24
 121.82449682853
  34
0.0
  50
 90.000000000000
 100
AcDbRotatedDimension
   0
DIMENSION
   5
1F2
 100
AcDbEntity
   8
LEVEL001
 370
15
   6
CONTINUOUS
  62
8
 100
AcDbDimension
   2
*D8
  10
 72.363971523151
  20
 121.82449682853
  30
0.0
  11
 72.363971523151
  21
 118.82449682853
  31
0.0
  70
0
   3
GMM001
 100
AcDbAlignedDimension
  13
 64.663971523050
  23
 115.82449682853
  33
0.0
  14
 66.563971523150
  24
 121.82449682853
  34
0.0
  50
 90.000000000000
 100
AcDbRotatedDimension
   0
LINE
   5
1F3
 100
AcDbEntity
   8
LEVEL002
 370
15
 100
AcDbLine
   6
DASHDOT
  62
8
  10
 61.863971523011
  20
 122.86497887001
  30
0.0
  11
 61.863971523011
  21
 115.19484787696
  31
0.0
   0
LINE
   5
1F4
 100
AcDbEntity
   8
LEVEL002
 370
30
 100
AcDbLine
   6
CONTINUOUS
  62
7
  10
 66.163971523061
  20
 121.82449682853
  30
0.0
  11
 66.363971523061
  21
 121.82449682853
  31
0.0
   0
LINE
   5
1F5
 100
AcDbEntity
   8
LEVEL002
 370
30
 100
AcDbLine
   6
CONTINUOUS
  62
7
  10
 58.063971523174
  20
 121.82449682853
  30
0.0
  11
 59.063971523174
  21
 120.82449682853
  31
0.0
   0
LINE
   5
1F6
 100
AcDbEntity
   8
LEVEL002
 370
30
 100
AcDbLine
   6
CONTINUOUS
  62
7
  10
 65.663971522948
  20
 121.82449682853
  30
0.0
  11
 64.663971522948
  21
 120.82449682853
  31
0.0
   0
LINE
   5
1F7
 100
AcDbEntity
   8
LEVEL002
 370
30
 100
AcDbLine
   6
CONTINUOUS
  62
7
  10
 65.663971522948
  20
 121.82449682853
  30
0.0
  11
 66.363971523050
  21
 121.82449682853
  31
0.0
   0
LINE
   5
1F8
 100
AcDbEntity
   8
LEVEL002
 370
30
 100
AcDbLine
   6
CONTINUOUS
  62
7
  10
 57.363971523050
  20
 121.82449682853
  30
0.0
  11
 58.063971523174
  21
 121.82449682853
  31
0.0
   0
ARC
   5
1F9
 100
AcDbEntity
   8
LEVEL002
 370
30
   6
CONTINUOUS
  62
7
 100
AcDbCircle
  10
 59.063971522972
  20
 117.52449682853
  30
0.0
  40
 1.7000000000000
 100
AcDbArc
  50
 180.00000000000
  51
 270.00000000000
   0
LINE
   5
1FA
 100
AcDbEntity
   8
LEVEL002
 370
30
 100
AcDbLine
   6
CONTINUOUS
  62
7
  10
 59.063971522972
  20
 115.82449682853
  30
0.0
  11
 64.663971523050
  21
 115.82449682853
  31
0.0
   0
ARC
   5
1FB
 100
AcDbEntity
   8
LEVEL002
 370
30
   6
CONTINUOUS
  62
7
 100
AcDbCircle
  10
 64.663971523050
  20
 117.52449682853
  30
0.0
  40
 1.7000000000000
 100
AcDbArc
  50
 270.00000000000
  51
0.0
   0
ARC
   5
1FC
 100
AcDbEntity
   8
LEVEL002
 370
30
   6
CONTINUOUS
  62
7
 100
AcDbCircle
  10
 66.313971523150
  20
 117.82449682853
  30
0.0
  40
 0.30000000000000
 100
AcDbArc
  50
 279.59406822690
  51
 80.405931773088
   0
LINE
   5
1FD
 100
AcDbEntity
   8
LEVEL002
 370
30
 100
AcDbLine
   6
CONTINUOUS
  62
7
  10
 66.363971523150
  20
 119.52869283938
  30
0.0
  11
 66.363971523150
  21
 118.12030081769
  31
0.0
   0
ARC
   5
1FE
 100
AcDbEntity
   8
LEVEL002
 370
30
   6
CONTINUOUS
  62
7
 100
AcDbCircle
  10
 66.313971523150
  20
 119.82449682853
  30
0.0
  40
 0.30000000000000
 100
AcDbArc
  50
 279.59406822690
  51
 80.405931773088
   0
LINE
   5
1FF
 100
AcDbEntity
   8
LEVEL002
 370
30
 100
AcDbLine
   6
CONTINUOUS
  62
7
  10
 66.363971523150
  20
 121.82449682853
  30
0.0
  11
 66.363971523150
  21
 120.12030081769
  31
0.0
   0
LINE
   5
200
 100
AcDbEntity
   8
LEVEL002
 370
30
 100
AcDbLine
   6
CONTINUOUS
  62
7
  10
 59.613971523041
  20
 120.02449682869
  30
0.0
  11
 59.613971523041
  21
 118.82449682869
  31
0.0
   0
LINE
   5
201
 100
AcDbEntity
   8
LEVEL002
 370
30
 100
AcDbLine
   6
CONTINUOUS
  62
7
  10
 64.113971523041
  20
 120.02449682869
  30
0.0
  11
 64.113971523041
  21
 118.82449682869
  31
0.0
   0
LINE
   5
202
 100
AcDbEntity
   8
LEVEL002
 370
30
 100
AcDbLine
   6
CONTINUOUS
  62
7
  10
 58.363971522961
  20
 118.82449682869
  30
0.0
  11
 59.613971523041
  21
 118.82449682869
  31
0.0
   0
LINE
   5
203
 100
AcDbEntity
   8
LEVEL002
 370
30
 100
AcDbLine
   6
CONTINUOUS
  62
7
  10
 64.113971523041
  20
 118.82449682869
  30
0.0
  11
 65.363971523061
  21
 118.82449682869
  31
0.0
   0
LINE
   5
204
 100
AcDbEntity
   8
LEVEL002
 370
30
 100
AcDbLine
   6
CONTINUOUS
  62
7
  10
 58.363971522961
  20
 118.82449682869
  30
0.0
  11
 58.363971522961
  21
 117.52449682853
  31
0.0
   0
ARC
   5
205
 100
AcDbEntity
   8
LEVEL002
 370
30
   6
CONTINUOUS
  62
7
 100
AcDbCircle
  10
 59.063971522960
  20
 117.52449682853
  30
0.0
  40
 0.70000000000000
 100
AcDbArc
  50
 180.00000000000
  51
 270.00000000000
   0
LINE
   5
206
 100
AcDbEntity
   8
LEVEL002
 370
30
 100
AcDbLine
   6
CONTINUOUS
  62
7
  10
 59.063971522961
  20
 116.82449682853
  30
0.0
  11
 64.663971523061
  21
 116.82449682853
  31
0.0
   0
ARC
   5
207
 100
AcDbEntity
   8
LEVEL002
 370
30
   6
CONTINUOUS
  62
7
 100
AcDbCircle
  10
 64.663971523061
  20
 117.52449682853
  30
0.0
  40
 0.70000000000000
 100
AcDbArc
  50
 270.00000000000
  51
0.0
   0
LINE
   5
208
 100
AcDbEntity
   8
LEVEL002
 370
30
 100
AcDbLine
   6
CONTINUOUS
  62
7
  10
 65.363971523061
  20
 118.82449682869
  30
0.0
  11
 65.363971523061
  21
 117.52449682853
  31
0.0
   0
LINE
   5
209
 100
AcDbEntity
   8
LEVEL002
 370
30
 100
AcDbLine
   6
CONTINUOUS
  62
7
  10
 64.113971523041
  20
 120.02449682869
  30
0.0
  11
 64.663971522948
  21
 120.02449682869
  31
0.0
   0
LINE
   5
20A
 100
AcDbEntity
   8
LEVEL002
 370
30
 100
AcDbLine
   6
CONTINUOUS
  62
7
  10
 64.663971522948
  20
 120.02449682869
  30
0.0
  11
 64.663971522948
  21
 120.82449682853
  31
0.0
   0
LINE
   5
20B
 100
AcDbEntity
   8
LEVEL002
 370
30
 100
AcDbLine
   6
CONTINUOUS
  62
7
  10
 59.063971523174
  20
 120.82449682853
  30
0.0
  11
 59.063971523174
  21
 120.02449682869
  31
0.0
   0
LINE
   5
20C
 100
AcDbEntity
   8
LEVEL002
 370
30
 100
AcDbLine
   6
CONTINUOUS
  62
7
  10
 59.063971523174
  20
 120.02449682869
  30
0.0
  11
 59.613971523041
  21
 120.02449682869
  31
0.0
   0
LINE
   5
20D
 100
AcDbEntity
   8
LEVEL002
 370
30
 100
AcDbLine
   6
CONTINUOUS
  62
7
  10
 57.363971523061
  20
 121.82449682853
  30
0.0
  11
 57.563971523061
  21
 121.82449682853
  31
0.0
   0
ARC
   5
20E
 100
AcDbEntity
   8
LEVEL002
 370
30
   6
CONTINUOUS
  62
7
 100
AcDbCircle
  10
 57.413971522972
  20
 119.82449682853
  30
0.0
  40
 0.30000000000000
 100
AcDbArc
  50
 99.594068226911
  51
 260.40593177310
   0
LINE
   5
20F
 100
AcDbEntity
   8
LEVEL002
 370
30
 100
AcDbLine
   6
CONTINUOUS
  62
7
  10
 57.363971522972
  20
 121.82449682853
  30
0.0
  11
 57.363971522972
  21
 120.12030081769
  31
0.0
   0
ARC
   5
210
 100
AcDbEntity
   8
LEVEL002
 370
30
   6
CONTINUOUS
  62
7
 100
AcDbCircle
  10
 57.413971522972
  20
 117.82449682853
  30
0.0
  40
 0.30000000000000
 100
AcDbArc
  50
 99.594068226911
  51
 260.40593177310
   0
LINE
   5
211
 100
AcDbEntity
   8
LEVEL002
 370
30
 100
AcDbLine
   6
CONTINUOUS
  62
7
  10
 57.363971522972
  20
 117.52869283938
  30
0.0
  11
 57.363971522972
  21
 117.52449682853
  31
0.0
   0
LINE
   5
212
 100
AcDbEntity
   8
LEVEL002
 370
30
 100
AcDbLine
   6
CONTINUOUS
  62
7
  10
 57.363971522972
  20
 119.52869283938
  30
0.0
  11
 57.363971522972
  21
 118.12030081769
  31
0.0
   0
MTEXT
   5
214
 100
AcDbEntity
   8
LEVEL002
 370
15
  62
8
 100
AcDbMText
  10
 193.60754228038
  20
 24.333333333340
  30
0.0
  40
 1.5000000000000
  41
0.0
  71
5
  72
1
   1
\T1.000000;令和　４年　９月　１日
   7
GMM002
  44
 0.79999984000003
   0
ENDSEC
  0
SECTION
  2
OBJECTS
  0
DICTIONARY
  5
C
100
AcDbDictionary
  3
ACAD_GROUP
350
D
  3
ACAD_MLINESTYLE
350
1B
  3
DWGPROPS
350
1C
  0
DICTIONARY
  5
D
102
{ACAD_REACTORS
330
C
102
}
100
AcDbDictionary
  0
DICTIONARY
  5
1B
102
{ACAD_REACTORS
330
C
102
}
100
AcDbDictionary
  3
STANDARD
350
1D
  0
MLINESTYLE
  5
1D
102
{ACAD_REACTORS
330
1B
102
}
100
AcDbMlineStyle
  2
STANDARD
 70
     0
  3

 62
   256
 51
90.0
 52
90.0
 71
     2
 49
0.5
 62
   256
  6
BYLAYER
 49
-0.5
 62
   256
  6
BYLAYER
   0
XRECORD
   5
1C
 102
{ACAD_REACTORS
 330
C
 102
}
 330
C
 100
AcDbXrecord
 280
1
   1
DWGPROPS COOKIE
   2
 
   3
 
   4
haruna
   6
 
   7
ﾊﾟﾙﾌﾗｯﾄﾚｰﾙ-U溝(Uﾀｲﾌﾟ②)(US型)
   8
haruna
   9

 300
 = 
 301
 = 
 302
 = 
 303
 = 
 304
 = 
 305
 = 
 306
 = 
 307
 = 
 308
 = 
 309
 = 
  40
0.0
  41
 2459822.5000000
  42
 2460032.5000000
   1

  90
10
   0
ENDSEC
   0
EOF
