   0
SECTION
   2
HEADER
   9
$ACADVER
   1
AC1015
   9
$DWGCODEPAGE
   3
ANSI_932
   9
$LIMMIN
  10
0.0
  20
0.0
   9
$LIMMAX
  10
 210.00000000000
  20
 148.50000000000
   9
$EXTMIN
  10
0.0
  20
0.0
  30
0.0
   9
$EXTMAX
  10
 210.00000000000
  20
 148.50000000000
  30
0.0
   9
$LTSCALE
  40
 4.2000000000000
   9
$HANDSEED
   5
33F
   0
ENDSEC
   0
SECTION
   2
TABLES
  0
TABLE
  2
VPORT
  5
8
100
AcDbSymbolTable
 70
     1
  0
VPORT
  5
33E
100
AcDbSymbolTableRecord
100
AcDbViewportTableRecord
  2
*ACTIVE
 70
     0
 10
0.0
 20
0.0
 11
1.0
 21
1.0
  12
 105.00000000000
  22
 74.250000000000
 13
0.0
 23
0.0
 14
1.0
 24
1.0
 15
0.0
 25
0.0
 16
0.0
 26
0.0
 36
1.0
 17
0.0
 27
0.0
 37
0.0
  40
 210.00000000000
  41
 1.4787878787879
 42
50.0
 43
0.0
 44
0.0
 50
0.0
 51
0.0
 71
     0
 72
   100
 73
     1
 74
     1
 75
     0
 76
     0
 77
     0
 78
     0
  0
ENDTAB
  0
TABLE
  2
LTYPE
  5
5
100
AcDbSymbolTable
 70
    25
  0
LTYPE
  5
12
100
AcDbSymbolTableRecord
100
AcDbLinetypeTableRecord
  2
BYBLOCK
 70
     0
  3

 72
    65
 73
     0
 40
0.0
  0
LTYPE
  5
13
100
AcDbSymbolTableRecord
100
AcDbLinetypeTableRecord
  2
BYLAYER
 70
     0
  3

 72
    65
 73
     0
 40
0.0
  0
LTYPE
  5
14
100
AcDbSymbolTableRecord
100
AcDbLinetypeTableRecord
  2
CONTINUOUS
 70
     0
  3
Solid line
 72
    65
 73
     0
 40
0.0
  0
LTYPE
  5
20
100
AcDbSymbolTableRecord
100
AcDbLinetypeTableRecord
  2
BORDER
 70
     0
  3
__ __ . __ __ . __ __ . __ __ . __ __ . __ __ .
 72
    65
 73
     6
 40
1.75
 49
0.5
 74
     0
 49
-0.25
 74
     0
 49
0.5
 74
     0
 49
-0.25
 74
     0
 49
0.0
 74
     0
 49
-0.25
 74
     0
  0
LTYPE
  5
21
100
AcDbSymbolTableRecord
100
AcDbLinetypeTableRecord
  2
BORDER2
 70
     0
  3
__.__.__.__.__.__.__.__.__.__.__.__.__.__.__.__
 72
    65
 73
     6
 40
0.875
 49
0.25
 74
     0
 49
-0.125
 74
     0
 49
0.25
 74
     0
 49
-0.125
 74
     0
 49
0.0
 74
     0
 49
-0.125
 74
     0
  0
LTYPE
  5
22
100
AcDbSymbolTableRecord
100
AcDbLinetypeTableRecord
  2
BORDERX2
 70
     0
  3
____  ____  .  ____  ____  .  ____  ____  .  __
 72
    65
 73
     6
 40
3.5
 49
1.0
 74
     0
 49
-0.5
 74
     0
 49
1.0
 74
     0
 49
-0.5
 74
     0
 49
0.0
 74
     0
 49
-0.5
 74
     0
  0
LTYPE
  5
23
100
AcDbSymbolTableRecord
100
AcDbLinetypeTableRecord
  2
CENTER
 70
     0
  3
____ _ ____ _ ____ _ ____ _ ____ _ ____ _ ____ 
 72
    65
 73
     4
 40
2.0
 49
1.25
 74
     0
 49
-0.25
 74
     0
 49
0.25
 74
     0
 49
-0.25
 74
     0
  0
LTYPE
  5
24
100
AcDbSymbolTableRecord
100
AcDbLinetypeTableRecord
  2
CENTER2
 70
     0
  3
___ _ ___ _ ___ _ ___ _ ___ _ ___ _ ___ _ ___ _
 72
    65
 73
     4
 40
1.125
 49
0.75
 74
     0
 49
-0.125
 74
     0
 49
0.125
 74
     0
 49
-0.125
 74
     0
  0
LTYPE
  5
25
100
AcDbSymbolTableRecord
100
AcDbLinetypeTableRecord
  2
CENTERX2
 70
     0
  3
________  __  ________  __  ________  __  _____
 72
    65
 73
     4
 40
4.0
 49
2.5
 74
     0
 49
-0.5
 74
     0
 49
0.5
 74
     0
 49
-0.5
 74
     0
  0
LTYPE
  5
26
100
AcDbSymbolTableRecord
100
AcDbLinetypeTableRecord
  2
DASHDOT
 70
     0
  3
__ . __ . __ . __ . __ . __ . __ . __ . __ . __
 72
    65
 73
     4
 40
1.0
 49
0.5
 74
     0
 49
-0.25
 74
     0
 49
0.0
 74
     0
 49
-0.25
 74
     0
  0
LTYPE
  5
27
100
AcDbSymbolTableRecord
100
AcDbLinetypeTableRecord
  2
DASHDOT2
 70
     0
  3
_._._._._._._._._._._._._._._._._._._._._._._._
 72
    65
 73
     4
 40
0.5
 49
0.25
 74
     0
 49
-0.125
 74
     0
 49
0.0
 74
     0
 49
-0.125
 74
     0
  0
LTYPE
  5
28
100
AcDbSymbolTableRecord
100
AcDbLinetypeTableRecord
  2
DASHDOTX2
 70
     0
  3
____  .  ____  .  ____  .  ____  .  ____  .  __
 72
    65
 73
     4
 40
2.0
 49
1.0
 74
     0
 49
-0.5
 74
     0
 49
0.0
 74
     0
 49
-0.5
 74
     0
  0
LTYPE
  5
29
100
AcDbSymbolTableRecord
100
AcDbLinetypeTableRecord
  2
DASHED
 70
     0
  3
__ __ __ __ __ __ __ __ __ __ __ __ __ __ __ __
 72
    65
 73
     2
 40
0.75
 49
0.5
 74
     0
 49
-0.25
 74
     0
  0
LTYPE
  5
2A
100
AcDbSymbolTableRecord
100
AcDbLinetypeTableRecord
  2
DASHED2
 70
     0
  3
_ _ _ _ _ _ _ _ _ _ _ _ _ _ _ _ _ _ _ _ _ _ _ _
 72
    65
 73
     2
 40
0.375
 49
0.25
 74
     0
 49
-0.125
 74
     0
  0
LTYPE
  5
2B
100
AcDbSymbolTableRecord
100
AcDbLinetypeTableRecord
  2
DASHEDX2
 70
     0
  3
____  ____  ____  ____  ____  ____  ____  ____ 
 72
    65
 73
     2
 40
1.5
 49
1.0
 74
     0
 49
-0.5
 74
     0
  0
LTYPE
  5
2C
100
AcDbSymbolTableRecord
100
AcDbLinetypeTableRecord
  2
DIVIDE
 70
     0
  3
____ . . ____ . . ____ . . ____ . . ____ . . __
 72
    65
 73
     6
 40
1.25
 49
0.5
 74
     0
 49
-0.25
 74
     0
 49
0.0
 74
     0
 49
-0.25
 74
     0
 49
0.0
 74
     0
 49
-0.25
 74
     0
  0
LTYPE
  5
2D
100
AcDbSymbolTableRecord
100
AcDbLinetypeTableRecord
  2
DIVIDE2
 70
     0
  3
__..__..__..__..__..__..__..__..__..__..__..__.
 72
    65
 73
     6
 40
0.625
 49
0.25
 74
     0
 49
-0.125
 74
     0
 49
0.0
 74
     0
 49
-0.125
 74
     0
 49
0.0
 74
     0
 49
-0.125
 74
     0
  0
LTYPE
  5
2E
100
AcDbSymbolTableRecord
100
AcDbLinetypeTableRecord
  2
DIVIDEX2
 70
     0
  3
________  .  .  ________  .  .  ________  .  . 
 72
    65
 73
     6
 40
2.5
 49
1.0
 74
     0
 49
-0.5
 74
     0
 49
0.0
 74
     0
 49
-0.5
 74
     0
 49
0.0
 74
     0
 49
-0.5
 74
     0
  0
LTYPE
  5
2F
100
AcDbSymbolTableRecord
100
AcDbLinetypeTableRecord
  2
DOT
 70
     0
  3
. . . . . . . . . . . . . . . . . . . . . . . .
 72
    65
 73
     2
 40
0.25
 49
0.0
 74
     0
 49
-0.25
 74
     0
  0
LTYPE
  5
30
100
AcDbSymbolTableRecord
100
AcDbLinetypeTableRecord
  2
DOT2
 70
     0
  3
...............................................
 72
    65
 73
     2
 40
0.125
 49
0.0
 74
     0
 49
-0.125
 74
     0
  0
LTYPE
  5
31
100
AcDbSymbolTableRecord
100
AcDbLinetypeTableRecord
  2
DOTX2
 70
     0
  3
.  .  .  .  .  .  .  .  .  .  .  .  .  .  .  . 
 72
    65
 73
     2
 40
0.5
 49
0.0
 74
     0
 49
-0.5
 74
     0
  0
LTYPE
  5
32
100
AcDbSymbolTableRecord
100
AcDbLinetypeTableRecord
  2
HIDDEN
 70
     0
  3
__ __ __ __ __ __ __ __ __ __ __ __ __ __ __ __
 72
    65
 73
     2
 40
0.375
 49
0.25
 74
     0
 49
-0.125
 74
     0
  0
LTYPE
  5
33
100
AcDbSymbolTableRecord
100
AcDbLinetypeTableRecord
  2
HIDDEN2
 70
     0
  3
_ _ _ _ _ _ _ _ _ _ _ _ _ _ _ _ _ _ _ _ _ _ _ _
 72
    65
 73
     2
 40
0.1875
 49
0.125
 74
     0
 49
-0.0625
 74
     0
  0
LTYPE
  5
34
100
AcDbSymbolTableRecord
100
AcDbLinetypeTableRecord
  2
HIDDENX2
 70
     0
  3
____ ____ ____ ____ ____ ____ ____ ____ ____ __
 72
    65
 73
     2
 40
0.75
 49
0.5
 74
     0
 49
-0.25
 74
     0
  0
LTYPE
  5
35
100
AcDbSymbolTableRecord
100
AcDbLinetypeTableRecord
  2
PHANTOM
 70
     0
  3
______  __  __  ______  __  __  ______  __  __ 
 72
    65
 73
     6
 40
2.5
 49
1.25
 74
     0
 49
-0.25
 74
     0
 49
0.25
 74
     0
 49
-0.25
 74
     0
 49
0.25
 74
     0
 49
-0.25
 74
     0
  0
LTYPE
  5
36
100
AcDbSymbolTableRecord
100
AcDbLinetypeTableRecord
  2
PHANTOM2
 70
     0
  3
___ _ _ ___ _ _ ___ _ _ ___ _ _ ___ _ _ ___ _ _
 72
    65
 73
     6
 40
1.25
 49
0.625
 74
     0
 49
-0.125
 74
     0
 49
0.125
 74
     0
 49
-0.125
 74
     0
 49
0.125
 74
     0
 49
-0.125
 74
     0
  0
LTYPE
  5
37
100
AcDbSymbolTableRecord
100
AcDbLinetypeTableRecord
  2
PHANTOMX2
 70
     0
  3
____________    ____    ____    ____________   
 72
    65
 73
     6
 40
5.0
 49
2.5
 74
     0
 49
-0.5
 74
     0
 49
0.5
 74
     0
 49
-0.5
 74
     0
 49
0.5
 74
     0
 49
-0.5
 74
     0
  0
ENDTAB
   0
TABLE
   2
LAYER
   5
2
 100
AcDbSymbolTable
  70
3
   0
LAYER
   5
E
 100
AcDbSymbolTableRecord
 100
AcDbLayerTableRecord
   2
0
  70
0
  62
7
   6
CONTINUOUS
 390
30
   0
LAYER
   5
39
 100
AcDbSymbolTableRecord
 100
AcDbLayerTableRecord
   2
LEVEL001
  70
0
  62
7
   6
CONTINUOUS
 390
30
   0
LAYER
   5
3A
 100
AcDbSymbolTableRecord
 100
AcDbLayerTableRecord
   2
LEVEL002
  70
0
  62
7
   6
CONTINUOUS
 390
30
   0
ENDTAB
  0
TABLE
  2
STYLE
  5
3
100
AcDbSymbolTable
  70
6
  0
STYLE
  5
F
100
AcDbSymbolTableRecord
100
AcDbTextStyleTableRecord
  2
STANDARD
 70
     0
 40
0.0
 41
1.0
 50
0.0
 71
     0
 42
0.2
  3
TXT
  4
BIGFONT
  0
STYLE
  5
38
100
AcDbSymbolTableRecord
100
AcDbTextStyleTableRecord
  2
STANDARD1
 70
     4
 40
0.0
 41
1.0
 50
0.0
 71
     0
 42
0.2
  3
TXT
  4
BIGFONT
   0
STYLE
   5
3B
 100
AcDbSymbolTableRecord
 100
AcDbTextStyleTableRecord
   2
GMM001
  70
0
  40
0.0
  41
 1.0000000000000
  50
0.0
  71
     0
  42
1.0
   3
txt.shx
   4
bigfont.shx
   0
STYLE
   5
3C
 100
AcDbSymbolTableRecord
 100
AcDbTextStyleTableRecord
   2
GMM002
  70
0
  40
0.0
  41
 0.80000000000000
  50
0.0
  71
     0
  42
1.0
   3
txt.shx
   4
bigfont.shx
   0
STYLE
   5
3D
 100
AcDbSymbolTableRecord
 100
AcDbTextStyleTableRecord
   2
GMM003
  70
0
  40
0.0
  41
 1.0714285714286
  50
0.0
  71
     0
  42
1.0
   3
txt.shx
   4
bigfont.shx
   0
STYLE
   5
3E
 100
AcDbSymbolTableRecord
 100
AcDbTextStyleTableRecord
   2
GMM004
  70
0
  40
0.0
  41
 0.88888888888889
  50
0.0
  71
     0
  42
1.0
   3
txt.shx
   4
bigfont.shx
   0
ENDTAB
  0
TABLE
  2
VIEW
  5
6
100
AcDbSymbolTable
 70
     0
  0
ENDTAB
  0
TABLE
  2
UCS
  5
7
100
AcDbSymbolTable
 70
     0
  0
ENDTAB
  0
TABLE
  2
APPID
  5
9
100
AcDbSymbolTable
 70
     1
  0
APPID
  5
10
100
AcDbSymbolTableRecord
100
AcDbRegAppTableRecord
  2
ACAD
 70
     0
  0
ENDTAB
   0
TABLE
   2
DIMSTYLE
   5
A
 100
AcDbSymbolTable
  70
5
 100
AcDbDimStyleTable
  0
DIMSTYLE
105
1D
100
AcDbSymbolTableRecord
100
AcDbDimStyleTableRecord
  2
STANDARD
 70
     0
  3

  4

  5

  6

  7

 40
1.0
 41
0.18
 42
0.0625
 43
0.38
 44
0.18
 45
0.0
 46
0.0
 47
0.0
 48
0.0
140
0.18
141
0.09
142
0.0
143
25.4
144
1.0
145
0.0
146
1.0
147
0.09
 71
     0
 72
     0
 73
     1
 74
     1
 75
     0
 76
     0
 77
     0
 78
     0
170
     0
171
     2
172
     0
173
     0
174
     0
175
     0
176
     0
177
     0
178
     0
270
     2
271
     4
272
     4
273
     2
274
     2
340
F
275
     0
280
     0
281
     0
282
     0
283
     1
284
     0
285
     0
286
     0
287
     3
288
     0
   0
DIMSTYLE
 105
3F
 100
AcDbSymbolTableRecord
 100
AcDbDimStyleTableRecord
   2
GMM001
  70
0
   3

   4

   5

   6

   7

  40
 1.0000000000000
  41
 1.0000000000000
  42
 0.50000000000000
  43
 4.0000000000000
  44
 0.50000000000000
  45
0.0
  46
0.0
  47
0.0
  48
0.0
 140
 1.2500000000000
 141
 0.50000000000000
 142
0.0
 143
 0.39400000000000E-1
 144
 1.0000000000000
 145
0.0
 146
 1.0000000000000
 147
 0.50000000000000
  71
0
  72
0
  73
0
  74
0
  75
0
  76
0
  77
3
  78
8
 170
0
 171
2
 172
1
 173
1
 174
0
 175
0
 176
8
 177
8
 178
8
 270
2
 271
6
 272
0
 273
2
 274
2
 340
3B
 275
0
 280
0
 281
0
 282
0
 283
1
 284
0
 285
0
 286
0
 287
3
 288
0
   0
DIMSTYLE
 105
40
 100
AcDbSymbolTableRecord
 100
AcDbDimStyleTableRecord
   2
GMM002
  70
0
   3

   4

   5

   6

   7

  40
 1.0000000000000
  41
 1.0000000000000
  42
 0.50000000000000
  43
 4.0000000000000
  44
 0.50000000000000
  45
0.0
  46
0.0
  47
0.0
  48
0.0
 140
 1.2500000000000
 141
 0.50000000000000
 142
0.0
 143
 0.39400000000000E-1
 144
 1.0000000000000
 145
0.0
 146
 1.0000000000000
 147
 0.41613730894845
  71
0
  72
0
  73
0
  74
0
  75
0
  76
0
  77
3
  78
8
 170
0
 171
2
 172
1
 173
1
 174
0
 175
0
 176
8
 177
8
 178
8
 270
2
 271
6
 272
0
 273
2
 274
2
 340
3B
 275
0
 280
0
 281
0
 282
0
 283
1
 284
0
 285
0
 286
0
 287
3
 288
1
   0
DIMSTYLE
 105
41
 100
AcDbSymbolTableRecord
 100
AcDbDimStyleTableRecord
   2
GMM003
  70
0
   3

   4

   5

   6

   7

  40
 1.0000000000000
  41
 1.0000000000000
  42
 0.50000000000000
  43
 4.0000000000000
  44
 0.50000000000000
  45
0.0
  46
0.0
  47
0.0
  48
0.0
 140
 1.2500000000000
 141
 0.50000000000000
 142
0.0
 143
 0.39400000000000E-1
 144
 1.0000000000000
 145
0.0
 146
 1.0000000000000
 147
 0.42215435797112
  71
0
  72
0
  73
0
  74
0
  75
0
  76
0
  77
3
  78
8
 170
0
 171
2
 172
1
 173
1
 174
0
 175
0
 176
8
 177
8
 178
8
 270
2
 271
6
 272
0
 273
2
 274
2
 340
3B
 275
0
 280
0
 281
0
 282
0
 283
1
 284
0
 285
0
 286
0
 287
3
 288
1
   0
ENDTAB
  0
TABLE
  2
BLOCK_RECORD
  5
1
100
AcDbSymbolTable
 70
     0
  0
BLOCK_RECORD
  5
18
100
AcDbSymbolTableRecord
100
AcDbBlockTableRecord
  2
*MODEL_SPACE
  0
BLOCK_RECORD
  5
15
100
AcDbSymbolTableRecord
100
AcDbBlockTableRecord
  2
*PAPER_SPACE
   0
BLOCK_RECORD
   5
42
 100
AcDbSymbolTableRecord
 100
AcDbBlockTableRecord
   2
*D1
   0
BLOCK_RECORD
   5
43
 100
AcDbSymbolTableRecord
 100
AcDbBlockTableRecord
   2
*D2
   0
BLOCK_RECORD
   5
44
 100
AcDbSymbolTableRecord
 100
AcDbBlockTableRecord
   2
*D3
   0
BLOCK_RECORD
   5
45
 100
AcDbSymbolTableRecord
 100
AcDbBlockTableRecord
   2
*D4
   0
BLOCK_RECORD
   5
46
 100
AcDbSymbolTableRecord
 100
AcDbBlockTableRecord
   2
*D5
   0
BLOCK_RECORD
   5
47
 100
AcDbSymbolTableRecord
 100
AcDbBlockTableRecord
   2
*D6
   0
BLOCK_RECORD
   5
48
 100
AcDbSymbolTableRecord
 100
AcDbBlockTableRecord
   2
*D7
   0
BLOCK_RECORD
   5
49
 100
AcDbSymbolTableRecord
 100
AcDbBlockTableRecord
   2
*D8
   0
BLOCK_RECORD
   5
4A
 100
AcDbSymbolTableRecord
 100
AcDbBlockTableRecord
   2
*D9
   0
BLOCK_RECORD
   5
4B
 100
AcDbSymbolTableRecord
 100
AcDbBlockTableRecord
   2
*D10
   0
BLOCK_RECORD
   5
4C
 100
AcDbSymbolTableRecord
 100
AcDbBlockTableRecord
   2
*D11
   0
BLOCK_RECORD
   5
4D
 100
AcDbSymbolTableRecord
 100
AcDbBlockTableRecord
   2
*D12
   0
BLOCK_RECORD
   5
4E
 100
AcDbSymbolTableRecord
 100
AcDbBlockTableRecord
   2
*D13
   0
BLOCK_RECORD
   5
4F
 100
AcDbSymbolTableRecord
 100
AcDbBlockTableRecord
   2
*D14
   0
BLOCK_RECORD
   5
50
 100
AcDbSymbolTableRecord
 100
AcDbBlockTableRecord
   2
*D15
   0
BLOCK_RECORD
   5
51
 100
AcDbSymbolTableRecord
 100
AcDbBlockTableRecord
   2
*D16
   0
BLOCK_RECORD
   5
52
 100
AcDbSymbolTableRecord
 100
AcDbBlockTableRecord
   2
*D17
   0
BLOCK_RECORD
   5
53
 100
AcDbSymbolTableRecord
 100
AcDbBlockTableRecord
   2
*D18
   0
BLOCK_RECORD
   5
54
 100
AcDbSymbolTableRecord
 100
AcDbBlockTableRecord
   2
*D19
   0
BLOCK_RECORD
   5
55
 100
AcDbSymbolTableRecord
 100
AcDbBlockTableRecord
   2
_ARCHTICK
   0
BLOCK_RECORD
   5
56
 100
AcDbSymbolTableRecord
 100
AcDbBlockTableRecord
   2
_BOXBLANK
   0
BLOCK_RECORD
   5
57
 100
AcDbSymbolTableRecord
 100
AcDbBlockTableRecord
   2
_BOXFILLED
   0
BLOCK_RECORD
   5
58
 100
AcDbSymbolTableRecord
 100
AcDbBlockTableRecord
   2
_CLOSED
   0
BLOCK_RECORD
   5
59
 100
AcDbSymbolTableRecord
 100
AcDbBlockTableRecord
   2
_CLOSEDBLANK
   0
BLOCK_RECORD
   5
5A
 100
AcDbSymbolTableRecord
 100
AcDbBlockTableRecord
   2
_DATUMBLANK
   0
BLOCK_RECORD
   5
5B
 100
AcDbSymbolTableRecord
 100
AcDbBlockTableRecord
   2
_DATUMFILLED
   0
BLOCK_RECORD
   5
5C
 100
AcDbSymbolTableRecord
 100
AcDbBlockTableRecord
   2
_DOT
   0
BLOCK_RECORD
   5
5D
 100
AcDbSymbolTableRecord
 100
AcDbBlockTableRecord
   2
_DOTBLANK
   0
BLOCK_RECORD
   5
5E
 100
AcDbSymbolTableRecord
 100
AcDbBlockTableRecord
   2
_DOTSMALL
   0
BLOCK_RECORD
   5
5F
 100
AcDbSymbolTableRecord
 100
AcDbBlockTableRecord
   2
_INTEGRAL
   0
BLOCK_RECORD
   5
60
 100
AcDbSymbolTableRecord
 100
AcDbBlockTableRecord
   2
_NONE
   0
BLOCK_RECORD
   5
61
 100
AcDbSymbolTableRecord
 100
AcDbBlockTableRecord
   2
_OBLIQUE
   0
BLOCK_RECORD
   5
62
 100
AcDbSymbolTableRecord
 100
AcDbBlockTableRecord
   2
_OPEN
   0
BLOCK_RECORD
   5
63
 100
AcDbSymbolTableRecord
 100
AcDbBlockTableRecord
   2
_OPEN30
   0
BLOCK_RECORD
   5
64
 100
AcDbSymbolTableRecord
 100
AcDbBlockTableRecord
   2
_OPEN90
   0
BLOCK_RECORD
   5
65
 100
AcDbSymbolTableRecord
 100
AcDbBlockTableRecord
   2
_ORIGIN
   0
ENDTAB
   0
ENDSEC
  0
SECTION
  2
BLOCKS
  0
BLOCK
  5
19
100
AcDbEntity
  8
0
100
AcDbBlockBegin
  2
*MODEL_SPACE
 70
     0
 10
0.0
 20
0.0
 30
0.0
  3
*MODEL_SPACE
  1

  0
ENDBLK
  5
1A
100
AcDbEntity
  8
0
100
AcDbBlockEnd
  0
BLOCK
  5
16
100
AcDbEntity
 67
     1
  8
0
100
AcDbBlockBegin
  2
*PAPER_SPACE
 70
     0
 10
0.0
 20
0.0
 30
0.0
  3
*PAPER_SPACE
  1

  0
ENDBLK
  5
17
100
AcDbEntity
 67
     1
  8
0
100
AcDbBlockEnd
   0
BLOCK
   5
66
 100
AcDbEntity
   8
0
 100
AcDbBlockBegin
   2
_ARCHTICK
  70
0
  10
0.0
  20
0.0
  30
0.0
   3
_ARCHTICK
   0
POLYLINE
   5
67
 100
AcDbEntity
   8
0
 370
-2
   6
BYBLOCK
  62
0
 100
AcDb2dPolyline
  66
1
  10
0.0
  20
0.0
  30
0.0
  70
1
  40
 0.15000000000000
  41
 0.15000000000000
   0
VERTEX
   5
68
 100
AcDbEntity
   8
0
   6
BYBLOCK
  62
0
 100
AcDbVertex
 100
AcDb2dVertex
  10
-0.50000000000000
  20
-0.50000000000000
  30
0.0
  40
 0.15000000000000
  41
 0.15000000000000
   0
VERTEX
   5
69
 100
AcDbEntity
   8
0
   6
BYBLOCK
  62
0
 100
AcDbVertex
 100
AcDb2dVertex
  10
 0.50000000000000
  20
 0.50000000000000
  30
0.0
  40
 0.15000000000000
  41
 0.15000000000000
   0
SEQEND
   5
6A
 100
AcDbEntity
   8
0
   6
BYBLOCK
  62
0
   0
ENDBLK
   5
6B
 100
AcDbEntity
   8
0
 100
AcDbBlockEnd
   0
BLOCK
   5
6C
 100
AcDbEntity
   8
0
 100
AcDbBlockBegin
   2
_OBLIQUE
  70
0
  10
0.0
  20
0.0
  30
0.0
   3
_OBLIQUE
   0
LINE
   5
6D
 100
AcDbEntity
   8
0
 370
-2
 100
AcDbLine
   6
BYBLOCK
  62
0
  10
-0.50000000000000
  20
-0.50000000000000
  30
0.0
  11
 0.50000000000000
  21
 0.50000000000000
  31
0.0
   0
ENDBLK
   5
6E
 100
AcDbEntity
   8
0
 100
AcDbBlockEnd
   0
BLOCK
   5
6F
 100
AcDbEntity
   8
0
 100
AcDbBlockBegin
   2
_BOXBLANK
  70
0
  10
0.0
  20
0.0
  30
0.0
   3
_BOXBLANK
   0
LINE
   5
70
 100
AcDbEntity
   8
0
 370
-2
 100
AcDbLine
   6
BYBLOCK
  62
0
  10
-0.50000000000000
  20
-0.50000000000000
  30
0.0
  11
 0.50000000000000
  21
-0.50000000000000
  31
0.0
   0
LINE
   5
71
 100
AcDbEntity
   8
0
 370
-2
 100
AcDbLine
   6
BYBLOCK
  62
0
  10
 0.50000000000000
  20
-0.50000000000000
  30
0.0
  11
 0.50000000000000
  21
 0.50000000000000
  31
0.0
   0
LINE
   5
72
 100
AcDbEntity
   8
0
 370
-2
 100
AcDbLine
   6
BYBLOCK
  62
0
  10
 0.50000000000000
  20
 0.50000000000000
  30
0.0
  11
-0.50000000000000
  21
 0.50000000000000
  31
0.0
   0
LINE
   5
73
 100
AcDbEntity
   8
0
 370
-2
 100
AcDbLine
   6
BYBLOCK
  62
0
  10
-0.50000000000000
  20
 0.50000000000000
  30
0.0
  11
-0.50000000000000
  21
-0.50000000000000
  31
0.0
   0
LINE
   5
74
 100
AcDbEntity
   8
0
 370
-2
 100
AcDbLine
   6
BYBLOCK
  62
0
  10
-0.50000000000000
  20
0.0
  30
0.0
  11
-1.0000000000000
  21
0.0
  31
0.0
   0
ENDBLK
   5
75
 100
AcDbEntity
   8
0
 100
AcDbBlockEnd
   0
BLOCK
   5
76
 100
AcDbEntity
   8
0
 100
AcDbBlockBegin
   2
_BOXFILLED
  70
0
  10
0.0
  20
0.0
  30
0.0
   3
_BOXFILLED
   0
SOLID
   5
77
 100
AcDbEntity
   8
0
 100
AcDbTrace
   6
BYBLOCK
  62
0
  10
-0.50000000000000
  20
 0.50000000000000
  30
0.0
  11
 0.50000000000000
  21
 0.50000000000000
  31
0.0
  12
-0.50000000000000
  22
-0.50000000000000
  32
0.0
  13
 0.50000000000000
  23
-0.50000000000000
  33
0.0
   0
LINE
   5
78
 100
AcDbEntity
   8
0
 370
-2
 100
AcDbLine
   6
BYBLOCK
  62
0
  10
-0.50000000000000
  20
0.0
  30
0.0
  11
-1.0000000000000
  21
0.0
  31
0.0
   0
ENDBLK
   5
79
 100
AcDbEntity
   8
0
 100
AcDbBlockEnd
   0
BLOCK
   5
7A
 100
AcDbEntity
   8
0
 100
AcDbBlockBegin
   2
_CLOSED
  70
0
  10
0.0
  20
0.0
  30
0.0
   3
_CLOSED
   0
LINE
   5
7B
 100
AcDbEntity
   8
0
 370
-2
 100
AcDbLine
   6
BYBLOCK
  62
0
  10
-1.0000000000000
  20
 0.16666666666667
  30
0.0
  11
0.0
  21
0.0
  31
0.0
   0
LINE
   5
7C
 100
AcDbEntity
   8
0
 370
-2
 100
AcDbLine
   6
BYBLOCK
  62
0
  10
0.0
  20
0.0
  30
0.0
  11
-1.0000000000000
  21
-0.16666666666667
  31
0.0
   0
LINE
   5
7D
 100
AcDbEntity
   8
0
 370
-2
 100
AcDbLine
   6
BYBLOCK
  62
0
  10
-1.0000000000000
  20
 0.16666666666667
  30
0.0
  11
-1.0000000000000
  21
-0.16666666666667
  31
0.0
   0
LINE
   5
7E
 100
AcDbEntity
   8
0
 370
-2
 100
AcDbLine
   6
BYBLOCK
  62
0
  10
0.0
  20
0.0
  30
0.0
  11
-1.0000000000000
  21
0.0
  31
0.0
   0
ENDBLK
   5
7F
 100
AcDbEntity
   8
0
 100
AcDbBlockEnd
   0
BLOCK
   5
80
 100
AcDbEntity
   8
0
 100
AcDbBlockBegin
   2
_OPEN
  70
0
  10
0.0
  20
0.0
  30
0.0
   3
_OPEN
   0
LINE
   5
81
 100
AcDbEntity
   8
0
 370
-2
 100
AcDbLine
   6
BYBLOCK
  62
0
  10
-1.0000000000000
  20
 0.16666666666667
  30
0.0
  11
0.0
  21
0.0
  31
0.0
   0
LINE
   5
82
 100
AcDbEntity
   8
0
 370
-2
 100
AcDbLine
   6
BYBLOCK
  62
0
  10
0.0
  20
0.0
  30
0.0
  11
-1.0000000000000
  21
-0.16666666666667
  31
0.0
   0
LINE
   5
83
 100
AcDbEntity
   8
0
 370
-2
 100
AcDbLine
   6
BYBLOCK
  62
0
  10
0.0
  20
0.0
  30
0.0
  11
-1.0000000000000
  21
0.0
  31
0.0
   0
ENDBLK
   5
84
 100
AcDbEntity
   8
0
 100
AcDbBlockEnd
   0
BLOCK
   5
85
 100
AcDbEntity
   8
0
 100
AcDbBlockBegin
   2
_OPEN30
  70
0
  10
0.0
  20
0.0
  30
0.0
   3
_OPEN30
   0
LINE
   5
86
 100
AcDbEntity
   8
0
 370
-2
 100
AcDbLine
   6
BYBLOCK
  62
0
  10
-1.0000000000000
  20
 0.26794919243110
  30
0.0
  11
0.0
  21
0.0
  31
0.0
   0
LINE
   5
87
 100
AcDbEntity
   8
0
 370
-2
 100
AcDbLine
   6
BYBLOCK
  62
0
  10
0.0
  20
0.0
  30
0.0
  11
-1.0000000000000
  21
-0.26794919243110
  31
0.0
   0
LINE
   5
88
 100
AcDbEntity
   8
0
 370
-2
 100
AcDbLine
   6
BYBLOCK
  62
0
  10
0.0
  20
0.0
  30
0.0
  11
-1.0000000000000
  21
0.0
  31
0.0
   0
ENDBLK
   5
89
 100
AcDbEntity
   8
0
 100
AcDbBlockEnd
   0
BLOCK
   5
8A
 100
AcDbEntity
   8
0
 100
AcDbBlockBegin
   2
_OPEN90
  70
0
  10
0.0
  20
0.0
  30
0.0
   3
_OPEN90
   0
LINE
   5
8B
 100
AcDbEntity
   8
0
 370
-2
 100
AcDbLine
   6
BYBLOCK
  62
0
  10
-0.50000000000000
  20
 0.50000000000000
  30
0.0
  11
0.0
  21
0.0
  31
0.0
   0
LINE
   5
8C
 100
AcDbEntity
   8
0
 370
-2
 100
AcDbLine
   6
BYBLOCK
  62
0
  10
0.0
  20
0.0
  30
0.0
  11
-0.50000000000000
  21
-0.50000000000000
  31
0.0
   0
LINE
   5
8D
 100
AcDbEntity
   8
0
 370
-2
 100
AcDbLine
   6
BYBLOCK
  62
0
  10
0.0
  20
0.0
  30
0.0
  11
-1.0000000000000
  21
0.0
  31
0.0
   0
ENDBLK
   5
8E
 100
AcDbEntity
   8
0
 100
AcDbBlockEnd
   0
BLOCK
   5
8F
 100
AcDbEntity
   8
0
 100
AcDbBlockBegin
   2
_CLOSEDBLANK
  70
0
  10
0.0
  20
0.0
  30
0.0
   3
_CLOSEDBLANK
   0
LINE
   5
90
 100
AcDbEntity
   8
0
 370
-2
 100
AcDbLine
   6
BYBLOCK
  62
0
  10
-1.0000000000000
  20
 0.16666666666667
  30
0.0
  11
0.0
  21
0.0
  31
0.0
   0
LINE
   5
91
 100
AcDbEntity
   8
0
 370
-2
 100
AcDbLine
   6
BYBLOCK
  62
0
  10
0.0
  20
0.0
  30
0.0
  11
-1.0000000000000
  21
-0.16666666666667
  31
0.0
   0
LINE
   5
92
 100
AcDbEntity
   8
0
 370
-2
 100
AcDbLine
   6
BYBLOCK
  62
0
  10
-1.0000000000000
  20
 0.16666666666667
  30
0.0
  11
-1.0000000000000
  21
-0.16666666666667
  31
0.0
   0
ENDBLK
   5
93
 100
AcDbEntity
   8
0
 100
AcDbBlockEnd
   0
BLOCK
   5
94
 100
AcDbEntity
   8
0
 100
AcDbBlockBegin
   2
_DOT
  70
0
  10
0.0
  20
0.0
  30
0.0
   3
_DOT
   0
POLYLINE
   5
95
 100
AcDbEntity
   8
0
 370
-2
   6
BYBLOCK
  62
0
 100
AcDb2dPolyline
  66
1
  10
0.0
  20
0.0
  30
0.0
  70
1
  40
 0.50000000000000
  41
 0.50000000000000
   0
VERTEX
   5
96
 100
AcDbEntity
   8
0
   6
BYBLOCK
  62
0
 100
AcDbVertex
 100
AcDb2dVertex
  10
-0.25000000000000
  20
0.0
  30
0.0
  42
 1.0000000000000
  40
 0.50000000000000
  41
 0.50000000000000
   0
VERTEX
   5
97
 100
AcDbEntity
   8
0
   6
BYBLOCK
  62
0
 100
AcDbVertex
 100
AcDb2dVertex
  10
 0.25000000000000
  20
0.0
  30
0.0
  42
 1.0000000000000
  40
 0.50000000000000
  41
 0.50000000000000
   0
SEQEND
   5
98
 100
AcDbEntity
   8
0
   6
BYBLOCK
  62
0
   0
LINE
   5
99
 100
AcDbEntity
   8
0
 370
-2
 100
AcDbLine
   6
BYBLOCK
  62
0
  10
-0.50000000000000
  20
0.0
  30
0.0
  11
-1.0000000000000
  21
0.0
  31
0.0
   0
ENDBLK
   5
9A
 100
AcDbEntity
   8
0
 100
AcDbBlockEnd
   0
BLOCK
   5
9B
 100
AcDbEntity
   8
0
 100
AcDbBlockBegin
   2
_DOTSMALL
  70
0
  10
0.0
  20
0.0
  30
0.0
   3
_DOTSMALL
   0
POLYLINE
   5
9C
 100
AcDbEntity
   8
0
 370
-2
   6
BYBLOCK
  62
0
 100
AcDb2dPolyline
  66
1
  10
0.0
  20
0.0
  30
0.0
  70
1
  40
 0.50000000000000
  41
 0.50000000000000
   0
VERTEX
   5
9D
 100
AcDbEntity
   8
0
   6
BYBLOCK
  62
0
 100
AcDbVertex
 100
AcDb2dVertex
  10
-0.62500000000000E-1
  20
0.0
  30
0.0
  42
 1.0000000000000
  40
 0.50000000000000
  41
 0.50000000000000
   0
VERTEX
   5
9E
 100
AcDbEntity
   8
0
   6
BYBLOCK
  62
0
 100
AcDbVertex
 100
AcDb2dVertex
  10
 0.62500000000000E-1
  20
0.0
  30
0.0
  42
 1.0000000000000
  40
 0.50000000000000
  41
 0.50000000000000
   0
SEQEND
   5
9F
 100
AcDbEntity
   8
0
   6
BYBLOCK
  62
0
   0
ENDBLK
   5
A0
 100
AcDbEntity
   8
0
 100
AcDbBlockEnd
   0
BLOCK
   5
A1
 100
AcDbEntity
   8
0
 100
AcDbBlockBegin
   2
_DATUMBLANK
  70
0
  10
0.0
  20
0.0
  30
0.0
   3
_DATUMBLANK
   0
LINE
   5
A2
 100
AcDbEntity
   8
0
 370
-2
 100
AcDbLine
   6
BYBLOCK
  62
0
  10
0.0
  20
 0.57735027000000
  30
0.0
  11
-1.0000000000000
  21
0.0
  31
0.0
   0
LINE
   5
A3
 100
AcDbEntity
   8
0
 370
-2
 100
AcDbLine
   6
BYBLOCK
  62
0
  10
-1.0000000000000
  20
0.0
  30
0.0
  11
0.0
  21
-0.57735027000000
  31
0.0
   0
LINE
   5
A4
 100
AcDbEntity
   8
0
 370
-2
 100
AcDbLine
   6
BYBLOCK
  62
0
  10
0.0
  20
-0.57735027000000
  30
0.0
  11
0.0
  21
 0.57735027000000
  31
0.0
   0
ENDBLK
   5
A5
 100
AcDbEntity
   8
0
 100
AcDbBlockEnd
   0
BLOCK
   5
A6
 100
AcDbEntity
   8
0
 100
AcDbBlockBegin
   2
_DATUMFILLED
  70
0
  10
0.0
  20
0.0
  30
0.0
   3
_DATUMFILLED
   0
SOLID
   5
A7
 100
AcDbEntity
   8
0
 100
AcDbTrace
   6
BYBLOCK
  62
0
  10
0.0
  20
 0.57735027000000
  30
0.0
  11
-1.0000000000000
  21
0.0
  31
0.0
  12
0.0
  22
-0.57735027000000
  32
0.0
  13
0.0
  23
-0.57735027000000
  33
0.0
   0
ENDBLK
   5
A8
 100
AcDbEntity
   8
0
 100
AcDbBlockEnd
   0
BLOCK
   5
A9
 100
AcDbEntity
   8
0
 100
AcDbBlockBegin
   2
_ORIGIN
  70
0
  10
0.0
  20
0.0
  30
0.0
   3
_ORIGIN
   0
CIRCLE
   5
AA
 100
AcDbEntity
   8
0
 370
-2
 100
AcDbCircle
   6
BYBLOCK
  62
0
  10
0.0
  20
0.0
  30
0.0
  40
 0.50000000000000
   0
LINE
   5
AB
 100
AcDbEntity
   8
0
 370
-2
 100
AcDbLine
   6
BYBLOCK
  62
0
  10
0.0
  20
0.0
  30
0.0
  11
-1.0000000000000
  21
0.0
  31
0.0
   0
ENDBLK
   5
AC
 100
AcDbEntity
   8
0
 100
AcDbBlockEnd
   0
BLOCK
   5
AD
 100
AcDbEntity
   8
0
 100
AcDbBlockBegin
   2
_NONE
  70
0
  10
0.0
  20
0.0
  30
0.0
   3
_NONE
   0
CIRCLE
   5
AE
 100
AcDbEntity
   8
0
 370
-2
 100
AcDbCircle
   6
BYBLOCK
  62
0
  10
0.0
  20
0.0
  30
0.0
  40
 0.25000000000000
   0
ENDBLK
   5
AF
 100
AcDbEntity
   8
0
 100
AcDbBlockEnd
   0
BLOCK
   5
B0
 100
AcDbEntity
   8
0
 100
AcDbBlockBegin
   2
_DOTBLANK
  70
0
  10
0.0
  20
0.0
  30
0.0
   3
_DOTBLANK
   0
CIRCLE
   5
B1
 100
AcDbEntity
   8
0
 370
-2
 100
AcDbCircle
   6
BYBLOCK
  62
0
  10
0.0
  20
0.0
  30
0.0
  40
 0.50000000000000
   0
LINE
   5
B2
 100
AcDbEntity
   8
0
 370
-2
 100
AcDbLine
   6
BYBLOCK
  62
0
  10
-0.50000000000000
  20
0.0
  30
0.0
  11
-1.0000000000000
  21
0.0
  31
0.0
   0
ENDBLK
   5
B3
 100
AcDbEntity
   8
0
 100
AcDbBlockEnd
   0
BLOCK
   5
B4
 100
AcDbEntity
   8
0
 100
AcDbBlockBegin
   2
_INTEGRAL
  70
0
  10
0.0
  20
0.0
  30
0.0
   3
_INTEGRAL
   0
ARC
   5
B5
 100
AcDbEntity
   8
0
 370
-2
   6
BYBLOCK
  62
0
 100
AcDbCircle
  10
 0.44488800000000
  20
-0.91335000000000E-1
  30
0.0
  40
 0.45416700000000
 100
AcDbArc
  50
 102.00000000000
  51
 168.00000000000
   0
ARC
   5
B6
 100
AcDbEntity
   8
0
 370
-2
   6
BYBLOCK
  62
0
 100
AcDbCircle
  10
-0.44488800000000
  20
 0.91335000000000E-1
  30
0.0
  40
 0.45416700000000
 100
AcDbArc
  50
 282.00000000000
  51
 348.00000000000
   0
ENDBLK
   5
B7
 100
AcDbEntity
   8
0
 100
AcDbBlockEnd
   0
BLOCK
   5
B8
 100
AcDbEntity
   8
0
 100
AcDbBlockBegin
   2
*D1
  70
65
  10
0.0
  20
0.0
  30
0.0
   3
*D1
   0
LINE
   5
B9
 100
AcDbEntity
   8
LEVEL001
 370
15
 100
AcDbLine
   6
CONTINUOUS
  62
8
  10
 56.916183583628
  20
 126.91897986682
  30
0.0
  11
 56.916183583628
  21
 129.71897986682
  31
0.0
   0
LINE
   5
BA
 100
AcDbEntity
   8
LEVEL001
 370
15
 100
AcDbLine
   6
CONTINUOUS
  62
8
  10
 66.116183583628
  20
 126.91897986682
  30
0.0
  11
 66.116183583628
  21
 129.71897986682
  31
0.0
   0
LINE
   5
BB
 100
AcDbEntity
   8
LEVEL001
 370
15
 100
AcDbLine
   6
CONTINUOUS
  62
8
  10
 56.916183583628
  20
 129.21897986682
  30
0.0
  11
 61.516183583628
  21
 129.21897986682
  31
0.0
   0
LINE
   5
BC
 100
AcDbEntity
   8
LEVEL001
 370
15
 100
AcDbLine
   6
CONTINUOUS
  62
8
  10
 66.116183583628
  20
 129.21897986682
  30
0.0
  11
 61.516183583628
  21
 129.21897986682
  31
0.0
   0
SOLID
   5
BD
 100
AcDbEntity
   8
LEVEL001
 100
AcDbTrace
   6
CONTINUOUS
  62
8
  10
 56.916183583628
  20
 129.21897986682
  30
0.0
  11
 57.916183583628
  21
 129.04265288611
  31
0.0
  12
 57.916183583628
  22
 129.39530684753
  32
0.0
  13
 57.916183583628
  23
 129.39530684753
  33
0.0
   0
SOLID
   5
BE
 100
AcDbEntity
   8
LEVEL001
 100
AcDbTrace
   6
CONTINUOUS
  62
8
  10
 66.116183583628
  20
 129.21897986682
  30
0.0
  11
 65.116183583628
  21
 129.39530684753
  31
0.0
  12
 65.116183583628
  22
 129.04265288611
  32
0.0
  13
 65.116183583628
  23
 129.04265288611
  33
0.0
   0
MTEXT
   5
BF
 100
AcDbEntity
   8
LEVEL001
 370
15
  62
8
 100
AcDbMText
  10
 61.516183583628
  20
 129.71897986682
  30
0.0
  40
 1.2500000000000
  41
0.0
  71
8
  72
1
   1
\A1;9.2
   7
GMM001
   0
ENDBLK
   5
C0
 100
AcDbEntity
   8
0
 100
AcDbBlockEnd
   0
BLOCK
   5
C1
 100
AcDbEntity
   8
0
 100
AcDbBlockBegin
   2
*D2
  70
65
  10
0.0
  20
0.0
  30
0.0
   3
*D2
   0
LINE
   5
C2
 100
AcDbEntity
   8
LEVEL001
 370
15
 100
AcDbLine
   6
CONTINUOUS
  62
8
  10
 65.466183583474
  20
 117.21897986682
  30
0.0
  11
 72.616183583628
  21
 117.21897986682
  31
0.0
   0
LINE
   5
C3
 100
AcDbEntity
   8
LEVEL001
 370
15
 100
AcDbLine
   6
CONTINUOUS
  62
8
  10
 69.616183583628
  20
 126.21897986682
  30
0.0
  11
 72.616183583628
  21
 126.21897986682
  31
0.0
   0
LINE
   5
C4
 100
AcDbEntity
   8
LEVEL001
 370
15
 100
AcDbLine
   6
CONTINUOUS
  62
8
  10
 72.116183583628
  20
 117.21897986682
  30
0.0
  11
 72.116183583628
  21
 121.71897986682
  31
0.0
   0
LINE
   5
C5
 100
AcDbEntity
   8
LEVEL001
 370
15
 100
AcDbLine
   6
CONTINUOUS
  62
8
  10
 72.116183583628
  20
 126.21897986682
  30
0.0
  11
 72.116183583628
  21
 121.71897986682
  31
0.0
   0
SOLID
   5
C6
 100
AcDbEntity
   8
LEVEL001
 100
AcDbTrace
   6
CONTINUOUS
  62
8
  10
 72.116183583628
  20
 117.21897986682
  30
0.0
  11
 72.292510564337
  21
 118.21897986682
  31
0.0
  12
 71.939856602920
  22
 118.21897986682
  32
0.0
  13
 71.939856602920
  23
 118.21897986682
  33
0.0
   0
SOLID
   5
C7
 100
AcDbEntity
   8
LEVEL001
 100
AcDbTrace
   6
CONTINUOUS
  62
8
  10
 72.116183583628
  20
 126.21897986682
  30
0.0
  11
 71.939856602920
  21
 125.21897986682
  31
0.0
  12
 72.292510564337
  22
 125.21897986682
  32
0.0
  13
 72.292510564337
  23
 125.21897986682
  33
0.0
   0
MTEXT
   5
C8
 100
AcDbEntity
   8
LEVEL001
 370
15
  62
8
 100
AcDbMText
  10
 71.616183583628
  20
 121.71897986682
  30
0.0
  40
 1.2500000000000
  41
0.0
  71
8
  72
1
   1
\A1;9
   7
GMM001
  11
0.0
  21
 1.0000000000000
  31
0.0
   0
ENDBLK
   5
C9
 100
AcDbEntity
   8
0
 100
AcDbBlockEnd
   0
BLOCK
   5
CA
 100
AcDbEntity
   8
0
 100
AcDbBlockBegin
   2
*D3
  70
65
  10
0.0
  20
0.0
  30
0.0
   3
*D3
   0
LINE
   5
CB
 100
AcDbEntity
   8
LEVEL001
 370
15
 100
AcDbLine
   6
CONTINUOUS
  62
8
  10
 62.016183583629
  20
 123.91897986682
  30
0.0
  11
 69.616183583628
  21
 123.91897986682
  31
0.0
   0
LINE
   5
CC
 100
AcDbEntity
   8
LEVEL001
 370
15
 100
AcDbLine
   6
CONTINUOUS
  62
8
  10
 66.816183583629
  20
 126.21897986682
  30
0.0
  11
 69.616183583628
  21
 126.21897986682
  31
0.0
   0
LINE
   5
CD
 100
AcDbEntity
   8
LEVEL001
 370
15
 100
AcDbLine
   6
CONTINUOUS
  62
8
  10
 69.116183583628
  20
 122.66897986682
  30
0.0
  11
 69.116183583628
  21
 125.06897986682
  31
0.0
   0
LINE
   5
CE
 100
AcDbEntity
   8
LEVEL001
 370
15
 100
AcDbLine
   6
CONTINUOUS
  62
8
  10
 69.116183583628
  20
 129.77414089843
  30
0.0
  11
 69.116183583628
  21
 125.06897986682
  31
0.0
   0
SOLID
   5
CF
 100
AcDbEntity
   8
LEVEL001
 100
AcDbTrace
   6
CONTINUOUS
  62
8
  10
 69.116183583628
  20
 123.91897986682
  30
0.0
  11
 68.939856602920
  21
 122.91897986682
  31
0.0
  12
 69.292510564337
  22
 122.91897986682
  32
0.0
  13
 69.292510564337
  23
 122.91897986682
  33
0.0
   0
SOLID
   5
D0
 100
AcDbEntity
   8
LEVEL001
 100
AcDbTrace
   6
CONTINUOUS
  62
8
  10
 69.116183583628
  20
 126.21897986682
  30
0.0
  11
 69.292510564337
  21
 127.21897986682
  31
0.0
  12
 68.939856602920
  22
 127.21897986682
  32
0.0
  13
 68.939856602920
  23
 127.21897986682
  33
0.0
   0
MTEXT
   5
D1
 100
AcDbEntity
   8
LEVEL001
 370
15
  62
8
 100
AcDbMText
  10
 68.700046274680
  20
 127.02414089843
  30
0.0
  40
 1.2500000000000
  41
0.0
  71
7
  72
1
   1
\A1;2.3
   7
GMM001
  11
0.0
  21
 1.0000000000000
  31
0.0
   0
ENDBLK
   5
D2
 100
AcDbEntity
   8
0
 100
AcDbBlockEnd
   0
BLOCK
   5
D3
 100
AcDbEntity
   8
0
 100
AcDbBlockBegin
   2
*D4
  70
65
  10
0.0
  20
0.0
  30
0.0
   3
*D4
   0
LINE
   5
D4
 100
AcDbEntity
   8
LEVEL001
 370
15
 100
AcDbLine
   6
CONTINUOUS
  62
8
  10
 29.555554129668
  20
 82.492849916424
  30
0.0
  11
 36.605554129868
  21
 82.492849916424
  31
0.0
   0
LINE
   5
D5
 100
AcDbEntity
   8
LEVEL001
 370
15
 100
AcDbLine
   6
CONTINUOUS
  62
8
  10
 33.105554129668
  20
 94.492849916424
  30
0.0
  11
 36.605554129868
  21
 94.492849916424
  31
0.0
   0
LINE
   5
D6
 100
AcDbEntity
   8
LEVEL001
 370
15
 100
AcDbLine
   6
CONTINUOUS
  62
8
  10
 36.105554129868
  20
 82.492849916424
  30
0.0
  11
 36.105554129868
  21
 88.492849916424
  31
0.0
   0
LINE
   5
D7
 100
AcDbEntity
   8
LEVEL001
 370
15
 100
AcDbLine
   6
CONTINUOUS
  62
8
  10
 36.105554129868
  20
 94.492849916424
  30
0.0
  11
 36.105554129868
  21
 88.492849916424
  31
0.0
   0
SOLID
   5
D8
 100
AcDbEntity
   8
LEVEL001
 100
AcDbTrace
   6
CONTINUOUS
  62
8
  10
 36.105554129868
  20
 82.492849916424
  30
0.0
  11
 36.281881110577
  21
 83.492849916424
  31
0.0
  12
 35.929227149160
  22
 83.492849916424
  32
0.0
  13
 35.929227149160
  23
 83.492849916424
  33
0.0
   0
SOLID
   5
D9
 100
AcDbEntity
   8
LEVEL001
 100
AcDbTrace
   6
CONTINUOUS
  62
8
  10
 36.105554129868
  20
 94.492849916424
  30
0.0
  11
 35.929227149160
  21
 93.492849916424
  31
0.0
  12
 36.281881110577
  22
 93.492849916424
  32
0.0
  13
 36.281881110577
  23
 93.492849916424
  33
0.0
   0
MTEXT
   5
DA
 100
AcDbEntity
   8
LEVEL001
 370
15
  62
8
 100
AcDbMText
  10
 35.605554129868
  20
 88.492849916424
  30
0.0
  40
 1.2500000000000
  41
0.0
  71
8
  72
1
   1
\A1;12
   7
GMM001
  11
0.0
  21
 1.0000000000000
  31
0.0
   0
ENDBLK
   5
DB
 100
AcDbEntity
   8
0
 100
AcDbBlockEnd
   0
BLOCK
   5
DC
 100
AcDbEntity
   8
0
 100
AcDbBlockBegin
   2
*D5
  70
65
  10
0.0
  20
0.0
  30
0.0
   3
*D5
   0
LINE
   5
DD
 100
AcDbEntity
   8
LEVEL001
 370
15
 100
AcDbLine
   6
CONTINUOUS
  62
8
  10
 36.605554129868
  20
 82.492849916424
  30
0.0
  11
 39.605554129868
  21
 82.492849916424
  31
0.0
   0
LINE
   5
DE
 100
AcDbEntity
   8
LEVEL001
 370
15
 100
AcDbLine
   6
CONTINUOUS
  62
8
  10
 32.905554129868
  20
 95.892849916424
  30
0.0
  11
 39.605554129868
  21
 95.892849916424
  31
0.0
   0
LINE
   5
DF
 100
AcDbEntity
   8
LEVEL001
 370
15
 100
AcDbLine
   6
CONTINUOUS
  62
8
  10
 39.105554129868
  20
 82.492849916424
  30
0.0
  11
 39.105554129868
  21
 89.192849916424
  31
0.0
   0
LINE
   5
E0
 100
AcDbEntity
   8
LEVEL001
 370
15
 100
AcDbLine
   6
CONTINUOUS
  62
8
  10
 39.105554129868
  20
 95.892849916424
  30
0.0
  11
 39.105554129868
  21
 89.192849916424
  31
0.0
   0
SOLID
   5
E1
 100
AcDbEntity
   8
LEVEL001
 100
AcDbTrace
   6
CONTINUOUS
  62
8
  10
 39.105554129868
  20
 82.492849916424
  30
0.0
  11
 39.281881110577
  21
 83.492849916424
  31
0.0
  12
 38.929227149160
  22
 83.492849916424
  32
0.0
  13
 38.929227149160
  23
 83.492849916424
  33
0.0
   0
SOLID
   5
E2
 100
AcDbEntity
   8
LEVEL001
 100
AcDbTrace
   6
CONTINUOUS
  62
8
  10
 39.105554129868
  20
 95.892849916424
  30
0.0
  11
 38.929227149160
  21
 94.892849916424
  31
0.0
  12
 39.281881110577
  22
 94.892849916424
  32
0.0
  13
 39.281881110577
  23
 94.892849916424
  33
0.0
   0
MTEXT
   5
E3
 100
AcDbEntity
   8
LEVEL001
 370
15
  62
8
 100
AcDbMText
  10
 38.605554129868
  20
 89.192849916424
  30
0.0
  40
 1.2500000000000
  41
0.0
  71
8
  72
1
   1
\A1;13.4
   7
GMM001
  11
0.0
  21
 1.0000000000000
  31
0.0
   0
ENDBLK
   5
E4
 100
AcDbEntity
   8
0
 100
AcDbBlockEnd
   0
BLOCK
   5
E5
 100
AcDbEntity
   8
0
 100
AcDbBlockBegin
   2
*D6
  70
65
  10
0.0
  20
0.0
  30
0.0
   3
*D6
   0
LINE
   5
E6
 100
AcDbEntity
   8
LEVEL001
 370
15
 100
AcDbLine
   6
CONTINUOUS
  62
8
  10
 18.105554129868
  20
 93.792849916424
  30
0.0
  11
 18.105554129868
  21
 78.992849916424
  31
0.0
   0
LINE
   5
E7
 100
AcDbEntity
   8
LEVEL001
 370
15
 100
AcDbLine
   6
CONTINUOUS
  62
8
  10
 30.105554129868
  20
 93.992849916424
  30
0.0
  11
 30.105554129868
  21
 78.992849916424
  31
0.0
   0
LINE
   5
E8
 100
AcDbEntity
   8
LEVEL001
 370
15
 100
AcDbLine
   6
CONTINUOUS
  62
8
  10
 18.105554129868
  20
 79.492849916424
  30
0.0
  11
 24.105554129868
  21
 79.492849916424
  31
0.0
   0
LINE
   5
E9
 100
AcDbEntity
   8
LEVEL001
 370
15
 100
AcDbLine
   6
CONTINUOUS
  62
8
  10
 30.105554129868
  20
 79.492849916424
  30
0.0
  11
 24.105554129868
  21
 79.492849916424
  31
0.0
   0
SOLID
   5
EA
 100
AcDbEntity
   8
LEVEL001
 100
AcDbTrace
   6
CONTINUOUS
  62
8
  10
 18.105554129868
  20
 79.492849916424
  30
0.0
  11
 19.105554129868
  21
 79.316522935715
  31
0.0
  12
 19.105554129868
  22
 79.669176897132
  32
0.0
  13
 19.105554129868
  23
 79.669176897132
  33
0.0
   0
SOLID
   5
EB
 100
AcDbEntity
   8
LEVEL001
 100
AcDbTrace
   6
CONTINUOUS
  62
8
  10
 30.105554129868
  20
 79.492849916424
  30
0.0
  11
 29.105554129868
  21
 79.669176897132
  31
0.0
  12
 29.105554129868
  22
 79.316522935715
  32
0.0
  13
 29.105554129868
  23
 79.316522935715
  33
0.0
   0
MTEXT
   5
EC
 100
AcDbEntity
   8
LEVEL001
 370
15
  62
8
 100
AcDbMText
  10
 24.105554129868
  20
 79.992849916424
  30
0.0
  40
 1.2500000000000
  41
0.0
  71
8
  72
1
   1
\A1;12
   7
GMM001
   0
ENDBLK
   5
ED
 100
AcDbEntity
   8
0
 100
AcDbBlockEnd
   0
BLOCK
   5
EE
 100
AcDbEntity
   8
0
 100
AcDbBlockBegin
   2
*D7
  70
65
  10
0.0
  20
0.0
  30
0.0
   3
*D7
   0
LINE
   5
EF
 100
AcDbEntity
   8
LEVEL001
 370
15
 100
AcDbLine
   6
CONTINUOUS
  62
8
  10
 23.605554129768
  20
 92.492849916449
  30
0.0
  11
 13.105554129868
  21
 92.492849916449
  31
0.0
   0
LINE
   5
F0
 100
AcDbEntity
   8
LEVEL001
 370
15
 100
AcDbLine
   6
CONTINUOUS
  62
8
  10
 15.105554129868
  20
 95.892849916424
  30
0.0
  11
 13.105554129868
  21
 95.892849916424
  31
0.0
   0
LINE
   5
F1
 100
AcDbEntity
   8
LEVEL001
 370
15
 100
AcDbLine
   6
CONTINUOUS
  62
8
  10
 13.605554129868
  20
 92.492849916449
  30
0.0
  11
 13.605554129868
  21
 94.192849916437
  31
0.0
   0
LINE
   5
F2
 100
AcDbEntity
   8
LEVEL001
 370
15
 100
AcDbLine
   6
CONTINUOUS
  62
8
  10
 13.605554129868
  20
 95.892849916424
  30
0.0
  11
 13.605554129868
  21
 94.192849916437
  31
0.0
   0
SOLID
   5
F3
 100
AcDbEntity
   8
LEVEL001
 100
AcDbTrace
   6
CONTINUOUS
  62
8
  10
 13.605554129868
  20
 92.492849916449
  30
0.0
  11
 13.781881110577
  21
 93.492849916449
  31
0.0
  12
 13.429227149160
  22
 93.492849916449
  32
0.0
  13
 13.429227149160
  23
 93.492849916449
  33
0.0
   0
SOLID
   5
F4
 100
AcDbEntity
   8
LEVEL001
 100
AcDbTrace
   6
CONTINUOUS
  62
8
  10
 13.605554129868
  20
 95.892849916424
  30
0.0
  11
 13.429227149160
  21
 94.892849916424
  31
0.0
  12
 13.781881110577
  22
 94.892849916424
  32
0.0
  13
 13.781881110577
  23
 94.892849916424
  33
0.0
   0
MTEXT
   5
F5
 100
AcDbEntity
   8
LEVEL001
 370
15
  62
8
 100
AcDbMText
  10
 13.105554129868
  20
 94.192849916437
  30
0.0
  40
 1.2500000000000
  41
0.0
  71
8
  72
1
   1
\A1;3.4
   7
GMM001
  11
0.0
  21
 1.0000000000000
  31
0.0
   0
ENDBLK
   5
F6
 100
AcDbEntity
   8
0
 100
AcDbBlockEnd
   0
BLOCK
   5
F7
 100
AcDbEntity
   8
0
 100
AcDbBlockBegin
   2
*D8
  70
65
  10
0.0
  20
0.0
  30
0.0
   3
*D8
   0
LINE
   5
F8
 100
AcDbEntity
   8
LEVEL001
 370
15
 100
AcDbLine
   6
CONTINUOUS
  62
8
  10
 15.105554129868
  20
 96.392849916424
  30
0.0
  11
 15.105554129868
  21
 99.392849916424
  31
0.0
   0
LINE
   5
F9
 100
AcDbEntity
   8
LEVEL001
 370
15
 100
AcDbLine
   6
CONTINUOUS
  62
8
  10
 32.905554129868
  20
 96.392849916424
  30
0.0
  11
 32.905554129868
  21
 99.392849916424
  31
0.0
   0
LINE
   5
FA
 100
AcDbEntity
   8
LEVEL001
 370
15
 100
AcDbLine
   6
CONTINUOUS
  62
8
  10
 15.105554129868
  20
 98.892849916424
  30
0.0
  11
 24.005554129868
  21
 98.892849916424
  31
0.0
   0
LINE
   5
FB
 100
AcDbEntity
   8
LEVEL001
 370
15
 100
AcDbLine
   6
CONTINUOUS
  62
8
  10
 32.905554129868
  20
 98.892849916424
  30
0.0
  11
 24.005554129868
  21
 98.892849916424
  31
0.0
   0
SOLID
   5
FC
 100
AcDbEntity
   8
LEVEL001
 100
AcDbTrace
   6
CONTINUOUS
  62
8
  10
 15.105554129868
  20
 98.892849916424
  30
0.0
  11
 16.105554129868
  21
 98.716522935716
  31
0.0
  12
 16.105554129868
  22
 99.069176897133
  32
0.0
  13
 16.105554129868
  23
 99.069176897133
  33
0.0
   0
SOLID
   5
FD
 100
AcDbEntity
   8
LEVEL001
 100
AcDbTrace
   6
CONTINUOUS
  62
8
  10
 32.905554129868
  20
 98.892849916424
  30
0.0
  11
 31.905554129868
  21
 99.069176897133
  31
0.0
  12
 31.905554129868
  22
 98.716522935716
  32
0.0
  13
 31.905554129868
  23
 98.716522935716
  33
0.0
   0
MTEXT
   5
FE
 100
AcDbEntity
   8
LEVEL001
 370
15
  62
8
 100
AcDbMText
  10
 24.005554129868
  20
 99.392849916424
  30
0.0
  40
 1.2500000000000
  41
0.0
  71
8
  72
1
   1
\A1;17.8
   7
GMM001
   0
ENDBLK
   5
FF
 100
AcDbEntity
   8
0
 100
AcDbBlockEnd
   0
BLOCK
   5
100
 100
AcDbEntity
   8
0
 100
AcDbBlockBegin
   2
*D9
  70
65
  10
0.0
  20
0.0
  30
0.0
   3
*D9
   0
LINE
   5
101
 100
AcDbEntity
   8
LEVEL001
 370
15
 100
AcDbLine
   6
CONTINUOUS
  62
8
  10
 18.105554129768
  20
 129.91897986682
  30
0.0
  11
 18.105554129768
  21
 132.71897986682
  31
0.0
   0
LINE
   5
102
 100
AcDbEntity
   8
LEVEL001
 370
15
 100
AcDbLine
   6
CONTINUOUS
  62
8
  10
 30.105554129768
  20
 129.91897986682
  30
0.0
  11
 30.105554129768
  21
 132.71897986682
  31
0.0
   0
LINE
   5
103
 100
AcDbEntity
   8
LEVEL001
 370
15
 100
AcDbLine
   6
CONTINUOUS
  62
8
  10
 18.105554129768
  20
 132.21897986682
  30
0.0
  11
 24.105554129768
  21
 132.21897986682
  31
0.0
   0
LINE
   5
104
 100
AcDbEntity
   8
LEVEL001
 370
15
 100
AcDbLine
   6
CONTINUOUS
  62
8
  10
 30.105554129768
  20
 132.21897986682
  30
0.0
  11
 24.105554129768
  21
 132.21897986682
  31
0.0
   0
SOLID
   5
105
 100
AcDbEntity
   8
LEVEL001
 100
AcDbTrace
   6
CONTINUOUS
  62
8
  10
 18.105554129768
  20
 132.21897986682
  30
0.0
  11
 19.105554129768
  21
 132.04265288611
  31
0.0
  12
 19.105554129768
  22
 132.39530684753
  32
0.0
  13
 19.105554129768
  23
 132.39530684753
  33
0.0
   0
SOLID
   5
106
 100
AcDbEntity
   8
LEVEL001
 100
AcDbTrace
   6
CONTINUOUS
  62
8
  10
 30.105554129768
  20
 132.21897986682
  30
0.0
  11
 29.105554129768
  21
 132.39530684753
  31
0.0
  12
 29.105554129768
  22
 132.04265288611
  32
0.0
  13
 29.105554129768
  23
 132.04265288611
  33
0.0
   0
MTEXT
   5
107
 100
AcDbEntity
   8
LEVEL001
 370
15
  62
8
 100
AcDbMText
  10
 24.105554129768
  20
 132.71897986682
  30
0.0
  40
 1.2500000000000
  41
0.0
  71
8
  72
1
   1
\A1;12
   7
GMM001
   0
ENDBLK
   5
108
 100
AcDbEntity
   8
0
 100
AcDbBlockEnd
   0
BLOCK
   5
109
 100
AcDbEntity
   8
0
 100
AcDbBlockBegin
   2
*D10
  70
65
  10
0.0
  20
0.0
  30
0.0
   3
*D10
   0
LINE
   5
10A
 100
AcDbEntity
   8
LEVEL001
 370
15
 100
AcDbLine
   6
CONTINUOUS
  62
8
  10
 24.605554129694
  20
 125.81897986685
  30
0.0
  11
 33.605554129768
  21
 125.81897986685
  31
0.0
   0
LINE
   5
10B
 100
AcDbEntity
   8
LEVEL001
 370
15
 100
AcDbLine
   6
CONTINUOUS
  62
8
  10
 29.685554129768
  20
 129.21897986682
  30
0.0
  11
 33.605554129768
  21
 129.21897986682
  31
0.0
   0
LINE
   5
10C
 100
AcDbEntity
   8
LEVEL001
 370
15
 100
AcDbLine
   6
CONTINUOUS
  62
8
  10
 33.105554129768
  20
 125.81897986685
  30
0.0
  11
 33.105554129768
  21
 127.51897986683
  31
0.0
   0
LINE
   5
10D
 100
AcDbEntity
   8
LEVEL001
 370
15
 100
AcDbLine
   6
CONTINUOUS
  62
8
  10
 33.105554129768
  20
 129.21897986682
  30
0.0
  11
 33.105554129768
  21
 127.51897986683
  31
0.0
   0
SOLID
   5
10E
 100
AcDbEntity
   8
LEVEL001
 100
AcDbTrace
   6
CONTINUOUS
  62
8
  10
 33.105554129768
  20
 125.81897986685
  30
0.0
  11
 33.281881110476
  21
 126.81897986685
  31
0.0
  12
 32.929227149059
  22
 126.81897986685
  32
0.0
  13
 32.929227149059
  23
 126.81897986685
  33
0.0
   0
SOLID
   5
10F
 100
AcDbEntity
   8
LEVEL001
 100
AcDbTrace
   6
CONTINUOUS
  62
8
  10
 33.105554129768
  20
 129.21897986682
  30
0.0
  11
 32.929227149059
  21
 128.21897986682
  31
0.0
  12
 33.281881110476
  22
 128.21897986682
  32
0.0
  13
 33.281881110476
  23
 128.21897986682
  33
0.0
   0
MTEXT
   5
110
 100
AcDbEntity
   8
LEVEL001
 370
15
  62
8
 100
AcDbMText
  10
 32.605554129768
  20
 127.51897986683
  30
0.0
  40
 1.2500000000000
  41
0.0
  71
8
  72
1
   1
\A1;3.4
   7
GMM001
  11
0.0
  21
 1.0000000000000
  31
0.0
   0
ENDBLK
   5
111
 100
AcDbEntity
   8
0
 100
AcDbBlockEnd
   0
BLOCK
   5
112
 100
AcDbEntity
   8
0
 100
AcDbBlockBegin
   2
*D11
  70
65
  10
0.0
  20
0.0
  30
0.0
   3
*D11
   0
LINE
   5
113
 100
AcDbEntity
   8
LEVEL001
 370
15
 100
AcDbLine
   6
CONTINUOUS
  62
8
  10
 29.555554129768
  20
 117.21897986682
  30
0.0
  11
 36.605554129768
  21
 117.21897986682
  31
0.0
   0
LINE
   5
114
 100
AcDbEntity
   8
LEVEL001
 370
15
 100
AcDbLine
   6
CONTINUOUS
  62
8
  10
 33.605554129768
  20
 129.21897986682
  30
0.0
  11
 36.605554129768
  21
 129.21897986682
  31
0.0
   0
LINE
   5
115
 100
AcDbEntity
   8
LEVEL001
 370
15
 100
AcDbLine
   6
CONTINUOUS
  62
8
  10
 36.105554129768
  20
 117.21897986682
  30
0.0
  11
 36.105554129768
  21
 123.21897986682
  31
0.0
   0
LINE
   5
116
 100
AcDbEntity
   8
LEVEL001
 370
15
 100
AcDbLine
   6
CONTINUOUS
  62
8
  10
 36.105554129768
  20
 129.21897986682
  30
0.0
  11
 36.105554129768
  21
 123.21897986682
  31
0.0
   0
SOLID
   5
117
 100
AcDbEntity
   8
LEVEL001
 100
AcDbTrace
   6
CONTINUOUS
  62
8
  10
 36.105554129768
  20
 117.21897986682
  30
0.0
  11
 36.281881110476
  21
 118.21897986682
  31
0.0
  12
 35.929227149059
  22
 118.21897986682
  32
0.0
  13
 35.929227149059
  23
 118.21897986682
  33
0.0
   0
SOLID
   5
118
 100
AcDbEntity
   8
LEVEL001
 100
AcDbTrace
   6
CONTINUOUS
  62
8
  10
 36.105554129768
  20
 129.21897986682
  30
0.0
  11
 35.929227149059
  21
 128.21897986682
  31
0.0
  12
 36.281881110476
  22
 128.21897986682
  32
0.0
  13
 36.281881110476
  23
 128.21897986682
  33
0.0
   0
MTEXT
   5
119
 100
AcDbEntity
   8
LEVEL001
 370
15
  62
8
 100
AcDbMText
  10
 35.605554129768
  20
 123.21897986682
  30
0.0
  40
 1.2500000000000
  41
0.0
  71
8
  72
1
   1
\A1;12
   7
GMM001
  11
0.0
  21
 1.0000000000000
  31
0.0
   0
ENDBLK
   5
11A
 100
AcDbEntity
   8
0
 100
AcDbBlockEnd
   0
BLOCK
   5
11B
 100
AcDbEntity
   8
0
 100
AcDbBlockBegin
   2
*D12
  70
65
  10
0.0
  20
0.0
  30
0.0
   3
*D12
   0
LINE
   5
11C
 100
AcDbEntity
   8
LEVEL001
 370
15
 100
AcDbLine
   6
CONTINUOUS
  62
8
  10
 65.466183583450
  20
 82.492849916424
  30
0.0
  11
 72.216183569086
  21
 82.492849916424
  31
0.0
   0
LINE
   5
11D
 100
AcDbEntity
   8
LEVEL001
 370
15
 100
AcDbLine
   6
CONTINUOUS
  62
8
  10
 68.272804796272
  20
 91.492849916424
  30
0.0
  11
 72.216183569086
  21
 91.492849916424
  31
0.0
   0
LINE
   5
11E
 100
AcDbEntity
   8
LEVEL001
 370
15
 100
AcDbLine
   6
CONTINUOUS
  62
8
  10
 71.716183569086
  20
 82.492849916424
  30
0.0
  11
 71.716183569086
  21
 86.992849916424
  31
0.0
   0
LINE
   5
11F
 100
AcDbEntity
   8
LEVEL001
 370
15
 100
AcDbLine
   6
CONTINUOUS
  62
8
  10
 71.716183569086
  20
 91.492849916424
  30
0.0
  11
 71.716183569086
  21
 86.992849916424
  31
0.0
   0
SOLID
   5
120
 100
AcDbEntity
   8
LEVEL001
 100
AcDbTrace
   6
CONTINUOUS
  62
8
  10
 71.716183569086
  20
 82.492849916424
  30
0.0
  11
 71.892510549794
  21
 83.492849916424
  31
0.0
  12
 71.539856588377
  22
 83.492849916424
  32
0.0
  13
 71.539856588377
  23
 83.492849916424
  33
0.0
   0
SOLID
   5
121
 100
AcDbEntity
   8
LEVEL001
 100
AcDbTrace
   6
CONTINUOUS
  62
8
  10
 71.716183569086
  20
 91.492849916424
  30
0.0
  11
 71.539856588377
  21
 90.492849916424
  31
0.0
  12
 71.892510549794
  22
 90.492849916424
  32
0.0
  13
 71.892510549794
  23
 90.492849916424
  33
0.0
   0
MTEXT
   5
122
 100
AcDbEntity
   8
LEVEL001
 370
15
  62
8
 100
AcDbMText
  10
 71.216183569086
  20
 86.992849916424
  30
0.0
  40
 1.2500000000000
  41
0.0
  71
8
  72
1
   1
\A1;9
   7
GMM001
  11
0.0
  21
 1.0000000000000
  31
0.0
   0
ENDBLK
   5
123
 100
AcDbEntity
   8
0
 100
AcDbBlockEnd
   0
BLOCK
   5
124
 100
AcDbEntity
   8
0
 100
AcDbBlockBegin
   2
*D13
  70
65
  10
0.0
  20
0.0
  30
0.0
   3
*D13
   0
LINE
   5
125
 100
AcDbEntity
   8
LEVEL001
 370
15
 100
AcDbLine
   6
CONTINUOUS
  62
8
  10
 72.216183569086
  20
 82.492849916424
  30
0.0
  11
 75.216183569086
  21
 82.492849916424
  31
0.0
   0
LINE
   5
126
 100
AcDbEntity
   8
LEVEL001
 370
15
 100
AcDbLine
   6
CONTINUOUS
  62
8
  10
 68.316191417248
  20
 92.892849916469
  30
0.0
  11
 75.216183569086
  21
 92.892849916469
  31
0.0
   0
LINE
   5
127
 100
AcDbEntity
   8
LEVEL001
 370
15
 100
AcDbLine
   6
CONTINUOUS
  62
8
  10
 74.716183569086
  20
 82.492849916424
  30
0.0
  11
 74.716183569086
  21
 87.692849916446
  31
0.0
   0
LINE
   5
128
 100
AcDbEntity
   8
LEVEL001
 370
15
 100
AcDbLine
   6
CONTINUOUS
  62
8
  10
 74.716183569086
  20
 92.892849916469
  30
0.0
  11
 74.716183569086
  21
 87.692849916446
  31
0.0
   0
SOLID
   5
129
 100
AcDbEntity
   8
LEVEL001
 100
AcDbTrace
   6
CONTINUOUS
  62
8
  10
 74.716183569086
  20
 82.492849916424
  30
0.0
  11
 74.892510549794
  21
 83.492849916424
  31
0.0
  12
 74.539856588377
  22
 83.492849916424
  32
0.0
  13
 74.539856588377
  23
 83.492849916424
  33
0.0
   0
SOLID
   5
12A
 100
AcDbEntity
   8
LEVEL001
 100
AcDbTrace
   6
CONTINUOUS
  62
8
  10
 74.716183569086
  20
 92.892849916469
  30
0.0
  11
 74.539856588377
  21
 91.892849916469
  31
0.0
  12
 74.892510549794
  22
 91.892849916469
  32
0.0
  13
 74.892510549794
  23
 91.892849916469
  33
0.0
   0
MTEXT
   5
12B
 100
AcDbEntity
   8
LEVEL001
 370
15
  62
8
 100
AcDbMText
  10
 74.216183569086
  20
 87.692849916446
  30
0.0
  40
 1.2500000000000
  41
0.0
  71
8
  72
1
   1
\A1;10.4
   7
GMM001
  11
0.0
  21
 1.0000000000000
  31
0.0
   0
ENDBLK
   5
12C
 100
AcDbEntity
   8
0
 100
AcDbBlockEnd
   0
BLOCK
   5
12D
 100
AcDbEntity
   8
0
 100
AcDbBlockBegin
   2
*D14
  70
65
  10
0.0
  20
0.0
  30
0.0
   3
*D14
   0
LINE
   5
12E
 100
AcDbEntity
   8
LEVEL001
 370
15
 100
AcDbLine
   6
CONTINUOUS
  62
8
  10
 56.894524305861
  20
 90.992903147898
  30
0.0
  11
 56.894524305861
  21
 78.992849916424
  31
0.0
   0
LINE
   5
12F
 100
AcDbEntity
   8
LEVEL001
 370
15
 100
AcDbLine
   6
CONTINUOUS
  62
8
  10
 66.037818763817
  20
 90.992849916424
  30
0.0
  11
 66.037818763817
  21
 78.992849916424
  31
0.0
   0
LINE
   5
130
 100
AcDbEntity
   8
LEVEL001
 370
15
 100
AcDbLine
   6
CONTINUOUS
  62
8
  10
 56.894524305861
  20
 79.492849916424
  30
0.0
  11
 61.466171534839
  21
 79.492849916424
  31
0.0
   0
LINE
   5
131
 100
AcDbEntity
   8
LEVEL001
 370
15
 100
AcDbLine
   6
CONTINUOUS
  62
8
  10
 66.037818763817
  20
 79.492849916424
  30
0.0
  11
 61.466171534839
  21
 79.492849916424
  31
0.0
   0
SOLID
   5
132
 100
AcDbEntity
   8
LEVEL001
 100
AcDbTrace
   6
CONTINUOUS
  62
8
  10
 56.894524305861
  20
 79.492849916424
  30
0.0
  11
 57.894524305861
  21
 79.316522935715
  31
0.0
  12
 57.894524305861
  22
 79.669176897132
  32
0.0
  13
 57.894524305861
  23
 79.669176897132
  33
0.0
   0
SOLID
   5
133
 100
AcDbEntity
   8
LEVEL001
 100
AcDbTrace
   6
CONTINUOUS
  62
8
  10
 66.037818763817
  20
 79.492849916424
  30
0.0
  11
 65.037818763817
  21
 79.669176897132
  31
0.0
  12
 65.037818763817
  22
 79.316522935715
  32
0.0
  13
 65.037818763817
  23
 79.316522935715
  33
0.0
   0
MTEXT
   5
134
 100
AcDbEntity
   8
LEVEL001
 370
15
  62
8
 100
AcDbMText
  10
 61.466171534839
  20
 79.992849916424
  30
0.0
  40
 1.2500000000000
  41
0.0
  71
8
  72
1
   1
\A1;9
   7
GMM001
   0
ENDBLK
   5
135
 100
AcDbEntity
   8
0
 100
AcDbBlockEnd
   0
BLOCK
   5
136
 100
AcDbEntity
   8
0
 100
AcDbBlockBegin
   2
*D15
  70
65
  10
0.0
  20
0.0
  30
0.0
   3
*D15
   0
LINE
   5
137
 100
AcDbEntity
   8
LEVEL001
 370
15
 100
AcDbLine
   6
CONTINUOUS
  62
8
  10
 61.016183583629
  20
 90.592849916424
  30
0.0
  11
 52.434997750360
  21
 90.592849916424
  31
0.0
   0
LINE
   5
138
 100
AcDbEntity
   8
LEVEL001
 370
15
 100
AcDbLine
   6
CONTINUOUS
  62
8
  10
 55.434997750360
  20
 92.892849916156
  30
0.0
  11
 52.434997750360
  21
 92.892849916156
  31
0.0
   0
LINE
   5
139
 100
AcDbEntity
   8
LEVEL001
 370
15
 100
AcDbLine
   6
CONTINUOUS
  62
8
  10
 52.934997750360
  20
 89.342849916424
  30
0.0
  11
 52.934997750360
  21
 91.742849916290
  31
0.0
   0
LINE
   5
13A
 100
AcDbEntity
   8
LEVEL001
 370
15
 100
AcDbLine
   6
CONTINUOUS
  62
8
  10
 52.934997750360
  20
 96.401323425414
  30
0.0
  11
 52.934997750360
  21
 91.742849916290
  31
0.0
   0
SOLID
   5
13B
 100
AcDbEntity
   8
LEVEL001
 100
AcDbTrace
   6
CONTINUOUS
  62
8
  10
 52.934997750360
  20
 90.592849916424
  30
0.0
  11
 52.758670769652
  21
 89.592849916424
  31
0.0
  12
 53.111324731069
  22
 89.592849916424
  32
0.0
  13
 53.111324731069
  23
 89.592849916424
  33
0.0
   0
SOLID
   5
13C
 100
AcDbEntity
   8
LEVEL001
 100
AcDbTrace
   6
CONTINUOUS
  62
8
  10
 52.934997750360
  20
 92.892849916156
  30
0.0
  11
 53.111324731069
  21
 93.892849916156
  31
0.0
  12
 52.758670769652
  22
 93.892849916156
  32
0.0
  13
 52.758670769652
  23
 93.892849916156
  33
0.0
   0
MTEXT
   5
13D
 100
AcDbEntity
   8
LEVEL001
 370
15
  62
8
 100
AcDbMText
  10
 52.512843392389
  20
 93.651323425414
  30
0.0
  40
 1.2500000000000
  41
0.0
  71
7
  72
1
   1
\A1;2.3
   7
GMM001
  11
0.0
  21
 1.0000000000000
  31
0.0
   0
ENDBLK
   5
13E
 100
AcDbEntity
   8
0
 100
AcDbBlockEnd
   0
BLOCK
   5
13F
 100
AcDbEntity
   8
0
 100
AcDbBlockBegin
   2
*D16
  70
65
  10
0.0
  20
0.0
  30
0.0
   3
*D16
   0
LINE
   5
140
 100
AcDbEntity
   8
LEVEL001
 370
15
 100
AcDbLine
   6
CONTINUOUS
  62
8
  10
 22.105554129768
  20
 58.750374978844
  30
0.0
  11
 22.105554129768
  21
 63.310541009399
  31
0.0
   0
LINE
   5
141
 100
AcDbEntity
   8
LEVEL001
 370
15
 100
AcDbLine
   6
CONTINUOUS
  62
8
  10
 26.105554129768
  20
 58.750374978843
  30
0.0
  11
 26.105554129768
  21
 63.310541009399
  31
0.0
   0
LINE
   5
142
 100
AcDbEntity
   8
LEVEL001
 370
15
 100
AcDbLine
   6
CONTINUOUS
  62
8
  10
 22.105554129768
  20
 62.810541009399
  30
0.0
  11
 24.105554129768
  21
 62.810541009399
  31
0.0
   0
LINE
   5
143
 100
AcDbEntity
   8
LEVEL001
 370
15
 100
AcDbLine
   6
CONTINUOUS
  62
8
  10
 26.105554129768
  20
 62.810541009399
  30
0.0
  11
 24.105554129768
  21
 62.810541009399
  31
0.0
   0
SOLID
   5
144
 100
AcDbEntity
   8
LEVEL001
 100
AcDbTrace
   6
CONTINUOUS
  62
8
  10
 22.105554129768
  20
 62.810541009399
  30
0.0
  11
 23.105554129768
  21
 62.634214028690
  31
0.0
  12
 23.105554129768
  22
 62.986867990107
  32
0.0
  13
 23.105554129768
  23
 62.986867990107
  33
0.0
   0
SOLID
   5
145
 100
AcDbEntity
   8
LEVEL001
 100
AcDbTrace
   6
CONTINUOUS
  62
8
  10
 26.105554129768
  20
 62.810541009399
  30
0.0
  11
 25.105554129768
  21
 62.986867990107
  31
0.0
  12
 25.105554129768
  22
 62.634214028690
  32
0.0
  13
 25.105554129768
  23
 62.634214028690
  33
0.0
   0
MTEXT
   5
146
 100
AcDbEntity
   8
LEVEL001
 370
15
  62
8
 100
AcDbMText
  10
 24.105554129768
  20
 63.310541009399
  30
0.0
  40
 1.2500000000000
  41
0.0
  71
8
  72
1
   1
\A1;4
   7
GMM001
   0
ENDBLK
   5
147
 100
AcDbEntity
   8
0
 100
AcDbBlockEnd
   0
BLOCK
   5
148
 100
AcDbEntity
   8
0
 100
AcDbBlockBegin
   2
*D17
  70
65
  10
0.0
  20
0.0
  30
0.0
   3
*D17
   0
LINE
   5
149
 100
AcDbEntity
   8
LEVEL001
 370
15
 100
AcDbLine
   6
CONTINUOUS
  62
8
  10
 18.005554129768
  20
 60.510541009399
  30
0.0
  11
 18.005554129768
  21
 66.310541009399
  31
0.0
   0
LINE
   5
14A
 100
AcDbEntity
   8
LEVEL001
 370
15
 100
AcDbLine
   6
CONTINUOUS
  62
8
  10
 30.205554129768
  20
 60.510541009399
  30
0.0
  11
 30.205554129768
  21
 66.310541009399
  31
0.0
   0
LINE
   5
14B
 100
AcDbEntity
   8
LEVEL001
 370
15
 100
AcDbLine
   6
CONTINUOUS
  62
8
  10
 18.005554129768
  20
 65.810541009399
  30
0.0
  11
 24.105554129768
  21
 65.810541009399
  31
0.0
   0
LINE
   5
14C
 100
AcDbEntity
   8
LEVEL001
 370
15
 100
AcDbLine
   6
CONTINUOUS
  62
8
  10
 30.205554129768
  20
 65.810541009399
  30
0.0
  11
 24.105554129768
  21
 65.810541009399
  31
0.0
   0
SOLID
   5
14D
 100
AcDbEntity
   8
LEVEL001
 100
AcDbTrace
   6
CONTINUOUS
  62
8
  10
 18.005554129768
  20
 65.810541009399
  30
0.0
  11
 19.005554129768
  21
 65.634214028690
  31
0.0
  12
 19.005554129768
  22
 65.986867990107
  32
0.0
  13
 19.005554129768
  23
 65.986867990107
  33
0.0
   0
SOLID
   5
14E
 100
AcDbEntity
   8
LEVEL001
 100
AcDbTrace
   6
CONTINUOUS
  62
8
  10
 30.205554129768
  20
 65.810541009399
  30
0.0
  11
 29.205554129768
  21
 65.986867990107
  31
0.0
  12
 29.205554129768
  22
 65.634214028690
  32
0.0
  13
 29.205554129768
  23
 65.634214028690
  33
0.0
   0
MTEXT
   5
14F
 100
AcDbEntity
   8
LEVEL001
 370
15
  62
8
 100
AcDbMText
  10
 24.105554129768
  20
 66.310541009399
  30
0.0
  40
 1.2500000000000
  41
0.0
  71
8
  72
1
   1
\A1;12.2
   7
GMM001
   0
ENDBLK
   5
150
 100
AcDbEntity
   8
0
 100
AcDbBlockEnd
   0
BLOCK
   5
151
 100
AcDbEntity
   8
0
 100
AcDbBlockBegin
   2
*D18
  70
65
  10
0.0
  20
0.0
  30
0.0
   3
*D18
   0
LINE
   5
152
 100
AcDbEntity
   8
LEVEL001
 370
15
 100
AcDbLine
   6
CONTINUOUS
  62
8
  10
 26.605554129768
  20
 55.810541009399
  30
0.0
  11
 33.705554129768
  21
 55.810541009399
  31
0.0
   0
LINE
   5
153
 100
AcDbEntity
   8
LEVEL001
 370
15
 100
AcDbLine
   6
CONTINUOUS
  62
8
  10
 30.905554129768
  20
 59.810541009399
  30
0.0
  11
 33.705554129768
  21
 59.810541009399
  31
0.0
   0
LINE
   5
154
 100
AcDbEntity
   8
LEVEL001
 370
15
 100
AcDbLine
   6
CONTINUOUS
  62
8
  10
 33.205554129768
  20
 55.810541009399
  30
0.0
  11
 33.205554129768
  21
 57.810541009399
  31
0.0
   0
LINE
   5
155
 100
AcDbEntity
   8
LEVEL001
 370
15
 100
AcDbLine
   6
CONTINUOUS
  62
8
  10
 33.205554129768
  20
 59.810541009399
  30
0.0
  11
 33.205554129768
  21
 57.810541009399
  31
0.0
   0
SOLID
   5
156
 100
AcDbEntity
   8
LEVEL001
 100
AcDbTrace
   6
CONTINUOUS
  62
8
  10
 33.205554129768
  20
 55.810541009399
  30
0.0
  11
 33.381881110476
  21
 56.810541009399
  31
0.0
  12
 33.029227149059
  22
 56.810541009399
  32
0.0
  13
 33.029227149059
  23
 56.810541009399
  33
0.0
   0
SOLID
   5
157
 100
AcDbEntity
   8
LEVEL001
 100
AcDbTrace
   6
CONTINUOUS
  62
8
  10
 33.205554129768
  20
 59.810541009399
  30
0.0
  11
 33.029227149059
  21
 58.810541009399
  31
0.0
  12
 33.381881110476
  22
 58.810541009399
  32
0.0
  13
 33.381881110476
  23
 58.810541009399
  33
0.0
   0
MTEXT
   5
158
 100
AcDbEntity
   8
LEVEL001
 370
15
  62
8
 100
AcDbMText
  10
 32.705554129768
  20
 57.810541009399
  30
0.0
  40
 1.2500000000000
  41
0.0
  71
8
  72
1
   1
\A1;4
   7
GMM001
  11
0.0
  21
 1.0000000000000
  31
0.0
   0
ENDBLK
   5
159
 100
AcDbEntity
   8
0
 100
AcDbBlockEnd
   0
BLOCK
   5
15A
 100
AcDbEntity
   8
0
 100
AcDbBlockBegin
   2
*D19
  70
65
  10
0.0
  20
0.0
  30
0.0
   3
*D19
   0
LINE
   5
15B
 100
AcDbEntity
   8
LEVEL001
 370
15
 100
AcDbLine
   6
CONTINUOUS
  62
8
  10
 30.905554129768
  20
 47.810541009399
  30
0.0
  11
 36.705554129768
  21
 47.810541009399
  31
0.0
   0
LINE
   5
15C
 100
AcDbEntity
   8
LEVEL001
 370
15
 100
AcDbLine
   6
CONTINUOUS
  62
8
  10
 33.705554129768
  20
 59.810541009399
  30
0.0
  11
 36.705554129768
  21
 59.810541009399
  31
0.0
   0
LINE
   5
15D
 100
AcDbEntity
   8
LEVEL001
 370
15
 100
AcDbLine
   6
CONTINUOUS
  62
8
  10
 36.205554129768
  20
 47.810541009399
  30
0.0
  11
 36.205554129768
  21
 53.810541009399
  31
0.0
   0
LINE
   5
15E
 100
AcDbEntity
   8
LEVEL001
 370
15
 100
AcDbLine
   6
CONTINUOUS
  62
8
  10
 36.205554129768
  20
 59.810541009399
  30
0.0
  11
 36.205554129768
  21
 53.810541009399
  31
0.0
   0
SOLID
   5
15F
 100
AcDbEntity
   8
LEVEL001
 100
AcDbTrace
   6
CONTINUOUS
  62
8
  10
 36.205554129768
  20
 47.810541009399
  30
0.0
  11
 36.381881110476
  21
 48.810541009399
  31
0.0
  12
 36.029227149059
  22
 48.810541009399
  32
0.0
  13
 36.029227149059
  23
 48.810541009399
  33
0.0
   0
SOLID
   5
160
 100
AcDbEntity
   8
LEVEL001
 100
AcDbTrace
   6
CONTINUOUS
  62
8
  10
 36.205554129768
  20
 59.810541009399
  30
0.0
  11
 36.029227149059
  21
 58.810541009399
  31
0.0
  12
 36.381881110476
  22
 58.810541009399
  32
0.0
  13
 36.381881110476
  23
 58.810541009399
  33
0.0
   0
MTEXT
   5
161
 100
AcDbEntity
   8
LEVEL001
 370
15
  62
8
 100
AcDbMText
  10
 35.705554129768
  20
 53.810541009399
  30
0.0
  40
 1.2500000000000
  41
0.0
  71
8
  72
1
   1
\A1;12
   7
GMM001
  11
0.0
  21
 1.0000000000000
  31
0.0
   0
ENDBLK
   5
162
 100
AcDbEntity
   8
0
 100
AcDbBlockEnd
   0
ENDSEC
   0
SECTION
   2
ENTITIES
   0
MTEXT
   5
164
 100
AcDbEntity
   8
LEVEL002
 370
15
  62
8
 100
AcDbMText
  10
-146.40614427011
  20
 103.76058526416
  30
0.0
  40
 3.0000000000000
  41
0.0
  71
4
  72
1
   1
\T1.000000;ＦＲＳ１２
   7
GMM001
  44
 0.79999984000003
   0
MTEXT
   5
166
 100
AcDbEntity
   8
LEVEL002
 370
15
  62
8
 100
AcDbMText
  10
-106.98838892569
  20
 98.998708779596
  30
0.0
  40
 3.0000000000000
  41
0.0
  71
4
  72
1
   1
\T1.000000;ＦＲＳ１２
   7
GMM001
  44
 0.79999984000003
   0
MTEXT
   5
168
 100
AcDbEntity
   8
LEVEL002
 370
30
  62
7
 100
AcDbMText
  10
-146.40614427011
  20
 60.021867924489
  30
0.0
  40
 3.0000000000000
  41
0.0
  71
4
  72
1
   1
\T1.000000;ＦＲＳ９
   7
GMM001
  44
 0.79999984000003
   0
MTEXT
   5
16A
 100
AcDbEntity
   8
LEVEL002
 370
15
  62
8
 100
AcDbMText
  10
-95.647799877349
  20
 55.211137503298
  30
0.0
  40
 3.0000000000000
  41
0.0
  71
4
  72
1
   1
\T1.000000;ＤＭＳ１２
   7
GMM001
  44
 0.79999984000003
   0
LINE
   5
16B
 100
AcDbEntity
   8
LEVEL002
 370
30
 100
AcDbLine
   6
CONTINUOUS
  62
7
  10
 172.07500000000
  20
 136.03750000000
  30
0.0
  11
 168.47500000000
  21
 136.03750000000
  31
0.0
   0
LINE
   5
16C
 100
AcDbEntity
   8
LEVEL002
 370
30
 100
AcDbLine
   6
CONTINUOUS
  62
7
  10
 168.47500000000
  20
 136.03750000000
  30
0.0
  11
 168.47500000000
  21
 130.63750000000
  31
0.0
   0
LINE
   5
16D
 100
AcDbEntity
   8
LEVEL002
 370
30
 100
AcDbLine
   6
CONTINUOUS
  62
7
  10
 168.47500000000
  20
 130.63750000000
  30
0.0
  11
 170.27500000000
  21
 130.63750000000
  31
0.0
   0
LINE
   5
16E
 100
AcDbEntity
   8
LEVEL002
 370
30
 100
AcDbLine
   6
CONTINUOUS
  62
7
  10
 170.27500000000
  20
 130.63750000000
  30
0.0
  11
 170.27500000000
  21
 131.53750000000
  31
0.0
   0
LINE
   5
16F
 100
AcDbEntity
   8
LEVEL002
 370
30
 100
AcDbLine
   6
CONTINUOUS
  62
7
  10
 170.27500000000
  20
 131.53750000000
  30
0.0
  11
 172.07500000000
  21
 131.53750000000
  31
0.0
   0
ARC
   5
170
 100
AcDbEntity
   8
LEVEL002
 370
30
   6
CONTINUOUS
  62
7
 100
AcDbCircle
  10
 172.07500000000
  20
 133.78750000000
  30
0.0
  40
 2.2500000000000
 100
AcDbArc
  50
 270.00000000000
  51
 90.000000000000
   0
LINE
   5
171
 100
AcDbEntity
   8
LEVEL002
 370
30
 100
AcDbLine
   6
CONTINUOUS
  62
7
  10
 170.27500000000
  20
 133.33750000000
  30
0.0
  11
 172.07500000000
  21
 133.33750000000
  31
0.0
   0
ARC
   5
172
 100
AcDbEntity
   8
LEVEL002
 370
30
   6
CONTINUOUS
  62
7
 100
AcDbCircle
  10
 172.07500000000
  20
 133.78750000000
  30
0.0
  40
 0.45000000000000
 100
AcDbArc
  50
 270.00000000000
  51
 90.000000000000
   0
LINE
   5
173
 100
AcDbEntity
   8
LEVEL002
 370
30
 100
AcDbLine
   6
CONTINUOUS
  62
7
  10
 172.07500000000
  20
 134.23750000000
  30
0.0
  11
 170.27500000000
  21
 134.23750000000
  31
0.0
   0
LINE
   5
174
 100
AcDbEntity
   8
LEVEL002
 370
30
 100
AcDbLine
   6
CONTINUOUS
  62
7
  10
 170.27500000000
  20
 134.23750000000
  30
0.0
  11
 170.27500000000
  21
 133.33750000000
  31
0.0
   0
LINE
   5
175
 100
AcDbEntity
   8
LEVEL002
 370
30
 100
AcDbLine
   6
CONTINUOUS
  62
7
  10
 172.97500000000
  20
 130.63750000000
  30
0.0
  11
 176.57500000000
  21
 136.03750000000
  31
0.0
   0
LINE
   5
176
 100
AcDbEntity
   8
LEVEL002
 370
30
 100
AcDbLine
   6
CONTINUOUS
  62
7
  10
 176.57500000000
  20
 136.03750000000
  30
0.0
  11
 181.07500000000
  21
 136.03750000000
  31
0.0
   0
LINE
   5
177
 100
AcDbEntity
   8
LEVEL002
 370
30
 100
AcDbLine
   6
CONTINUOUS
  62
7
  10
 181.07500000000
  20
 136.03750000000
  30
0.0
  11
 181.07500000000
  21
 132.43750000000
  31
0.0
   0
LINE
   5
178
 100
AcDbEntity
   8
LEVEL002
 370
30
 100
AcDbLine
   6
CONTINUOUS
  62
7
  10
 181.07500000000
  20
 132.43750000000
  30
0.0
  11
 183.77500000000
  21
 132.43750000000
  31
0.0
   0
LINE
   5
179
 100
AcDbEntity
   8
LEVEL002
 370
30
 100
AcDbLine
   6
CONTINUOUS
  62
7
  10
 183.77500000000
  20
 132.43750000000
  30
0.0
  11
 183.77500000000
  21
 134.23750000000
  31
0.0
   0
LINE
   5
17A
 100
AcDbEntity
   8
LEVEL002
 370
30
 100
AcDbLine
   6
CONTINUOUS
  62
7
  10
 183.77500000000
  20
 134.23750000000
  30
0.0
  11
 181.97500000000
  21
 134.23750000000
  31
0.0
   0
LINE
   5
17B
 100
AcDbEntity
   8
LEVEL002
 370
30
 100
AcDbLine
   6
CONTINUOUS
  62
7
  10
 181.97500000000
  20
 134.23750000000
  30
0.0
  11
 181.97500000000
  21
 136.03750000000
  31
0.0
   0
LINE
   5
17C
 100
AcDbEntity
   8
LEVEL002
 370
30
 100
AcDbLine
   6
CONTINUOUS
  62
7
  10
 181.97500000000
  20
 136.03750000000
  30
0.0
  11
 192.77500000000
  21
 136.03750000000
  31
0.0
   0
LINE
   5
17D
 100
AcDbEntity
   8
LEVEL002
 370
30
 100
AcDbLine
   6
CONTINUOUS
  62
7
  10
 192.77500000000
  20
 136.03750000000
  30
0.0
  11
 192.77500000000
  21
 134.23750000000
  31
0.0
   0
LINE
   5
17E
 100
AcDbEntity
   8
LEVEL002
 370
30
 100
AcDbLine
   6
CONTINUOUS
  62
7
  10
 192.77500000000
  20
 134.23750000000
  30
0.0
  11
 189.17500000000
  21
 134.23750000000
  31
0.0
   0
LINE
   5
17F
 100
AcDbEntity
   8
LEVEL002
 370
30
 100
AcDbLine
   6
CONTINUOUS
  62
7
  10
 189.17500000000
  20
 134.23750000000
  30
0.0
  11
 189.17500000000
  21
 133.78750000000
  31
0.0
   0
LINE
   5
180
 100
AcDbEntity
   8
LEVEL002
 370
30
 100
AcDbLine
   6
CONTINUOUS
  62
7
  10
 189.17500000000
  20
 133.78750000000
  30
0.0
  11
 192.32500000000
  21
 133.78750000000
  31
0.0
   0
LINE
   5
181
 100
AcDbEntity
   8
LEVEL002
 370
30
 100
AcDbLine
   6
CONTINUOUS
  62
7
  10
 192.32500000000
  20
 133.78750000000
  30
0.0
  11
 192.32500000000
  21
 132.88750000000
  31
0.0
   0
LINE
   5
182
 100
AcDbEntity
   8
LEVEL002
 370
30
 100
AcDbLine
   6
CONTINUOUS
  62
7
  10
 192.32500000000
  20
 132.88750000000
  30
0.0
  11
 189.17500000000
  21
 132.88750000000
  31
0.0
   0
LINE
   5
183
 100
AcDbEntity
   8
LEVEL002
 370
30
 100
AcDbLine
   6
CONTINUOUS
  62
7
  10
 189.17500000000
  20
 132.88750000000
  30
0.0
  11
 189.17500000000
  21
 132.43750000000
  31
0.0
   0
LINE
   5
184
 100
AcDbEntity
   8
LEVEL002
 370
30
 100
AcDbLine
   6
CONTINUOUS
  62
7
  10
 189.17500000000
  20
 132.43750000000
  30
0.0
  11
 192.77500000000
  21
 132.43750000000
  31
0.0
   0
LINE
   5
185
 100
AcDbEntity
   8
LEVEL002
 370
30
 100
AcDbLine
   6
CONTINUOUS
  62
7
  10
 192.77500000000
  20
 132.43750000000
  30
0.0
  11
 192.77500000000
  21
 130.63750000000
  31
0.0
   0
LINE
   5
186
 100
AcDbEntity
   8
LEVEL002
 370
30
 100
AcDbLine
   6
CONTINUOUS
  62
7
  10
 192.77500000000
  20
 130.63750000000
  30
0.0
  11
 187.37500000000
  21
 130.63750000000
  31
0.0
   0
LINE
   5
187
 100
AcDbEntity
   8
LEVEL002
 370
30
 100
AcDbLine
   6
CONTINUOUS
  62
7
  10
 187.37500000000
  20
 130.63750000000
  30
0.0
  11
 187.37500000000
  21
 134.23750000000
  31
0.0
   0
LINE
   5
188
 100
AcDbEntity
   8
LEVEL002
 370
30
 100
AcDbLine
   6
CONTINUOUS
  62
7
  10
 187.37500000000
  20
 134.23750000000
  30
0.0
  11
 185.57500000000
  21
 134.23750000000
  31
0.0
   0
LINE
   5
189
 100
AcDbEntity
   8
LEVEL002
 370
30
 100
AcDbLine
   6
CONTINUOUS
  62
7
  10
 185.57500000000
  20
 134.23750000000
  30
0.0
  11
 185.57500000000
  21
 130.63750000000
  31
0.0
   0
LINE
   5
18A
 100
AcDbEntity
   8
LEVEL002
 370
30
 100
AcDbLine
   6
CONTINUOUS
  62
7
  10
 185.57500000000
  20
 130.63750000000
  30
0.0
  11
 179.27500000000
  21
 130.63750000000
  31
0.0
   0
LINE
   5
18B
 100
AcDbEntity
   8
LEVEL002
 370
30
 100
AcDbLine
   6
CONTINUOUS
  62
7
  10
 179.27500000000
  20
 130.63750000000
  30
0.0
  11
 179.27500000000
  21
 136.03750000000
  31
0.0
   0
LINE
   5
18C
 100
AcDbEntity
   8
LEVEL002
 370
30
 100
AcDbLine
   6
CONTINUOUS
  62
7
  10
 179.27500000000
  20
 136.03750000000
  30
0.0
  11
 175.67500000000
  21
 130.63750000000
  31
0.0
   0
LINE
   5
18D
 100
AcDbEntity
   8
LEVEL002
 370
30
 100
AcDbLine
   6
CONTINUOUS
  62
7
  10
 175.67500000000
  20
 130.63750000000
  30
0.0
  11
 172.97500000000
  21
 130.63750000000
  31
0.0
   0
LINE
   5
18E
 100
AcDbEntity
   8
LEVEL002
 370
30
 100
AcDbLine
   6
CONTINUOUS
  62
7
  10
 178.67500000000
  20
 134.05583461735
  30
0.0
  11
 176.39611025510
  21
 130.63750000000
  31
0.0
   0
LINE
   5
18F
 100
AcDbEntity
   8
LEVEL002
 370
30
 100
AcDbLine
   6
CONTINUOUS
  62
7
  10
 176.39611025510
  20
 130.63750000000
  30
0.0
  11
 178.67500000000
  21
 130.63750000000
  31
0.0
   0
LINE
   5
190
 100
AcDbEntity
   8
LEVEL002
 370
30
 100
AcDbLine
   6
CONTINUOUS
  62
7
  10
 178.67500000000
  20
 130.63750000000
  30
0.0
  11
 178.67500000000
  21
 134.05583461735
  31
0.0
   0
ARC
   5
191
 100
AcDbEntity
   8
LEVEL002
 370
30
   6
CONTINUOUS
  62
7
 100
AcDbCircle
  10
 195.47500000000
  20
 133.33750000000
  30
0.0
  40
 2.7000000000000
 100
AcDbArc
  50
 90.000000000000
  51
 270.00000000000
   0
ARC
   5
192
 100
AcDbEntity
   8
LEVEL002
 370
30
   6
CONTINUOUS
  62
7
 100
AcDbCircle
  10
 195.47500000000
  20
 133.33750000000
  30
0.0
  40
 0.90000000000000
 100
AcDbArc
  50
 90.000000000000
  51
 270.00000000000
   0
LINE
   5
193
 100
AcDbEntity
   8
LEVEL002
 370
30
 100
AcDbLine
   6
CONTINUOUS
  62
7
  10
 195.47500000000
  20
 136.03750000000
  30
0.0
  11
 198.17500000000
  21
 136.03750000000
  31
0.0
   0
LINE
   5
194
 100
AcDbEntity
   8
LEVEL002
 370
30
 100
AcDbLine
   6
CONTINUOUS
  62
7
  10
 198.17500000000
  20
 136.03750000000
  30
0.0
  11
 198.17500000000
  21
 134.23750000000
  31
0.0
   0
LINE
   5
195
 100
AcDbEntity
   8
LEVEL002
 370
30
 100
AcDbLine
   6
CONTINUOUS
  62
7
  10
 198.17500000000
  20
 134.23750000000
  30
0.0
  11
 195.47500000000
  21
 134.23750000000
  31
0.0
   0
LINE
   5
196
 100
AcDbEntity
   8
LEVEL002
 370
30
 100
AcDbLine
   6
CONTINUOUS
  62
7
  10
 168.47500000000
  20
 136.03750000000
  30
0.0
  11
 168.47500000000
  21
 130.63750000000
  31
0.0
   0
LINE
   5
197
 100
AcDbEntity
   8
LEVEL002
 370
30
 100
AcDbLine
   6
CONTINUOUS
  62
7
  10
 168.47500000000
  20
 130.63750000000
  30
0.0
  11
 170.27500000000
  21
 130.63750000000
  31
0.0
   0
LINE
   5
198
 100
AcDbEntity
   8
LEVEL002
 370
30
 100
AcDbLine
   6
CONTINUOUS
  62
7
  10
 170.27500000000
  20
 130.63750000000
  30
0.0
  11
 170.27500000000
  21
 131.53750000000
  31
0.0
   0
LINE
   5
199
 100
AcDbEntity
   8
LEVEL002
 370
30
 100
AcDbLine
   6
CONTINUOUS
  62
7
  10
 170.27500000000
  20
 131.53750000000
  30
0.0
  11
 172.07500000000
  21
 131.53750000000
  31
0.0
   0
ARC
   5
19A
 100
AcDbEntity
   8
LEVEL002
 370
30
   6
CONTINUOUS
  62
7
 100
AcDbCircle
  10
 172.07500000000
  20
 133.78750000000
  30
0.0
  40
 2.2500000000000
 100
AcDbArc
  50
 270.00000000000
  51
 90.000000000000
   0
LINE
   5
19B
 100
AcDbEntity
   8
LEVEL002
 370
30
 100
AcDbLine
   6
CONTINUOUS
  62
7
  10
 172.07500000000
  20
 136.03750000000
  30
0.0
  11
 168.47500000000
  21
 136.03750000000
  31
0.0
   0
LINE
   5
19C
 100
AcDbEntity
   8
LEVEL002
 370
30
 100
AcDbLine
   6
CONTINUOUS
  62
7
  10
 170.27500000000
  20
 134.23750000000
  30
0.0
  11
 170.27500000000
  21
 133.33750000000
  31
0.0
   0
LINE
   5
19D
 100
AcDbEntity
   8
LEVEL002
 370
30
 100
AcDbLine
   6
CONTINUOUS
  62
7
  10
 170.27500000000
  20
 133.33750000000
  30
0.0
  11
 172.07500000000
  21
 133.33750000000
  31
0.0
   0
ARC
   5
19E
 100
AcDbEntity
   8
LEVEL002
 370
30
   6
CONTINUOUS
  62
7
 100
AcDbCircle
  10
 172.07500000000
  20
 133.78750000000
  30
0.0
  40
 0.45000000000000
 100
AcDbArc
  50
 270.00000000000
  51
 90.000000000000
   0
LINE
   5
19F
 100
AcDbEntity
   8
LEVEL002
 370
30
 100
AcDbLine
   6
CONTINUOUS
  62
7
  10
 172.07500000000
  20
 134.23750000000
  30
0.0
  11
 170.27500000000
  21
 134.23750000000
  31
0.0
   0
LINE
   5
1A0
 100
AcDbEntity
   8
LEVEL002
 370
30
 100
AcDbLine
   6
CONTINUOUS
  62
7
  10
 176.57500000000
  20
 136.03750000000
  30
0.0
  11
 172.97500000000
  21
 130.63750000000
  31
0.0
   0
LINE
   5
1A1
 100
AcDbEntity
   8
LEVEL002
 370
30
 100
AcDbLine
   6
CONTINUOUS
  62
7
  10
 172.97500000000
  20
 130.63750000000
  30
0.0
  11
 175.67500000000
  21
 130.63750000000
  31
0.0
   0
LINE
   5
1A2
 100
AcDbEntity
   8
LEVEL002
 370
30
 100
AcDbLine
   6
CONTINUOUS
  62
7
  10
 175.67500000000
  20
 130.63750000000
  30
0.0
  11
 179.27500000000
  21
 136.03750000000
  31
0.0
   0
LINE
   5
1A3
 100
AcDbEntity
   8
LEVEL002
 370
30
 100
AcDbLine
   6
CONTINUOUS
  62
7
  10
 179.27500000000
  20
 136.03750000000
  30
0.0
  11
 176.57500000000
  21
 136.03750000000
  31
0.0
   0
LINE
   5
1A4
 100
AcDbEntity
   8
LEVEL002
 370
30
 100
AcDbLine
   6
CONTINUOUS
  62
7
  10
 178.67500000000
  20
 130.63750000000
  30
0.0
  11
 178.67500000000
  21
 134.05583461735
  31
0.0
   0
LINE
   5
1A5
 100
AcDbEntity
   8
LEVEL002
 370
30
 100
AcDbLine
   6
CONTINUOUS
  62
7
  10
 178.67500000000
  20
 134.05583461735
  30
0.0
  11
 176.39611025510
  21
 130.63750000000
  31
0.0
   0
LINE
   5
1A6
 100
AcDbEntity
   8
LEVEL002
 370
30
 100
AcDbLine
   6
CONTINUOUS
  62
7
  10
 176.39611025510
  20
 130.63750000000
  30
0.0
  11
 178.67500000000
  21
 130.63750000000
  31
0.0
   0
LINE
   5
1A7
 100
AcDbEntity
   8
LEVEL002
 370
30
 100
AcDbLine
   6
CONTINUOUS
  62
7
  10
 179.27500000000
  20
 130.63750000000
  30
0.0
  11
 185.57500000000
  21
 130.63750000000
  31
0.0
   0
LINE
   5
1A8
 100
AcDbEntity
   8
LEVEL002
 370
30
 100
AcDbLine
   6
CONTINUOUS
  62
7
  10
 185.57500000000
  20
 130.63750000000
  30
0.0
  11
 185.57500000000
  21
 134.23750000000
  31
0.0
   0
LINE
   5
1A9
 100
AcDbEntity
   8
LEVEL002
 370
30
 100
AcDbLine
   6
CONTINUOUS
  62
7
  10
 185.57500000000
  20
 134.23750000000
  30
0.0
  11
 187.37500000000
  21
 134.23750000000
  31
0.0
   0
LINE
   5
1AA
 100
AcDbEntity
   8
LEVEL002
 370
30
 100
AcDbLine
   6
CONTINUOUS
  62
7
  10
 187.37500000000
  20
 134.23750000000
  30
0.0
  11
 187.37500000000
  21
 130.63750000000
  31
0.0
   0
LINE
   5
1AB
 100
AcDbEntity
   8
LEVEL002
 370
30
 100
AcDbLine
   6
CONTINUOUS
  62
7
  10
 187.37500000000
  20
 130.63750000000
  30
0.0
  11
 192.77500000000
  21
 130.63750000000
  31
0.0
   0
LINE
   5
1AC
 100
AcDbEntity
   8
LEVEL002
 370
30
 100
AcDbLine
   6
CONTINUOUS
  62
7
  10
 192.77500000000
  20
 130.63750000000
  30
0.0
  11
 192.77500000000
  21
 132.43750000000
  31
0.0
   0
LINE
   5
1AD
 100
AcDbEntity
   8
LEVEL002
 370
30
 100
AcDbLine
   6
CONTINUOUS
  62
7
  10
 192.77500000000
  20
 132.43750000000
  30
0.0
  11
 189.17500000000
  21
 132.43750000000
  31
0.0
   0
LINE
   5
1AE
 100
AcDbEntity
   8
LEVEL002
 370
30
 100
AcDbLine
   6
CONTINUOUS
  62
7
  10
 189.17500000000
  20
 132.43750000000
  30
0.0
  11
 189.17500000000
  21
 132.88750000000
  31
0.0
   0
LINE
   5
1AF
 100
AcDbEntity
   8
LEVEL002
 370
30
 100
AcDbLine
   6
CONTINUOUS
  62
7
  10
 189.17500000000
  20
 132.88750000000
  30
0.0
  11
 192.32500000000
  21
 132.88750000000
  31
0.0
   0
LINE
   5
1B0
 100
AcDbEntity
   8
LEVEL002
 370
30
 100
AcDbLine
   6
CONTINUOUS
  62
7
  10
 192.32500000000
  20
 132.88750000000
  30
0.0
  11
 192.32500000000
  21
 133.78750000000
  31
0.0
   0
LINE
   5
1B1
 100
AcDbEntity
   8
LEVEL002
 370
30
 100
AcDbLine
   6
CONTINUOUS
  62
7
  10
 192.32500000000
  20
 133.78750000000
  30
0.0
  11
 189.17500000000
  21
 133.78750000000
  31
0.0
   0
LINE
   5
1B2
 100
AcDbEntity
   8
LEVEL002
 370
30
 100
AcDbLine
   6
CONTINUOUS
  62
7
  10
 189.17500000000
  20
 133.78750000000
  30
0.0
  11
 189.17500000000
  21
 134.23750000000
  31
0.0
   0
LINE
   5
1B3
 100
AcDbEntity
   8
LEVEL002
 370
30
 100
AcDbLine
   6
CONTINUOUS
  62
7
  10
 189.17500000000
  20
 134.23750000000
  30
0.0
  11
 192.77500000000
  21
 134.23750000000
  31
0.0
   0
LINE
   5
1B4
 100
AcDbEntity
   8
LEVEL002
 370
30
 100
AcDbLine
   6
CONTINUOUS
  62
7
  10
 192.77500000000
  20
 134.23750000000
  30
0.0
  11
 192.77500000000
  21
 136.03750000000
  31
0.0
   0
LINE
   5
1B5
 100
AcDbEntity
   8
LEVEL002
 370
30
 100
AcDbLine
   6
CONTINUOUS
  62
7
  10
 192.77500000000
  20
 136.03750000000
  30
0.0
  11
 181.97500000000
  21
 136.03750000000
  31
0.0
   0
LINE
   5
1B6
 100
AcDbEntity
   8
LEVEL002
 370
30
 100
AcDbLine
   6
CONTINUOUS
  62
7
  10
 181.97500000000
  20
 136.03750000000
  30
0.0
  11
 181.97500000000
  21
 134.23750000000
  31
0.0
   0
LINE
   5
1B7
 100
AcDbEntity
   8
LEVEL002
 370
30
 100
AcDbLine
   6
CONTINUOUS
  62
7
  10
 181.97500000000
  20
 134.23750000000
  30
0.0
  11
 183.77500000000
  21
 134.23750000000
  31
0.0
   0
LINE
   5
1B8
 100
AcDbEntity
   8
LEVEL002
 370
30
 100
AcDbLine
   6
CONTINUOUS
  62
7
  10
 183.77500000000
  20
 134.23750000000
  30
0.0
  11
 183.77500000000
  21
 132.43750000000
  31
0.0
   0
LINE
   5
1B9
 100
AcDbEntity
   8
LEVEL002
 370
30
 100
AcDbLine
   6
CONTINUOUS
  62
7
  10
 183.77500000000
  20
 132.43750000000
  30
0.0
  11
 181.07500000000
  21
 132.43750000000
  31
0.0
   0
LINE
   5
1BA
 100
AcDbEntity
   8
LEVEL002
 370
30
 100
AcDbLine
   6
CONTINUOUS
  62
7
  10
 181.07500000000
  20
 132.43750000000
  30
0.0
  11
 181.07500000000
  21
 136.03750000000
  31
0.0
   0
LINE
   5
1BB
 100
AcDbEntity
   8
LEVEL002
 370
30
 100
AcDbLine
   6
CONTINUOUS
  62
7
  10
 181.07500000000
  20
 136.03750000000
  30
0.0
  11
 179.27500000000
  21
 136.03750000000
  31
0.0
   0
LINE
   5
1BC
 100
AcDbEntity
   8
LEVEL002
 370
30
 100
AcDbLine
   6
CONTINUOUS
  62
7
  10
 179.27500000000
  20
 136.03750000000
  30
0.0
  11
 179.27500000000
  21
 130.63750000000
  31
0.0
   0
LINE
   5
1BD
 100
AcDbEntity
   8
LEVEL002
 370
30
 100
AcDbLine
   6
CONTINUOUS
  62
7
  10
 195.47500000000
  20
 130.63750000000
  30
0.0
  11
 198.17500000000
  21
 130.63750000000
  31
0.0
   0
LINE
   5
1BE
 100
AcDbEntity
   8
LEVEL002
 370
30
 100
AcDbLine
   6
CONTINUOUS
  62
7
  10
 198.17500000000
  20
 130.63750000000
  30
0.0
  11
 198.17500000000
  21
 132.43750000000
  31
0.0
   0
LINE
   5
1BF
 100
AcDbEntity
   8
LEVEL002
 370
30
 100
AcDbLine
   6
CONTINUOUS
  62
7
  10
 198.17500000000
  20
 132.43750000000
  30
0.0
  11
 195.47500000000
  21
 132.43750000000
  31
0.0
   0
ARC
   5
1C0
 100
AcDbEntity
   8
LEVEL002
 370
30
   6
CONTINUOUS
  62
7
 100
AcDbCircle
  10
 195.47500000000
  20
 133.33750000000
  30
0.0
  40
 0.90000000000000
 100
AcDbArc
  50
 90.000000000000
  51
 270.00000000000
   0
LINE
   5
1C1
 100
AcDbEntity
   8
LEVEL002
 370
30
 100
AcDbLine
   6
CONTINUOUS
  62
7
  10
 195.47500000000
  20
 134.23750000000
  30
0.0
  11
 198.17500000000
  21
 134.23750000000
  31
0.0
   0
LINE
   5
1C2
 100
AcDbEntity
   8
LEVEL002
 370
30
 100
AcDbLine
   6
CONTINUOUS
  62
7
  10
 198.17500000000
  20
 134.23750000000
  30
0.0
  11
 198.17500000000
  21
 136.03750000000
  31
0.0
   0
LINE
   5
1C3
 100
AcDbEntity
   8
LEVEL002
 370
30
 100
AcDbLine
   6
CONTINUOUS
  62
7
  10
 198.17500000000
  20
 136.03750000000
  30
0.0
  11
 195.47500000000
  21
 136.03750000000
  31
0.0
   0
ARC
   5
1C4
 100
AcDbEntity
   8
LEVEL002
 370
30
   6
CONTINUOUS
  62
7
 100
AcDbCircle
  10
 195.47500000000
  20
 133.33750000000
  30
0.0
  40
 2.7000000000000
 100
AcDbArc
  50
 90.000000000000
  51
 270.00000000000
   0
MTEXT
   5
1C6
 100
AcDbEntity
   8
LEVEL002
 370
30
  62
7
 100
AcDbMText
  10
 168.47500000000
  20
 136.93750000000
  30
0.0
  40
 1.8750000000000
  41
0.0
  71
7
  72
1
   1
\T1.000000;ケージーパルテック株式会社
   7
GMM002
  44
 0.79999984000003
   0
LINE
   5
1C7
 100
AcDbEntity
   8
LEVEL002
 370
30
 100
AcDbLine
   6
CONTINUOUS
  62
7
  10
 166.67500000000
  20
 131.83750000000
  30
0.0
  11
 164.42500000000
  21
 135.43750000000
  31
0.0
   0
LINE
   5
1C8
 100
AcDbEntity
   8
LEVEL002
 370
30
 100
AcDbLine
   6
CONTINUOUS
  62
7
  10
 164.42500000000
  20
 135.43750000000
  30
0.0
  11
 166.67500000000
  21
 135.43750000000
  31
0.0
   0
LINE
   5
1C9
 100
AcDbEntity
   8
LEVEL002
 370
30
 100
AcDbLine
   6
CONTINUOUS
  62
7
  10
 166.67500000000
  20
 135.43750000000
  30
0.0
  11
 166.67500000000
  21
 131.83750000000
  31
0.0
   0
LINE
   5
1CA
 100
AcDbEntity
   8
LEVEL002
 370
30
 100
AcDbLine
   6
CONTINUOUS
  62
7
  10
 164.42500000000
  20
 135.43750000000
  30
0.0
  11
 166.67500000000
  21
 131.83750000000
  31
0.0
   0
LINE
   5
1CB
 100
AcDbEntity
   8
LEVEL002
 370
30
 100
AcDbLine
   6
CONTINUOUS
  62
7
  10
 166.67500000000
  20
 131.83750000000
  30
0.0
  11
 166.67500000000
  21
 135.43750000000
  31
0.0
   0
LINE
   5
1CC
 100
AcDbEntity
   8
LEVEL002
 370
30
 100
AcDbLine
   6
CONTINUOUS
  62
7
  10
 166.67500000000
  20
 135.43750000000
  30
0.0
  11
 164.42500000000
  21
 135.43750000000
  31
0.0
   0
LINE
   5
1CD
 100
AcDbEntity
   8
LEVEL002
 370
30
 100
AcDbLine
   6
CONTINUOUS
  62
7
  10
 159.52500000000
  20
 140.23750000000
  30
0.0
  11
 156.32500000000
  21
 135.43750000000
  31
0.0
   0
LINE
   5
1CE
 100
AcDbEntity
   8
LEVEL002
 370
30
 100
AcDbLine
   6
CONTINUOUS
  62
7
  10
 156.32500000000
  20
 135.43750000000
  30
0.0
  11
 159.52500000000
  21
 130.63750000000
  31
0.0
   0
LINE
   5
1CF
 100
AcDbEntity
   8
LEVEL002
 370
30
 100
AcDbLine
   6
CONTINUOUS
  62
7
  10
 162.22500000000
  20
 130.63750000000
  30
0.0
  11
 159.02500000000
  21
 135.43750000000
  31
0.0
   0
LINE
   5
1D0
 100
AcDbEntity
   8
LEVEL002
 370
30
 100
AcDbLine
   6
CONTINUOUS
  62
7
  10
 159.02500000000
  20
 135.43750000000
  30
0.0
  11
 162.22500000000
  21
 140.23750000000
  31
0.0
   0
LINE
   5
1D1
 100
AcDbEntity
   8
LEVEL002
 370
30
 100
AcDbLine
   6
CONTINUOUS
  62
7
  10
 163.57500000000
  20
 140.23750000000
  30
0.0
  11
 160.37500000000
  21
 135.43750000000
  31
0.0
   0
LINE
   5
1D2
 100
AcDbEntity
   8
LEVEL002
 370
30
 100
AcDbLine
   6
CONTINUOUS
  62
7
  10
 160.37500000000
  20
 135.43750000000
  30
0.0
  11
 163.57500000000
  21
 130.63750000000
  31
0.0
   0
LINE
   5
1D3
 100
AcDbEntity
   8
LEVEL002
 370
30
 100
AcDbLine
   6
CONTINUOUS
  62
7
  10
 166.27500000000
  20
 130.63750000000
  30
0.0
  11
 163.07500000000
  21
 135.43750000000
  31
0.0
   0
LINE
   5
1D4
 100
AcDbEntity
   8
LEVEL002
 370
30
 100
AcDbLine
   6
CONTINUOUS
  62
7
  10
 163.07500000000
  20
 135.43750000000
  30
0.0
  11
 166.27500000000
  21
 140.23750000000
  31
0.0
   0
LINE
   5
1D5
 100
AcDbEntity
   8
LEVEL002
 370
30
 100
AcDbLine
   6
CONTINUOUS
  62
7
  10
 159.52500000000
  20
 130.63750000000
  30
0.0
  11
 156.32500000000
  21
 135.43750000000
  31
0.0
   0
LINE
   5
1D6
 100
AcDbEntity
   8
LEVEL002
 370
30
 100
AcDbLine
   6
CONTINUOUS
  62
7
  10
 156.32500000000
  20
 135.43750000000
  30
0.0
  11
 159.52500000000
  21
 140.23750000000
  31
0.0
   0
LINE
   5
1D7
 100
AcDbEntity
   8
LEVEL002
 370
30
 100
AcDbLine
   6
CONTINUOUS
  62
7
  10
 159.52500000000
  20
 140.23750000000
  30
0.0
  11
 162.22500000000
  21
 140.23750000000
  31
0.0
   0
LINE
   5
1D8
 100
AcDbEntity
   8
LEVEL002
 370
30
 100
AcDbLine
   6
CONTINUOUS
  62
7
  10
 162.22500000000
  20
 140.23750000000
  30
0.0
  11
 159.02500000000
  21
 135.43750000000
  31
0.0
   0
LINE
   5
1D9
 100
AcDbEntity
   8
LEVEL002
 370
30
 100
AcDbLine
   6
CONTINUOUS
  62
7
  10
 159.02500000000
  20
 135.43750000000
  30
0.0
  11
 162.22500000000
  21
 130.63750000000
  31
0.0
   0
LINE
   5
1DA
 100
AcDbEntity
   8
LEVEL002
 370
30
 100
AcDbLine
   6
CONTINUOUS
  62
7
  10
 162.22500000000
  20
 130.63750000000
  30
0.0
  11
 159.52500000000
  21
 130.63750000000
  31
0.0
   0
LINE
   5
1DB
 100
AcDbEntity
   8
LEVEL002
 370
30
 100
AcDbLine
   6
CONTINUOUS
  62
7
  10
 163.57500000000
  20
 130.63750000000
  30
0.0
  11
 160.37500000000
  21
 135.43750000000
  31
0.0
   0
LINE
   5
1DC
 100
AcDbEntity
   8
LEVEL002
 370
30
 100
AcDbLine
   6
CONTINUOUS
  62
7
  10
 160.37500000000
  20
 135.43750000000
  30
0.0
  11
 163.57500000000
  21
 140.23750000000
  31
0.0
   0
LINE
   5
1DD
 100
AcDbEntity
   8
LEVEL002
 370
30
 100
AcDbLine
   6
CONTINUOUS
  62
7
  10
 163.57500000000
  20
 140.23750000000
  30
0.0
  11
 166.27500000000
  21
 140.23750000000
  31
0.0
   0
LINE
   5
1DE
 100
AcDbEntity
   8
LEVEL002
 370
30
 100
AcDbLine
   6
CONTINUOUS
  62
7
  10
 166.27500000000
  20
 140.23750000000
  30
0.0
  11
 163.07500000000
  21
 135.43750000000
  31
0.0
   0
LINE
   5
1DF
 100
AcDbEntity
   8
LEVEL002
 370
30
 100
AcDbLine
   6
CONTINUOUS
  62
7
  10
 163.07500000000
  20
 135.43750000000
  30
0.0
  11
 166.27500000000
  21
 130.63750000000
  31
0.0
   0
LINE
   5
1E0
 100
AcDbEntity
   8
LEVEL002
 370
30
 100
AcDbLine
   6
CONTINUOUS
  62
7
  10
 166.27500000000
  20
 130.63750000000
  30
0.0
  11
 163.57500000000
  21
 130.63750000000
  31
0.0
   0
LINE
   5
1E1
 100
AcDbEntity
   8
LEVEL001
 370
30
 100
AcDbLine
   6
DOT
  62
7
  10
0.0
  20
0.0
  30
0.0
  11
 210.00000000000
  21
0.0
  31
0.0
   0
LINE
   5
1E2
 100
AcDbEntity
   8
LEVEL001
 370
30
 100
AcDbLine
   6
DOT
  62
7
  10
 210.00000000000
  20
0.0
  30
0.0
  11
 210.00000000000
  21
 148.50000000000
  31
0.0
   0
LINE
   5
1E3
 100
AcDbEntity
   8
LEVEL001
 370
30
 100
AcDbLine
   6
DOT
  62
7
  10
 210.00000000000
  20
 148.50000000000
  30
0.0
  11
0.0
  21
 148.50000000000
  31
0.0
   0
LINE
   5
1E4
 100
AcDbEntity
   8
LEVEL001
 370
30
 100
AcDbLine
   6
DOT
  62
7
  10
0.0
  20
 148.50000000000
  30
0.0
  11
0.0
  21
0.0
  31
0.0
   0
LINE
   5
1E5
 100
AcDbEntity
   8
LEVEL002
 370
40
 100
AcDbLine
   6
CONTINUOUS
  62
3
  10
 7.7499999999750
  20
 137.50000000000
  30
0.0
  11
 152.24999999997
  21
 137.50000000000
  31
0.0
   0
LINE
   5
1E6
 100
AcDbEntity
   8
LEVEL002
 370
40
 100
AcDbLine
   6
CONTINUOUS
  62
3
  10
 152.24999999997
  20
 128.37500000000
  30
0.0
  11
 202.24999999997
  21
 128.37500000000
  31
0.0
   0
LINE
   5
1E7
 100
AcDbEntity
   8
LEVEL002
 370
40
 100
AcDbLine
   6
CONTINUOUS
  62
3
  10
 152.24999999997
  20
 118.37500000000
  30
0.0
  11
 202.24999999997
  21
 118.37500000000
  31
0.0
   0
LINE
   5
1E8
 100
AcDbEntity
   8
LEVEL002
 370
40
 100
AcDbLine
   6
CONTINUOUS
  62
3
  10
 152.24999999997
  20
 108.37500000000
  30
0.0
  11
 202.24999999997
  21
 108.37500000000
  31
0.0
   0
LINE
   5
1E9
 100
AcDbEntity
   8
LEVEL002
 370
40
 100
AcDbLine
   6
CONTINUOUS
  62
3
  10
 152.24999999997
  20
 36.000000000005
  30
0.0
  11
 202.24999999997
  21
 36.000000000005
  31
0.0
   0
LINE
   5
1EA
 100
AcDbEntity
   8
LEVEL002
 370
40
 100
AcDbLine
   6
CONTINUOUS
  62
3
  10
 152.24999999997
  20
 26.000000000005
  30
0.0
  11
 202.24999999997
  21
 26.000000000005
  31
0.0
   0
LINE
   5
1EB
 100
AcDbEntity
   8
LEVEL002
 370
40
 100
AcDbLine
   6
CONTINUOUS
  62
3
  10
 152.24999999997
  20
 16.000000000005
  30
0.0
  11
 202.24999999997
  21
 16.000000000005
  31
0.0
   0
LINE
   5
1EC
 100
AcDbEntity
   8
LEVEL002
 370
40
 100
AcDbLine
   6
CONTINUOUS
  62
3
  10
 177.24999999997
  20
 26.000000000005
  30
0.0
  11
 177.24999999997
  21
 6.0000000000050
  31
0.0
   0
LINE
   5
1ED
 100
AcDbEntity
   8
LEVEL002
 370
40
 100
AcDbLine
   6
CONTINUOUS
  62
3
  10
 177.24999999997
  20
 19.333333333340
  30
0.0
  11
 202.24999999997
  21
 19.333333333340
  31
0.0
   0
LINE
   5
1EE
 100
AcDbEntity
   8
LEVEL002
 370
40
 100
AcDbLine
   6
CONTINUOUS
  62
3
  10
 177.24999999997
  20
 22.666666666673
  30
0.0
  11
 202.24999999997
  21
 22.666666666673
  31
0.0
   0
LINE
   5
1EF
 100
AcDbEntity
   8
LEVEL002
 370
50
 100
AcDbLine
   6
CONTINUOUS
  62
4
  10
 202.24999999997
  20
 142.50000000000
  30
0.0
  11
 7.7499999999750
  21
 142.50000000000
  31
0.0
   0
LINE
   5
1F0
 100
AcDbEntity
   8
LEVEL002
 370
50
 100
AcDbLine
   6
CONTINUOUS
  62
4
  10
 152.24999999997
  20
 142.50000000000
  30
0.0
  11
 152.24999999997
  21
 6.0000000000050
  31
0.0
   0
LINE
   5
1F1
 100
AcDbEntity
   8
LEVEL002
 370
50
 100
AcDbLine
   6
CONTINUOUS
  62
4
  10
 202.24999999997
  20
 6.0000000000050
  30
0.0
  11
 202.24999999997
  21
 142.50000000000
  31
0.0
   0
LINE
   5
1F2
 100
AcDbEntity
   8
LEVEL002
 370
50
 100
AcDbLine
   6
CONTINUOUS
  62
4
  10
 7.7499999999750
  20
 142.50000000000
  30
0.0
  11
 7.7499999999750
  21
 6.0000000000050
  31
0.0
   0
LINE
   5
1F3
 100
AcDbEntity
   8
LEVEL002
 370
50
 100
AcDbLine
   6
CONTINUOUS
  62
4
  10
 7.7499999999750
  20
 6.0000000000050
  30
0.0
  11
 202.24999999997
  21
 6.0000000000050
  31
0.0
   0
HATCH
   5
1F4
 100
AcDbEntity
   8
LEVEL001
  62
1
 100
AcDbHatch
  10
0.0
  20
0.0
  30
0.0
 210
0.0
 220
0.0
 230
 1.0000000000000
   2
SOLID
  70
1
  71
1
  91
7
  92
1
  93
6
  72
1
  10
 162.22500000000
  20
 140.23750000000
  11
 159.02500000000
  21
 135.43750000000
  72
1
  10
 159.02500000000
  20
 135.43750000000
  11
 162.22500000000
  21
 130.63750000000
  72
1
  10
 162.22500000000
  20
 130.63750000000
  11
 159.52500000000
  21
 130.63750000000
  72
1
  10
 159.52500000000
  20
 130.63750000000
  11
 156.32500000000
  21
 135.43750000000
  72
1
  10
 156.32500000000
  20
 135.43750000000
  11
 159.52500000000
  21
 140.23750000000
  72
1
  10
 159.52500000000
  20
 140.23750000000
  11
 162.22500000000
  21
 140.23750000000
  97
1
 330

  92
16
  93
6
  72
1
  10
 163.57500000000
  20
 140.23750000000
  11
 166.27500000000
  21
 140.23750000000
  72
1
  10
 166.27500000000
  20
 140.23750000000
  11
 163.07500000000
  21
 135.43750000000
  72
1
  10
 163.07500000000
  20
 135.43750000000
  11
 166.27500000000
  21
 130.63750000000
  72
1
  10
 166.27500000000
  20
 130.63750000000
  11
 163.57500000000
  21
 130.63750000000
  72
1
  10
 163.57500000000
  20
 130.63750000000
  11
 160.37500000000
  21
 135.43750000000
  72
1
  10
 160.37500000000
  20
 135.43750000000
  11
 163.57500000000
  21
 140.23750000000
  97
1
 330

  92
16
  93
3
  72
1
  10
 166.67500000000
  20
 135.43750000000
  11
 164.42500000000
  21
 135.43750000000
  72
1
  10
 164.42500000000
  20
 135.43750000000
  11
 166.67500000000
  21
 131.83750000000
  72
1
  10
 166.67500000000
  20
 131.83750000000
  11
 166.67500000000
  21
 135.43750000000
  97
1
 330

  92
16
  93
6
  72
1
  10
 168.47500000000
  20
 136.03750000000
  11
 172.07500000000
  21
 136.03750000000
  72
2
  10
 172.07500000000
  20
 133.78750000000
  40
 2.2500000000000
  50
 270.00000000000
  51
 90.000000000000
  73
0
  72
1
  10
 172.07500000000
  20
 131.53750000000
  11
 170.27500000000
  21
 131.53750000000
  72
1
  10
 170.27500000000
  20
 131.53750000000
  11
 170.27500000000
  21
 130.63750000000
  72
1
  10
 170.27500000000
  20
 130.63750000000
  11
 168.47500000000
  21
 130.63750000000
  72
1
  10
 168.47500000000
  20
 130.63750000000
  11
 168.47500000000
  21
 136.03750000000
  97
1
 330

  92
16
  93
4
  72
1
  10
 172.07500000000
  20
 134.23750000000
  11
 170.27500000000
  21
 134.23750000000
  72
1
  10
 170.27500000000
  20
 134.23750000000
  11
 170.27500000000
  21
 133.33750000000
  72
1
  10
 170.27500000000
  20
 133.33750000000
  11
 172.07500000000
  21
 133.33750000000
  72
2
  10
 172.07500000000
  20
 133.78750000000
  40
 0.45000000000000
  50
 270.00000000000
  51
 90.000000000000
  73
1
  97
1
 330

  92
16
  93
4
  72
1
  10
 172.97500000000
  20
 130.63750000000
  11
 176.57500000000
  21
 136.03750000000
  72
1
  10
 176.57500000000
  20
 136.03750000000
  11
 179.27500000000
  21
 136.03750000000
  72
1
  10
 179.27500000000
  20
 136.03750000000
  11
 175.67500000000
  21
 130.63750000000
  72
1
  10
 175.67500000000
  20
 130.63750000000
  11
 172.97500000000
  21
 130.63750000000
  97
1
 330

  92
16
  93
3
  72
1
  10
 178.67500000000
  20
 134.05583461735
  11
 176.39611025510
  21
 130.63750000000
  72
1
  10
 176.39611025510
  20
 130.63750000000
  11
 178.67500000000
  21
 130.63750000000
  72
1
  10
 178.67500000000
  20
 130.63750000000
  11
 178.67500000000
  21
 134.05583461735
  97
1
 330

  75
0
  76
1
  98
1
  10
0.0
  20
0.0
   0
HATCH
   5
1F5
 100
AcDbEntity
   8
LEVEL001
  62
1
 100
AcDbHatch
  10
0.0
  20
0.0
  30
0.0
 210
0.0
 220
0.0
 230
 1.0000000000000
   2
SOLID
  70
1
  71
1
  91
1
  92
1
  93
22
  72
1
  10
 179.27500000000
  20
 136.03750000000
  11
 181.07500000000
  21
 136.03750000000
  72
1
  10
 181.07500000000
  20
 136.03750000000
  11
 181.07500000000
  21
 132.43750000000
  72
1
  10
 181.07500000000
  20
 132.43750000000
  11
 183.77500000000
  21
 132.43750000000
  72
1
  10
 183.77500000000
  20
 132.43750000000
  11
 183.77500000000
  21
 134.23750000000
  72
1
  10
 183.77500000000
  20
 134.23750000000
  11
 181.97500000000
  21
 134.23750000000
  72
1
  10
 181.97500000000
  20
 134.23750000000
  11
 181.97500000000
  21
 136.03750000000
  72
1
  10
 181.97500000000
  20
 136.03750000000
  11
 192.77500000000
  21
 136.03750000000
  72
1
  10
 192.77500000000
  20
 136.03750000000
  11
 192.77500000000
  21
 134.23750000000
  72
1
  10
 192.77500000000
  20
 134.23750000000
  11
 189.17500000000
  21
 134.23750000000
  72
1
  10
 189.17500000000
  20
 134.23750000000
  11
 189.17500000000
  21
 133.78750000000
  72
1
  10
 189.17500000000
  20
 133.78750000000
  11
 192.32500000000
  21
 133.78750000000
  72
1
  10
 192.32500000000
  20
 133.78750000000
  11
 192.32500000000
  21
 132.88750000000
  72
1
  10
 192.32500000000
  20
 132.88750000000
  11
 189.17500000000
  21
 132.88750000000
  72
1
  10
 189.17500000000
  20
 132.88750000000
  11
 189.17500000000
  21
 132.43750000000
  72
1
  10
 189.17500000000
  20
 132.43750000000
  11
 192.77500000000
  21
 132.43750000000
  72
1
  10
 192.77500000000
  20
 132.43750000000
  11
 192.77500000000
  21
 130.63750000000
  72
1
  10
 192.77500000000
  20
 130.63750000000
  11
 187.37500000000
  21
 130.63750000000
  72
1
  10
 187.37500000000
  20
 130.63750000000
  11
 187.37500000000
  21
 134.23750000000
  72
1
  10
 187.37500000000
  20
 134.23750000000
  11
 185.57500000000
  21
 134.23750000000
  72
1
  10
 185.57500000000
  20
 134.23750000000
  11
 185.57500000000
  21
 130.63750000000
  72
1
  10
 185.57500000000
  20
 130.63750000000
  11
 179.27500000000
  21
 130.63750000000
  72
1
  10
 179.27500000000
  20
 130.63750000000
  11
 179.27500000000
  21
 136.03750000000
  97
1
 330

  75
0
  76
1
  98
1
  10
0.0
  20
0.0
   0
HATCH
   5
1F6
 100
AcDbEntity
   8
LEVEL001
  62
1
 100
AcDbHatch
  10
0.0
  20
0.0
  30
0.0
 210
0.0
 220
0.0
 230
 1.0000000000000
   2
SOLID
  70
1
  71
1
  91
1
  92
1
  93
8
  72
1
  10
 198.17500000000
  20
 136.03750000000
  11
 195.47500000000
  21
 136.03750000000
  72
2
  10
 195.47500000000
  20
 133.33750000000
  40
 2.7000000000000
  50
 90.000000000000
  51
 270.00000000000
  73
1
  72
1
  10
 195.47500000000
  20
 130.63750000000
  11
 198.17500000000
  21
 130.63750000000
  72
1
  10
 198.17500000000
  20
 130.63750000000
  11
 198.17500000000
  21
 132.43750000000
  72
1
  10
 198.17500000000
  20
 132.43750000000
  11
 195.47500000000
  21
 132.43750000000
  72
2
  10
 195.47500000000
  20
 133.33750000000
  40
 0.90000000000000
  50
 90.000000000000
  51
 270.00000000000
  73
0
  72
1
  10
 195.47500000000
  20
 134.23750000000
  11
 198.17500000000
  21
 134.23750000000
  72
1
  10
 198.17500000000
  20
 134.23750000000
  11
 198.17500000000
  21
 136.03750000000
  97
1
 330

  75
0
  76
1
  98
1
  10
0.0
  20
0.0
   0
MTEXT
   5
1F8
 100
AcDbEntity
   8
LEVEL002
 370
15
  62
8
 100
AcDbMText
  10
 155.39999999997
  20
 14.125000000005
  30
0.0
  40
 1.5000000000000
  41
0.0
  71
5
  72
1
   1
\T1.000000;サイズ：
   7
GMM001
  44
 0.79999984000003
   0
MTEXT
   5
1FA
 100
AcDbEntity
   8
LEVEL002
 370
15
  62
8
 100
AcDbMText
  10
 154.64999999997
  20
 24.125000000005
  30
0.0
  40
 1.5000000000000
  41
0.0
  71
5
  72
1
   1
\T1.000000;縮尺：
   7
GMM001
  44
 0.79999984000003
   0
MTEXT
   5
1FC
 100
AcDbEntity
   8
LEVEL002
 370
15
  62
8
 100
AcDbMText
  10
 156.14999999997
  20
 34.125000000005
  30
0.0
  40
 1.5000000000000
  41
0.0
  71
5
  72
1
   1
\T1.000000;図面名称：
   7
GMM001
  44
 0.79999984000003
   0
MTEXT
   5
1FE
 100
AcDbEntity
   8
LEVEL002
 370
15
  62
8
 100
AcDbMText
  10
 181.89999999997
  20
 14.125000000005
  30
0.0
  40
 1.5000000000000
  41
0.0
  71
5
  72
1
   1
\T1.000000;ファイル名：
   7
GMM001
  44
 0.79999984000003
   0
MTEXT
   5
200
 100
AcDbEntity
   8
LEVEL002
 370
15
  62
8
 100
AcDbMText
  10
 181.14999999997
  20
 21.000000000005
  30
0.0
  40
 1.4000000000000
  41
0.0
  71
5
  72
1
   1
\T1.000000;変更日付：
   7
GMM003
  44
 0.79999984000003
   0
MTEXT
   5
202
 100
AcDbEntity
   8
LEVEL002
 370
15
  62
8
 100
AcDbMText
  10
 164.74999999997
  20
 9.1250000000050
  30
0.0
  40
 1.8750000000000
  41
0.0
  71
5
  72
1
   1
\T1.000000;Ａ３
   7
GMM001
  44
 0.79999984000003
   0
MTEXT
   5
204
 100
AcDbEntity
   8
LEVEL002
 370
15
  62
8
 100
AcDbMText
  10
 154.64999999997
  20
 106.50000000000
  30
0.0
  40
 1.5000000000000
  41
0.0
  71
5
  72
1
   1
\T1.000000;仕様：
   7
GMM001
  44
 0.79999984000003
   0
MTEXT
   5
206
 100
AcDbEntity
   8
LEVEL002
 370
15
  62
8
 100
AcDbMText
  10
 154.64999999997
  20
 116.50000000000
  30
0.0
  40
 1.5000000000000
  41
0.0
  71
5
  72
1
   1
\T1.000000;形式：
   7
GMM001
  44
 0.79999984000003
   0
MTEXT
   5
208
 100
AcDbEntity
   8
LEVEL002
 370
15
  62
8
 100
AcDbMText
  10
 155.39999999997
  20
 126.50000000000
  30
0.0
  40
 1.5000000000000
  41
0.0
  71
5
  72
1
   1
\T1.000000;商品名：
   7
GMM001
  44
 0.79999984000003
   0
MTEXT
   5
20A
 100
AcDbEntity
   8
LEVEL002
 370
15
  62
8
 100
AcDbMText
  10
 173.44999999998
  20
 38.435401729506
  30
0.0
  40
 2.0000000000000
  41
0.0
  71
5
  72
1
   1
\T1.000000;　※本製品は予告無しに変更する事があります。
   7
GMM001
  44
 0.79999984000003
   0
LINE
   5
20B
 100
AcDbEntity
   8
LEVEL001
 370
40
 100
AcDbLine
   6
CONTINUOUS
  62
3
  10
 43.874999999975
  20
 142.50000000000
  30
0.0
  11
 43.874999999975
  21
 6.0000000000050
  31
0.0
   0
LINE
   5
20C
 100
AcDbEntity
   8
LEVEL001
 370
40
 100
AcDbLine
   6
CONTINUOUS
  62
3
  10
 79.999999999975
  20
 142.50000000000
  30
0.0
  11
 79.999999999975
  21
 6.0000000000050
  31
0.0
   0
LINE
   5
20D
 100
AcDbEntity
   8
LEVEL001
 370
40
 100
AcDbLine
   6
CONTINUOUS
  62
3
  10
 116.12499999997
  20
 142.50000000000
  30
0.0
  11
 116.12499999997
  21
 6.0000000000050
  31
0.0
   0
MTEXT
   5
20F
 100
AcDbEntity
   8
LEVEL002
 370
15
  62
8
 100
AcDbMText
  10
 181.14999999997
  20
 24.333333333340
  30
0.0
  40
 1.4000000000000
  41
0.0
  71
5
  72
1
   1
\T1.000000;作成日付：
   7
GMM003
  44
 0.79999984000003
   0
MTEXT
   5
211
 100
AcDbEntity
   8
LEVEL002
 370
15
  62
8
 100
AcDbMText
  10
 193.60754228038
  20
 21.000000000005
  30
0.0
  40
 1.5000000000000
  41
0.0
  71
5
  72
1
   1
\T1.000000;令和　　年　　月　　日
   7
GMM001
  44
 0.79999984000003
   0
MTEXT
   5
213
 100
AcDbEntity
   8
LEVEL002
 370
15
  62
8
 100
AcDbMText
  10
 193.60754228038
  20
 17.666666666673
  30
0.0
  40
 1.5000000000000
  41
0.0
  71
5
  72
1
   1
\T1.000000;令和　　年　　月　　日
   7
GMM001
  44
 0.79999984000003
   0
LINE
   5
214
 100
AcDbEntity
   8
LEVEL002
 370
40
 100
AcDbLine
   6
CONTINUOUS
  62
3
  10
 7.7499999999750
  20
 35.125000000004
  30
0.0
  11
 152.24999999997
  21
 35.125000000004
  31
0.0
   0
LINE
   5
215
 100
AcDbEntity
   8
LEVEL002
 370
40
 100
AcDbLine
   6
CONTINUOUS
  62
3
  10
 7.7499999999750
  20
 40.125000000004
  30
0.0
  11
 152.24999999997
  21
 40.125000000004
  31
0.0
   0
LINE
   5
216
 100
AcDbEntity
   8
LEVEL002
 370
40
 100
AcDbLine
   6
CONTINUOUS
  62
3
  10
 7.7499999999750
  20
 69.250000000003
  30
0.0
  11
 152.24999999997
  21
 69.250000000003
  31
0.0
   0
LINE
   5
217
 100
AcDbEntity
   8
LEVEL002
 370
40
 100
AcDbLine
   6
CONTINUOUS
  62
3
  10
 7.7499999999750
  20
 74.250000000003
  30
0.0
  11
 152.24999999997
  21
 74.250000000003
  31
0.0
   0
LINE
   5
218
 100
AcDbEntity
   8
LEVEL002
 370
40
 100
AcDbLine
   6
CONTINUOUS
  62
3
  10
 7.7499999999750
  20
 103.37500000000
  30
0.0
  11
 152.24999999997
  21
 103.37500000000
  31
0.0
   0
LINE
   5
219
 100
AcDbEntity
   8
LEVEL002
 370
40
 100
AcDbLine
   6
CONTINUOUS
  62
3
  10
 7.7499999999750
  20
 108.37500000000
  30
0.0
  11
 152.24999999997
  21
 108.37500000000
  31
0.0
   0
MTEXT
   5
21B
 100
AcDbEntity
   8
LEVEL002
 370
15
  62
8
 100
AcDbMText
  10
 164.74999999997
  20
 19.125000000005
  30
0.0
  40
 1.8750000000000
  41
0.0
  71
5
  72
1
   1
\T1.000000;Ｓ＝２：１
   7
GMM001
  44
 0.79999984000003
   0
MTEXT
   5
21D
 100
AcDbEntity
   8
LEVEL001
 370
15
  62
8
 100
AcDbMText
  10
 7.8999999999750
  20
 110.87500000000
  30
0.0
  40
 1.5000000000000
  41
0.0
  71
4
  72
1
   1
\W0.500000;\T1.000000; \W1.000000;\T1.000000;　堀込寸法：１２×１２
   7
GMM001
  44
 0.79999984000003
   0
MTEXT
   5
21F
 100
AcDbEntity
   8
LEVEL002
 370
15
  62
8
 100
AcDbMText
  10
 167.24999999997
  20
 122.25000000000
  30
0.0
  40
 2.2500000000000
  41
0.0
  71
7
  72
1
   1
\T1.000000;　パルフラットレール
   7
GMM004
  44
 0.79999984000003
   0
MTEXT
   5
221
 100
AcDbEntity
   8
LEVEL002
 370
15
  62
8
 100
AcDbMText
  10
 177.24999999997
  20
 29.125000000005
  30
0.0
  40
 1.8750000000000
  41
0.0
  71
5
  72
1
   1
\T1.000000;断面図
   7
GMM001
  44
 0.79999984000003
   0
MTEXT
   5
223
 100
AcDbEntity
   8
LEVEL002
 370
15
  62
8
 100
AcDbMText
  10
 193.60754228038
  20
 24.333333333340
  30
0.0
  40
 1.5000000000000
  41
0.0
  71
5
  72
1
   1
\T1.000000;令和　５年　２月２４日
   7
GMM001
  44
 0.79999984000003
   0
MTEXT
   5
225
 100
AcDbEntity
   8
LEVEL001
 370
15
  62
8
 100
AcDbMText
  10
 44.024999999975
  20
 110.87500000000
  30
0.0
  40
 1.5000000000000
  41
0.0
  71
4
  72
1
   1
\W0.500000;\T1.000000; \W1.000000;\T1.000000;　堀込寸法：９×９
   7
GMM001
  44
 0.79999984000003
   0
MTEXT
   5
227
 100
AcDbEntity
   8
LEVEL002
 370
15
  62
8
 100
AcDbMText
  10
 177.24999999997
  20
 114.70833333333
  30
0.0
  40
 2.0000000000000
  41
0.0
  71
2
  72
1
   1
{\W1.000000;\T1.000000;ステンレール}\P{\W0.500000;\T1.000000;(\W1.000000;\T1.000000;ＦＲ型\W0.500000;\T1.000000;･\W1.000000;\T1.000000;ＤＭ型\W0.500000;\T1.000000;･\W1.000000;\T1.000000;ＹＳ型）}
   7
GMM001
  44
 0.79999984000003
   0
MTEXT
   5
229
 100
AcDbEntity
   8
LEVEL001
 370
15
  62
8
 100
AcDbMText
  10
 7.8999999999750
  20
 140.00000000000
  30
0.0
  40
 1.5000000000000
  41
0.0
  71
4
  72
1
   1
\W0.500000;\T1.000000; \W1.000000;\T1.000000;　ＦＲＳ１２
   7
GMM001
  44
 0.79999984000003
   0
MTEXT
   5
22B
 100
AcDbEntity
   8
LEVEL001
 370
15
  62
8
 100
AcDbMText
  10
 44.024999999975
  20
 140.00000000000
  30
0.0
  40
 1.5000000000000
  41
0.0
  71
4
  72
1
   1
\W0.500000;\T1.000000; \W1.000000;\T1.000000;　ＦＲＳ９
   7
GMM001
  44
 0.79999984000003
   0
MTEXT
   5
22D
 100
AcDbEntity
   8
LEVEL001
 370
15
  62
8
 100
AcDbMText
  10
 7.8999999999750
  20
 105.87500000000
  30
0.0
  40
 1.5000000000000
  41
0.0
  71
4
  72
1
   1
\W0.500000;\T1.000000; \W1.000000;\T1.000000;　ＤＭＳ１２
   7
GMM001
  44
 0.79999984000003
   0
MTEXT
   5
22F
 100
AcDbEntity
   8
LEVEL001
 370
15
  62
8
 100
AcDbMText
  10
 44.024999999975
  20
 105.87500000000
  30
0.0
  40
 1.5000000000000
  41
0.0
  71
4
  72
1
   1
\W0.500000;\T1.000000; \W1.000000;\T1.000000;　ＤＭＳ９
   7
GMM001
  44
 0.79999984000003
   0
MTEXT
   5
231
 100
AcDbEntity
   8
LEVEL001
 370
15
  62
8
 100
AcDbMText
  10
 7.8999999999750
  20
 71.750000000003
  30
0.0
  40
 1.5000000000000
  41
0.0
  71
4
  72
1
   1
\W0.500000;\T1.000000; \W1.000000;\T1.000000;　ＹＳ１２
   7
GMM001
  44
 0.79999984000003
   0
MTEXT
   5
233
 100
AcDbEntity
   8
LEVEL001
 370
15
  62
8
 100
AcDbMText
  10
 7.8999999999750
  20
 76.750000000003
  30
0.0
  40
 1.5000000000000
  41
0.0
  71
4
  72
1
   1
\W0.500000;\T1.000000; \W1.000000;\T1.000000;　堀込寸法：１２×１２
   7
GMM001
  44
 0.79999984000003
   0
MTEXT
   5
235
 100
AcDbEntity
   8
LEVEL001
 370
15
  62
8
 100
AcDbMText
  10
 44.024999999975
  20
 76.750000000003
  30
0.0
  40
 1.5000000000000
  41
0.0
  71
4
  72
1
   1
\W0.500000;\T1.000000; \W1.000000;\T1.000000;　堀込寸法：９×９
   7
GMM001
  44
 0.79999984000003
   0
MTEXT
   5
237
 100
AcDbEntity
   8
LEVEL001
 370
15
  62
8
 100
AcDbMText
  10
 7.8999999999750
  20
 42.625000000004
  30
0.0
  40
 1.5000000000000
  41
0.0
  71
4
  72
1
   1
\W0.500000;\T1.000000; \W1.000000;\T1.000000;　堀込寸法：１２×１２
   7
GMM001
  44
 0.79999984000003
   0
MTEXT
   5
239
 100
AcDbEntity
   8
LEVEL002
 370
15
  62
8
 100
AcDbMText
  10
 189.74999999997
  20
 10.041666666673
  30
0.0
  40
 1.2500000000000
  41
0.0
  71
5
  72
1
   1
\T1.000000;ＰＦ－１５
   7
GMM001
  44
 0.79999984000003
   0
ARC
   5
23A
 100
AcDbEntity
   8
LEVEL002
 370
30
   6
CONTINUOUS
  62
7
 100
AcDbCircle
  10
 64.966183583474
  20
 118.21897986682
  30
0.0
  40
 1.0000000000000
 100
AcDbArc
  50
 270.00000000000
  51
0.0
   0
LINE
   5
23B
 100
AcDbEntity
   8
LEVEL002
 370
30
 100
AcDbLine
   6
CONTINUOUS
  62
7
  10
 64.966183583474
  20
 117.21897986682
  30
0.0
  11
 63.066183583474
  21
 117.21897986682
  31
0.0
   0
LINE
   5
23C
 100
AcDbEntity
   8
LEVEL002
 370
30
 100
AcDbLine
   6
CONTINUOUS
  62
7
  10
 63.066183583474
  20
 117.21897986682
  30
0.0
  11
 63.066183583474
  21
 118.01897986682
  31
0.0
   0
ARC
   5
23D
 100
AcDbEntity
   8
LEVEL002
 370
30
   6
CONTINUOUS
  62
7
 100
AcDbCircle
  10
 64.966183583474
  20
 118.21897986682
  30
0.0
  40
 0.20000000000000
 100
AcDbArc
  50
 269.99999999998
  51
0.0
   0
LINE
   5
23E
 100
AcDbEntity
   8
LEVEL002
 370
30
 100
AcDbLine
   6
CONTINUOUS
  62
7
  10
 64.966183583474
  20
 118.01897986682
  30
0.0
  11
 63.066183583474
  21
 118.01897986682
  31
0.0
   0
LINE
   5
23F
 100
AcDbEntity
   8
LEVEL002
 370
30
 100
AcDbLine
   6
CONTINUOUS
  62
7
  10
 65.166137680915
  20
 118.21469513616
  30
0.0
  11
 65.316137680915
  21
 125.21469513616
  31
0.0
   0
ARC
   5
240
 100
AcDbEntity
   8
LEVEL002
 370
30
   6
CONTINUOUS
  62
7
 100
AcDbCircle
  10
 58.066183583474
  20
 118.21897986682
  30
0.0
  40
 1.0000000000000
 100
AcDbArc
  50
 180.00000000000
  51
 270.00000000000
   0
LINE
   5
241
 100
AcDbEntity
   8
LEVEL002
 370
30
 100
AcDbLine
   6
CONTINUOUS
  62
7
  10
 58.066183583474
  20
 117.21897986682
  30
0.0
  11
 59.966183583474
  21
 117.21897986682
  31
0.0
   0
LINE
   5
242
 100
AcDbEntity
   8
LEVEL002
 370
30
 100
AcDbLine
   6
CONTINUOUS
  62
7
  10
 59.966183583474
  20
 117.21897986682
  30
0.0
  11
 59.966183583474
  21
 118.01897986682
  31
0.0
   0
ARC
   5
243
 100
AcDbEntity
   8
LEVEL002
 370
30
   6
CONTINUOUS
  62
7
 100
AcDbCircle
  10
 58.066183583474
  20
 118.21897986682
  30
0.0
  40
 0.20000000000000
 100
AcDbArc
  50
 180.00000000000
  51
 270.00000000005
   0
LINE
   5
244
 100
AcDbEntity
   8
LEVEL002
 370
30
 100
AcDbLine
   6
CONTINUOUS
  62
7
  10
 58.066183583474
  20
 118.01897986682
  30
0.0
  11
 59.966183583474
  21
 118.01897986682
  31
0.0
   0
LINE
   5
245
 100
AcDbEntity
   8
LEVEL002
 370
30
 100
AcDbLine
   6
CONTINUOUS
  62
7
  10
 57.866229486034
  20
 118.21469513616
  30
0.0
  11
 57.716229486034
  21
 125.21469513616
  31
0.0
   0
LINE
   5
246
 100
AcDbEntity
   8
LEVEL002
 370
30
 100
AcDbLine
   6
CONTINUOUS
  62
7
  10
 65.983465174073
  20
 119.01474103872
  30
0.0
  11
 65.787795807292
  21
 119.21897986682
  31
0.0
   0
LINE
   5
247
 100
AcDbEntity
   8
LEVEL002
 370
30
 100
AcDbLine
   6
CONTINUOUS
  62
7
  10
 65.787795807292
  20
 119.21897986682
  30
0.0
  11
 65.992034635391
  21
 119.41464923360
  31
0.0
   0
LINE
   5
248
 100
AcDbEntity
   8
LEVEL002
 370
30
 100
AcDbLine
   6
CONTINUOUS
  62
7
  10
 66.026322316930
  20
 121.01474103872
  30
0.0
  11
 65.830652950149
  21
 121.21897986682
  31
0.0
   0
LINE
   5
249
 100
AcDbEntity
   8
LEVEL002
 370
30
 100
AcDbLine
   6
CONTINUOUS
  62
7
  10
 65.830652950149
  20
 121.21897986682
  30
0.0
  11
 66.034891778249
  21
 121.41464923361
  31
0.0
   0
LINE
   5
24A
 100
AcDbEntity
   8
LEVEL002
 370
30
 100
AcDbLine
   6
CONTINUOUS
  62
7
  10
 66.077748921106
  20
 123.41464923361
  30
0.0
  11
 65.873510093006
  21
 123.21897986682
  31
0.0
   0
LINE
   5
24B
 100
AcDbEntity
   8
LEVEL002
 370
30
 100
AcDbLine
   6
CONTINUOUS
  62
7
  10
 65.873510093006
  20
 123.21897986682
  30
0.0
  11
 66.069179459787
  21
 123.01474103872
  31
0.0
   0
LINE
   5
24C
 100
AcDbEntity
   8
LEVEL002
 370
30
 100
AcDbLine
   6
CONTINUOUS
  62
7
  10
 56.954618245842
  20
 123.41464923361
  30
0.0
  11
 57.158857073942
  21
 123.21897986682
  31
0.0
   0
LINE
   5
24D
 100
AcDbEntity
   8
LEVEL002
 370
30
 100
AcDbLine
   6
CONTINUOUS
  62
7
  10
 57.158857073942
  20
 123.21897986682
  30
0.0
  11
 56.963187707161
  21
 123.01474103872
  31
0.0
   0
LINE
   5
24E
 100
AcDbEntity
   8
LEVEL002
 370
30
 100
AcDbLine
   6
CONTINUOUS
  62
7
  10
 57.006044850018
  20
 121.01474103872
  30
0.0
  11
 57.201714216799
  21
 121.21897986682
  31
0.0
   0
LINE
   5
24F
 100
AcDbEntity
   8
LEVEL002
 370
30
 100
AcDbLine
   6
CONTINUOUS
  62
7
  10
 57.201714216799
  20
 121.21897986682
  30
0.0
  11
 56.997475388700
  21
 121.41464923361
  31
0.0
   0
LINE
   5
250
 100
AcDbEntity
   8
LEVEL002
 370
30
 100
AcDbLine
   6
CONTINUOUS
  62
7
  10
 57.048901992875
  20
 119.01474103872
  30
0.0
  11
 57.244571359657
  21
 119.21897986682
  31
0.0
   0
LINE
   5
251
 100
AcDbEntity
   8
LEVEL002
 370
30
 100
AcDbLine
   6
CONTINUOUS
  62
7
  10
 57.244571359657
  20
 119.21897986682
  30
0.0
  11
 57.040332531556
  21
 119.41464923360
  31
0.0
   0
LINE
   5
252
 100
AcDbEntity
   8
LEVEL002
 370
30
 100
AcDbLine
   6
CONTINUOUS
  62
7
  10
 65.965954070675
  20
 118.19755621352
  30
0.0
  11
 65.983465174073
  21
 119.01474103872
  31
0.0
   0
LINE
   5
253
 100
AcDbEntity
   8
LEVEL002
 370
30
 100
AcDbLine
   6
CONTINUOUS
  62
7
  10
 65.992034635391
  20
 119.41464923360
  30
0.0
  11
 66.026322316930
  21
 121.01474103872
  31
0.0
   0
LINE
   5
254
 100
AcDbEntity
   8
LEVEL002
 370
30
 100
AcDbLine
   6
CONTINUOUS
  62
7
  10
 66.034891778249
  20
 121.41464923361
  30
0.0
  11
 66.069179459787
  21
 123.01474103872
  31
0.0
   0
LINE
   5
255
 100
AcDbEntity
   8
LEVEL002
 370
30
 100
AcDbLine
   6
CONTINUOUS
  62
7
  10
 66.077748921106
  20
 123.41464923361
  30
0.0
  11
 66.115954070675
  21
 125.19755621352
  31
0.0
   0
LINE
   5
256
 100
AcDbEntity
   8
LEVEL002
 370
30
 100
AcDbLine
   6
CONTINUOUS
  62
7
  10
 56.954618245842
  20
 123.41464923361
  30
0.0
  11
 56.916413096272
  21
 125.19755621352
  31
0.0
   0
LINE
   5
257
 100
AcDbEntity
   8
LEVEL002
 370
30
 100
AcDbLine
   6
CONTINUOUS
  62
7
  10
 56.997475388700
  20
 121.41464923361
  30
0.0
  11
 56.963187707161
  21
 123.01474103872
  31
0.0
   0
LINE
   5
258
 100
AcDbEntity
   8
LEVEL002
 370
30
 100
AcDbLine
   6
CONTINUOUS
  62
7
  10
 57.066413096272
  20
 118.19755621352
  30
0.0
  11
 57.048901992875
  21
 119.01474103872
  31
0.0
   0
LINE
   5
259
 100
AcDbEntity
   8
LEVEL002
 370
30
 100
AcDbLine
   6
CONTINUOUS
  62
7
  10
 57.040332531556
  20
 119.41464923360
  30
0.0
  11
 57.006044850018
  21
 121.01474103872
  31
0.0
   0
ARC
   5
25A
 100
AcDbEntity
   8
LEVEL002
 370
30
   6
CONTINUOUS
  62
7
 100
AcDbCircle
  10
 57.916183583474
  20
 125.21897986682
  30
0.0
  40
 1.0000000000000
 100
AcDbArc
  50
 55.000921630306
  51
 181.22757883214
   0
ARC
   5
25B
 100
AcDbEntity
   8
LEVEL002
 370
30
   6
CONTINUOUS
  62
7
 100
AcDbCircle
  10
 65.116183583474
  20
 125.21897986682
  30
0.0
  40
 1.0000000000000
 100
AcDbArc
  50
 358.77242116786
  51
 124.99907837244
   0
ARC
   5
25C
 100
AcDbEntity
   8
LEVEL002
 370
30
   6
CONTINUOUS
  62
7
 100
AcDbCircle
  10
 65.116183583474
  20
 125.21897986682
  30
0.0
  40
 0.20000000000000
 100
AcDbArc
  50
 358.77242116788
  51
 124.99907837240
   0
ARC
   5
25D
 100
AcDbEntity
   8
LEVEL002
 370
30
   6
CONTINUOUS
  62
7
 100
AcDbCircle
  10
 57.916183583474
  20
 125.21897986682
  30
0.0
  40
 0.20000000000000
 100
AcDbArc
  50
 55.000921630246
  51
 181.22757883218
   0
LINE
   5
25E
 100
AcDbEntity
   8
LEVEL002
 370
30
 100
AcDbLine
   6
CONTINUOUS
  62
7
  10
 61.516183583629
  20
 123.91907986682
  30
0.0
  11
 58.489746843294
  21
 126.03814113726
  31
0.0
   0
LINE
   5
25F
 100
AcDbEntity
   8
LEVEL002
 370
30
 100
AcDbLine
   6
CONTINUOUS
  62
7
  10
 61.516183583629
  20
 123.91907986682
  30
0.0
  11
 64.542620323615
  21
 126.03814113723
  31
0.0
   0
LINE
   5
260
 100
AcDbEntity
   8
LEVEL002
 370
30
 100
AcDbLine
   6
CONTINUOUS
  62
7
  10
 61.057332975772
  20
 123.26375085047
  30
0.0
  11
 58.030896235438
  21
 125.38281212091
  31
0.0
   0
ARC
   5
261
 100
AcDbEntity
   8
LEVEL002
 370
30
   6
CONTINUOUS
  62
7
 100
AcDbCircle
  10
 61.516183583629
  20
 123.91907986682
  30
0.0
  40
 0.79999999999998
 100
AcDbArc
  50
 235.00092163031
  51
 304.99907837244
   0
LINE
   5
262
 100
AcDbEntity
   8
LEVEL002
 370
30
 100
AcDbLine
   6
CONTINUOUS
  62
7
  10
 65.001470931502
  20
 125.38281212090
  30
0.0
  11
 61.975034191516
  21
 123.26375085049
  31
0.0
   0
LINE
   5
263
 100
AcDbEntity
   8
LEVEL002
 370
15
 100
AcDbLine
   6
DASHDOT
  62
8
  10
 61.516183583629
  20
 115.51841369695
  30
0.0
  11
 61.516183583629
  21
 127.70302908157
  31
0.0
   0
DIMENSION
   5
264
 100
AcDbEntity
   8
LEVEL001
 370
15
   6
CONTINUOUS
  62
8
 100
AcDbDimension
   2
*D1
  10
 66.116183583628
  20
 129.21897986682
  30
0.0
  11
 61.516183583628
  21
 129.21897986682
  31
0.0
  70
0
   3
GMM001
 100
AcDbAlignedDimension
  13
 56.916183583628
  23
 126.41897986682
  33
0.0
  14
 66.116183583628
  24
 126.41897986682
  34
0.0
 100
AcDbRotatedDimension
   0
DIMENSION
   5
265
 100
AcDbEntity
   8
LEVEL001
 370
15
   6
CONTINUOUS
  62
8
 100
AcDbDimension
   2
*D2
  10
 72.116183583628
  20
 126.21897986682
  30
0.0
  11
 72.116183583628
  21
 121.71897986682
  31
0.0
  70
0
   3
GMM001
 100
AcDbAlignedDimension
  13
 64.966183583474
  23
 117.21897986682
  33
0.0
  14
 69.116183583628
  24
 126.21897986682
  34
0.0
  50
 90.000000000000
 100
AcDbRotatedDimension
   0
DIMENSION
   5
266
 100
AcDbEntity
   8
LEVEL001
 370
15
   6
CONTINUOUS
  62
8
 100
AcDbDimension
   2
*D3
  10
 69.116183583628
  20
 126.21897986682
  30
0.0
  11
 69.116183583628
  21
 127.02414089843
  31
0.0
  70
128
   3
GMM002
 100
AcDbAlignedDimension
  13
 61.516183583629
  23
 123.91897986682
  33
0.0
  14
 66.316183583629
  24
 126.21897986682
  34
0.0
  50
 90.000000000000
 100
AcDbRotatedDimension
   0
LINE
   5
267
 100
AcDbEntity
   8
LEVEL002
 370
30
 100
AcDbLine
   6
CONTINUOUS
  62
7
  10
 21.895435483143
  20
 85.376729612648
  30
0.0
  11
 20.174706174136
  21
 82.919273480042
  31
0.0
   0
ARC
   5
268
 100
AcDbEntity
   8
LEVEL002
 370
30
   6
CONTINUOUS
  62
7
 100
AcDbCircle
  10
 19.355554129868
  20
 83.492849916424
  30
0.0
  40
 1.0000000000000
 100
AcDbArc
  50
 180.00000000000
  51
 324.99999999074
   0
LINE
   5
269
 100
AcDbEntity
   8
LEVEL002
 370
30
 100
AcDbLine
   6
CONTINUOUS
  62
7
  10
 15.805554129868
  20
 94.492849916424
  30
0.0
  11
 18.105554129868
  21
 94.492849916424
  31
0.0
   0
LINE
   5
26A
 100
AcDbEntity
   8
LEVEL002
 370
30
 100
AcDbLine
   6
CONTINUOUS
  62
7
  10
 15.805554129868
  20
 95.892849916424
  30
0.0
  11
 19.593601736492
  21
 95.892849916424
  31
0.0
   0
LINE
   5
26B
 100
AcDbEntity
   8
LEVEL002
 370
30
 100
AcDbLine
   6
CONTINUOUS
  62
7
  10
 19.593601736492
  20
 95.892849916424
  30
0.0
  11
 24.105554129968
  21
 92.492849916449
  31
0.0
   0
ARC
   5
26C
 100
AcDbEntity
   8
LEVEL002
 370
30
   6
CONTINUOUS
  62
7
 100
AcDbCircle
  10
 15.805554129868
  20
 95.192849916424
  30
0.0
  40
 0.70000000000002
 100
AcDbArc
  50
 90.000000000000
  51
 270.00000000000
   0
LINE
   5
26D
 100
AcDbEntity
   8
LEVEL002
 370
30
 100
AcDbLine
   6
CONTINUOUS
  62
7
  10
 21.322029052155
  20
 85.778233118115
  30
0.0
  11
 19.601299743148
  21
 83.320776985509
  31
0.0
   0
ARC
   5
26E
 100
AcDbEntity
   8
LEVEL002
 370
30
   6
CONTINUOUS
  62
7
 100
AcDbCircle
  10
 19.355554129868
  20
 83.492849916424
  30
0.0
  40
 0.30000000000000
 100
AcDbArc
  50
 179.99999999998
  51
 324.99999999077
   0
LINE
   5
26F
 100
AcDbEntity
   8
LEVEL002
 370
30
 100
AcDbLine
   6
CONTINUOUS
  62
7
  10
 21.322029052155
  20
 85.778233118115
  30
0.0
  11
 21.895435483143
  21
 85.376729612648
  31
0.0
   0
LINE
   5
270
 100
AcDbEntity
   8
LEVEL002
 370
30
 100
AcDbLine
   6
CONTINUOUS
  62
7
  10
 18.805373786974
  20
 94.508738513822
  30
0.0
  11
 19.055631419679
  21
 83.486040517539
  31
0.0
   0
ARC
   5
271
 100
AcDbEntity
   8
LEVEL002
 370
30
   6
CONTINUOUS
  62
7
 100
AcDbCircle
  10
 18.105554129868
  20
 94.492849916424
  30
0.0
  40
 0.70000000000002
 100
AcDbArc
  50
0.0
  51
 90.000000000004
   0
LINE
   5
272
 100
AcDbEntity
   8
LEVEL002
 370
30
 100
AcDbLine
   6
CONTINUOUS
  62
7
  10
 15.805554129868
  20
 95.192849916424
  30
0.0
  11
 19.359385012918
  21
 95.192849916424
  31
0.0
   0
LINE
   5
273
 100
AcDbEntity
   8
LEVEL002
 370
30
 100
AcDbLine
   6
CONTINUOUS
  62
7
  10
 19.359385012918
  20
 95.192849916424
  30
0.0
  11
 24.105554129868
  21
 91.616354955873
  31
0.0
   0
LINE
   5
274
 100
AcDbEntity
   8
LEVEL002
 370
30
 100
AcDbLine
   6
CONTINUOUS
  62
7
  10
 18.280375495276
  20
 86.792772626611
  30
0.0
  11
 18.587107604349
  21
 86.499659315308
  31
0.0
   0
LINE
   5
275
 100
AcDbEntity
   8
LEVEL002
 370
30
 100
AcDbLine
   6
CONTINUOUS
  62
7
  10
 18.587107604349
  20
 86.499659315308
  30
0.0
  11
 18.293994293046
  21
 86.192927206232
  31
0.0
   0
LINE
   5
276
 100
AcDbEntity
   8
LEVEL002
 370
30
 100
AcDbLine
   6
CONTINUOUS
  62
7
  10
 18.234967804166
  20
 88.792772626611
  30
0.0
  11
 18.541699913238
  21
 88.499659315308
  31
0.0
   0
LINE
   5
277
 100
AcDbEntity
   8
LEVEL002
 370
30
 100
AcDbLine
   6
CONTINUOUS
  62
7
  10
 18.541699913238
  20
 88.499659315308
  30
0.0
  11
 18.248586601936
  21
 88.192927206232
  31
0.0
   0
LINE
   5
278
 100
AcDbEntity
   8
LEVEL002
 370
30
 100
AcDbLine
   6
CONTINUOUS
  62
7
  10
 18.189560113093
  20
 90.792772626611
  30
0.0
  11
 18.496292222165
  21
 90.499659315308
  31
0.0
   0
LINE
   5
279
 100
AcDbEntity
   8
LEVEL002
 370
30
 100
AcDbLine
   6
CONTINUOUS
  62
7
  10
 18.496292222165
  20
 90.499659315308
  30
0.0
  11
 18.203178910863
  21
 90.192927206232
  31
0.0
   0
LINE
   5
27A
 100
AcDbEntity
   8
LEVEL002
 370
30
 100
AcDbLine
   6
CONTINUOUS
  62
7
  10
 18.293994293046
  20
 86.192927206232
  30
0.0
  11
 18.355811762573
  21
 83.470151920140
  31
0.0
   0
LINE
   5
27B
 100
AcDbEntity
   8
LEVEL002
 370
30
 100
AcDbLine
   6
CONTINUOUS
  62
7
  10
 18.248586601972
  20
 88.192927206269
  30
0.0
  11
 18.280375495276
  21
 86.792772626611
  31
0.0
   0
LINE
   5
27C
 100
AcDbEntity
   8
LEVEL002
 370
30
 100
AcDbLine
   6
CONTINUOUS
  62
7
  10
 18.203178910899
  20
 90.192927206270
  30
0.0
  11
 18.234967804204
  21
 88.792772626575
  31
0.0
   0
LINE
   5
27D
 100
AcDbEntity
   8
LEVEL002
 370
30
 100
AcDbLine
   6
CONTINUOUS
  62
7
  10
 18.105554129868
  20
 94.492849916424
  30
0.0
  11
 18.189560113131
  21
 90.792772626575
  31
0.0
   0
LINE
   5
27E
 100
AcDbEntity
   8
LEVEL002
 370
30
 100
AcDbLine
   6
CONTINUOUS
  62
7
  10
 26.315672776593
  20
 85.376729612648
  30
0.0
  11
 28.036402085601
  21
 82.919273480042
  31
0.0
   0
ARC
   5
27F
 100
AcDbEntity
   8
LEVEL002
 370
30
   6
CONTINUOUS
  62
7
 100
AcDbCircle
  10
 28.855554129868
  20
 83.492849916424
  30
0.0
  40
 1.0000000000000
 100
AcDbArc
  50
 215.00000000926
  51
0.0
   0
LINE
   5
280
 100
AcDbEntity
   8
LEVEL002
 370
30
 100
AcDbLine
   6
CONTINUOUS
  62
7
  10
 32.405554129868
  20
 94.492849916424
  30
0.0
  11
 30.105554129868
  21
 94.492849916424
  31
0.0
   0
LINE
   5
281
 100
AcDbEntity
   8
LEVEL002
 370
30
 100
AcDbLine
   6
CONTINUOUS
  62
7
  10
 32.405554129868
  20
 95.892849916424
  30
0.0
  11
 28.617506523244
  21
 95.892849916424
  31
0.0
   0
LINE
   5
282
 100
AcDbEntity
   8
LEVEL002
 370
30
 100
AcDbLine
   6
CONTINUOUS
  62
7
  10
 28.617506523244
  20
 95.892849916424
  30
0.0
  11
 24.105554129768
  21
 92.492849916449
  31
0.0
   0
ARC
   5
283
 100
AcDbEntity
   8
LEVEL002
 370
30
   6
CONTINUOUS
  62
7
 100
AcDbCircle
  10
 32.405554129868
  20
 95.192849916424
  30
0.0
  40
 0.70000000000002
 100
AcDbArc
  50
 270.00000000000
  51
 90.000000000000
   0
LINE
   5
284
 100
AcDbEntity
   8
LEVEL002
 370
30
 100
AcDbLine
   6
CONTINUOUS
  62
7
  10
 26.889079207581
  20
 85.778233118115
  30
0.0
  11
 28.609808516588
  21
 83.320776985509
  31
0.0
   0
ARC
   5
285
 100
AcDbEntity
   8
LEVEL002
 370
30
   6
CONTINUOUS
  62
7
 100
AcDbCircle
  10
 28.855554129868
  20
 83.492849916424
  30
0.0
  40
 0.30000000000000
 100
AcDbArc
  50
 215.00000000921
  51
 0.27140733281822E-11
   0
LINE
   5
286
 100
AcDbEntity
   8
LEVEL002
 370
30
 100
AcDbLine
   6
CONTINUOUS
  62
7
  10
 26.889079207581
  20
 85.778233118115
  30
0.0
  11
 26.315672776593
  21
 85.376729612648
  31
0.0
   0
LINE
   5
287
 100
AcDbEntity
   8
LEVEL002
 370
30
 100
AcDbLine
   6
CONTINUOUS
  62
7
  10
 29.405734472761
  20
 94.508738513822
  30
0.0
  11
 29.155476840057
  21
 83.486040517539
  31
0.0
   0
ARC
   5
288
 100
AcDbEntity
   8
LEVEL002
 370
30
   6
CONTINUOUS
  62
7
 100
AcDbCircle
  10
 30.105554129868
  20
 94.492849916424
  30
0.0
  40
 0.70000000000002
 100
AcDbArc
  50
 90.000000000005
  51
 180.00000000000
   0
LINE
   5
289
 100
AcDbEntity
   8
LEVEL002
 370
30
 100
AcDbLine
   6
CONTINUOUS
  62
7
  10
 32.405554129868
  20
 95.192849916424
  30
0.0
  11
 28.851723246818
  21
 95.192849916424
  31
0.0
   0
LINE
   5
28A
 100
AcDbEntity
   8
LEVEL002
 370
30
 100
AcDbLine
   6
CONTINUOUS
  62
7
  10
 28.851723246818
  20
 95.192849916424
  30
0.0
  11
 24.105554129868
  21
 91.616354955873
  31
0.0
   0
LINE
   5
28B
 100
AcDbEntity
   8
LEVEL002
 370
30
 100
AcDbLine
   6
CONTINUOUS
  62
7
  10
 29.930732764459
  20
 86.792772626611
  30
0.0
  11
 29.624000655387
  21
 86.499659315308
  31
0.0
   0
LINE
   5
28C
 100
AcDbEntity
   8
LEVEL002
 370
30
 100
AcDbLine
   6
CONTINUOUS
  62
7
  10
 29.624000655387
  20
 86.499659315308
  30
0.0
  11
 29.917113966690
  21
 86.192927206232
  31
0.0
   0
LINE
   5
28D
 100
AcDbEntity
   8
LEVEL002
 370
30
 100
AcDbLine
   6
CONTINUOUS
  62
7
  10
 29.976140455570
  20
 88.792772626611
  30
0.0
  11
 29.669408346498
  21
 88.499659315308
  31
0.0
   0
LINE
   5
28E
 100
AcDbEntity
   8
LEVEL002
 370
30
 100
AcDbLine
   6
CONTINUOUS
  62
7
  10
 29.669408346498
  20
 88.499659315308
  30
0.0
  11
 29.962521657800
  21
 88.192927206232
  31
0.0
   0
LINE
   5
28F
 100
AcDbEntity
   8
LEVEL002
 370
30
 100
AcDbLine
   6
CONTINUOUS
  62
7
  10
 30.021548146643
  20
 90.792772626611
  30
0.0
  11
 29.714816037571
  21
 90.499659315308
  31
0.0
   0
LINE
   5
290
 100
AcDbEntity
   8
LEVEL002
 370
30
 100
AcDbLine
   6
CONTINUOUS
  62
7
  10
 29.714816037571
  20
 90.499659315308
  30
0.0
  11
 30.007929348873
  21
 90.192927206232
  31
0.0
   0
LINE
   5
291
 100
AcDbEntity
   8
LEVEL002
 370
30
 100
AcDbLine
   6
CONTINUOUS
  62
7
  10
 29.917113966690
  20
 86.192927206232
  30
0.0
  11
 29.855296497163
  21
 83.470151920140
  31
0.0
   0
LINE
   5
292
 100
AcDbEntity
   8
LEVEL002
 370
30
 100
AcDbLine
   6
CONTINUOUS
  62
7
  10
 29.962521657763
  20
 88.192927206269
  30
0.0
  11
 29.930732764459
  21
 86.792772626611
  31
0.0
   0
LINE
   5
293
 100
AcDbEntity
   8
LEVEL002
 370
30
 100
AcDbLine
   6
CONTINUOUS
  62
7
  10
 30.007929348837
  20
 90.192927206270
  30
0.0
  11
 29.976140455532
  21
 88.792772626575
  31
0.0
   0
LINE
   5
294
 100
AcDbEntity
   8
LEVEL002
 370
30
 100
AcDbLine
   6
CONTINUOUS
  62
7
  10
 30.105554129868
  20
 94.492849916424
  30
0.0
  11
 30.021548146606
  21
 90.792772626575
  31
0.0
   0
DIMENSION
   5
295
 100
AcDbEntity
   8
LEVEL001
 370
15
   6
CONTINUOUS
  62
8
 100
AcDbDimension
   2
*D4
  10
 36.105554129868
  20
 94.492849916424
  30
0.0
  11
 36.105554129868
  21
 88.492849916424
  31
0.0
  70
0
   3
GMM001
 100
AcDbAlignedDimension
  13
 29.055554129668
  23
 82.492849916424
  33
0.0
  14
 32.605554129668
  24
 94.492849916424
  34
0.0
  50
 90.000000000000
 100
AcDbRotatedDimension
   0
DIMENSION
   5
296
 100
AcDbEntity
   8
LEVEL001
 370
15
   6
CONTINUOUS
  62
8
 100
AcDbDimension
   2
*D5
  10
 39.105554129868
  20
 95.892849916424
  30
0.0
  11
 39.105554129868
  21
 89.192849916424
  31
0.0
  70
0
   3
GMM001
 100
AcDbAlignedDimension
  13
 36.105554129868
  23
 82.492849916424
  33
0.0
  14
 32.405554129868
  24
 95.892849916424
  34
0.0
  50
 90.000000000000
 100
AcDbRotatedDimension
   0
LINE
   5
297
 100
AcDbEntity
   8
LEVEL002
 370
15
 100
AcDbLine
   6
DASHDOT
  62
8
  10
 24.105554129768
  20
 81.616358880281
  30
0.0
  11
 24.105554129768
  21
 98.227463376944
  31
0.0
   0
DIMENSION
   5
298
 100
AcDbEntity
   8
LEVEL001
 370
15
   6
CONTINUOUS
  62
8
 100
AcDbDimension
   2
*D6
  10
 30.105554129868
  20
 79.492849916424
  30
0.0
  11
 24.105554129868
  21
 79.492849916424
  31
0.0
  70
0
   3
GMM001
 100
AcDbAlignedDimension
  13
 18.105554129868
  23
 94.292849916424
  33
0.0
  14
 30.105554129868
  24
 94.492849916424
  34
0.0
 100
AcDbRotatedDimension
   0
DIMENSION
   5
299
 100
AcDbEntity
   8
LEVEL001
 370
15
   6
CONTINUOUS
  62
8
 100
AcDbDimension
   2
*D7
  10
 13.605554129868
  20
 95.892849916424
  30
0.0
  11
 13.605554129868
  21
 94.192849916437
  31
0.0
  70
0
   3
GMM001
 100
AcDbAlignedDimension
  13
 24.105554129768
  23
 92.492849916449
  33
0.0
  14
 15.605554129868
  24
 95.892849916424
  34
0.0
  50
 90.000000000000
 100
AcDbRotatedDimension
   0
DIMENSION
   5
29A
 100
AcDbEntity
   8
LEVEL001
 370
15
   6
CONTINUOUS
  62
8
 100
AcDbDimension
   2
*D8
  10
 32.905554129868
  20
 98.892849916424
  30
0.0
  11
 24.005554129868
  21
 98.892849916424
  31
0.0
  70
0
   3
GMM001
 100
AcDbAlignedDimension
  13
 15.105554129868
  23
 95.892849916424
  33
0.0
  14
 32.905554129868
  24
 95.892849916424
  34
0.0
 100
AcDbRotatedDimension
   0
LINE
   5
29B
 100
AcDbEntity
   8
LEVEL002
 370
30
 100
AcDbLine
   6
CONTINUOUS
  62
7
  10
 21.587604937464
  20
 118.35295446301
  30
0.0
  11
 19.855554129731
  21
 117.35295446301
  31
0.0
   0
ARC
   5
29C
 100
AcDbEntity
   8
LEVEL002
 370
30
   6
CONTINUOUS
  62
7
 100
AcDbCircle
  10
 19.355554129768
  20
 118.21897986682
  30
0.0
  40
 1.0000000000000
 100
AcDbArc
  50
 180.00000000000
  51
 300.00000000220
   0
ARC
   5
29D
 100
AcDbEntity
   8
LEVEL002
 370
30
   6
CONTINUOUS
  62
7
 100
AcDbCircle
  10
 19.225554129768
  20
 128.09897986682
  30
0.0
  40
 1.1200000000000
 100
AcDbArc
  50
 57.862956511133
  51
 181.44970536272
   0
LINE
   5
29E
 100
AcDbEntity
   8
LEVEL002
 370
30
 100
AcDbLine
   6
CONTINUOUS
  62
7
  10
 19.821333827703
  20
 129.04737142706
  30
0.0
  11
 24.105554129843
  21
 125.81897986685
  31
0.0
   0
LINE
   5
29F
 100
AcDbEntity
   8
LEVEL002
 370
30
 100
AcDbLine
   6
CONTINUOUS
  62
7
  10
 18.271721517978
  20
 121.51888384227
  30
0.0
  11
 18.579215323057
  21
 121.22656969646
  31
0.0
   0
LINE
   5
2A0
 100
AcDbEntity
   8
LEVEL002
 370
30
 100
AcDbLine
   6
CONTINUOUS
  62
7
  10
 18.579215323057
  20
 121.22656969646
  30
0.0
  11
 18.286901177250
  21
 120.91907589138
  31
0.0
   0
LINE
   5
2A1
 100
AcDbEntity
   8
LEVEL002
 370
30
 100
AcDbLine
   6
CONTINUOUS
  62
7
  10
 18.286901177250
  20
 120.91907589138
  30
0.0
  11
 18.355874211627
  21
 118.19368043470
  31
0.0
   0
LINE
   5
2A2
 100
AcDbEntity
   8
LEVEL002
 370
30
 100
AcDbLine
   6
CONTINUOUS
  62
7
  10
 18.221106452770
  20
 123.51888384227
  30
0.0
  11
 18.528600257851
  21
 123.22656969646
  31
0.0
   0
LINE
   5
2A3
 100
AcDbEntity
   8
LEVEL002
 370
30
 100
AcDbLine
   6
CONTINUOUS
  62
7
  10
 18.528600257851
  20
 123.22656969646
  30
0.0
  11
 18.236286112044
  21
 122.91907589138
  31
0.0
   0
LINE
   5
2A4
 100
AcDbEntity
   8
LEVEL002
 370
30
 100
AcDbLine
   6
CONTINUOUS
  62
7
  10
 18.170491387564
  20
 125.51888384227
  30
0.0
  11
 18.477985192644
  21
 125.22656969646
  31
0.0
   0
LINE
   5
2A5
 100
AcDbEntity
   8
LEVEL002
 370
30
 100
AcDbLine
   6
CONTINUOUS
  62
7
  10
 18.477985192644
  20
 125.22656969646
  30
0.0
  11
 18.185671046837
  21
 124.91907589138
  31
0.0
   0
LINE
   5
2A6
 100
AcDbEntity
   8
LEVEL002
 370
30
 100
AcDbLine
   6
CONTINUOUS
  62
7
  10
 18.105912621450
  20
 128.07064450284
  30
0.0
  11
 18.170491387564
  21
 125.51888384227
  31
0.0
   0
LINE
   5
2A7
 100
AcDbEntity
   8
LEVEL002
 370
30
 100
AcDbLine
   6
CONTINUOUS
  62
7
  10
 18.185671046837
  20
 124.91907589138
  30
0.0
  11
 18.221106452770
  21
 123.51888384227
  31
0.0
   0
LINE
   5
2A8
 100
AcDbEntity
   8
LEVEL002
 370
30
 100
AcDbLine
   6
CONTINUOUS
  62
7
  10
 18.236286112044
  20
 122.91907589138
  30
0.0
  11
 18.271721517978
  21
 121.51888384227
  31
0.0
   0
LINE
   5
2A9
 100
AcDbEntity
   8
LEVEL002
 370
30
 100
AcDbLine
   6
CONTINUOUS
  62
7
  10
 26.623503322072
  20
 118.35295446301
  30
0.0
  11
 28.355554129806
  21
 117.35295446301
  31
0.0
   0
ARC
   5
2AA
 100
AcDbEntity
   8
LEVEL002
 370
30
   6
CONTINUOUS
  62
7
 100
AcDbCircle
  10
 28.855554129768
  20
 118.21897986682
  30
0.0
  40
 1.0000000000000
 100
AcDbArc
  50
 239.99999999780
  51
0.0
   0
ARC
   5
2AB
 100
AcDbEntity
   8
LEVEL002
 370
30
   6
CONTINUOUS
  62
7
 100
AcDbCircle
  10
 28.985554129768
  20
 128.09897986682
  30
0.0
  40
 1.1200000000000
 100
AcDbArc
  50
 358.55029463728
  51
 122.13704348887
   0
LINE
   5
2AC
 100
AcDbEntity
   8
LEVEL002
 370
30
 100
AcDbLine
   6
CONTINUOUS
  62
7
  10
 28.389774431833
  20
 129.04737142706
  30
0.0
  11
 24.105554129694
  21
 125.81897986685
  31
0.0
   0
LINE
   5
2AD
 100
AcDbEntity
   8
LEVEL002
 370
30
 100
AcDbLine
   6
CONTINUOUS
  62
7
  10
 29.939386741559
  20
 121.51888384227
  30
0.0
  11
 29.631892936479
  21
 121.22656969646
  31
0.0
   0
LINE
   5
2AE
 100
AcDbEntity
   8
LEVEL002
 370
30
 100
AcDbLine
   6
CONTINUOUS
  62
7
  10
 29.631892936479
  20
 121.22656969646
  30
0.0
  11
 29.924207082286
  21
 120.91907589138
  31
0.0
   0
LINE
   5
2AF
 100
AcDbEntity
   8
LEVEL002
 370
30
 100
AcDbLine
   6
CONTINUOUS
  62
7
  10
 29.924207082286
  20
 120.91907589138
  30
0.0
  11
 29.855234047909
  21
 118.19368043470
  31
0.0
   0
LINE
   5
2B0
 100
AcDbEntity
   8
LEVEL002
 370
30
 100
AcDbLine
   6
CONTINUOUS
  62
7
  10
 29.990001806766
  20
 123.51888384227
  30
0.0
  11
 29.682508001686
  21
 123.22656969646
  31
0.0
   0
LINE
   5
2B1
 100
AcDbEntity
   8
LEVEL002
 370
30
 100
AcDbLine
   6
CONTINUOUS
  62
7
  10
 29.682508001686
  20
 123.22656969646
  30
0.0
  11
 29.974822147493
  21
 122.91907589138
  31
0.0
   0
LINE
   5
2B2
 100
AcDbEntity
   8
LEVEL002
 370
30
 100
AcDbLine
   6
CONTINUOUS
  62
7
  10
 30.040616871973
  20
 125.51888384227
  30
0.0
  11
 29.733123066892
  21
 125.22656969646
  31
0.0
   0
LINE
   5
2B3
 100
AcDbEntity
   8
LEVEL002
 370
30
 100
AcDbLine
   6
CONTINUOUS
  62
7
  10
 29.733123066892
  20
 125.22656969646
  30
0.0
  11
 30.025437212700
  21
 124.91907589138
  31
0.0
   0
LINE
   5
2B4
 100
AcDbEntity
   8
LEVEL002
 370
30
 100
AcDbLine
   6
CONTINUOUS
  62
7
  10
 30.105195638086
  20
 128.07064450284
  30
0.0
  11
 30.040616871973
  21
 125.51888384227
  31
0.0
   0
LINE
   5
2B5
 100
AcDbEntity
   8
LEVEL002
 370
30
 100
AcDbLine
   6
CONTINUOUS
  62
7
  10
 30.025437212700
  20
 124.91907589138
  30
0.0
  11
 29.990001806766
  21
 123.51888384227
  31
0.0
   0
LINE
   5
2B6
 100
AcDbEntity
   8
LEVEL002
 370
30
 100
AcDbLine
   6
CONTINUOUS
  62
7
  10
 29.974822147493
  20
 122.91907589138
  30
0.0
  11
 29.939386741559
  21
 121.51888384227
  31
0.0
   0
ARC
   5
2B7
 100
AcDbEntity
   8
LEVEL002
 370
30
   6
CONTINUOUS
  62
7
 100
AcDbCircle
  10
 19.225554129768
  20
 128.09897986682
  30
0.0
  40
 0.32000000000000
 100
AcDbArc
  50
 62.104604213222
  51
 181.44970536271
   0
LINE
   5
2B8
 100
AcDbEntity
   8
LEVEL002
 370
30
 100
AcDbLine
   6
CONTINUOUS
  62
7
  10
 21.187604937494
  20
 119.04577478605
  30
0.0
  11
 19.455554129761
  21
 118.04577478606
  31
0.0
   0
ARC
   5
2B9
 100
AcDbEntity
   8
LEVEL002
 370
30
   6
CONTINUOUS
  62
7
 100
AcDbCircle
  10
 19.355554129768
  20
 118.21897986682
  30
0.0
  40
 0.20000000000000
 100
AcDbArc
  50
 179.99999999999
  51
 299.99999999752
   0
LINE
   5
2BA
 100
AcDbEntity
   8
LEVEL002
 370
30
 100
AcDbLine
   6
CONTINUOUS
  62
7
  10
 18.905656555963
  20
 128.09088404854
  30
0.0
  11
 19.155490133887
  21
 118.21897824724
  31
0.0
   0
LINE
   5
2BB
 100
AcDbEntity
   8
LEVEL002
 370
30
 100
AcDbLine
   6
CONTINUOUS
  62
7
  10
 21.187604937494
  20
 119.04577478605
  30
0.0
  11
 21.587604937464
  21
 118.35295446301
  31
0.0
   0
LINE
   5
2BC
 100
AcDbEntity
   8
LEVEL002
 370
30
 100
AcDbLine
   6
CONTINUOUS
  62
7
  10
 27.023503322043
  20
 119.04577478605
  30
0.0
  11
 28.755554129776
  21
 118.04577478606
  31
0.0
   0
ARC
   5
2BD
 100
AcDbEntity
   8
LEVEL002
 370
30
   6
CONTINUOUS
  62
7
 100
AcDbCircle
  10
 28.855554129768
  20
 118.21897986682
  30
0.0
  40
 0.20000000000000
 100
AcDbArc
  50
 240.00000000244
  51
0.0
   0
LINE
   5
2BE
 100
AcDbEntity
   8
LEVEL002
 370
30
 100
AcDbLine
   6
CONTINUOUS
  62
7
  10
 29.305451703573
  20
 128.09088404854
  30
0.0
  11
 29.055618125650
  21
 118.21897824724
  31
0.0
   0
LINE
   5
2BF
 100
AcDbEntity
   8
LEVEL002
 370
30
 100
AcDbLine
   6
CONTINUOUS
  62
7
  10
 27.023503322043
  20
 119.04577478605
  30
0.0
  11
 26.623503322072
  21
 118.35295446301
  31
0.0
   0
ARC
   5
2C0
 100
AcDbEntity
   8
LEVEL002
 370
30
   6
CONTINUOUS
  62
7
 100
AcDbCircle
  10
 28.985554129768
  20
 128.09897986682
  30
0.0
  40
 0.32000000000000
 100
AcDbArc
  50
 358.55029463730
  51
 117.89539578677
   0
LINE
   5
2C1
 100
AcDbEntity
   8
LEVEL002
 370
30
 100
AcDbLine
   6
CONTINUOUS
  62
7
  10
 23.503739106616
  20
 125.27077148849
  30
0.0
  11
 19.375268944012
  21
 128.38179690025
  31
0.0
   0
ARC
   5
2C2
 100
AcDbEntity
   8
LEVEL002
 370
30
   6
CONTINUOUS
  62
7
 100
AcDbCircle
  10
 24.105554129768
  20
 126.06940699853
  30
0.0
  40
 1.0000000000000
 100
AcDbArc
  50
 233.00000000000
  51
 307.00000000000
   0
LINE
   5
2C3
 100
AcDbEntity
   8
LEVEL002
 370
30
 100
AcDbLine
   6
CONTINUOUS
  62
7
  10
 24.707369152920
  20
 125.27077148849
  30
0.0
  11
 28.835839315525
  21
 128.38179690025
  31
0.0
   0
LINE
   5
2C4
 100
AcDbEntity
   8
LEVEL002
 370
15
 100
AcDbLine
   6
DASHDOT
  62
8
  10
 24.105554129768
  20
 116.56576984727
  30
0.0
  11
 24.105554129768
  21
 131.04936493875
  31
0.0
   0
DIMENSION
   5
2C5
 100
AcDbEntity
   8
LEVEL001
 370
15
   6
CONTINUOUS
  62
8
 100
AcDbDimension
   2
*D9
  10
 30.105554129768
  20
 132.21897986682
  30
0.0
  11
 24.105554129768
  21
 132.21897986682
  31
0.0
  70
0
   3
GMM001
 100
AcDbAlignedDimension
  13
 18.105554129768
  23
 129.41897986682
  33
0.0
  14
 30.105554129768
  24
 129.41897986682
  34
0.0
 100
AcDbRotatedDimension
   0
DIMENSION
   5
2C6
 100
AcDbEntity
   8
LEVEL001
 370
15
   6
CONTINUOUS
  62
8
 100
AcDbDimension
   2
*D10
  10
 33.105554129768
  20
 129.21897986682
  30
0.0
  11
 33.105554129768
  21
 127.51897986683
  31
0.0
  70
0
   3
GMM001
 100
AcDbAlignedDimension
  13
 24.105554129694
  23
 125.81897986685
  33
0.0
  14
 29.185554129768
  24
 129.21897986682
  34
0.0
  50
 90.000000000000
 100
AcDbRotatedDimension
   0
DIMENSION
   5
2C7
 100
AcDbEntity
   8
LEVEL001
 370
15
   6
CONTINUOUS
  62
8
 100
AcDbDimension
   2
*D11
  10
 36.105554129768
  20
 129.21897986682
  30
0.0
  11
 36.105554129768
  21
 123.21897986682
  31
0.0
  70
0
   3
GMM001
 100
AcDbAlignedDimension
  13
 29.055554129768
  23
 117.21897986682
  33
0.0
  14
 33.105554129768
  24
 129.21897986682
  34
0.0
  50
 90.000000000000
 100
AcDbRotatedDimension
   0
ARC
   5
2C8
 100
AcDbEntity
   8
LEVEL002
 370
30
   6
CONTINUOUS
  62
7
 100
AcDbCircle
  10
 64.966183583451
  20
 83.492849916423
  30
0.0
  40
 1.0000000000000
 100
AcDbArc
  50
 270.00000000000
  51
0.0
   0
LINE
   5
2C9
 100
AcDbEntity
   8
LEVEL002
 370
30
 100
AcDbLine
   6
CONTINUOUS
  62
7
  10
 64.966183583450
  20
 82.492849916424
  30
0.0
  11
 63.066183583451
  21
 82.492849916424
  31
0.0
   0
LINE
   5
2CA
 100
AcDbEntity
   8
LEVEL002
 370
30
 100
AcDbLine
   6
CONTINUOUS
  62
7
  10
 63.066183583451
  20
 82.492849916424
  30
0.0
  11
 63.066183583451
  21
 83.292849916424
  31
0.0
   0
ARC
   5
2CB
 100
AcDbEntity
   8
LEVEL002
 370
30
   6
CONTINUOUS
  62
7
 100
AcDbCircle
  10
 64.966183583452
  20
 83.492849916423
  30
0.0
  40
 0.20000000000000
 100
AcDbArc
  50
 269.99999999968
  51
0.0
   0
LINE
   5
2CC
 100
AcDbEntity
   8
LEVEL002
 370
30
 100
AcDbLine
   6
CONTINUOUS
  62
7
  10
 64.966183583450
  20
 83.292849916424
  30
0.0
  11
 63.066183583451
  21
 83.292849916424
  31
0.0
   0
ARC
   5
2CD
 100
AcDbEntity
   8
LEVEL002
 370
30
   6
CONTINUOUS
  62
7
 100
AcDbCircle
  10
 58.066183583450
  20
 83.492849916423
  30
0.0
  40
 1.0000000000000
 100
AcDbArc
  50
 180.00000000000
  51
 270.00000000000
   0
LINE
   5
2CE
 100
AcDbEntity
   8
LEVEL002
 370
30
 100
AcDbLine
   6
CONTINUOUS
  62
7
  10
 58.066183583450
  20
 82.492849916424
  30
0.0
  11
 59.966183583451
  21
 82.492849916424
  31
0.0
   0
LINE
   5
2CF
 100
AcDbEntity
   8
LEVEL002
 370
30
 100
AcDbLine
   6
CONTINUOUS
  62
7
  10
 59.966183583451
  20
 82.492849916424
  30
0.0
  11
 59.966183583451
  21
 83.292849916424
  31
0.0
   0
ARC
   5
2D0
 100
AcDbEntity
   8
LEVEL002
 370
30
   6
CONTINUOUS
  62
7
 100
AcDbCircle
  10
 58.066183583450
  20
 83.492849916423
  30
0.0
  40
 0.20000000000000
 100
AcDbArc
  50
 180.00000000001
  51
 270.00000000025
   0
LINE
   5
2D1
 100
AcDbEntity
   8
LEVEL002
 370
30
 100
AcDbLine
   6
CONTINUOUS
  62
7
  10
 58.066183583450
  20
 83.292849916424
  30
0.0
  11
 59.966183583451
  21
 83.292849916424
  31
0.0
   0
LINE
   5
2D2
 100
AcDbEntity
   8
LEVEL002
 370
30
 100
AcDbLine
   6
CONTINUOUS
  62
7
  10
 65.983465174049
  20
 84.288611088327
  30
0.0
  11
 65.787795807268
  21
 84.492849916424
  31
0.0
   0
LINE
   5
2D3
 100
AcDbEntity
   8
LEVEL002
 370
30
 100
AcDbLine
   6
CONTINUOUS
  62
7
  10
 65.787795807268
  20
 84.492849916424
  30
0.0
  11
 65.992034635368
  21
 84.688519283205
  31
0.0
   0
LINE
   5
2D4
 100
AcDbEntity
   8
LEVEL002
 370
30
 100
AcDbLine
   6
CONTINUOUS
  62
7
  10
 66.026322316907
  20
 86.288611088327
  30
0.0
  11
 65.830652950126
  21
 86.492849916428
  31
0.0
   0
LINE
   5
2D5
 100
AcDbEntity
   8
LEVEL002
 370
30
 100
AcDbLine
   6
CONTINUOUS
  62
7
  10
 65.830652950126
  20
 86.492849916428
  30
0.0
  11
 66.034891778225
  21
 86.688519283209
  31
0.0
   0
LINE
   5
2D6
 100
AcDbEntity
   8
LEVEL002
 370
30
 100
AcDbLine
   6
CONTINUOUS
  62
7
  10
 66.077748921083
  20
 88.688519283210
  30
0.0
  11
 65.873510092983
  21
 88.492849916428
  31
0.0
   0
LINE
   5
2D7
 100
AcDbEntity
   8
LEVEL002
 370
30
 100
AcDbLine
   6
CONTINUOUS
  62
7
  10
 65.873510092983
  20
 88.492849916428
  30
0.0
  11
 66.069179459764
  21
 88.288611088328
  31
0.0
   0
LINE
   5
2D8
 100
AcDbEntity
   8
LEVEL002
 370
30
 100
AcDbLine
   6
CONTINUOUS
  62
7
  10
 56.954618245819
  20
 88.688519283210
  30
0.0
  11
 57.158857073918
  21
 88.492849916428
  31
0.0
   0
LINE
   5
2D9
 100
AcDbEntity
   8
LEVEL002
 370
30
 100
AcDbLine
   6
CONTINUOUS
  62
7
  10
 57.158857073918
  20
 88.492849916428
  30
0.0
  11
 56.963187707138
  21
 88.288611088328
  31
0.0
   0
LINE
   5
2DA
 100
AcDbEntity
   8
LEVEL002
 370
30
 100
AcDbLine
   6
CONTINUOUS
  62
7
  10
 57.006044849995
  20
 86.288611088327
  30
0.0
  11
 57.201714216776
  21
 86.492849916428
  31
0.0
   0
LINE
   5
2DB
 100
AcDbEntity
   8
LEVEL002
 370
30
 100
AcDbLine
   6
CONTINUOUS
  62
7
  10
 57.201714216776
  20
 86.492849916428
  30
0.0
  11
 56.997475388676
  21
 86.688519283209
  31
0.0
   0
LINE
   5
2DC
 100
AcDbEntity
   8
LEVEL002
 370
30
 100
AcDbLine
   6
CONTINUOUS
  62
7
  10
 57.048901992852
  20
 84.288611088327
  30
0.0
  11
 57.244571359633
  21
 84.492849916424
  31
0.0
   0
LINE
   5
2DD
 100
AcDbEntity
   8
LEVEL002
 370
30
 100
AcDbLine
   6
CONTINUOUS
  62
7
  10
 57.244571359633
  20
 84.492849916424
  30
0.0
  11
 57.040332531533
  21
 84.688519283205
  31
0.0
   0
LINE
   5
2DE
 100
AcDbEntity
   8
LEVEL002
 370
30
 100
AcDbLine
   6
CONTINUOUS
  62
7
  10
 65.965954070652
  20
 83.471426263127
  30
0.0
  11
 65.983465174049
  21
 84.288611088327
  31
0.0
   0
LINE
   5
2DF
 100
AcDbEntity
   8
LEVEL002
 370
30
 100
AcDbLine
   6
CONTINUOUS
  62
7
  10
 65.992034635368
  20
 84.688519283205
  30
0.0
  11
 66.026322316907
  21
 86.288611088327
  31
0.0
   0
LINE
   5
2E0
 100
AcDbEntity
   8
LEVEL002
 370
30
 100
AcDbLine
   6
CONTINUOUS
  62
7
  10
 66.034891778225
  20
 86.688519283209
  30
0.0
  11
 66.069179459764
  21
 88.288611088328
  31
0.0
   0
LINE
   5
2E1
 100
AcDbEntity
   8
LEVEL002
 370
30
 100
AcDbLine
   6
CONTINUOUS
  62
7
  10
 56.997475388676
  20
 86.688519283209
  30
0.0
  11
 56.963187707138
  21
 88.288611088328
  31
0.0
   0
LINE
   5
2E2
 100
AcDbEntity
   8
LEVEL002
 370
30
 100
AcDbLine
   6
CONTINUOUS
  62
7
  10
 57.066413096249
  20
 83.471426263127
  30
0.0
  11
 57.048901992852
  21
 84.288611088327
  31
0.0
   0
LINE
   5
2E3
 100
AcDbEntity
   8
LEVEL002
 370
30
 100
AcDbLine
   6
CONTINUOUS
  62
7
  10
 57.040332531533
  20
 84.688519283205
  30
0.0
  11
 57.006044849995
  21
 86.288611088327
  31
0.0
   0
LINE
   5
2E4
 100
AcDbEntity
   8
LEVEL002
 370
30
 100
AcDbLine
   6
CONTINUOUS
  62
7
  10
 61.516183583629
  20
 90.592849916424
  30
0.0
  11
 64.801036456534
  21
 92.892849916424
  31
0.0
   0
LINE
   5
2E5
 100
AcDbEntity
   8
LEVEL002
 370
30
 100
AcDbLine
   6
CONTINUOUS
  62
7
  10
 64.801036456534
  20
 92.892849916424
  30
0.0
  11
 67.716336110412
  21
 92.892849916424
  31
0.0
   0
LINE
   5
2E6
 100
AcDbEntity
   8
LEVEL002
 370
30
 100
AcDbLine
   6
CONTINUOUS
  62
7
  10
 65.350515210833
  20
 92.092849916424
  30
0.0
  11
 65.350526656912
  21
 92.093384066756
  31
0.0
   0
LINE
   5
2E7
 100
AcDbEntity
   8
LEVEL002
 370
30
 100
AcDbLine
   6
CONTINUOUS
  62
7
  10
 58.231330710613
  20
 92.892849916266
  30
0.0
  11
 55.316031056735
  21
 92.892849916126
  31
0.0
   0
LINE
   5
2E8
 100
AcDbEntity
   8
LEVEL002
 370
30
 100
AcDbLine
   6
CONTINUOUS
  62
7
  10
 61.516183583629
  20
 90.592849916424
  30
0.0
  11
 58.231330710613
  21
 92.892849916266
  31
0.0
   0
LINE
   5
2E9
 100
AcDbEntity
   8
LEVEL002
 370
30
 100
AcDbLine
   6
CONTINUOUS
  62
7
  10
 66.077748921083
  20
 88.688519283210
  30
0.0
  11
 66.137842861040
  21
 91.492903147905
  31
0.0
   0
LINE
   5
2EA
 100
AcDbEntity
   8
LEVEL002
 370
30
 100
AcDbLine
   6
CONTINUOUS
  62
7
  10
 67.816191417248
  20
 92.892849916424
  30
0.0
  11
 67.716336110412
  21
 92.892849916424
  31
0.0
   0
LINE
   5
2EB
 100
AcDbEntity
   8
LEVEL002
 370
30
 100
AcDbLine
   6
CONTINUOUS
  62
7
  10
 66.137842861040
  20
 91.492903147905
  30
0.0
  11
 67.816175750182
  21
 91.492865583840
  31
0.0
   0
ARC
   5
2EC
 100
AcDbEntity
   8
LEVEL002
 370
30
   6
CONTINUOUS
  62
7
 100
AcDbCircle
  10
 67.816183583715
  20
 92.192857750132
  30
0.0
  40
 0.69999216638064
 100
AcDbArc
  50
 269.99935880944
  51
 89.999358809442
   0
LINE
   5
2ED
 100
AcDbEntity
   8
LEVEL002
 370
30
 100
AcDbLine
   6
CONTINUOUS
  62
7
  10
 65.021739419175
  20
 92.192849916423
  30
0.0
  11
 67.716336110412
  21
 92.192849916423
  31
0.0
   0
LINE
   5
2EE
 100
AcDbEntity
   8
LEVEL002
 370
30
 100
AcDbLine
   6
CONTINUOUS
  62
7
  10
 65.166137680891
  20
 83.488565185764
  30
0.0
  11
 65.337979422776
  21
 91.507846473732
  31
0.0
   0
ARC
   5
2EF
 100
AcDbEntity
   8
LEVEL002
 370
30
   6
CONTINUOUS
  62
7
 100
AcDbCircle
  10
 66.037818763817
  20
 91.492849916424
  30
0.0
  40
 0.70000000000002
 100
AcDbArc
  50
 90.000000000000
  51
 178.77242116788
   0
LINE
   5
2F0
 100
AcDbEntity
   8
LEVEL002
 370
30
 100
AcDbLine
   6
CONTINUOUS
  62
7
  10
 58.010627748082
  20
 92.192849916423
  30
0.0
  11
 55.316031056845
  21
 92.192849916423
  31
0.0
   0
LINE
   5
2F1
 100
AcDbEntity
   8
LEVEL002
 370
30
 100
AcDbLine
   6
CONTINUOUS
  62
7
  10
 57.681851956424
  20
 92.092849916424
  30
0.0
  11
 57.681840510345
  21
 92.093384066756
  31
0.0
   0
ARC
   5
2F2
 100
AcDbEntity
   8
LEVEL002
 370
30
   6
CONTINUOUS
  62
7
 100
AcDbCircle
  10
 56.994548403440
  20
 91.492849916424
  30
0.0
  40
 0.70000000000002
 100
AcDbArc
  50
 1.2275788321054
  51
 89.999999999999
   0
LINE
   5
2F3
 100
AcDbEntity
   8
LEVEL002
 370
30
 100
AcDbLine
   6
CONTINUOUS
  62
7
  10
 56.894524306217
  20
 91.492903147905
  30
0.0
  11
 55.216191417075
  21
 91.492865583840
  31
0.0
   0
ARC
   5
2F4
 100
AcDbEntity
   8
LEVEL002
 370
30
   6
CONTINUOUS
  62
7
 100
AcDbCircle
  10
 55.216183583542
  20
 92.192857750132
  30
0.0
  40
 0.69999216638064
 100
AcDbArc
  50
 90.000641190558
  51
 270.00064119056
   0
LINE
   5
2F5
 100
AcDbEntity
   8
LEVEL002
 370
30
 100
AcDbLine
   6
CONTINUOUS
  62
7
  10
 56.954618245819
  20
 88.688519283210
  30
0.0
  11
 56.894524305861
  21
 91.492903147898
  31
0.0
   0
LINE
   5
2F6
 100
AcDbEntity
   8
LEVEL002
 370
30
 100
AcDbLine
   6
CONTINUOUS
  62
7
  10
 57.866229486010
  20
 83.488565185764
  30
0.0
  11
 57.694387744126
  21
 91.507846473724
  31
0.0
   0
LINE
   5
2F7
 100
AcDbEntity
   8
LEVEL002
 370
30
 100
AcDbLine
   6
CONTINUOUS
  62
7
  10
 61.516183583629
  20
 89.738317328903
  30
0.0
  11
 65.021739419175
  21
 92.192849916423
  31
0.0
   0
LINE
   5
2F8
 100
AcDbEntity
   8
LEVEL002
 370
30
 100
AcDbLine
   6
CONTINUOUS
  62
7
  10
 61.516183583629
  20
 89.738317328903
  30
0.0
  11
 58.010627748082
  21
 92.192849916423
  31
0.0
   0
DIMENSION
   5
2F9
 100
AcDbEntity
   8
LEVEL001
 370
15
   6
CONTINUOUS
  62
8
 100
AcDbDimension
   2
*D12
  10
 71.716183569086
  20
 91.492849916424
  30
0.0
  11
 71.716183569086
  21
 86.992849916424
  31
0.0
  70
0
   3
GMM001
 100
AcDbAlignedDimension
  13
 64.966183583450
  23
 82.492849916424
  33
0.0
  14
 67.772804796272
  24
 91.492849916424
  34
0.0
  50
 90.000000000000
 100
AcDbRotatedDimension
   0
DIMENSION
   5
2FA
 100
AcDbEntity
   8
LEVEL001
 370
15
   6
CONTINUOUS
  62
8
 100
AcDbDimension
   2
*D13
  10
 74.716183569086
  20
 92.892849916469
  30
0.0
  11
 74.716183569086
  21
 87.692849916446
  31
0.0
  70
0
   3
GMM001
 100
AcDbAlignedDimension
  13
 71.716183569086
  23
 82.492849916424
  33
0.0
  14
 67.816191417248
  24
 92.892849916469
  34
0.0
  50
 90.000000000000
 100
AcDbRotatedDimension
   0
DIMENSION
   5
2FB
 100
AcDbEntity
   8
LEVEL001
 370
15
   6
CONTINUOUS
  62
8
 100
AcDbDimension
   2
*D14
  10
 66.037818763817
  20
 79.492849916424
  30
0.0
  11
 61.466171534839
  21
 79.492849916424
  31
0.0
  70
0
   1
\A1;9
   3
GMM001
 100
AcDbAlignedDimension
  13
 56.894524305861
  23
 91.492903147898
  33
0.0
  14
 66.037818763817
  24
 91.492849916424
  34
0.0
 100
AcDbRotatedDimension
   0
DIMENSION
   5
2FC
 100
AcDbEntity
   8
LEVEL001
 370
15
   6
CONTINUOUS
  62
8
 100
AcDbDimension
   2
*D15
  10
 52.934997750360
  20
 92.892849916156
  30
0.0
  11
 52.934997750360
  21
 93.651323425414
  31
0.0
  70
128
   3
GMM003
 100
AcDbAlignedDimension
  13
 61.516183583629
  23
 90.592849916424
  33
0.0
  14
 55.934997750360
  24
 92.892849916156
  34
0.0
  50
 90.000000000000
 100
AcDbRotatedDimension
   0
LINE
   5
2FD
 100
AcDbEntity
   8
LEVEL002
 370
15
 100
AcDbLine
   6
DASHDOT
  62
8
  10
 61.516183583629
  20
 81.646234714524
  30
0.0
  11
 61.516183583629
  21
 95.095463369004
  31
0.0
   0
MTEXT
   5
2FF
 100
AcDbEntity
   8
LEVEL002
 370
30
  62
7
 100
AcDbMText
  10
 32.171626260157
  20
 53.210541009399
  30
0.0
  40
 0.60000000000000
  41
0.0
  71
7
  72
1
   1
\T1.000000;１２
   7
GMM002
  11
0.0
  21
 1.0000000000000
  31
0.0
  44
 0.79999984000003
   0
LINE
   5
300
 100
AcDbEntity
   8
LEVEL002
 370
30
 100
AcDbLine
   6
CONTINUOUS
  62
7
  10
 26.905554129768
  20
 58.250374978843
  30
0.0
  11
 29.405554129768
  21
 59.160300564508
  31
0.0
   0
LINE
   5
301
 100
AcDbEntity
   8
LEVEL002
 370
30
 100
AcDbLine
   6
CONTINUOUS
  62
7
  10
 18.805554129768
  20
 59.160300564509
  30
0.0
  11
 21.305554129768
  21
 58.250374978844
  31
0.0
   0
ARC
   5
302
 100
AcDbEntity
   8
LEVEL002
 370
30
   6
CONTINUOUS
  62
7
 100
AcDbCircle
  10
 26.105554129768
  20
 55.810541009399
  30
0.0
  40
 0.80000000000000
 100
AcDbArc
  50
 270.00000000000
  51
0.0
   0
LINE
   5
303
 100
AcDbEntity
   8
LEVEL002
 370
30
 100
AcDbLine
   6
CONTINUOUS
  62
7
  10
 26.905554129768
  20
 55.810541009399
  30
0.0
  11
 26.905554129768
  21
 58.250374978843
  31
0.0
   0
LINE
   5
304
 100
AcDbEntity
   8
LEVEL002
 370
30
 100
AcDbLine
   6
CONTINUOUS
  62
7
  10
 22.105554129768
  20
 55.010541009399
  30
0.0
  11
 26.105554129768
  21
 55.010541009399
  31
0.0
   0
ARC
   5
305
 100
AcDbEntity
   8
LEVEL002
 370
30
   6
CONTINUOUS
  62
7
 100
AcDbCircle
  10
 22.105554129768
  20
 55.810541009399
  30
0.0
  40
 0.80000000000000
 100
AcDbArc
  50
 180.00000000000
  51
 270.00000000000
   0
LINE
   5
306
 100
AcDbEntity
   8
LEVEL002
 370
30
 100
AcDbLine
   6
CONTINUOUS
  62
7
  10
 21.305554129768
  20
 58.250374978844
  30
0.0
  11
 21.305554129768
  21
 55.810541009399
  31
0.0
   0
ARC
   5
307
 100
AcDbEntity
   8
LEVEL002
 370
30
   6
CONTINUOUS
  62
7
 100
AcDbCircle
  10
 21.305554129768
  20
 58.250374978844
  30
0.0
  40
 0.80000000000000
 100
AcDbArc
  50
0.0
  51
 69.999999999999
   0
LINE
   5
308
 100
AcDbEntity
   8
LEVEL002
 370
30
 100
AcDbLine
   6
CONTINUOUS
  62
7
  10
 22.105554129768
  20
 58.250374978844
  30
0.0
  11
 22.105554129768
  21
 55.810541009399
  31
0.0
   0
LINE
   5
309
 100
AcDbEntity
   8
LEVEL002
 370
30
 100
AcDbLine
   6
CONTINUOUS
  62
7
  10
 22.105554129768
  20
 55.810541009399
  30
0.0
  11
 26.105554129768
  21
 55.810541009399
  31
0.0
   0
LINE
   5
30A
 100
AcDbEntity
   8
LEVEL002
 370
30
 100
AcDbLine
   6
CONTINUOUS
  62
7
  10
 26.105554129768
  20
 55.810541009399
  30
0.0
  11
 26.105554129768
  21
 58.250374978843
  31
0.0
   0
ARC
   5
30B
 100
AcDbEntity
   8
LEVEL002
 370
30
   6
CONTINUOUS
  62
7
 100
AcDbCircle
  10
 26.905554129768
  20
 58.250374978843
  30
0.0
  40
 0.80000000000000
 100
AcDbArc
  50
 109.99999999999
  51
 180.00000000000
   0
LINE
   5
30C
 100
AcDbEntity
   8
LEVEL002
 370
30
 100
AcDbLine
   6
CONTINUOUS
  62
7
  10
 30.157654970104
  20
 55.978608236290
  30
0.0
  11
 29.905554129768
  21
 55.810541009399
  31
0.0
   0
LINE
   5
30D
 100
AcDbEntity
   8
LEVEL002
 370
30
 100
AcDbLine
   6
CONTINUOUS
  62
7
  10
 29.905554129768
  20
 55.810541009399
  30
0.0
  11
 30.153488014066
  21
 55.645251753201
  31
0.0
   0
LINE
   5
30E
 100
AcDbEntity
   8
LEVEL002
 370
30
 100
AcDbLine
   6
CONTINUOUS
  62
7
  10
 30.132444886071
  20
 53.961801513601
  30
0.0
  11
 29.905554129768
  21
 53.810541009399
  31
0.0
   0
LINE
   5
30F
 100
AcDbEntity
   8
LEVEL002
 370
30
 100
AcDbLine
   6
CONTINUOUS
  62
7
  10
 29.905554129768
  20
 53.810541009399
  30
0.0
  11
 30.128694625636
  21
 53.661780678821
  31
0.0
   0
LINE
   5
310
 100
AcDbEntity
   8
LEVEL002
 370
30
 100
AcDbLine
   6
CONTINUOUS
  62
7
  10
 30.153488014066
  20
 55.645251753201
  30
0.0
  11
 30.132444886071
  21
 53.961801513601
  31
0.0
   0
LINE
   5
311
 100
AcDbEntity
   8
LEVEL002
 370
30
 100
AcDbLine
   6
CONTINUOUS
  62
7
  10
 30.107234802037
  20
 51.944994790912
  30
0.0
  11
 29.905554129768
  21
 51.810541009399
  31
0.0
   0
LINE
   5
312
 100
AcDbEntity
   8
LEVEL002
 370
30
 100
AcDbLine
   6
CONTINUOUS
  62
7
  10
 29.905554129768
  20
 51.810541009399
  30
0.0
  11
 30.103901237206
  21
 51.678309604441
  31
0.0
   0
LINE
   5
313
 100
AcDbEntity
   8
LEVEL002
 370
30
 100
AcDbLine
   6
CONTINUOUS
  62
7
  10
 30.128694625636
  20
 53.661780678821
  30
0.0
  11
 30.107234802037
  21
 51.944994790912
  31
0.0
   0
LINE
   5
314
 100
AcDbEntity
   8
LEVEL002
 370
30
 100
AcDbLine
   6
CONTINUOUS
  62
7
  10
 30.103901237206
  20
 51.678309604441
  30
0.0
  11
 30.065429139533
  21
 48.600541790558
  31
0.0
   0
LINE
   5
315
 100
AcDbEntity
   8
LEVEL002
 370
30
 100
AcDbLine
   6
CONTINUOUS
  62
7
  10
 28.878169005101
  20
 47.910554450578
  30
0.0
  11
 26.705554129850
  21
 49.164914233650
  31
0.0
   0
LINE
   5
316
 100
AcDbEntity
   8
LEVEL002
 370
30
 100
AcDbLine
   6
CONTINUOUS
  62
7
  10
 26.705554129850
  20
 49.164914233650
  30
0.0
  11
 27.105554129829
  21
 49.857734556641
  31
0.0
   0
ARC
   5
317
 100
AcDbEntity
   8
LEVEL002
 370
30
   6
CONTINUOUS
  62
7
 100
AcDbCircle
  10
 29.265491632210
  20
 48.610541009399
  30
0.0
  40
 0.80000000000000
 100
AcDbArc
  50
 238.95701275813
  51
 359.28384005452
   0
LINE
   5
318
 100
AcDbEntity
   8
LEVEL002
 370
30
 100
AcDbLine
   6
CONTINUOUS
  62
7
  10
 27.105554129829
  20
 49.857734556641
  30
0.0
  11
 29.265491632210
  21
 48.610541009399
  31
0.0
   0
LINE
   5
319
 100
AcDbEntity
   8
LEVEL002
 370
30
 100
AcDbLine
   6
CONTINUOUS
  62
7
  10
 29.307297294714
  20
 51.954994009753
  30
0.0
  11
 29.265491632210
  21
 48.610541009399
  31
0.0
   0
LINE
   5
31A
 100
AcDbEntity
   8
LEVEL002
 370
30
 100
AcDbLine
   6
CONTINUOUS
  62
7
  10
 29.332507378748
  20
 53.971800732442
  30
0.0
  11
 29.307297294714
  21
 51.954994009753
  31
0.0
   0
LINE
   5
31B
 100
AcDbEntity
   8
LEVEL002
 370
30
 100
AcDbLine
   6
CONTINUOUS
  62
7
  10
 29.357717462781
  20
 55.988607455131
  30
0.0
  11
 29.332507378748
  21
 53.971800732442
  31
0.0
   0
LINE
   5
31C
 100
AcDbEntity
   8
LEVEL002
 370
30
 100
AcDbLine
   6
CONTINUOUS
  62
7
  10
 29.405616622445
  20
 59.820540228241
  30
0.0
  11
 29.405491632210
  21
 59.810541009399
  31
0.0
   0
LINE
   5
31D
 100
AcDbEntity
   8
LEVEL002
 370
30
 100
AcDbLine
   6
CONTINUOUS
  62
7
  10
 29.397326192596
  20
 59.157305840288
  30
0.0
  11
 29.357717462781
  21
 55.988607455131
  31
0.0
   0
LINE
   5
31E
 100
AcDbEntity
   8
LEVEL002
 370
30
 100
AcDbLine
   6
CONTINUOUS
  62
7
  10
 18.078663373466
  20
 53.961801513601
  30
0.0
  11
 18.305554129768
  21
 53.810541009399
  31
0.0
   0
LINE
   5
31F
 100
AcDbEntity
   8
LEVEL002
 370
30
 100
AcDbLine
   6
CONTINUOUS
  62
7
  10
 18.305554129768
  20
 53.810541009399
  30
0.0
  11
 18.082413633901
  21
 53.661780678821
  31
0.0
   0
LINE
   5
320
 100
AcDbEntity
   8
LEVEL002
 370
30
 100
AcDbLine
   6
CONTINUOUS
  62
7
  10
 18.103873457499
  20
 51.944994790912
  30
0.0
  11
 18.305554129768
  21
 51.810541009399
  31
0.0
   0
LINE
   5
321
 100
AcDbEntity
   8
LEVEL002
 370
30
 100
AcDbLine
   6
CONTINUOUS
  62
7
  10
 18.305554129768
  20
 51.810541009399
  30
0.0
  11
 18.107207022330
  21
 51.678309604441
  31
0.0
   0
LINE
   5
322
 100
AcDbEntity
   8
LEVEL002
 370
30
 100
AcDbLine
   6
CONTINUOUS
  62
7
  10
 18.082413633901
  20
 53.661780678821
  30
0.0
  11
 18.103873457499
  21
 51.944994790912
  31
0.0
   0
LINE
   5
323
 100
AcDbEntity
   8
LEVEL002
 370
30
 100
AcDbLine
   6
CONTINUOUS
  62
7
  10
 18.107207022330
  20
 51.678309604441
  30
0.0
  11
 18.145679120004
  21
 48.600541790558
  31
0.0
   0
LINE
   5
324
 100
AcDbEntity
   8
LEVEL002
 370
30
 100
AcDbLine
   6
CONTINUOUS
  62
7
  10
 19.332939254436
  20
 47.910554450578
  30
0.0
  11
 21.505554129687
  21
 49.164914233650
  31
0.0
   0
LINE
   5
325
 100
AcDbEntity
   8
LEVEL002
 370
30
 100
AcDbLine
   6
CONTINUOUS
  62
7
  10
 21.505554129687
  20
 49.164914233650
  30
0.0
  11
 21.105554129708
  21
 49.857734556641
  31
0.0
   0
ARC
   5
326
 100
AcDbEntity
   8
LEVEL002
 370
30
   6
CONTINUOUS
  62
7
 100
AcDbCircle
  10
 18.945616627327
  20
 48.610541009399
  30
0.0
  40
 0.80000000000000
 100
AcDbArc
  50
 180.71615994547
  51
 301.04298724188
   0
LINE
   5
327
 100
AcDbEntity
   8
LEVEL002
 370
30
 100
AcDbLine
   6
CONTINUOUS
  62
7
  10
 21.105554129708
  20
 49.857734556641
  30
0.0
  11
 18.945616627327
  21
 48.610541009399
  31
0.0
   0
LINE
   5
328
 100
AcDbEntity
   8
LEVEL002
 370
30
 100
AcDbLine
   6
CONTINUOUS
  62
7
  10
 18.903810964823
  20
 51.954994009753
  30
0.0
  11
 18.945616627327
  21
 48.610541009399
  31
0.0
   0
LINE
   5
329
 100
AcDbEntity
   8
LEVEL002
 370
30
 100
AcDbLine
   6
CONTINUOUS
  62
7
  10
 18.878600880789
  20
 53.971800732442
  30
0.0
  11
 18.903810964823
  21
 51.954994009753
  31
0.0
   0
LINE
   5
32A
 100
AcDbEntity
   8
LEVEL002
 370
30
 100
AcDbLine
   6
CONTINUOUS
  62
7
  10
 18.053453289432
  20
 55.978608236290
  30
0.0
  11
 18.305554129768
  21
 55.810541009399
  31
0.0
   0
LINE
   5
32B
 100
AcDbEntity
   8
LEVEL002
 370
30
 100
AcDbLine
   6
CONTINUOUS
  62
7
  10
 18.305554129768
  20
 55.810541009399
  30
0.0
  11
 18.057620245471
  21
 55.645251753201
  31
0.0
   0
LINE
   5
32C
 100
AcDbEntity
   8
LEVEL002
 370
30
 100
AcDbLine
   6
CONTINUOUS
  62
7
  10
 18.057620245471
  20
 55.645251753201
  30
0.0
  11
 18.078663373466
  21
 53.961801513601
  31
0.0
   0
LINE
   5
32D
 100
AcDbEntity
   8
LEVEL002
 370
30
 100
AcDbLine
   6
CONTINUOUS
  62
7
  10
 18.853390796755
  20
 55.988607455131
  30
0.0
  11
 18.878600880789
  21
 53.971800732442
  31
0.0
   0
LINE
   5
32E
 100
AcDbEntity
   8
LEVEL002
 370
30
 100
AcDbLine
   6
CONTINUOUS
  62
7
  10
 18.813782066941
  20
 59.157305840288
  30
0.0
  11
 18.853390796755
  21
 55.988607455131
  31
0.0
   0
LINE
   5
32F
 100
AcDbEntity
   8
LEVEL002
 370
30
 100
AcDbLine
   6
CONTINUOUS
  62
7
  10
 18.009351001107
  20
 59.506791302334
  30
0.0
  11
 18.053453289432
  21
 55.978608236290
  31
0.0
   0
ARC
   5
330
 100
AcDbEntity
   8
LEVEL002
 370
30
   6
CONTINUOUS
  62
7
 100
AcDbCircle
  10
 18.309327566353
  20
 59.510541009399
  30
0.0
  40
 0.30000000000000
 100
AcDbArc
  50
 89.999999999967
  51
 180.71615994547
   0
LINE
   5
331
 100
AcDbEntity
   8
LEVEL002
 370
30
 100
AcDbLine
   6
CONTINUOUS
  62
7
  10
 18.309327566353
  20
 59.810541009399
  30
0.0
  11
 19.358076710347
  21
 59.810541009399
  31
0.0
   0
LINE
   5
332
 100
AcDbEntity
   8
LEVEL002
 370
30
 100
AcDbLine
   6
CONTINUOUS
  62
7
  10
 19.358076710347
  20
 59.810541009399
  30
0.0
  11
 21.579170244429
  21
 59.002129075472
  31
0.0
   0
LINE
   5
333
 100
AcDbEntity
   8
LEVEL002
 370
30
 100
AcDbLine
   6
CONTINUOUS
  62
7
  10
 26.631938015108
  20
 59.002129075472
  30
0.0
  11
 28.853031549191
  21
 59.810541009399
  31
0.0
   0
LINE
   5
334
 100
AcDbEntity
   8
LEVEL002
 370
30
 100
AcDbLine
   6
CONTINUOUS
  62
7
  10
 28.853031549191
  20
 59.810541009399
  30
0.0
  11
 29.901780693184
  21
 59.810541009399
  31
0.0
   0
ARC
   5
335
 100
AcDbEntity
   8
LEVEL002
 370
30
   6
CONTINUOUS
  62
7
 100
AcDbCircle
  10
 29.901780693184
  20
 59.510541009399
  30
0.0
  40
 0.30000000000000
 100
AcDbArc
  50
 359.28384005459
  51
 90.000000000002
   0
LINE
   5
336
 100
AcDbEntity
   8
LEVEL002
 370
30
 100
AcDbLine
   6
CONTINUOUS
  62
7
  10
 30.201757258430
  20
 59.506791302334
  30
0.0
  11
 30.157654970104
  21
 55.978608236290
  31
0.0
   0
LINE
   5
337
 100
AcDbEntity
   8
LEVEL002
 370
15
 100
AcDbLine
   6
DASHDOT
  62
8
  10
 24.105554129768
  20
 47.290123193994
  30
0.0
  11
 24.105554129768
  21
 60.641350689902
  31
0.0
   0
DIMENSION
   5
338
 100
AcDbEntity
   8
LEVEL001
 370
15
   6
CONTINUOUS
  62
8
 100
AcDbDimension
   2
*D16
  10
 26.105554129768
  20
 62.810541009399
  30
0.0
  11
 24.105554129768
  21
 62.810541009399
  31
0.0
  70
0
   3
GMM001
 100
AcDbAlignedDimension
  13
 22.105554129768
  23
 58.250374978844
  33
0.0
  14
 26.105554129768
  24
 58.250374978843
  34
0.0
 100
AcDbRotatedDimension
   0
DIMENSION
   5
339
 100
AcDbEntity
   8
LEVEL001
 370
15
   6
CONTINUOUS
  62
8
 100
AcDbDimension
   2
*D17
  10
 30.205554129768
  20
 65.810541009399
  30
0.0
  11
 24.105554129768
  21
 65.810541009399
  31
0.0
  70
0
   3
GMM001
 100
AcDbAlignedDimension
  13
 18.005554129768
  23
 60.010541009399
  33
0.0
  14
 30.205554129768
  24
 60.010541009399
  34
0.0
 100
AcDbRotatedDimension
   0
DIMENSION
   5
33A
 100
AcDbEntity
   8
LEVEL001
 370
15
   6
CONTINUOUS
  62
8
 100
AcDbDimension
   2
*D18
  10
 33.205554129768
  20
 59.810541009399
  30
0.0
  11
 33.205554129768
  21
 57.810541009399
  31
0.0
  70
0
   3
GMM001
 100
AcDbAlignedDimension
  13
 26.105554129768
  23
 55.810541009399
  33
0.0
  14
 30.405554129768
  24
 59.810541009399
  34
0.0
  50
 90.000000000000
 100
AcDbRotatedDimension
   0
DIMENSION
   5
33B
 100
AcDbEntity
   8
LEVEL001
 370
15
   6
CONTINUOUS
  62
8
 100
AcDbDimension
   2
*D19
  10
 36.205554129768
  20
 59.810541009399
  30
0.0
  11
 36.205554129768
  21
 53.810541009399
  31
0.0
  70
0
   3
GMM001
 100
AcDbAlignedDimension
  13
 30.405554129768
  23
 47.810541009399
  33
0.0
  14
 33.205554129768
  24
 59.810541009399
  34
0.0
  50
 90.000000000000
 100
AcDbRotatedDimension
   0
MTEXT
   5
33D
 100
AcDbEntity
   8
LEVEL002
 370
15
  62
8
 100
AcDbMText
  10
 159.74999999997
  20
 103.95833333335
  30
0.0
  40
 1.7500000000000
  41
0.0
  71
1
  72
1
   3
{\W1.000000;\T1.000000;材質：ＳＵＳ３０４／２Ｂ}\P\P{\W1.000000;\T1.000000;長さ（定尺）：１８３０\W0.500000;\T1.000000;mm}\P{\W1.000000;\T1.000000;　　　　　　　２７４０\W0.500000;\T1.000000;mm}\P{\W1.000000;\T1.000000;　　　　　　　３６６０\W0.50000
   1
0;\T1.000000;mm}\P{\W1.000000;\T1.000000;　　　　　　　２０１０\W0.500000;\T1.000000;mm}\P{\W1.000000;\T1.000000;　　　　　　　３０１０\W0.500000;\T1.000000;mm}\P{\W1.000000;\T1.000000;　　　　　　　４０２０\W0.500000;\T1.000000;mm}
   7
GMM001
  44
 0.79999984000003
   0
ENDSEC
  0
SECTION
  2
OBJECTS
  0
DICTIONARY
  5
C
100
AcDbDictionary
  3
ACAD_GROUP
350
D
  3
ACAD_MLINESTYLE
350
1B
  3
DWGPROPS
350
1C
  0
DICTIONARY
  5
D
102
{ACAD_REACTORS
330
C
102
}
100
AcDbDictionary
  0
DICTIONARY
  5
1B
102
{ACAD_REACTORS
330
C
102
}
100
AcDbDictionary
  3
STANDARD
350
1D
  0
MLINESTYLE
  5
1D
102
{ACAD_REACTORS
330
1B
102
}
100
AcDbMlineStyle
  2
STANDARD
 70
     0
  3

 62
   256
 51
90.0
 52
90.0
 71
     2
 49
0.5
 62
   256
  6
BYLAYER
 49
-0.5
 62
   256
  6
BYLAYER
   0
XRECORD
   5
1C
 102
{ACAD_REACTORS
 330
C
 102
}
 330
C
 100
AcDbXrecord
 280
1
   1
DWGPROPS COOKIE
   2
 
   3
 
   4
ﾊﾙﾅ
   6
 
   7
ﾊﾟﾙﾌﾗｯﾄﾚｰﾙ-ｽﾃﾝ(FR型･DM型・YS型)
   8
ﾊﾙﾅ
   9

 300
 = 
 301
 = 
 302
 = 
 303
 = 
 304
 = 
 305
 = 
 306
 = 
 307
 = 
 308
 = 
 309
 = 
  40
0.0
  41
 2459999.5000000
  42
 2460032.5000000
   1

  90
10
   0
ENDSEC
   0
EOF
