   0
SECTION
   2
HEADER
   9
$ACADVER
   1
AC1015
   9
$DWGCODEPAGE
   3
ANSI_932
   9
$LIMMIN
  10
0.0
  20
0.0
   9
$LIMMAX
  10
 840.00000000000
  20
 594.00000000000
   9
$EXTMIN
  10
0.0
  20
0.0
  30
0.0
   9
$EXTMAX
  10
 840.00000000000
  20
 594.00000000000
  30
0.0
   9
$LTSCALE
  40
 16.800000000000
   9
$HANDSEED
   5
38F
   0
ENDSEC
   0
SECTION
   2
TABLES
  0
TABLE
  2
VPORT
  5
8
100
AcDbSymbolTable
 70
     1
  0
VPORT
  5
38E
100
AcDbSymbolTableRecord
100
AcDbViewportTableRecord
  2
*ACTIVE
 70
     0
 10
0.0
 20
0.0
 11
1.0
 21
1.0
  12
 420.00000000000
  22
 297.00000000000
 13
0.0
 23
0.0
 14
1.0
 24
1.0
 15
0.0
 25
0.0
 16
0.0
 26
0.0
 36
1.0
 17
0.0
 27
0.0
 37
0.0
  40
 840.00000000000
  41
 1.4787878787879
 42
50.0
 43
0.0
 44
0.0
 50
0.0
 51
0.0
 71
     0
 72
   100
 73
     1
 74
     1
 75
     0
 76
     0
 77
     0
 78
     0
  0
ENDTAB
  0
TABLE
  2
LTYPE
  5
5
100
AcDbSymbolTable
 70
    25
  0
LTYPE
  5
12
100
AcDbSymbolTableRecord
100
AcDbLinetypeTableRecord
  2
BYBLOCK
 70
     0
  3

 72
    65
 73
     0
 40
0.0
  0
LTYPE
  5
13
100
AcDbSymbolTableRecord
100
AcDbLinetypeTableRecord
  2
BYLAYER
 70
     0
  3

 72
    65
 73
     0
 40
0.0
  0
LTYPE
  5
14
100
AcDbSymbolTableRecord
100
AcDbLinetypeTableRecord
  2
CONTINUOUS
 70
     0
  3
Solid line
 72
    65
 73
     0
 40
0.0
  0
LTYPE
  5
20
100
AcDbSymbolTableRecord
100
AcDbLinetypeTableRecord
  2
BORDER
 70
     0
  3
__ __ . __ __ . __ __ . __ __ . __ __ . __ __ .
 72
    65
 73
     6
 40
1.75
 49
0.5
 74
     0
 49
-0.25
 74
     0
 49
0.5
 74
     0
 49
-0.25
 74
     0
 49
0.0
 74
     0
 49
-0.25
 74
     0
  0
LTYPE
  5
21
100
AcDbSymbolTableRecord
100
AcDbLinetypeTableRecord
  2
BORDER2
 70
     0
  3
__.__.__.__.__.__.__.__.__.__.__.__.__.__.__.__
 72
    65
 73
     6
 40
0.875
 49
0.25
 74
     0
 49
-0.125
 74
     0
 49
0.25
 74
     0
 49
-0.125
 74
     0
 49
0.0
 74
     0
 49
-0.125
 74
     0
  0
LTYPE
  5
22
100
AcDbSymbolTableRecord
100
AcDbLinetypeTableRecord
  2
BORDERX2
 70
     0
  3
____  ____  .  ____  ____  .  ____  ____  .  __
 72
    65
 73
     6
 40
3.5
 49
1.0
 74
     0
 49
-0.5
 74
     0
 49
1.0
 74
     0
 49
-0.5
 74
     0
 49
0.0
 74
     0
 49
-0.5
 74
     0
  0
LTYPE
  5
23
100
AcDbSymbolTableRecord
100
AcDbLinetypeTableRecord
  2
CENTER
 70
     0
  3
____ _ ____ _ ____ _ ____ _ ____ _ ____ _ ____ 
 72
    65
 73
     4
 40
2.0
 49
1.25
 74
     0
 49
-0.25
 74
     0
 49
0.25
 74
     0
 49
-0.25
 74
     0
  0
LTYPE
  5
24
100
AcDbSymbolTableRecord
100
AcDbLinetypeTableRecord
  2
CENTER2
 70
     0
  3
___ _ ___ _ ___ _ ___ _ ___ _ ___ _ ___ _ ___ _
 72
    65
 73
     4
 40
1.125
 49
0.75
 74
     0
 49
-0.125
 74
     0
 49
0.125
 74
     0
 49
-0.125
 74
     0
  0
LTYPE
  5
25
100
AcDbSymbolTableRecord
100
AcDbLinetypeTableRecord
  2
CENTERX2
 70
     0
  3
________  __  ________  __  ________  __  _____
 72
    65
 73
     4
 40
4.0
 49
2.5
 74
     0
 49
-0.5
 74
     0
 49
0.5
 74
     0
 49
-0.5
 74
     0
  0
LTYPE
  5
26
100
AcDbSymbolTableRecord
100
AcDbLinetypeTableRecord
  2
DASHDOT
 70
     0
  3
__ . __ . __ . __ . __ . __ . __ . __ . __ . __
 72
    65
 73
     4
 40
1.0
 49
0.5
 74
     0
 49
-0.25
 74
     0
 49
0.0
 74
     0
 49
-0.25
 74
     0
  0
LTYPE
  5
27
100
AcDbSymbolTableRecord
100
AcDbLinetypeTableRecord
  2
DASHDOT2
 70
     0
  3
_._._._._._._._._._._._._._._._._._._._._._._._
 72
    65
 73
     4
 40
0.5
 49
0.25
 74
     0
 49
-0.125
 74
     0
 49
0.0
 74
     0
 49
-0.125
 74
     0
  0
LTYPE
  5
28
100
AcDbSymbolTableRecord
100
AcDbLinetypeTableRecord
  2
DASHDOTX2
 70
     0
  3
____  .  ____  .  ____  .  ____  .  ____  .  __
 72
    65
 73
     4
 40
2.0
 49
1.0
 74
     0
 49
-0.5
 74
     0
 49
0.0
 74
     0
 49
-0.5
 74
     0
  0
LTYPE
  5
29
100
AcDbSymbolTableRecord
100
AcDbLinetypeTableRecord
  2
DASHED
 70
     0
  3
__ __ __ __ __ __ __ __ __ __ __ __ __ __ __ __
 72
    65
 73
     2
 40
0.75
 49
0.5
 74
     0
 49
-0.25
 74
     0
  0
LTYPE
  5
2A
100
AcDbSymbolTableRecord
100
AcDbLinetypeTableRecord
  2
DASHED2
 70
     0
  3
_ _ _ _ _ _ _ _ _ _ _ _ _ _ _ _ _ _ _ _ _ _ _ _
 72
    65
 73
     2
 40
0.375
 49
0.25
 74
     0
 49
-0.125
 74
     0
  0
LTYPE
  5
2B
100
AcDbSymbolTableRecord
100
AcDbLinetypeTableRecord
  2
DASHEDX2
 70
     0
  3
____  ____  ____  ____  ____  ____  ____  ____ 
 72
    65
 73
     2
 40
1.5
 49
1.0
 74
     0
 49
-0.5
 74
     0
  0
LTYPE
  5
2C
100
AcDbSymbolTableRecord
100
AcDbLinetypeTableRecord
  2
DIVIDE
 70
     0
  3
____ . . ____ . . ____ . . ____ . . ____ . . __
 72
    65
 73
     6
 40
1.25
 49
0.5
 74
     0
 49
-0.25
 74
     0
 49
0.0
 74
     0
 49
-0.25
 74
     0
 49
0.0
 74
     0
 49
-0.25
 74
     0
  0
LTYPE
  5
2D
100
AcDbSymbolTableRecord
100
AcDbLinetypeTableRecord
  2
DIVIDE2
 70
     0
  3
__..__..__..__..__..__..__..__..__..__..__..__.
 72
    65
 73
     6
 40
0.625
 49
0.25
 74
     0
 49
-0.125
 74
     0
 49
0.0
 74
     0
 49
-0.125
 74
     0
 49
0.0
 74
     0
 49
-0.125
 74
     0
  0
LTYPE
  5
2E
100
AcDbSymbolTableRecord
100
AcDbLinetypeTableRecord
  2
DIVIDEX2
 70
     0
  3
________  .  .  ________  .  .  ________  .  . 
 72
    65
 73
     6
 40
2.5
 49
1.0
 74
     0
 49
-0.5
 74
     0
 49
0.0
 74
     0
 49
-0.5
 74
     0
 49
0.0
 74
     0
 49
-0.5
 74
     0
  0
LTYPE
  5
2F
100
AcDbSymbolTableRecord
100
AcDbLinetypeTableRecord
  2
DOT
 70
     0
  3
. . . . . . . . . . . . . . . . . . . . . . . .
 72
    65
 73
     2
 40
0.25
 49
0.0
 74
     0
 49
-0.25
 74
     0
  0
LTYPE
  5
30
100
AcDbSymbolTableRecord
100
AcDbLinetypeTableRecord
  2
DOT2
 70
     0
  3
...............................................
 72
    65
 73
     2
 40
0.125
 49
0.0
 74
     0
 49
-0.125
 74
     0
  0
LTYPE
  5
31
100
AcDbSymbolTableRecord
100
AcDbLinetypeTableRecord
  2
DOTX2
 70
     0
  3
.  .  .  .  .  .  .  .  .  .  .  .  .  .  .  . 
 72
    65
 73
     2
 40
0.5
 49
0.0
 74
     0
 49
-0.5
 74
     0
  0
LTYPE
  5
32
100
AcDbSymbolTableRecord
100
AcDbLinetypeTableRecord
  2
HIDDEN
 70
     0
  3
__ __ __ __ __ __ __ __ __ __ __ __ __ __ __ __
 72
    65
 73
     2
 40
0.375
 49
0.25
 74
     0
 49
-0.125
 74
     0
  0
LTYPE
  5
33
100
AcDbSymbolTableRecord
100
AcDbLinetypeTableRecord
  2
HIDDEN2
 70
     0
  3
_ _ _ _ _ _ _ _ _ _ _ _ _ _ _ _ _ _ _ _ _ _ _ _
 72
    65
 73
     2
 40
0.1875
 49
0.125
 74
     0
 49
-0.0625
 74
     0
  0
LTYPE
  5
34
100
AcDbSymbolTableRecord
100
AcDbLinetypeTableRecord
  2
HIDDENX2
 70
     0
  3
____ ____ ____ ____ ____ ____ ____ ____ ____ __
 72
    65
 73
     2
 40
0.75
 49
0.5
 74
     0
 49
-0.25
 74
     0
  0
LTYPE
  5
35
100
AcDbSymbolTableRecord
100
AcDbLinetypeTableRecord
  2
PHANTOM
 70
     0
  3
______  __  __  ______  __  __  ______  __  __ 
 72
    65
 73
     6
 40
2.5
 49
1.25
 74
     0
 49
-0.25
 74
     0
 49
0.25
 74
     0
 49
-0.25
 74
     0
 49
0.25
 74
     0
 49
-0.25
 74
     0
  0
LTYPE
  5
36
100
AcDbSymbolTableRecord
100
AcDbLinetypeTableRecord
  2
PHANTOM2
 70
     0
  3
___ _ _ ___ _ _ ___ _ _ ___ _ _ ___ _ _ ___ _ _
 72
    65
 73
     6
 40
1.25
 49
0.625
 74
     0
 49
-0.125
 74
     0
 49
0.125
 74
     0
 49
-0.125
 74
     0
 49
0.125
 74
     0
 49
-0.125
 74
     0
  0
LTYPE
  5
37
100
AcDbSymbolTableRecord
100
AcDbLinetypeTableRecord
  2
PHANTOMX2
 70
     0
  3
____________    ____    ____    ____________   
 72
    65
 73
     6
 40
5.0
 49
2.5
 74
     0
 49
-0.5
 74
     0
 49
0.5
 74
     0
 49
-0.5
 74
     0
 49
0.5
 74
     0
 49
-0.5
 74
     0
  0
ENDTAB
   0
TABLE
   2
LAYER
   5
2
 100
AcDbSymbolTable
  70
3
   0
LAYER
   5
E
 100
AcDbSymbolTableRecord
 100
AcDbLayerTableRecord
   2
0
  70
0
  62
7
   6
CONTINUOUS
 390
30
   0
LAYER
   5
39
 100
AcDbSymbolTableRecord
 100
AcDbLayerTableRecord
   2
LEVEL001
  70
0
  62
7
   6
CONTINUOUS
 390
30
   0
LAYER
   5
3A
 100
AcDbSymbolTableRecord
 100
AcDbLayerTableRecord
   2
LEVEL002
  70
0
  62
7
   6
CONTINUOUS
 390
30
   0
ENDTAB
  0
TABLE
  2
STYLE
  5
3
100
AcDbSymbolTable
  70
6
  0
STYLE
  5
F
100
AcDbSymbolTableRecord
100
AcDbTextStyleTableRecord
  2
STANDARD
 70
     0
 40
0.0
 41
1.0
 50
0.0
 71
     0
 42
0.2
  3
TXT
  4
BIGFONT
  0
STYLE
  5
38
100
AcDbSymbolTableRecord
100
AcDbTextStyleTableRecord
  2
STANDARD1
 70
     4
 40
0.0
 41
1.0
 50
0.0
 71
     0
 42
0.2
  3
TXT
  4
BIGFONT
   0
STYLE
   5
3B
 100
AcDbSymbolTableRecord
 100
AcDbTextStyleTableRecord
   2
GMM001
  70
0
  40
0.0
  41
 0.80000000000000
  50
0.0
  71
     0
  42
1.0
   3
txt.shx
   4
bigfont.shx
   0
STYLE
   5
3C
 100
AcDbSymbolTableRecord
 100
AcDbTextStyleTableRecord
   2
GMM002
  70
0
  40
0.0
  41
 1.0000000000000
  50
0.0
  71
     0
  42
1.0
   3
txt.shx
   4
bigfont.shx
   0
STYLE
   5
3D
 100
AcDbSymbolTableRecord
 100
AcDbTextStyleTableRecord
   2
GMM003
  70
0
  40
0.0
  41
 1.0714285714286
  50
0.0
  71
     0
  42
1.0
   3
txt.shx
   4
bigfont.shx
   0
STYLE
   5
3E
 100
AcDbSymbolTableRecord
 100
AcDbTextStyleTableRecord
   2
GMM004
  70
0
  40
0.0
  41
 0.88888888888889
  50
0.0
  71
     0
  42
1.0
   3
txt.shx
   4
bigfont.shx
   0
ENDTAB
  0
TABLE
  2
VIEW
  5
6
100
AcDbSymbolTable
 70
     0
  0
ENDTAB
  0
TABLE
  2
UCS
  5
7
100
AcDbSymbolTable
 70
     0
  0
ENDTAB
  0
TABLE
  2
APPID
  5
9
100
AcDbSymbolTable
 70
     1
  0
APPID
  5
10
100
AcDbSymbolTableRecord
100
AcDbRegAppTableRecord
  2
ACAD
 70
     0
  0
ENDTAB
   0
TABLE
   2
DIMSTYLE
   5
A
 100
AcDbSymbolTable
  70
10
 100
AcDbDimStyleTable
  0
DIMSTYLE
105
1D
100
AcDbSymbolTableRecord
100
AcDbDimStyleTableRecord
  2
STANDARD
 70
     0
  3

  4

  5

  6

  7

 40
1.0
 41
0.18
 42
0.0625
 43
0.38
 44
0.18
 45
0.0
 46
0.0
 47
0.0
 48
0.0
140
0.18
141
0.09
142
0.0
143
25.4
144
1.0
145
0.0
146
1.0
147
0.09
 71
     0
 72
     0
 73
     1
 74
     1
 75
     0
 76
     0
 77
     0
 78
     0
170
     0
171
     2
172
     0
173
     0
174
     0
175
     0
176
     0
177
     0
178
     0
270
     2
271
     4
272
     4
273
     2
274
     2
340
F
275
     0
280
     0
281
     0
282
     0
283
     1
284
     0
285
     0
286
     0
287
     3
288
     0
   0
DIMSTYLE
 105
3F
 100
AcDbSymbolTableRecord
 100
AcDbDimStyleTableRecord
   2
GMM001
  70
0
   3

   4

   5

   6
_DOT
   7
_DOT
  40
 1.0000000000000
  41
 0.80000000000000
  42
 2.0000000000000
  43
 16.000000000000
  44
 2.0000000000000
  45
0.0
  46
0.0
  47
0.0
  48
0.0
 140
 6.0000000000000
 141
 2.0000000000000
 142
0.0
 143
 0.39400000000000E-1
 144
 1.0000000000000
 145
0.0
 146
 0.83333333333333
 147
 2.1808605209410
  71
0
  72
0
  73
0
  74
0
  75
0
  76
0
  77
3
  78
8
 170
0
 171
2
 172
1
 173
1
 174
0
 175
0
 176
8
 177
8
 178
8
 270
2
 271
6
 272
0
 273
2
 274
2
 340
3C
 275
1
 280
0
 281
0
 282
0
 283
1
 284
0
 285
0
 286
0
 287
3
 288
1
   0
DIMSTYLE
 105
40
 100
AcDbSymbolTableRecord
 100
AcDbDimStyleTableRecord
   2
GMM002
  70
0
   3

   4

   5

   6
_DOT
   7
_DOT
  40
 1.0000000000000
  41
 0.80000000000000
  42
 2.0000000000000
  43
 16.000000000000
  44
 2.0000000000000
  45
0.0
  46
0.0
  47
0.0
  48
0.0
 140
 6.0000000000000
 141
 2.0000000000000
 142
0.0
 143
 0.39400000000000E-1
 144
 1.0000000000000
 145
0.0
 146
 0.83333333333333
 147
 2.0000000000000
  71
0
  72
0
  73
0
  74
0
  75
0
  76
0
  77
3
  78
8
 170
0
 171
2
 172
1
 173
1
 174
0
 175
0
 176
8
 177
8
 178
8
 270
2
 271
6
 272
0
 273
2
 274
2
 340
3C
 275
1
 280
0
 281
0
 282
0
 283
1
 284
0
 285
0
 286
0
 287
3
 288
0
   0
DIMSTYLE
 105
41
 100
AcDbSymbolTableRecord
 100
AcDbDimStyleTableRecord
   2
GMM003
  70
0
   3

   4

   5

   6
_DOT
   7
_DOT
  40
 1.0000000000000
  41
 0.80000000000000
  42
 2.0000000000000
  43
 16.000000000000
  44
 2.0000000000000
  45
0.0
  46
0.0
  47
0.0
  48
0.0
 140
 6.0000000000000
 141
 2.0000000000000
 142
0.0
 143
 0.39400000000000E-1
 144
 1.0000000000000
 145
0.0
 146
 0.83333333333333
 147
 2.4364160764751
  71
0
  72
0
  73
0
  74
0
  75
0
  76
0
  77
3
  78
8
 170
0
 171
2
 172
1
 173
1
 174
0
 175
0
 176
8
 177
8
 178
8
 270
2
 271
6
 272
0
 273
2
 274
2
 340
3C
 275
1
 280
0
 281
0
 282
0
 283
1
 284
0
 285
0
 286
0
 287
3
 288
1
   0
DIMSTYLE
 105
42
 100
AcDbSymbolTableRecord
 100
AcDbDimStyleTableRecord
   2
GMM004
  70
0
   3

   4

   5

   6
_DOT
   7
_DOT
  40
 1.0000000000000
  41
 0.80000000000000
  42
 2.0000000000000
  43
 16.000000000000
  44
 2.0000000000000
  45
0.0
  46
0.0
  47
0.0
  48
0.0
 140
 6.0000000000000
 141
 2.0000000000000
 142
0.0
 143
 0.39400000000000E-1
 144
 1.0000000000000
 145
0.0
 146
 0.83333333333333
 147
 2.3352649292437
  71
0
  72
0
  73
0
  74
0
  75
0
  76
0
  77
3
  78
8
 170
0
 171
2
 172
1
 173
1
 174
0
 175
0
 176
8
 177
8
 178
8
 270
2
 271
6
 272
0
 273
2
 274
2
 340
3C
 275
1
 280
0
 281
0
 282
0
 283
1
 284
0
 285
0
 286
0
 287
3
 288
1
   0
DIMSTYLE
 105
43
 100
AcDbSymbolTableRecord
 100
AcDbDimStyleTableRecord
   2
GMM005
  70
0
   3

   4

   5

   6
_DOT
   7
_DOT
  40
 1.0000000000000
  41
 0.80000000000000
  42
 2.0000000000000
  43
 16.000000000000
  44
 2.0000000000000
  45
0.0
  46
0.0
  47
0.0
  48
0.0
 140
 6.0000000000000
 141
 2.0000000000000
 142
0.0
 143
 0.39400000000000E-1
 144
 1.0000000000000
 145
0.0
 146
 0.83333333333333
 147
 1.4412804764567
  71
0
  72
0
  73
0
  74
0
  75
0
  76
0
  77
3
  78
8
 170
0
 171
2
 172
1
 173
1
 174
0
 175
0
 176
8
 177
8
 178
8
 270
2
 271
6
 272
0
 273
2
 274
2
 340
3C
 275
1
 280
0
 281
0
 282
0
 283
1
 284
0
 285
0
 286
0
 287
3
 288
1
   0
DIMSTYLE
 105
44
 100
AcDbSymbolTableRecord
 100
AcDbDimStyleTableRecord
   2
GMM006
  70
0
   3

   4

   5

   6
_DOT
   7
_DOT
  40
 1.0000000000000
  41
 0.80000000000000
  42
 2.0000000000000
  43
 16.000000000000
  44
 2.0000000000000
  45
0.0
  46
0.0
  47
0.0
  48
0.0
 140
 6.0000000000000
 141
 2.0000000000000
 142
0.0
 143
 0.39400000000000E-1
 144
 1.0000000000000
 145
0.0
 146
 0.83333333333333
 147
 1.8343569700355
  71
0
  72
0
  73
0
  74
0
  75
0
  76
0
  77
3
  78
8
 170
0
 171
2
 172
1
 173
1
 174
0
 175
0
 176
8
 177
8
 178
8
 270
2
 271
6
 272
0
 273
2
 274
2
 340
3C
 275
1
 280
0
 281
0
 282
0
 283
1
 284
0
 285
0
 286
0
 287
3
 288
1
   0
DIMSTYLE
 105
45
 100
AcDbSymbolTableRecord
 100
AcDbDimStyleTableRecord
   2
GMM007
  70
0
   3

   4

   5

   6
_DOT
   7
_DOT
  40
 1.0000000000000
  41
 0.80000000000000
  42
 2.0000000000000
  43
 16.000000000000
  44
 2.0000000000000
  45
0.0
  46
0.0
  47
0.0
  48
0.0
 140
 6.0000000000000
 141
 2.0000000000000
 142
0.0
 143
 0.39400000000000E-1
 144
 1.0000000000000
 145
0.0
 146
 0.83333333333333
 147
 1.8066229756146
  71
0
  72
0
  73
0
  74
0
  75
0
  76
0
  77
3
  78
8
 170
0
 171
2
 172
1
 173
1
 174
0
 175
0
 176
8
 177
8
 178
8
 270
2
 271
6
 272
0
 273
2
 274
2
 340
3C
 275
1
 280
0
 281
0
 282
0
 283
1
 284
0
 285
0
 286
0
 287
3
 288
1
   0
DIMSTYLE
 105
46
 100
AcDbSymbolTableRecord
 100
AcDbDimStyleTableRecord
   2
GMM008
  70
0
   3

   4

   5

   6
_DOT
   7
_DOT
  40
 1.0000000000000
  41
 0.80000000000000
  42
 2.0000000000000
  43
 16.000000000000
  44
 2.0000000000000
  45
0.0
  46
0.0
  47
0.0
  48
0.0
 140
 6.0000000000000
 141
 2.0000000000000
 142
0.0
 143
 0.39400000000000E-1
 144
 1.0000000000000
 145
0.0
 146
 0.83333333333333
 147
 2.0000000000000
  71
0
  72
0
  73
0
  74
0
  75
0
  76
0
  77
3
  78
0
 170
0
 171
2
 172
1
 173
1
 174
0
 175
0
 176
8
 177
8
 178
8
 270
2
 271
0
 272
0
 273
2
 274
2
 340
3C
 275
1
 280
0
 281
0
 282
0
 283
1
 284
0
 285
0
 286
0
 287
3
 288
0
   0
ENDTAB
  0
TABLE
  2
BLOCK_RECORD
  5
1
100
AcDbSymbolTable
 70
     0
  0
BLOCK_RECORD
  5
18
100
AcDbSymbolTableRecord
100
AcDbBlockTableRecord
  2
*MODEL_SPACE
  0
BLOCK_RECORD
  5
15
100
AcDbSymbolTableRecord
100
AcDbBlockTableRecord
  2
*PAPER_SPACE
   0
BLOCK_RECORD
   5
47
 100
AcDbSymbolTableRecord
 100
AcDbBlockTableRecord
   2
*D1
   0
BLOCK_RECORD
   5
48
 100
AcDbSymbolTableRecord
 100
AcDbBlockTableRecord
   2
*D2
   0
BLOCK_RECORD
   5
49
 100
AcDbSymbolTableRecord
 100
AcDbBlockTableRecord
   2
*D3
   0
BLOCK_RECORD
   5
4A
 100
AcDbSymbolTableRecord
 100
AcDbBlockTableRecord
   2
*D4
   0
BLOCK_RECORD
   5
4B
 100
AcDbSymbolTableRecord
 100
AcDbBlockTableRecord
   2
*D5
   0
BLOCK_RECORD
   5
4C
 100
AcDbSymbolTableRecord
 100
AcDbBlockTableRecord
   2
*D6
   0
BLOCK_RECORD
   5
4D
 100
AcDbSymbolTableRecord
 100
AcDbBlockTableRecord
   2
*D7
   0
BLOCK_RECORD
   5
4E
 100
AcDbSymbolTableRecord
 100
AcDbBlockTableRecord
   2
*D8
   0
BLOCK_RECORD
   5
4F
 100
AcDbSymbolTableRecord
 100
AcDbBlockTableRecord
   2
*D9
   0
BLOCK_RECORD
   5
50
 100
AcDbSymbolTableRecord
 100
AcDbBlockTableRecord
   2
*D10
   0
BLOCK_RECORD
   5
51
 100
AcDbSymbolTableRecord
 100
AcDbBlockTableRecord
   2
*D11
   0
BLOCK_RECORD
   5
52
 100
AcDbSymbolTableRecord
 100
AcDbBlockTableRecord
   2
*D12
   0
BLOCK_RECORD
   5
53
 100
AcDbSymbolTableRecord
 100
AcDbBlockTableRecord
   2
*D13
   0
BLOCK_RECORD
   5
54
 100
AcDbSymbolTableRecord
 100
AcDbBlockTableRecord
   2
*D14
   0
BLOCK_RECORD
   5
55
 100
AcDbSymbolTableRecord
 100
AcDbBlockTableRecord
   2
*D15
   0
BLOCK_RECORD
   5
56
 100
AcDbSymbolTableRecord
 100
AcDbBlockTableRecord
   2
*D16
   0
BLOCK_RECORD
   5
57
 100
AcDbSymbolTableRecord
 100
AcDbBlockTableRecord
   2
*D17
   0
BLOCK_RECORD
   5
58
 100
AcDbSymbolTableRecord
 100
AcDbBlockTableRecord
   2
_ARCHTICK
   0
BLOCK_RECORD
   5
59
 100
AcDbSymbolTableRecord
 100
AcDbBlockTableRecord
   2
_BOXBLANK
   0
BLOCK_RECORD
   5
5A
 100
AcDbSymbolTableRecord
 100
AcDbBlockTableRecord
   2
_BOXFILLED
   0
BLOCK_RECORD
   5
5B
 100
AcDbSymbolTableRecord
 100
AcDbBlockTableRecord
   2
_CLOSED
   0
BLOCK_RECORD
   5
5C
 100
AcDbSymbolTableRecord
 100
AcDbBlockTableRecord
   2
_CLOSEDBLANK
   0
BLOCK_RECORD
   5
5D
 100
AcDbSymbolTableRecord
 100
AcDbBlockTableRecord
   2
_DATUMBLANK
   0
BLOCK_RECORD
   5
5E
 100
AcDbSymbolTableRecord
 100
AcDbBlockTableRecord
   2
_DATUMFILLED
   0
BLOCK_RECORD
   5
5F
 100
AcDbSymbolTableRecord
 100
AcDbBlockTableRecord
   2
_DOT
   0
BLOCK_RECORD
   5
60
 100
AcDbSymbolTableRecord
 100
AcDbBlockTableRecord
   2
_DOTBLANK
   0
BLOCK_RECORD
   5
61
 100
AcDbSymbolTableRecord
 100
AcDbBlockTableRecord
   2
_DOTSMALL
   0
BLOCK_RECORD
   5
62
 100
AcDbSymbolTableRecord
 100
AcDbBlockTableRecord
   2
_INTEGRAL
   0
BLOCK_RECORD
   5
63
 100
AcDbSymbolTableRecord
 100
AcDbBlockTableRecord
   2
_NONE
   0
BLOCK_RECORD
   5
64
 100
AcDbSymbolTableRecord
 100
AcDbBlockTableRecord
   2
_OBLIQUE
   0
BLOCK_RECORD
   5
65
 100
AcDbSymbolTableRecord
 100
AcDbBlockTableRecord
   2
_OPEN
   0
BLOCK_RECORD
   5
66
 100
AcDbSymbolTableRecord
 100
AcDbBlockTableRecord
   2
_OPEN30
   0
BLOCK_RECORD
   5
67
 100
AcDbSymbolTableRecord
 100
AcDbBlockTableRecord
   2
_OPEN90
   0
BLOCK_RECORD
   5
68
 100
AcDbSymbolTableRecord
 100
AcDbBlockTableRecord
   2
_ORIGIN
   0
ENDTAB
   0
ENDSEC
  0
SECTION
  2
BLOCKS
  0
BLOCK
  5
19
100
AcDbEntity
  8
0
100
AcDbBlockBegin
  2
*MODEL_SPACE
 70
     0
 10
0.0
 20
0.0
 30
0.0
  3
*MODEL_SPACE
  1

  0
ENDBLK
  5
1A
100
AcDbEntity
  8
0
100
AcDbBlockEnd
  0
BLOCK
  5
16
100
AcDbEntity
 67
     1
  8
0
100
AcDbBlockBegin
  2
*PAPER_SPACE
 70
     0
 10
0.0
 20
0.0
 30
0.0
  3
*PAPER_SPACE
  1

  0
ENDBLK
  5
17
100
AcDbEntity
 67
     1
  8
0
100
AcDbBlockEnd
   0
BLOCK
   5
69
 100
AcDbEntity
   8
0
 100
AcDbBlockBegin
   2
_ARCHTICK
  70
0
  10
0.0
  20
0.0
  30
0.0
   3
_ARCHTICK
   0
POLYLINE
   5
6A
 100
AcDbEntity
   8
0
 370
-2
   6
BYBLOCK
  62
0
 100
AcDb2dPolyline
  66
1
  10
0.0
  20
0.0
  30
0.0
  70
1
  40
 0.15000000000000
  41
 0.15000000000000
   0
VERTEX
   5
6B
 100
AcDbEntity
   8
0
   6
BYBLOCK
  62
0
 100
AcDbVertex
 100
AcDb2dVertex
  10
-0.50000000000000
  20
-0.50000000000000
  30
0.0
  40
 0.15000000000000
  41
 0.15000000000000
   0
VERTEX
   5
6C
 100
AcDbEntity
   8
0
   6
BYBLOCK
  62
0
 100
AcDbVertex
 100
AcDb2dVertex
  10
 0.50000000000000
  20
 0.50000000000000
  30
0.0
  40
 0.15000000000000
  41
 0.15000000000000
   0
SEQEND
   5
6D
 100
AcDbEntity
   8
0
   6
BYBLOCK
  62
0
   0
ENDBLK
   5
6E
 100
AcDbEntity
   8
0
 100
AcDbBlockEnd
   0
BLOCK
   5
6F
 100
AcDbEntity
   8
0
 100
AcDbBlockBegin
   2
_OBLIQUE
  70
0
  10
0.0
  20
0.0
  30
0.0
   3
_OBLIQUE
   0
LINE
   5
70
 100
AcDbEntity
   8
0
 370
-2
 100
AcDbLine
   6
BYBLOCK
  62
0
  10
-0.50000000000000
  20
-0.50000000000000
  30
0.0
  11
 0.50000000000000
  21
 0.50000000000000
  31
0.0
   0
ENDBLK
   5
71
 100
AcDbEntity
   8
0
 100
AcDbBlockEnd
   0
BLOCK
   5
72
 100
AcDbEntity
   8
0
 100
AcDbBlockBegin
   2
_BOXBLANK
  70
0
  10
0.0
  20
0.0
  30
0.0
   3
_BOXBLANK
   0
LINE
   5
73
 100
AcDbEntity
   8
0
 370
-2
 100
AcDbLine
   6
BYBLOCK
  62
0
  10
-0.50000000000000
  20
-0.50000000000000
  30
0.0
  11
 0.50000000000000
  21
-0.50000000000000
  31
0.0
   0
LINE
   5
74
 100
AcDbEntity
   8
0
 370
-2
 100
AcDbLine
   6
BYBLOCK
  62
0
  10
 0.50000000000000
  20
-0.50000000000000
  30
0.0
  11
 0.50000000000000
  21
 0.50000000000000
  31
0.0
   0
LINE
   5
75
 100
AcDbEntity
   8
0
 370
-2
 100
AcDbLine
   6
BYBLOCK
  62
0
  10
 0.50000000000000
  20
 0.50000000000000
  30
0.0
  11
-0.50000000000000
  21
 0.50000000000000
  31
0.0
   0
LINE
   5
76
 100
AcDbEntity
   8
0
 370
-2
 100
AcDbLine
   6
BYBLOCK
  62
0
  10
-0.50000000000000
  20
 0.50000000000000
  30
0.0
  11
-0.50000000000000
  21
-0.50000000000000
  31
0.0
   0
LINE
   5
77
 100
AcDbEntity
   8
0
 370
-2
 100
AcDbLine
   6
BYBLOCK
  62
0
  10
-0.50000000000000
  20
0.0
  30
0.0
  11
-1.0000000000000
  21
0.0
  31
0.0
   0
ENDBLK
   5
78
 100
AcDbEntity
   8
0
 100
AcDbBlockEnd
   0
BLOCK
   5
79
 100
AcDbEntity
   8
0
 100
AcDbBlockBegin
   2
_BOXFILLED
  70
0
  10
0.0
  20
0.0
  30
0.0
   3
_BOXFILLED
   0
SOLID
   5
7A
 100
AcDbEntity
   8
0
 100
AcDbTrace
   6
BYBLOCK
  62
0
  10
-0.50000000000000
  20
 0.50000000000000
  30
0.0
  11
 0.50000000000000
  21
 0.50000000000000
  31
0.0
  12
-0.50000000000000
  22
-0.50000000000000
  32
0.0
  13
 0.50000000000000
  23
-0.50000000000000
  33
0.0
   0
LINE
   5
7B
 100
AcDbEntity
   8
0
 370
-2
 100
AcDbLine
   6
BYBLOCK
  62
0
  10
-0.50000000000000
  20
0.0
  30
0.0
  11
-1.0000000000000
  21
0.0
  31
0.0
   0
ENDBLK
   5
7C
 100
AcDbEntity
   8
0
 100
AcDbBlockEnd
   0
BLOCK
   5
7D
 100
AcDbEntity
   8
0
 100
AcDbBlockBegin
   2
_CLOSED
  70
0
  10
0.0
  20
0.0
  30
0.0
   3
_CLOSED
   0
LINE
   5
7E
 100
AcDbEntity
   8
0
 370
-2
 100
AcDbLine
   6
BYBLOCK
  62
0
  10
-1.0000000000000
  20
 0.16666666666667
  30
0.0
  11
0.0
  21
0.0
  31
0.0
   0
LINE
   5
7F
 100
AcDbEntity
   8
0
 370
-2
 100
AcDbLine
   6
BYBLOCK
  62
0
  10
0.0
  20
0.0
  30
0.0
  11
-1.0000000000000
  21
-0.16666666666667
  31
0.0
   0
LINE
   5
80
 100
AcDbEntity
   8
0
 370
-2
 100
AcDbLine
   6
BYBLOCK
  62
0
  10
-1.0000000000000
  20
 0.16666666666667
  30
0.0
  11
-1.0000000000000
  21
-0.16666666666667
  31
0.0
   0
LINE
   5
81
 100
AcDbEntity
   8
0
 370
-2
 100
AcDbLine
   6
BYBLOCK
  62
0
  10
0.0
  20
0.0
  30
0.0
  11
-1.0000000000000
  21
0.0
  31
0.0
   0
ENDBLK
   5
82
 100
AcDbEntity
   8
0
 100
AcDbBlockEnd
   0
BLOCK
   5
83
 100
AcDbEntity
   8
0
 100
AcDbBlockBegin
   2
_OPEN
  70
0
  10
0.0
  20
0.0
  30
0.0
   3
_OPEN
   0
LINE
   5
84
 100
AcDbEntity
   8
0
 370
-2
 100
AcDbLine
   6
BYBLOCK
  62
0
  10
-1.0000000000000
  20
 0.16666666666667
  30
0.0
  11
0.0
  21
0.0
  31
0.0
   0
LINE
   5
85
 100
AcDbEntity
   8
0
 370
-2
 100
AcDbLine
   6
BYBLOCK
  62
0
  10
0.0
  20
0.0
  30
0.0
  11
-1.0000000000000
  21
-0.16666666666667
  31
0.0
   0
LINE
   5
86
 100
AcDbEntity
   8
0
 370
-2
 100
AcDbLine
   6
BYBLOCK
  62
0
  10
0.0
  20
0.0
  30
0.0
  11
-1.0000000000000
  21
0.0
  31
0.0
   0
ENDBLK
   5
87
 100
AcDbEntity
   8
0
 100
AcDbBlockEnd
   0
BLOCK
   5
88
 100
AcDbEntity
   8
0
 100
AcDbBlockBegin
   2
_OPEN30
  70
0
  10
0.0
  20
0.0
  30
0.0
   3
_OPEN30
   0
LINE
   5
89
 100
AcDbEntity
   8
0
 370
-2
 100
AcDbLine
   6
BYBLOCK
  62
0
  10
-1.0000000000000
  20
 0.26794919243110
  30
0.0
  11
0.0
  21
0.0
  31
0.0
   0
LINE
   5
8A
 100
AcDbEntity
   8
0
 370
-2
 100
AcDbLine
   6
BYBLOCK
  62
0
  10
0.0
  20
0.0
  30
0.0
  11
-1.0000000000000
  21
-0.26794919243110
  31
0.0
   0
LINE
   5
8B
 100
AcDbEntity
   8
0
 370
-2
 100
AcDbLine
   6
BYBLOCK
  62
0
  10
0.0
  20
0.0
  30
0.0
  11
-1.0000000000000
  21
0.0
  31
0.0
   0
ENDBLK
   5
8C
 100
AcDbEntity
   8
0
 100
AcDbBlockEnd
   0
BLOCK
   5
8D
 100
AcDbEntity
   8
0
 100
AcDbBlockBegin
   2
_OPEN90
  70
0
  10
0.0
  20
0.0
  30
0.0
   3
_OPEN90
   0
LINE
   5
8E
 100
AcDbEntity
   8
0
 370
-2
 100
AcDbLine
   6
BYBLOCK
  62
0
  10
-0.50000000000000
  20
 0.50000000000000
  30
0.0
  11
0.0
  21
0.0
  31
0.0
   0
LINE
   5
8F
 100
AcDbEntity
   8
0
 370
-2
 100
AcDbLine
   6
BYBLOCK
  62
0
  10
0.0
  20
0.0
  30
0.0
  11
-0.50000000000000
  21
-0.50000000000000
  31
0.0
   0
LINE
   5
90
 100
AcDbEntity
   8
0
 370
-2
 100
AcDbLine
   6
BYBLOCK
  62
0
  10
0.0
  20
0.0
  30
0.0
  11
-1.0000000000000
  21
0.0
  31
0.0
   0
ENDBLK
   5
91
 100
AcDbEntity
   8
0
 100
AcDbBlockEnd
   0
BLOCK
   5
92
 100
AcDbEntity
   8
0
 100
AcDbBlockBegin
   2
_CLOSEDBLANK
  70
0
  10
0.0
  20
0.0
  30
0.0
   3
_CLOSEDBLANK
   0
LINE
   5
93
 100
AcDbEntity
   8
0
 370
-2
 100
AcDbLine
   6
BYBLOCK
  62
0
  10
-1.0000000000000
  20
 0.16666666666667
  30
0.0
  11
0.0
  21
0.0
  31
0.0
   0
LINE
   5
94
 100
AcDbEntity
   8
0
 370
-2
 100
AcDbLine
   6
BYBLOCK
  62
0
  10
0.0
  20
0.0
  30
0.0
  11
-1.0000000000000
  21
-0.16666666666667
  31
0.0
   0
LINE
   5
95
 100
AcDbEntity
   8
0
 370
-2
 100
AcDbLine
   6
BYBLOCK
  62
0
  10
-1.0000000000000
  20
 0.16666666666667
  30
0.0
  11
-1.0000000000000
  21
-0.16666666666667
  31
0.0
   0
ENDBLK
   5
96
 100
AcDbEntity
   8
0
 100
AcDbBlockEnd
   0
BLOCK
   5
97
 100
AcDbEntity
   8
0
 100
AcDbBlockBegin
   2
_DOT
  70
0
  10
0.0
  20
0.0
  30
0.0
   3
_DOT
   0
POLYLINE
   5
98
 100
AcDbEntity
   8
0
 370
-2
   6
BYBLOCK
  62
0
 100
AcDb2dPolyline
  66
1
  10
0.0
  20
0.0
  30
0.0
  70
1
  40
 0.50000000000000
  41
 0.50000000000000
   0
VERTEX
   5
99
 100
AcDbEntity
   8
0
   6
BYBLOCK
  62
0
 100
AcDbVertex
 100
AcDb2dVertex
  10
-0.25000000000000
  20
0.0
  30
0.0
  42
 1.0000000000000
  40
 0.50000000000000
  41
 0.50000000000000
   0
VERTEX
   5
9A
 100
AcDbEntity
   8
0
   6
BYBLOCK
  62
0
 100
AcDbVertex
 100
AcDb2dVertex
  10
 0.25000000000000
  20
0.0
  30
0.0
  42
 1.0000000000000
  40
 0.50000000000000
  41
 0.50000000000000
   0
SEQEND
   5
9B
 100
AcDbEntity
   8
0
   6
BYBLOCK
  62
0
   0
LINE
   5
9C
 100
AcDbEntity
   8
0
 370
-2
 100
AcDbLine
   6
BYBLOCK
  62
0
  10
-0.50000000000000
  20
0.0
  30
0.0
  11
-1.0000000000000
  21
0.0
  31
0.0
   0
ENDBLK
   5
9D
 100
AcDbEntity
   8
0
 100
AcDbBlockEnd
   0
BLOCK
   5
9E
 100
AcDbEntity
   8
0
 100
AcDbBlockBegin
   2
_DOTSMALL
  70
0
  10
0.0
  20
0.0
  30
0.0
   3
_DOTSMALL
   0
POLYLINE
   5
9F
 100
AcDbEntity
   8
0
 370
-2
   6
BYBLOCK
  62
0
 100
AcDb2dPolyline
  66
1
  10
0.0
  20
0.0
  30
0.0
  70
1
  40
 0.50000000000000
  41
 0.50000000000000
   0
VERTEX
   5
A0
 100
AcDbEntity
   8
0
   6
BYBLOCK
  62
0
 100
AcDbVertex
 100
AcDb2dVertex
  10
-0.62500000000000E-1
  20
0.0
  30
0.0
  42
 1.0000000000000
  40
 0.50000000000000
  41
 0.50000000000000
   0
VERTEX
   5
A1
 100
AcDbEntity
   8
0
   6
BYBLOCK
  62
0
 100
AcDbVertex
 100
AcDb2dVertex
  10
 0.62500000000000E-1
  20
0.0
  30
0.0
  42
 1.0000000000000
  40
 0.50000000000000
  41
 0.50000000000000
   0
SEQEND
   5
A2
 100
AcDbEntity
   8
0
   6
BYBLOCK
  62
0
   0
ENDBLK
   5
A3
 100
AcDbEntity
   8
0
 100
AcDbBlockEnd
   0
BLOCK
   5
A4
 100
AcDbEntity
   8
0
 100
AcDbBlockBegin
   2
_DATUMBLANK
  70
0
  10
0.0
  20
0.0
  30
0.0
   3
_DATUMBLANK
   0
LINE
   5
A5
 100
AcDbEntity
   8
0
 370
-2
 100
AcDbLine
   6
BYBLOCK
  62
0
  10
0.0
  20
 0.57735027000000
  30
0.0
  11
-1.0000000000000
  21
0.0
  31
0.0
   0
LINE
   5
A6
 100
AcDbEntity
   8
0
 370
-2
 100
AcDbLine
   6
BYBLOCK
  62
0
  10
-1.0000000000000
  20
0.0
  30
0.0
  11
0.0
  21
-0.57735027000000
  31
0.0
   0
LINE
   5
A7
 100
AcDbEntity
   8
0
 370
-2
 100
AcDbLine
   6
BYBLOCK
  62
0
  10
0.0
  20
-0.57735027000000
  30
0.0
  11
0.0
  21
 0.57735027000000
  31
0.0
   0
ENDBLK
   5
A8
 100
AcDbEntity
   8
0
 100
AcDbBlockEnd
   0
BLOCK
   5
A9
 100
AcDbEntity
   8
0
 100
AcDbBlockBegin
   2
_DATUMFILLED
  70
0
  10
0.0
  20
0.0
  30
0.0
   3
_DATUMFILLED
   0
SOLID
   5
AA
 100
AcDbEntity
   8
0
 100
AcDbTrace
   6
BYBLOCK
  62
0
  10
0.0
  20
 0.57735027000000
  30
0.0
  11
-1.0000000000000
  21
0.0
  31
0.0
  12
0.0
  22
-0.57735027000000
  32
0.0
  13
0.0
  23
-0.57735027000000
  33
0.0
   0
ENDBLK
   5
AB
 100
AcDbEntity
   8
0
 100
AcDbBlockEnd
   0
BLOCK
   5
AC
 100
AcDbEntity
   8
0
 100
AcDbBlockBegin
   2
_ORIGIN
  70
0
  10
0.0
  20
0.0
  30
0.0
   3
_ORIGIN
   0
CIRCLE
   5
AD
 100
AcDbEntity
   8
0
 370
-2
 100
AcDbCircle
   6
BYBLOCK
  62
0
  10
0.0
  20
0.0
  30
0.0
  40
 0.50000000000000
   0
LINE
   5
AE
 100
AcDbEntity
   8
0
 370
-2
 100
AcDbLine
   6
BYBLOCK
  62
0
  10
0.0
  20
0.0
  30
0.0
  11
-1.0000000000000
  21
0.0
  31
0.0
   0
ENDBLK
   5
AF
 100
AcDbEntity
   8
0
 100
AcDbBlockEnd
   0
BLOCK
   5
B0
 100
AcDbEntity
   8
0
 100
AcDbBlockBegin
   2
_NONE
  70
0
  10
0.0
  20
0.0
  30
0.0
   3
_NONE
   0
CIRCLE
   5
B1
 100
AcDbEntity
   8
0
 370
-2
 100
AcDbCircle
   6
BYBLOCK
  62
0
  10
0.0
  20
0.0
  30
0.0
  40
 0.25000000000000
   0
ENDBLK
   5
B2
 100
AcDbEntity
   8
0
 100
AcDbBlockEnd
   0
BLOCK
   5
B3
 100
AcDbEntity
   8
0
 100
AcDbBlockBegin
   2
_DOTBLANK
  70
0
  10
0.0
  20
0.0
  30
0.0
   3
_DOTBLANK
   0
CIRCLE
   5
B4
 100
AcDbEntity
   8
0
 370
-2
 100
AcDbCircle
   6
BYBLOCK
  62
0
  10
0.0
  20
0.0
  30
0.0
  40
 0.50000000000000
   0
LINE
   5
B5
 100
AcDbEntity
   8
0
 370
-2
 100
AcDbLine
   6
BYBLOCK
  62
0
  10
-0.50000000000000
  20
0.0
  30
0.0
  11
-1.0000000000000
  21
0.0
  31
0.0
   0
ENDBLK
   5
B6
 100
AcDbEntity
   8
0
 100
AcDbBlockEnd
   0
BLOCK
   5
B7
 100
AcDbEntity
   8
0
 100
AcDbBlockBegin
   2
_INTEGRAL
  70
0
  10
0.0
  20
0.0
  30
0.0
   3
_INTEGRAL
   0
ARC
   5
B8
 100
AcDbEntity
   8
0
 370
-2
   6
BYBLOCK
  62
0
 100
AcDbCircle
  10
 0.44488800000000
  20
-0.91335000000000E-1
  30
0.0
  40
 0.45416700000000
 100
AcDbArc
  50
 102.00000000000
  51
 168.00000000000
   0
ARC
   5
B9
 100
AcDbEntity
   8
0
 370
-2
   6
BYBLOCK
  62
0
 100
AcDbCircle
  10
-0.44488800000000
  20
 0.91335000000000E-1
  30
0.0
  40
 0.45416700000000
 100
AcDbArc
  50
 282.00000000000
  51
 348.00000000000
   0
ENDBLK
   5
BA
 100
AcDbEntity
   8
0
 100
AcDbBlockEnd
   0
BLOCK
   5
BB
 100
AcDbEntity
   8
0
 100
AcDbBlockBegin
   2
*D1
  70
65
  10
0.0
  20
0.0
  30
0.0
   3
*D1
   0
LINE
   5
BC
 100
AcDbEntity
   8
LEVEL001
 370
15
 100
AcDbLine
   6
CONTINUOUS
  62
8
  10
 132.79999999990
  20
 457.40000000000
  30
0.0
  11
 142.79999999990
  21
 457.40000000000
  31
0.0
   0
LINE
   5
BD
 100
AcDbEntity
   8
LEVEL001
 370
15
 100
AcDbLine
   6
CONTINUOUS
  62
8
  10
 132.79999999990
  20
 459.50000000000
  30
0.0
  11
 142.79999999990
  21
 459.50000000000
  31
0.0
   0
LINE
   5
BE
 100
AcDbEntity
   8
LEVEL001
 370
15
 100
AcDbLine
   6
CONTINUOUS
  62
8
  10
 140.79999999990
  20
 457.40000000000
  30
0.0
  11
 140.79999999990
  21
 458.45000000000
  31
0.0
   0
LINE
   5
BF
 100
AcDbEntity
   8
LEVEL001
 370
15
 100
AcDbLine
   6
CONTINUOUS
  62
8
  10
 140.79999999990
  20
 467.03905235961
  30
0.0
  11
 140.79999999990
  21
 458.45000000000
  31
0.0
   0
INSERT
   5
C0
 100
AcDbEntity
   8
LEVEL001
   6
CONTINUOUS
  62
8
 100
AcDbBlockReference
   2
_DOT
  10
 140.79999999990
  20
 457.40000000000
  30
0.0
  41
 0.80000000000000
  42
 0.80000000000000
  43
 0.80000000000000
  50
 270.00000000000
   0
INSERT
   5
C1
 100
AcDbEntity
   8
LEVEL001
   6
CONTINUOUS
  62
8
 100
AcDbBlockReference
   2
_DOT
  10
 140.79999999990
  20
 459.50000000000
  30
0.0
  41
 0.80000000000000
  42
 0.80000000000000
  43
 0.80000000000000
  50
 90.000000000000
   0
MTEXT
   5
C2
 100
AcDbEntity
   8
LEVEL001
 370
15
  62
8
 100
AcDbMText
  10
 138.61913947896
  20
 461.03905235961
  30
0.0
  40
 6.0000000000000
  41
0.0
  71
7
  72
1
   1
\A1;3
   7
GMM002
  11
0.0
  21
 1.0000000000000
  31
0.0
   0
ENDBLK
   5
C3
 100
AcDbEntity
   8
0
 100
AcDbBlockEnd
   0
BLOCK
   5
C4
 100
AcDbEntity
   8
0
 100
AcDbBlockBegin
   2
*D2
  70
65
  10
0.0
  20
0.0
  30
0.0
   3
*D2
   0
LINE
   5
C5
 100
AcDbEntity
   8
LEVEL001
 370
15
 100
AcDbLine
   6
CONTINUOUS
  62
8
  10
 90.999999999900
  20
 463.50000000000
  30
0.0
  11
 90.999999999900
  21
 471.50000000000
  31
0.0
   0
LINE
   5
C6
 100
AcDbEntity
   8
LEVEL001
 370
15
 100
AcDbLine
   6
CONTINUOUS
  62
8
  10
 128.79999999990
  20
 463.50000000000
  30
0.0
  11
 128.79999999990
  21
 471.50000000000
  31
0.0
   0
LINE
   5
C7
 100
AcDbEntity
   8
LEVEL001
 370
15
 100
AcDbLine
   6
CONTINUOUS
  62
8
  10
 90.999999999900
  20
 469.50000000000
  30
0.0
  11
 109.89999999990
  21
 469.50000000000
  31
0.0
   0
LINE
   5
C8
 100
AcDbEntity
   8
LEVEL001
 370
15
 100
AcDbLine
   6
CONTINUOUS
  62
8
  10
 128.79999999990
  20
 469.50000000000
  30
0.0
  11
 109.89999999990
  21
 469.50000000000
  31
0.0
   0
INSERT
   5
C9
 100
AcDbEntity
   8
LEVEL001
   6
CONTINUOUS
  62
8
 100
AcDbBlockReference
   2
_DOT
  10
 90.999999999900
  20
 469.50000000000
  30
0.0
  41
 0.80000000000000
  42
 0.80000000000000
  43
 0.80000000000000
  50
 180.00000000000
   0
INSERT
   5
CA
 100
AcDbEntity
   8
LEVEL001
   6
CONTINUOUS
  62
8
 100
AcDbBlockReference
   2
_DOT
  10
 128.79999999990
  20
 469.50000000000
  30
0.0
  41
 0.80000000000000
  42
 0.80000000000000
  43
 0.80000000000000
  50
0.0
   0
MTEXT
   5
CB
 100
AcDbEntity
   8
LEVEL001
 370
15
  62
8
 100
AcDbMText
  10
 109.89999999990
  20
 471.50000000000
  30
0.0
  40
 6.0000000000000
  41
0.0
  71
8
  72
1
   1
\A1;38
   7
GMM002
   0
ENDBLK
   5
CC
 100
AcDbEntity
   8
0
 100
AcDbBlockEnd
   0
BLOCK
   5
CD
 100
AcDbEntity
   8
0
 100
AcDbBlockBegin
   2
*D3
  70
65
  10
0.0
  20
0.0
  30
0.0
   3
*D3
   0
LINE
   5
CE
 100
AcDbEntity
   8
LEVEL001
 370
15
 100
AcDbLine
   6
CONTINUOUS
  62
8
  10
 86.999999999900
  20
 445.00000000000
  30
0.0
  11
 78.999999999900
  21
 445.00000000000
  31
0.0
   0
LINE
   5
CF
 100
AcDbEntity
   8
LEVEL001
 370
15
 100
AcDbLine
   6
CONTINUOUS
  62
8
  10
 86.999999999900
  20
 459.50000000000
  30
0.0
  11
 78.999999999900
  21
 459.50000000000
  31
0.0
   0
LINE
   5
D0
 100
AcDbEntity
   8
LEVEL001
 370
15
 100
AcDbLine
   6
CONTINUOUS
  62
8
  10
 80.999999999900
  20
 445.00000000000
  30
0.0
  11
 80.999999999900
  21
 452.25000000000
  31
0.0
   0
LINE
   5
D1
 100
AcDbEntity
   8
LEVEL001
 370
15
 100
AcDbLine
   6
CONTINUOUS
  62
8
  10
 80.999999999900
  20
 459.50000000000
  30
0.0
  11
 80.999999999900
  21
 452.25000000000
  31
0.0
   0
INSERT
   5
D2
 100
AcDbEntity
   8
LEVEL001
   6
CONTINUOUS
  62
8
 100
AcDbBlockReference
   2
_DOT
  10
 80.999999999900
  20
 445.00000000000
  30
0.0
  41
 0.80000000000000
  42
 0.80000000000000
  43
 0.80000000000000
  50
 270.00000000000
   0
INSERT
   5
D3
 100
AcDbEntity
   8
LEVEL001
   6
CONTINUOUS
  62
8
 100
AcDbBlockReference
   2
_DOT
  10
 80.999999999900
  20
 459.50000000000
  30
0.0
  41
 0.80000000000000
  42
 0.80000000000000
  43
 0.80000000000000
  50
 90.000000000000
   0
MTEXT
   5
D4
 100
AcDbEntity
   8
LEVEL001
 370
15
  62
8
 100
AcDbMText
  10
 78.999999999900
  20
 452.25000000000
  30
0.0
  40
 6.0000000000000
  41
0.0
  71
8
  72
1
   1
\A1;14
   7
GMM002
  11
0.0
  21
 1.0000000000000
  31
0.0
   0
ENDBLK
   5
D5
 100
AcDbEntity
   8
0
 100
AcDbBlockEnd
   0
BLOCK
   5
D6
 100
AcDbEntity
   8
0
 100
AcDbBlockBegin
   2
*D4
  70
65
  10
0.0
  20
0.0
  30
0.0
   3
*D4
   0
LINE
   5
D7
 100
AcDbEntity
   8
LEVEL001
 370
15
 100
AcDbLine
   6
CONTINUOUS
  62
8
  10
 235.49999999990
  20
 463.50000000000
  30
0.0
  11
 235.49999999990
  21
 471.50000000000
  31
0.0
   0
LINE
   5
D8
 100
AcDbEntity
   8
LEVEL001
 370
15
 100
AcDbLine
   6
CONTINUOUS
  62
8
  10
 285.49999999990
  20
 463.50000000000
  30
0.0
  11
 285.49999999990
  21
 471.50000000000
  31
0.0
   0
LINE
   5
D9
 100
AcDbEntity
   8
LEVEL001
 370
15
 100
AcDbLine
   6
CONTINUOUS
  62
8
  10
 235.49999999990
  20
 469.50000000000
  30
0.0
  11
 260.49999999990
  21
 469.50000000000
  31
0.0
   0
LINE
   5
DA
 100
AcDbEntity
   8
LEVEL001
 370
15
 100
AcDbLine
   6
CONTINUOUS
  62
8
  10
 285.49999999990
  20
 469.50000000000
  30
0.0
  11
 260.49999999990
  21
 469.50000000000
  31
0.0
   0
INSERT
   5
DB
 100
AcDbEntity
   8
LEVEL001
   6
CONTINUOUS
  62
8
 100
AcDbBlockReference
   2
_DOT
  10
 235.49999999990
  20
 469.50000000000
  30
0.0
  41
 0.80000000000000
  42
 0.80000000000000
  43
 0.80000000000000
  50
 180.00000000000
   0
INSERT
   5
DC
 100
AcDbEntity
   8
LEVEL001
   6
CONTINUOUS
  62
8
 100
AcDbBlockReference
   2
_DOT
  10
 285.49999999990
  20
 469.50000000000
  30
0.0
  41
 0.80000000000000
  42
 0.80000000000000
  43
 0.80000000000000
  50
0.0
   0
MTEXT
   5
DD
 100
AcDbEntity
   8
LEVEL001
 370
15
  62
8
 100
AcDbMText
  10
 260.49999999990
  20
 471.50000000000
  30
0.0
  40
 6.0000000000000
  41
0.0
  71
8
  72
1
   1
\A1;50
   7
GMM002
   0
ENDBLK
   5
DE
 100
AcDbEntity
   8
0
 100
AcDbBlockEnd
   0
BLOCK
   5
DF
 100
AcDbEntity
   8
0
 100
AcDbBlockBegin
   2
*D5
  70
65
  10
0.0
  20
0.0
  30
0.0
   3
*D5
   0
LINE
   5
E0
 100
AcDbEntity
   8
LEVEL001
 370
15
 100
AcDbLine
   6
CONTINUOUS
  62
8
  10
 231.49999999990
  20
 459.50000000000
  30
0.0
  11
 223.49999999990
  21
 459.50000000000
  31
0.0
   0
LINE
   5
E1
 100
AcDbEntity
   8
LEVEL001
 370
15
 100
AcDbLine
   6
CONTINUOUS
  62
8
  10
 231.49999999990
  20
 445.00000000000
  30
0.0
  11
 223.49999999990
  21
 445.00000000000
  31
0.0
   0
LINE
   5
E2
 100
AcDbEntity
   8
LEVEL001
 370
15
 100
AcDbLine
   6
CONTINUOUS
  62
8
  10
 225.49999999990
  20
 459.50000000000
  30
0.0
  11
 225.49999999990
  21
 452.25000000000
  31
0.0
   0
LINE
   5
E3
 100
AcDbEntity
   8
LEVEL001
 370
15
 100
AcDbLine
   6
CONTINUOUS
  62
8
  10
 225.49999999990
  20
 445.00000000000
  30
0.0
  11
 225.49999999990
  21
 452.25000000000
  31
0.0
   0
INSERT
   5
E4
 100
AcDbEntity
   8
LEVEL001
   6
CONTINUOUS
  62
8
 100
AcDbBlockReference
   2
_DOT
  10
 225.49999999990
  20
 459.50000000000
  30
0.0
  41
 0.80000000000000
  42
 0.80000000000000
  43
 0.80000000000000
  50
 90.000000000000
   0
INSERT
   5
E5
 100
AcDbEntity
   8
LEVEL001
   6
CONTINUOUS
  62
8
 100
AcDbBlockReference
   2
_DOT
  10
 225.49999999990
  20
 445.00000000000
  30
0.0
  41
 0.80000000000000
  42
 0.80000000000000
  43
 0.80000000000000
  50
 270.00000000000
   0
MTEXT
   5
E6
 100
AcDbEntity
   8
LEVEL001
 370
15
  62
8
 100
AcDbMText
  10
 223.49999999990
  20
 452.25000000000
  30
0.0
  40
 6.0000000000000
  41
0.0
  71
8
  72
1
   1
\A1;14
   7
GMM002
  11
0.0
  21
 1.0000000000000
  31
0.0
   0
ENDBLK
   5
E7
 100
AcDbEntity
   8
0
 100
AcDbBlockEnd
   0
BLOCK
   5
E8
 100
AcDbEntity
   8
0
 100
AcDbBlockBegin
   2
*D6
  70
65
  10
0.0
  20
0.0
  30
0.0
   3
*D6
   0
LINE
   5
E9
 100
AcDbEntity
   8
LEVEL001
 370
15
 100
AcDbLine
   6
CONTINUOUS
  62
8
  10
 289.49999999990
  20
 459.50000000000
  30
0.0
  11
 299.49999999990
  21
 459.50000000000
  31
0.0
   0
LINE
   5
EA
 100
AcDbEntity
   8
LEVEL001
 370
15
 100
AcDbLine
   6
CONTINUOUS
  62
8
  10
 289.49999999990
  20
 457.00000000000
  30
0.0
  11
 299.49999999990
  21
 457.00000000000
  31
0.0
   0
LINE
   5
EB
 100
AcDbEntity
   8
LEVEL001
 370
15
 100
AcDbLine
   6
CONTINUOUS
  62
8
  10
 297.49999999990
  20
 467.13732148300
  30
0.0
  11
 297.49999999990
  21
 458.25000000000
  31
0.0
   0
LINE
   5
EC
 100
AcDbEntity
   8
LEVEL001
 370
15
 100
AcDbLine
   6
CONTINUOUS
  62
8
  10
 297.49999999990
  20
 457.00000000000
  30
0.0
  11
 297.49999999990
  21
 458.25000000000
  31
0.0
   0
INSERT
   5
ED
 100
AcDbEntity
   8
LEVEL001
   6
CONTINUOUS
  62
8
 100
AcDbBlockReference
   2
_DOT
  10
 297.49999999990
  20
 459.50000000000
  30
0.0
  41
 0.80000000000000
  42
 0.80000000000000
  43
 0.80000000000000
  50
 90.000000000000
   0
INSERT
   5
EE
 100
AcDbEntity
   8
LEVEL001
   6
CONTINUOUS
  62
8
 100
AcDbBlockReference
   2
_DOT
  10
 297.49999999990
  20
 457.00000000000
  30
0.0
  41
 0.80000000000000
  42
 0.80000000000000
  43
 0.80000000000000
  50
 270.00000000000
   0
MTEXT
   5
EF
 100
AcDbEntity
   8
LEVEL001
 370
15
  62
8
 100
AcDbMText
  10
 295.06358392342
  20
 461.13732148300
  30
0.0
  40
 6.0000000000000
  41
0.0
  71
7
  72
1
   1
\A1;3
   7
GMM002
  11
0.0
  21
 1.0000000000000
  31
0.0
   0
ENDBLK
   5
F0
 100
AcDbEntity
   8
0
 100
AcDbBlockEnd
   0
BLOCK
   5
F1
 100
AcDbEntity
   8
0
 100
AcDbBlockBegin
   2
*D7
  70
65
  10
0.0
  20
0.0
  30
0.0
   3
*D7
   0
LINE
   5
F2
 100
AcDbEntity
   8
LEVEL001
 370
15
 100
AcDbLine
   6
CONTINUOUS
  62
8
  10
 370.99999999990
  20
 478.50000000000
  30
0.0
  11
 362.99999999990
  21
 478.50000000000
  31
0.0
   0
LINE
   5
F3
 100
AcDbEntity
   8
LEVEL001
 370
15
 100
AcDbLine
   6
CONTINUOUS
  62
8
  10
 370.99999999990
  20
 438.50000000000
  30
0.0
  11
 362.99999999990
  21
 438.50000000000
  31
0.0
   0
LINE
   5
F4
 100
AcDbEntity
   8
LEVEL001
 370
15
 100
AcDbLine
   6
CONTINUOUS
  62
8
  10
 364.99999999990
  20
 478.50000000000
  30
0.0
  11
 364.99999999990
  21
 458.50000000000
  31
0.0
   0
LINE
   5
F5
 100
AcDbEntity
   8
LEVEL001
 370
15
 100
AcDbLine
   6
CONTINUOUS
  62
8
  10
 364.99999999990
  20
 438.50000000000
  30
0.0
  11
 364.99999999990
  21
 458.50000000000
  31
0.0
   0
INSERT
   5
F6
 100
AcDbEntity
   8
LEVEL001
   6
CONTINUOUS
  62
8
 100
AcDbBlockReference
   2
_DOT
  10
 364.99999999990
  20
 478.50000000000
  30
0.0
  41
 0.80000000000000
  42
 0.80000000000000
  43
 0.80000000000000
  50
 90.000000000000
   0
INSERT
   5
F7
 100
AcDbEntity
   8
LEVEL001
   6
CONTINUOUS
  62
8
 100
AcDbBlockReference
   2
_DOT
  10
 364.99999999990
  20
 438.50000000000
  30
0.0
  41
 0.80000000000000
  42
 0.80000000000000
  43
 0.80000000000000
  50
 270.00000000000
   0
MTEXT
   5
F8
 100
AcDbEntity
   8
LEVEL001
 370
15
  62
8
 100
AcDbMText
  10
 362.99999999990
  20
 458.50000000000
  30
0.0
  40
 6.0000000000000
  41
0.0
  71
8
  72
1
   1
\A1;40
   7
GMM002
  11
0.0
  21
 1.0000000000000
  31
0.0
   0
ENDBLK
   5
F9
 100
AcDbEntity
   8
0
 100
AcDbBlockEnd
   0
BLOCK
   5
FA
 100
AcDbEntity
   8
0
 100
AcDbBlockBegin
   2
*D8
  70
65
  10
0.0
  20
0.0
  30
0.0
   3
*D8
   0
LINE
   5
FB
 100
AcDbEntity
   8
LEVEL001
 370
15
 100
AcDbLine
   6
CONTINUOUS
  62
8
  10
 453.99963053890
  20
 478.50000000000
  30
0.0
  11
 463.99963053890
  21
 478.50000000000
  31
0.0
   0
LINE
   5
FC
 100
AcDbEntity
   8
LEVEL001
 370
15
 100
AcDbLine
   6
CONTINUOUS
  62
8
  10
 453.99963053890
  20
 476.20000000000
  30
0.0
  11
 463.99963053890
  21
 476.20000000000
  31
0.0
   0
LINE
   5
FD
 100
AcDbEntity
   8
LEVEL001
 370
15
 100
AcDbLine
   6
CONTINUOUS
  62
8
  10
 461.99963053890
  20
 494.29114616196
  30
0.0
  11
 461.99963053890
  21
 477.35000000000
  31
0.0
   0
LINE
   5
FE
 100
AcDbEntity
   8
LEVEL001
 370
15
 100
AcDbLine
   6
CONTINUOUS
  62
8
  10
 461.99963053890
  20
 476.20000000000
  30
0.0
  11
 461.99963053890
  21
 477.35000000000
  31
0.0
   0
INSERT
   5
FF
 100
AcDbEntity
   8
LEVEL001
   6
CONTINUOUS
  62
8
 100
AcDbBlockReference
   2
_DOT
  10
 461.99963053890
  20
 478.50000000000
  30
0.0
  41
 0.80000000000000
  42
 0.80000000000000
  43
 0.80000000000000
  50
 90.000000000000
   0
INSERT
   5
100
 100
AcDbEntity
   8
LEVEL001
   6
CONTINUOUS
  62
8
 100
AcDbBlockReference
   2
_DOT
  10
 461.99963053890
  20
 476.20000000000
  30
0.0
  41
 0.80000000000000
  42
 0.80000000000000
  43
 0.80000000000000
  50
 270.00000000000
   0
MTEXT
   5
101
 100
AcDbEntity
   8
LEVEL001
 370
15
  62
8
 100
AcDbMText
  10
 459.66436560966
  20
 480.79114616196
  30
0.0
  40
 6.0000000000000
  41
0.0
  71
7
  72
1
   1
\A1;2.5
   7
GMM002
  11
0.0
  21
 1.0000000000000
  31
0.0
   0
ENDBLK
   5
102
 100
AcDbEntity
   8
0
 100
AcDbBlockEnd
   0
BLOCK
   5
103
 100
AcDbEntity
   8
0
 100
AcDbBlockBegin
   2
*D9
  70
65
  10
0.0
  20
0.0
  30
0.0
   3
*D9
   0
LINE
   5
104
 100
AcDbEntity
   8
LEVEL001
 370
15
 100
AcDbLine
   6
CONTINUOUS
  62
8
  10
 374.99999999990
  20
 482.50000000000
  30
0.0
  11
 374.99999999990
  21
 490.50000000000
  31
0.0
   0
LINE
   5
105
 100
AcDbEntity
   8
LEVEL001
 370
15
 100
AcDbLine
   6
CONTINUOUS
  62
8
  10
 449.99963053890
  20
 482.50000000000
  30
0.0
  11
 449.99963053890
  21
 490.50000000000
  31
0.0
   0
LINE
   5
106
 100
AcDbEntity
   8
LEVEL001
 370
15
 100
AcDbLine
   6
CONTINUOUS
  62
8
  10
 374.99999999990
  20
 488.50000000000
  30
0.0
  11
 412.49981526940
  21
 488.50000000000
  31
0.0
   0
LINE
   5
107
 100
AcDbEntity
   8
LEVEL001
 370
15
 100
AcDbLine
   6
CONTINUOUS
  62
8
  10
 449.99963053890
  20
 488.50000000000
  30
0.0
  11
 412.49981526940
  21
 488.50000000000
  31
0.0
   0
INSERT
   5
108
 100
AcDbEntity
   8
LEVEL001
   6
CONTINUOUS
  62
8
 100
AcDbBlockReference
   2
_DOT
  10
 374.99999999990
  20
 488.50000000000
  30
0.0
  41
 0.80000000000000
  42
 0.80000000000000
  43
 0.80000000000000
  50
 180.00000000000
   0
INSERT
   5
109
 100
AcDbEntity
   8
LEVEL001
   6
CONTINUOUS
  62
8
 100
AcDbBlockReference
   2
_DOT
  10
 449.99963053890
  20
 488.50000000000
  30
0.0
  41
 0.80000000000000
  42
 0.80000000000000
  43
 0.80000000000000
  50
0.0
   0
MTEXT
   5
10A
 100
AcDbEntity
   8
LEVEL001
 370
15
  62
8
 100
AcDbMText
  10
 412.49981526940
  20
 490.50000000000
  30
0.0
  40
 6.0000000000000
  41
0.0
  71
8
  72
1
   1
\A1;75
   7
GMM002
   0
ENDBLK
   5
10B
 100
AcDbEntity
   8
0
 100
AcDbBlockEnd
   0
BLOCK
   5
10C
 100
AcDbEntity
   8
0
 100
AcDbBlockBegin
   2
*D10
  70
65
  10
0.0
  20
0.0
  30
0.0
   3
*D10
   0
LINE
   5
10D
 100
AcDbEntity
   8
LEVEL001
 370
15
 100
AcDbLine
   6
CONTINUOUS
  62
8
  10
 86.999999999900
  20
 323.00000000002
  30
0.0
  11
 78.999999999900
  21
 323.00000000002
  31
0.0
   0
LINE
   5
10E
 100
AcDbEntity
   8
LEVEL001
 370
15
 100
AcDbLine
   6
CONTINUOUS
  62
8
  10
 86.999999999900
  20
 303.00000000002
  30
0.0
  11
 78.999999999900
  21
 303.00000000002
  31
0.0
   0
LINE
   5
10F
 100
AcDbEntity
   8
LEVEL001
 370
15
 100
AcDbLine
   6
CONTINUOUS
  62
8
  10
 80.999999999900
  20
 323.00000000002
  30
0.0
  11
 80.999999999900
  21
 313.00000000002
  31
0.0
   0
LINE
   5
110
 100
AcDbEntity
   8
LEVEL001
 370
15
 100
AcDbLine
   6
CONTINUOUS
  62
8
  10
 80.999999999900
  20
 303.00000000002
  30
0.0
  11
 80.999999999900
  21
 313.00000000002
  31
0.0
   0
INSERT
   5
111
 100
AcDbEntity
   8
LEVEL001
   6
CONTINUOUS
  62
8
 100
AcDbBlockReference
   2
_DOT
  10
 80.999999999900
  20
 323.00000000002
  30
0.0
  41
 0.80000000000000
  42
 0.80000000000000
  43
 0.80000000000000
  50
 90.000000000000
   0
INSERT
   5
112
 100
AcDbEntity
   8
LEVEL001
   6
CONTINUOUS
  62
8
 100
AcDbBlockReference
   2
_DOT
  10
 80.999999999900
  20
 303.00000000002
  30
0.0
  41
 0.80000000000000
  42
 0.80000000000000
  43
 0.80000000000000
  50
 270.00000000000
   0
MTEXT
   5
113
 100
AcDbEntity
   8
LEVEL001
 370
15
  62
8
 100
AcDbMText
  10
 78.999999999900
  20
 313.00000000002
  30
0.0
  40
 6.0000000000000
  41
0.0
  71
8
  72
1
   1
\A1;20
   7
GMM002
  11
0.0
  21
 1.0000000000000
  31
0.0
   0
ENDBLK
   5
114
 100
AcDbEntity
   8
0
 100
AcDbBlockEnd
   0
BLOCK
   5
115
 100
AcDbEntity
   8
0
 100
AcDbBlockBegin
   2
*D11
  70
65
  10
0.0
  20
0.0
  30
0.0
   3
*D11
   0
LINE
   5
116
 100
AcDbEntity
   8
LEVEL001
 370
15
 100
AcDbLine
   6
CONTINUOUS
  62
8
  10
 134.99915410420
  20
 323.00000000002
  30
0.0
  11
 144.99915410420
  21
 323.00000000002
  31
0.0
   0
LINE
   5
117
 100
AcDbEntity
   8
LEVEL001
 370
15
 100
AcDbLine
   6
CONTINUOUS
  62
8
  10
 134.99915410420
  20
 317.00000000002
  30
0.0
  11
 144.99915410420
  21
 317.00000000002
  31
0.0
   0
LINE
   5
118
 100
AcDbEntity
   8
LEVEL001
 370
15
 100
AcDbLine
   6
CONTINUOUS
  62
8
  10
 142.99915410420
  20
 323.00000000002
  30
0.0
  11
 142.99915410420
  21
 320.00000000002
  31
0.0
   0
LINE
   5
119
 100
AcDbEntity
   8
LEVEL001
 370
15
 100
AcDbLine
   6
CONTINUOUS
  62
8
  10
 142.99915410420
  20
 317.00000000002
  30
0.0
  11
 142.99915410420
  21
 320.00000000002
  31
0.0
   0
INSERT
   5
11A
 100
AcDbEntity
   8
LEVEL001
   6
CONTINUOUS
  62
8
 100
AcDbBlockReference
   2
_DOT
  10
 142.99915410420
  20
 323.00000000002
  30
0.0
  41
 0.80000000000000
  42
 0.80000000000000
  43
 0.80000000000000
  50
 90.000000000000
   0
INSERT
   5
11B
 100
AcDbEntity
   8
LEVEL001
   6
CONTINUOUS
  62
8
 100
AcDbBlockReference
   2
_DOT
  10
 142.99915410420
  20
 317.00000000002
  30
0.0
  41
 0.80000000000000
  42
 0.80000000000000
  43
 0.80000000000000
  50
 270.00000000000
   0
MTEXT
   5
11C
 100
AcDbEntity
   8
LEVEL001
 370
15
  62
8
 100
AcDbMText
  10
 140.99915410420
  20
 320.00000000002
  30
0.0
  40
 6.0000000000000
  41
0.0
  71
8
  72
1
   1
\A1;6
   7
GMM002
  11
0.0
  21
 1.0000000000000
  31
0.0
   0
ENDBLK
   5
11D
 100
AcDbEntity
   8
0
 100
AcDbBlockEnd
   0
BLOCK
   5
11E
 100
AcDbEntity
   8
0
 100
AcDbBlockBegin
   2
*D12
  70
65
  10
0.0
  20
0.0
  30
0.0
   3
*D12
   0
LINE
   5
11F
 100
AcDbEntity
   8
LEVEL001
 370
15
 100
AcDbLine
   6
CONTINUOUS
  62
8
  10
 94.596032584200
  20
 318.50000000002
  30
0.0
  11
 108.14392389486
  21
 318.50000000002
  31
0.0
   0
LINE
   5
120
 100
AcDbEntity
   8
LEVEL001
 370
15
 100
AcDbLine
   6
CONTINUOUS
  62
8
  10
 101.99915410420
  20
 322.00000000002
  30
0.0
  11
 108.14392389486
  21
 322.00000000002
  31
0.0
   0
LINE
   5
121
 100
AcDbEntity
   8
LEVEL001
 370
15
 100
AcDbLine
   6
CONTINUOUS
  62
8
  10
 106.14392389486
  20
 318.50000000002
  30
0.0
  11
 106.14392389486
  21
 320.25000000002
  31
0.0
   0
LINE
   5
122
 100
AcDbEntity
   8
LEVEL001
 370
15
 100
AcDbLine
   6
CONTINUOUS
  62
8
  10
 106.14392389486
  20
 335.99323686235
  30
0.0
  11
 106.14392389486
  21
 320.25000000002
  31
0.0
   0
INSERT
   5
123
 100
AcDbEntity
   8
LEVEL001
   6
CONTINUOUS
  62
8
 100
AcDbBlockReference
   2
_DOT
  10
 106.14392389486
  20
 318.50000000002
  30
0.0
  41
 0.80000000000000
  42
 0.80000000000000
  43
 0.80000000000000
  50
 270.00000000000
   0
INSERT
   5
124
 100
AcDbEntity
   8
LEVEL001
   6
CONTINUOUS
  62
8
 100
AcDbBlockReference
   2
_DOT
  10
 106.14392389486
  20
 322.00000000002
  30
0.0
  41
 0.80000000000000
  42
 0.80000000000000
  43
 0.80000000000000
  50
 90.000000000000
   0
MTEXT
   5
125
 100
AcDbEntity
   8
LEVEL001
 370
15
  62
8
 100
AcDbMText
  10
 104.70264341840
  20
 322.49323686235
  30
0.0
  40
 6.0000000000000
  41
0.0
  71
7
  72
1
   1
\A1;3.5
   7
GMM002
  11
0.0
  21
 1.0000000000000
  31
0.0
   0
ENDBLK
   5
126
 100
AcDbEntity
   8
0
 100
AcDbBlockEnd
   0
BLOCK
   5
127
 100
AcDbEntity
   8
0
 100
AcDbBlockBegin
   2
*D13
  70
65
  10
0.0
  20
0.0
  30
0.0
   3
*D13
   0
LINE
   5
128
 100
AcDbEntity
   8
LEVEL001
 370
15
 100
AcDbLine
   6
CONTINUOUS
  62
8
  10
 90.999999999900
  20
 327.00000000002
  30
0.0
  11
 90.999999999900
  21
 345.93934313408
  31
0.0
   0
LINE
   5
129
 100
AcDbEntity
   8
LEVEL001
 370
15
 100
AcDbLine
   6
CONTINUOUS
  62
8
  10
 130.99915410420
  20
 320.96646721163
  30
0.0
  11
 130.99915410420
  21
 345.93934313408
  31
0.0
   0
LINE
   5
12A
 100
AcDbEntity
   8
LEVEL001
 370
15
 100
AcDbLine
   6
CONTINUOUS
  62
8
  10
 90.999999999900
  20
 343.93934313408
  30
0.0
  11
 110.99957705205
  21
 343.93934313408
  31
0.0
   0
LINE
   5
12B
 100
AcDbEntity
   8
LEVEL001
 370
15
 100
AcDbLine
   6
CONTINUOUS
  62
8
  10
 130.99915410420
  20
 343.93934313408
  30
0.0
  11
 110.99957705205
  21
 343.93934313408
  31
0.0
   0
INSERT
   5
12C
 100
AcDbEntity
   8
LEVEL001
   6
CONTINUOUS
  62
8
 100
AcDbBlockReference
   2
_DOT
  10
 90.999999999900
  20
 343.93934313408
  30
0.0
  41
 0.80000000000000
  42
 0.80000000000000
  43
 0.80000000000000
  50
 180.00000000000
   0
INSERT
   5
12D
 100
AcDbEntity
   8
LEVEL001
   6
CONTINUOUS
  62
8
 100
AcDbBlockReference
   2
_DOT
  10
 130.99915410420
  20
 343.93934313408
  30
0.0
  41
 0.80000000000000
  42
 0.80000000000000
  43
 0.80000000000000
  50
0.0
   0
MTEXT
   5
12E
 100
AcDbEntity
   8
LEVEL001
 370
15
  62
8
 100
AcDbMText
  10
 110.99957705205
  20
 345.93934313408
  30
0.0
  40
 6.0000000000000
  41
0.0
  71
8
  72
1
   1
\A1;40
   7
GMM002
   0
ENDBLK
   5
12F
 100
AcDbEntity
   8
0
 100
AcDbBlockEnd
   0
BLOCK
   5
130
 100
AcDbEntity
   8
0
 100
AcDbBlockBegin
   2
*D14
  70
65
  10
0.0
  20
0.0
  30
0.0
   3
*D14
   0
LINE
   5
131
 100
AcDbEntity
   8
LEVEL001
 370
15
 100
AcDbLine
   6
CONTINUOUS
  62
8
  10
 231.49999999990
  20
 302.00000000002
  30
0.0
  11
 223.49999999990
  21
 302.00000000002
  31
0.0
   0
LINE
   5
132
 100
AcDbEntity
   8
LEVEL001
 370
15
 100
AcDbLine
   6
CONTINUOUS
  62
8
  10
 231.49999999990
  20
 332.00000000002
  30
0.0
  11
 223.49999999990
  21
 332.00000000002
  31
0.0
   0
LINE
   5
133
 100
AcDbEntity
   8
LEVEL001
 370
15
 100
AcDbLine
   6
CONTINUOUS
  62
8
  10
 225.49999999990
  20
 302.00000000002
  30
0.0
  11
 225.49999999990
  21
 317.00000000002
  31
0.0
   0
LINE
   5
134
 100
AcDbEntity
   8
LEVEL001
 370
15
 100
AcDbLine
   6
CONTINUOUS
  62
8
  10
 225.49999999990
  20
 332.00000000002
  30
0.0
  11
 225.49999999990
  21
 317.00000000002
  31
0.0
   0
INSERT
   5
135
 100
AcDbEntity
   8
LEVEL001
   6
CONTINUOUS
  62
8
 100
AcDbBlockReference
   2
_DOT
  10
 225.49999999990
  20
 302.00000000002
  30
0.0
  41
 0.80000000000000
  42
 0.80000000000000
  43
 0.80000000000000
  50
 270.00000000000
   0
INSERT
   5
136
 100
AcDbEntity
   8
LEVEL001
   6
CONTINUOUS
  62
8
 100
AcDbBlockReference
   2
_DOT
  10
 225.49999999990
  20
 332.00000000002
  30
0.0
  41
 0.80000000000000
  42
 0.80000000000000
  43
 0.80000000000000
  50
 90.000000000000
   0
MTEXT
   5
137
 100
AcDbEntity
   8
LEVEL001
 370
15
  62
8
 100
AcDbMText
  10
 223.49999999990
  20
 317.00000000002
  30
0.0
  40
 6.0000000000000
  41
0.0
  71
8
  72
1
   1
\A1;30
   7
GMM002
  11
0.0
  21
 1.0000000000000
  31
0.0
   0
ENDBLK
   5
138
 100
AcDbEntity
   8
0
 100
AcDbBlockEnd
   0
BLOCK
   5
139
 100
AcDbEntity
   8
0
 100
AcDbBlockBegin
   2
*D15
  70
65
  10
0.0
  20
0.0
  30
0.0
   3
*D15
   0
LINE
   5
13A
 100
AcDbEntity
   8
LEVEL001
 370
15
 100
AcDbLine
   6
CONTINUOUS
  62
8
  10
 239.09603258420
  20
 325.00000000002
  30
0.0
  11
 258.32098202504
  21
 325.00000000002
  31
0.0
   0
LINE
   5
13B
 100
AcDbEntity
   8
LEVEL001
 370
15
 100
AcDbLine
   6
CONTINUOUS
  62
8
  10
 244.49915410420
  20
 331.00000000002
  30
0.0
  11
 258.32098202504
  21
 331.00000000002
  31
0.0
   0
LINE
   5
13C
 100
AcDbEntity
   8
LEVEL001
 370
15
 100
AcDbLine
   6
CONTINUOUS
  62
8
  10
 256.32098202504
  20
 325.00000000002
  30
0.0
  11
 256.32098202504
  21
 328.00000000002
  31
0.0
   0
LINE
   5
13D
 100
AcDbEntity
   8
LEVEL001
 370
15
 100
AcDbLine
   6
CONTINUOUS
  62
8
  10
 256.32098202504
  20
 338.93160152517
  30
0.0
  11
 256.32098202504
  21
 328.00000000002
  31
0.0
   0
INSERT
   5
13E
 100
AcDbEntity
   8
LEVEL001
   6
CONTINUOUS
  62
8
 100
AcDbBlockReference
   2
_DOT
  10
 256.32098202504
  20
 325.00000000002
  30
0.0
  41
 0.80000000000000
  42
 0.80000000000000
  43
 0.80000000000000
  50
 270.00000000000
   0
INSERT
   5
13F
 100
AcDbEntity
   8
LEVEL001
   6
CONTINUOUS
  62
8
 100
AcDbBlockReference
   2
_DOT
  10
 256.32098202504
  20
 331.00000000002
  30
0.0
  41
 0.80000000000000
  42
 0.80000000000000
  43
 0.80000000000000
  50
 90.000000000000
   0
MTEXT
   5
140
 100
AcDbEntity
   8
LEVEL001
 370
15
  62
8
 100
AcDbMText
  10
 254.48662505500
  20
 332.93160152517
  30
0.0
  40
 6.0000000000000
  41
0.0
  71
7
  72
1
   1
\A1;6
   7
GMM002
  11
0.0
  21
 1.0000000000000
  31
0.0
   0
ENDBLK
   5
141
 100
AcDbEntity
   8
0
 100
AcDbBlockEnd
   0
BLOCK
   5
142
 100
AcDbEntity
   8
0
 100
AcDbBlockBegin
   2
*D16
  70
65
  10
0.0
  20
0.0
  30
0.0
   3
*D16
   0
LINE
   5
143
 100
AcDbEntity
   8
LEVEL001
 370
15
 100
AcDbLine
   6
CONTINUOUS
  62
8
  10
 279.49915410420
  20
 323.50000000002
  30
0.0
  11
 289.49915410420
  21
 323.50000000002
  31
0.0
   0
LINE
   5
144
 100
AcDbEntity
   8
LEVEL001
 370
15
 100
AcDbLine
   6
CONTINUOUS
  62
8
  10
 279.49915410420
  20
 332.00000000002
  30
0.0
  11
 289.49915410420
  21
 332.00000000002
  31
0.0
   0
LINE
   5
145
 100
AcDbEntity
   8
LEVEL001
 370
15
 100
AcDbLine
   6
CONTINUOUS
  62
8
  10
 287.49915410420
  20
 308.94956169640
  30
0.0
  11
 287.49915410420
  21
 327.75000000002
  31
0.0
   0
LINE
   5
146
 100
AcDbEntity
   8
LEVEL001
 370
15
 100
AcDbLine
   6
CONTINUOUS
  62
8
  10
 287.49915410420
  20
 332.00000000002
  30
0.0
  11
 287.49915410420
  21
 327.75000000002
  31
0.0
   0
INSERT
   5
147
 100
AcDbEntity
   8
LEVEL001
   6
CONTINUOUS
  62
8
 100
AcDbBlockReference
   2
_DOT
  10
 287.49915410420
  20
 323.50000000002
  30
0.0
  41
 0.80000000000000
  42
 0.80000000000000
  43
 0.80000000000000
  50
 270.00000000000
   0
INSERT
   5
148
 100
AcDbEntity
   8
LEVEL001
   6
CONTINUOUS
  62
8
 100
AcDbBlockReference
   2
_DOT
  10
 287.49915410420
  20
 332.00000000002
  30
0.0
  41
 0.80000000000000
  42
 0.80000000000000
  43
 0.80000000000000
  50
 90.000000000000
   0
MTEXT
   5
149
 100
AcDbEntity
   8
LEVEL001
 370
15
  62
8
 100
AcDbMText
  10
 285.69253112859
  20
 322.44956169640
  30
0.0
  40
 6.0000000000000
  41
0.0
  71
9
  72
1
   1
\A1;8.5
   7
GMM002
  11
0.0
  21
 1.0000000000000
  31
0.0
   0
ENDBLK
   5
14A
 100
AcDbEntity
   8
0
 100
AcDbBlockEnd
   0
BLOCK
   5
14B
 100
AcDbEntity
   8
0
 100
AcDbBlockBegin
   2
*D17
  70
65
  10
0.0
  20
0.0
  30
0.0
   3
*D17
   0
LINE
   5
14C
 100
AcDbEntity
   8
LEVEL001
 370
15
 100
AcDbLine
   6
CONTINUOUS
  62
8
  10
 235.49999999990
  20
 336.00000000002
  30
0.0
  11
 235.49999999990
  21
 349.63921365992
  31
0.0
   0
LINE
   5
14D
 100
AcDbEntity
   8
LEVEL001
 370
15
 100
AcDbLine
   6
CONTINUOUS
  62
8
  10
 275.49915410420
  20
 326.05462404518
  30
0.0
  11
 275.49915410420
  21
 349.63921365992
  31
0.0
   0
LINE
   5
14E
 100
AcDbEntity
   8
LEVEL001
 370
15
 100
AcDbLine
   6
CONTINUOUS
  62
8
  10
 235.49999999990
  20
 347.63921365992
  30
0.0
  11
 255.49957705205
  21
 347.63921365992
  31
0.0
   0
LINE
   5
14F
 100
AcDbEntity
   8
LEVEL001
 370
15
 100
AcDbLine
   6
CONTINUOUS
  62
8
  10
 275.49915410420
  20
 347.63921365992
  30
0.0
  11
 255.49957705205
  21
 347.63921365992
  31
0.0
   0
INSERT
   5
150
 100
AcDbEntity
   8
LEVEL001
   6
CONTINUOUS
  62
8
 100
AcDbBlockReference
   2
_DOT
  10
 235.49999999990
  20
 347.63921365992
  30
0.0
  41
 0.80000000000000
  42
 0.80000000000000
  43
 0.80000000000000
  50
 180.00000000000
   0
INSERT
   5
151
 100
AcDbEntity
   8
LEVEL001
   6
CONTINUOUS
  62
8
 100
AcDbBlockReference
   2
_DOT
  10
 275.49915410420
  20
 347.63921365992
  30
0.0
  41
 0.80000000000000
  42
 0.80000000000000
  43
 0.80000000000000
  50
0.0
   0
MTEXT
   5
152
 100
AcDbEntity
   8
LEVEL001
 370
15
  62
8
 100
AcDbMText
  10
 255.49957705205
  20
 349.63921365992
  30
0.0
  40
 6.0000000000000
  41
0.0
  71
8
  72
1
   1
\A1;40
   7
GMM002
   0
ENDBLK
   5
153
 100
AcDbEntity
   8
0
 100
AcDbBlockEnd
   0
ENDSEC
   0
SECTION
   2
ENTITIES
   0
LINE
   5
154
 100
AcDbEntity
   8
LEVEL002
 370
40
 100
AcDbLine
   6
CONTINUOUS
  62
3
  10
 708.99999999990
  20
 90.666666666700
  30
0.0
  11
 808.99999999990
  21
 90.666666666700
  31
0.0
   0
LINE
   5
155
 100
AcDbEntity
   8
LEVEL002
 370
40
 100
AcDbLine
   6
CONTINUOUS
  62
3
  10
 708.99999999990
  20
 77.333333333400
  30
0.0
  11
 808.99999999990
  21
 77.333333333400
  31
0.0
   0
LINE
   5
156
 100
AcDbEntity
   8
LEVEL001
 370
30
 100
AcDbLine
   6
DOT
  62
7
  10
0.0
  20
0.0
  30
0.0
  11
 840.00000000000
  21
0.0
  31
0.0
   0
LINE
   5
157
 100
AcDbEntity
   8
LEVEL001
 370
30
 100
AcDbLine
   6
DOT
  62
7
  10
 840.00000000000
  20
0.0
  30
0.0
  11
 840.00000000000
  21
 594.00000000000
  31
0.0
   0
LINE
   5
158
 100
AcDbEntity
   8
LEVEL001
 370
30
 100
AcDbLine
   6
DOT
  62
7
  10
 840.00000000000
  20
 594.00000000000
  30
0.0
  11
0.0
  21
 594.00000000000
  31
0.0
   0
LINE
   5
159
 100
AcDbEntity
   8
LEVEL001
 370
30
 100
AcDbLine
   6
DOT
  62
7
  10
0.0
  20
 594.00000000000
  30
0.0
  11
0.0
  21
0.0
  31
0.0
   0
LINE
   5
15A
 100
AcDbEntity
   8
LEVEL002
 370
40
 100
AcDbLine
   6
CONTINUOUS
  62
3
  10
 30.999999999900
  20
 160.50000000000
  30
0.0
  11
 608.99999999990
  21
 160.50000000000
  31
0.0
   0
LINE
   5
15B
 100
AcDbEntity
   8
LEVEL002
 370
40
 100
AcDbLine
   6
CONTINUOUS
  62
3
  10
 30.999999999900
  20
 140.50000000000
  30
0.0
  11
 608.99999999990
  21
 140.50000000000
  31
0.0
   0
LINE
   5
15C
 100
AcDbEntity
   8
LEVEL002
 370
40
 100
AcDbLine
   6
CONTINUOUS
  62
3
  10
 175.49999999990
  20
 570.00000000000
  30
0.0
  11
 175.49999999990
  21
 24.000000000000
  31
0.0
   0
LINE
   5
15D
 100
AcDbEntity
   8
LEVEL002
 370
40
 100
AcDbLine
   6
CONTINUOUS
  62
3
  10
 319.99999999990
  20
 570.00000000000
  30
0.0
  11
 319.99999999990
  21
 24.000000000000
  31
0.0
   0
LINE
   5
15E
 100
AcDbEntity
   8
LEVEL002
 370
40
 100
AcDbLine
   6
CONTINUOUS
  62
3
  10
 464.49999999990
  20
 570.00000000000
  30
0.0
  11
 464.49999999990
  21
 24.000000000000
  31
0.0
   0
LINE
   5
15F
 100
AcDbEntity
   8
LEVEL002
 370
40
 100
AcDbLine
   6
CONTINUOUS
  62
3
  10
 30.999999999900
  20
 297.00000000000
  30
0.0
  11
 608.99999999990
  21
 297.00000000000
  31
0.0
   0
LINE
   5
160
 100
AcDbEntity
   8
LEVEL002
 370
40
 100
AcDbLine
   6
CONTINUOUS
  62
3
  10
 30.999999999900
  20
 277.00000000000
  30
0.0
  11
 608.99999999990
  21
 277.00000000000
  31
0.0
   0
LINE
   5
161
 100
AcDbEntity
   8
LEVEL002
 370
40
 100
AcDbLine
   6
CONTINUOUS
  62
3
  10
 30.999999999900
  20
 433.50000000000
  30
0.0
  11
 608.99999999990
  21
 433.50000000000
  31
0.0
   0
LINE
   5
162
 100
AcDbEntity
   8
LEVEL002
 370
40
 100
AcDbLine
   6
CONTINUOUS
  62
3
  10
 30.999999999900
  20
 413.50000000000
  30
0.0
  11
 608.99999999990
  21
 413.50000000000
  31
0.0
   0
LINE
   5
163
 100
AcDbEntity
   8
LEVEL002
 370
40
 100
AcDbLine
   6
CONTINUOUS
  62
3
  10
 608.99999999990
  20
 144.00000000000
  30
0.0
  11
 808.99999999990
  21
 144.00000000000
  31
0.0
   0
LINE
   5
164
 100
AcDbEntity
   8
LEVEL002
 370
40
 100
AcDbLine
   6
CONTINUOUS
  62
3
  10
 608.99999999990
  20
 64.000000000000
  30
0.0
  11
 808.99999999990
  21
 64.000000000000
  31
0.0
   0
LINE
   5
165
 100
AcDbEntity
   8
LEVEL002
 370
40
 100
AcDbLine
   6
CONTINUOUS
  62
3
  10
 608.99999999990
  20
 104.00000000000
  30
0.0
  11
 808.99999999990
  21
 104.00000000000
  31
0.0
   0
LINE
   5
166
 100
AcDbEntity
   8
LEVEL002
 370
40
 100
AcDbLine
   6
CONTINUOUS
  62
3
  10
 708.99999999990
  20
 104.00000000000
  30
0.0
  11
 708.99999999990
  21
 24.000000000000
  31
0.0
   0
LINE
   5
167
 100
AcDbEntity
   8
LEVEL002
 370
40
 100
AcDbLine
   6
CONTINUOUS
  62
3
  10
 608.99999999990
  20
 473.50000000000
  30
0.0
  11
 808.99999999990
  21
 473.50000000000
  31
0.0
   0
LINE
   5
168
 100
AcDbEntity
   8
LEVEL002
 370
40
 100
AcDbLine
   6
CONTINUOUS
  62
3
  10
 608.99999999990
  20
 433.50000000000
  30
0.0
  11
 808.99999999990
  21
 433.50000000000
  31
0.0
   0
LINE
   5
169
 100
AcDbEntity
   8
LEVEL002
 370
40
 100
AcDbLine
   6
CONTINUOUS
  62
3
  10
 608.99999999990
  20
 513.50000000000
  30
0.0
  11
 808.99999999990
  21
 513.50000000000
  31
0.0
   0
LINE
   5
16A
 100
AcDbEntity
   8
LEVEL002
 370
40
 100
AcDbLine
   6
CONTINUOUS
  62
3
  10
 30.999999999900
  20
 550.00000000000
  30
0.0
  11
 608.99999999990
  21
 550.00000000000
  31
0.0
   0
MTEXT
   5
16C
 100
AcDbEntity
   8
LEVEL002
 370
30
  62
7
 100
AcDbMText
  10
 673.90000000000
  20
 547.75000000000
  30
0.0
  40
 7.5000000000000
  41
0.0
  71
7
  72
1
   1
\T1.000000;ケージーパルテック株式会社
   7
GMM001
  44
 0.79999984000003
   0
MTEXT
   5
16E
 100
AcDbEntity
   8
LEVEL002
 370
15
  62
8
 100
AcDbMText
  10
 621.59999999990
  20
 56.500000000020
  30
0.0
  40
 6.0000000000000
  41
0.0
  71
5
  72
1
   1
\T1.000000;サイズ：
   7
GMM002
  44
 0.79999984000003
   0
MTEXT
   5
170
 100
AcDbEntity
   8
LEVEL002
 370
15
  62
8
 100
AcDbMText
  10
 618.59999999990
  20
 96.500000000020
  30
0.0
  40
 6.0000000000000
  41
0.0
  71
5
  72
1
   1
\T1.000000;縮尺：
   7
GMM002
  44
 0.79999984000003
   0
MTEXT
   5
172
 100
AcDbEntity
   8
LEVEL002
 370
15
  62
8
 100
AcDbMText
  10
 624.59999999990
  20
 136.50000000002
  30
0.0
  40
 6.0000000000000
  41
0.0
  71
5
  72
1
   1
\T1.000000;図面名称：
   7
GMM002
  44
 0.79999984000003
   0
MTEXT
   5
174
 100
AcDbEntity
   8
LEVEL002
 370
15
  62
8
 100
AcDbMText
  10
 727.59999999990
  20
 56.500000000020
  30
0.0
  40
 6.0000000000000
  41
0.0
  71
5
  72
1
   1
\T1.000000;ファイル名：
   7
GMM002
  44
 0.79999984000003
   0
MTEXT
   5
176
 100
AcDbEntity
   8
LEVEL002
 370
15
  62
8
 100
AcDbMText
  10
 724.59999999990
  20
 97.333333333360
  30
0.0
  40
 5.6000000000000
  41
0.0
  71
5
  72
1
   1
\T1.000000;作成日付：
   7
GMM003
  44
 0.79999984000003
   0
MTEXT
   5
178
 100
AcDbEntity
   8
LEVEL002
 370
15
  62
8
 100
AcDbMText
  10
 724.59999999990
  20
 84.000000000020
  30
0.0
  40
 5.6000000000000
  41
0.0
  71
5
  72
1
   1
\T1.000000;変更日付：
   7
GMM003
  44
 0.79999984000003
   0
MTEXT
   5
17A
 100
AcDbEntity
   8
LEVEL002
 370
15
  62
8
 100
AcDbMText
  10
 708.99999999990
  20
 116.50000000002
  30
0.0
  40
 7.5000000000000
  41
0.0
  71
5
  72
1
   1
\W1.000000;\T1.000000;平面図\W0.500000;\T1.000000;･\W1.000000;\T1.000000;断面図
   7
GMM002
  44
 0.79999984000003
   0
MTEXT
   5
17C
 100
AcDbEntity
   8
LEVEL002
 370
15
  62
8
 100
AcDbMText
  10
 658.99999999990
  20
 76.500000000020
  30
0.0
  40
 7.5000000000000
  41
0.0
  71
5
  72
1
   1
\T1.000000;Ｓ＝１：２
   7
GMM002
  44
 0.79999984000003
   0
MTEXT
   5
17E
 100
AcDbEntity
   8
LEVEL002
 370
15
  62
8
 100
AcDbMText
  10
 658.99999999990
  20
 36.500000000020
  30
0.0
  40
 7.5000000000000
  41
0.0
  71
5
  72
1
   1
\T1.000000;Ａ３
   7
GMM002
  44
 0.79999984000003
   0
MTEXT
   5
180
 100
AcDbEntity
   8
LEVEL002
 370
15
  62
8
 100
AcDbMText
  10
 618.59999999990
  20
 426.00000000000
  30
0.0
  40
 6.0000000000000
  41
0.0
  71
5
  72
1
   1
\T1.000000;仕様：
   7
GMM002
  44
 0.79999984000003
   0
MTEXT
   5
182
 100
AcDbEntity
   8
LEVEL002
 370
15
  62
8
 100
AcDbMText
  10
 618.59999999990
  20
 466.00000000000
  30
0.0
  40
 6.0000000000000
  41
0.0
  71
5
  72
1
   1
\T1.000000;形式：
   7
GMM002
  44
 0.79999984000003
   0
MTEXT
   5
184
 100
AcDbEntity
   8
LEVEL002
 370
15
  62
8
 100
AcDbMText
  10
 621.59999999990
  20
 506.00000000000
  30
0.0
  40
 6.0000000000000
  41
0.0
  71
5
  72
1
   1
\T1.000000;商品名：
   7
GMM002
  44
 0.79999984000003
   0
MTEXT
   5
186
 100
AcDbEntity
   8
LEVEL002
 370
15
  62
8
 100
AcDbMText
  10
 693.79999999990
  20
 151.84995589180
  30
0.0
  40
 8.0000000000000
  41
0.0
  71
5
  72
1
   1
\T1.000000;　※本製品は予告無しに変更する事があります。
   7
GMM002
  44
 0.79999984000003
   0
LINE
   5
187
 100
AcDbEntity
   8
LEVEL002
 370
30
 100
AcDbLine
   6
CONTINUOUS
  62
7
  10
 688.30000000000
  20
 544.15000000000
  30
0.0
  11
 673.90000000000
  21
 544.15000000000
  31
0.0
   0
LINE
   5
188
 100
AcDbEntity
   8
LEVEL002
 370
30
 100
AcDbLine
   6
CONTINUOUS
  62
7
  10
 673.90000000000
  20
 544.15000000000
  30
0.0
  11
 673.90000000000
  21
 522.55000000000
  31
0.0
   0
LINE
   5
189
 100
AcDbEntity
   8
LEVEL002
 370
30
 100
AcDbLine
   6
CONTINUOUS
  62
7
  10
 673.90000000000
  20
 522.55000000000
  30
0.0
  11
 681.10000000000
  21
 522.55000000000
  31
0.0
   0
LINE
   5
18A
 100
AcDbEntity
   8
LEVEL002
 370
30
 100
AcDbLine
   6
CONTINUOUS
  62
7
  10
 681.10000000000
  20
 522.55000000000
  30
0.0
  11
 681.10000000000
  21
 526.15000000000
  31
0.0
   0
LINE
   5
18B
 100
AcDbEntity
   8
LEVEL002
 370
30
 100
AcDbLine
   6
CONTINUOUS
  62
7
  10
 681.10000000000
  20
 526.15000000000
  30
0.0
  11
 688.30000000000
  21
 526.15000000000
  31
0.0
   0
ARC
   5
18C
 100
AcDbEntity
   8
LEVEL002
 370
30
   6
CONTINUOUS
  62
7
 100
AcDbCircle
  10
 688.30000000000
  20
 535.15000000000
  30
0.0
  40
 9.0000000000000
 100
AcDbArc
  50
 270.00000000000
  51
 90.000000000000
   0
LINE
   5
18D
 100
AcDbEntity
   8
LEVEL002
 370
30
 100
AcDbLine
   6
CONTINUOUS
  62
7
  10
 681.10000000000
  20
 533.35000000000
  30
0.0
  11
 688.30000000000
  21
 533.35000000000
  31
0.0
   0
ARC
   5
18E
 100
AcDbEntity
   8
LEVEL002
 370
30
   6
CONTINUOUS
  62
7
 100
AcDbCircle
  10
 688.30000000000
  20
 535.15000000000
  30
0.0
  40
 1.8000000000000
 100
AcDbArc
  50
 270.00000000000
  51
 90.000000000000
   0
LINE
   5
18F
 100
AcDbEntity
   8
LEVEL002
 370
30
 100
AcDbLine
   6
CONTINUOUS
  62
7
  10
 688.30000000000
  20
 536.95000000000
  30
0.0
  11
 681.10000000000
  21
 536.95000000000
  31
0.0
   0
LINE
   5
190
 100
AcDbEntity
   8
LEVEL002
 370
30
 100
AcDbLine
   6
CONTINUOUS
  62
7
  10
 681.10000000000
  20
 536.95000000000
  30
0.0
  11
 681.10000000000
  21
 533.35000000000
  31
0.0
   0
LINE
   5
191
 100
AcDbEntity
   8
LEVEL002
 370
30
 100
AcDbLine
   6
CONTINUOUS
  62
7
  10
 691.90000000000
  20
 522.55000000000
  30
0.0
  11
 706.30000000000
  21
 544.15000000000
  31
0.0
   0
LINE
   5
192
 100
AcDbEntity
   8
LEVEL002
 370
30
 100
AcDbLine
   6
CONTINUOUS
  62
7
  10
 706.30000000000
  20
 544.15000000000
  30
0.0
  11
 724.30000000000
  21
 544.15000000000
  31
0.0
   0
LINE
   5
193
 100
AcDbEntity
   8
LEVEL002
 370
30
 100
AcDbLine
   6
CONTINUOUS
  62
7
  10
 724.30000000000
  20
 544.15000000000
  30
0.0
  11
 724.30000000000
  21
 529.75000000000
  31
0.0
   0
LINE
   5
194
 100
AcDbEntity
   8
LEVEL002
 370
30
 100
AcDbLine
   6
CONTINUOUS
  62
7
  10
 724.30000000000
  20
 529.75000000000
  30
0.0
  11
 735.10000000000
  21
 529.75000000000
  31
0.0
   0
LINE
   5
195
 100
AcDbEntity
   8
LEVEL002
 370
30
 100
AcDbLine
   6
CONTINUOUS
  62
7
  10
 735.10000000000
  20
 529.75000000000
  30
0.0
  11
 735.10000000000
  21
 536.95000000000
  31
0.0
   0
LINE
   5
196
 100
AcDbEntity
   8
LEVEL002
 370
30
 100
AcDbLine
   6
CONTINUOUS
  62
7
  10
 735.10000000000
  20
 536.95000000000
  30
0.0
  11
 727.90000000000
  21
 536.95000000000
  31
0.0
   0
LINE
   5
197
 100
AcDbEntity
   8
LEVEL002
 370
30
 100
AcDbLine
   6
CONTINUOUS
  62
7
  10
 727.90000000000
  20
 536.95000000000
  30
0.0
  11
 727.90000000000
  21
 544.15000000000
  31
0.0
   0
LINE
   5
198
 100
AcDbEntity
   8
LEVEL002
 370
30
 100
AcDbLine
   6
CONTINUOUS
  62
7
  10
 727.90000000000
  20
 544.15000000000
  30
0.0
  11
 771.10000000000
  21
 544.15000000000
  31
0.0
   0
LINE
   5
199
 100
AcDbEntity
   8
LEVEL002
 370
30
 100
AcDbLine
   6
CONTINUOUS
  62
7
  10
 771.10000000000
  20
 544.15000000000
  30
0.0
  11
 771.10000000000
  21
 536.95000000000
  31
0.0
   0
LINE
   5
19A
 100
AcDbEntity
   8
LEVEL002
 370
30
 100
AcDbLine
   6
CONTINUOUS
  62
7
  10
 771.10000000000
  20
 536.95000000000
  30
0.0
  11
 756.70000000000
  21
 536.95000000000
  31
0.0
   0
LINE
   5
19B
 100
AcDbEntity
   8
LEVEL002
 370
30
 100
AcDbLine
   6
CONTINUOUS
  62
7
  10
 756.70000000000
  20
 536.95000000000
  30
0.0
  11
 756.70000000000
  21
 535.15000000000
  31
0.0
   0
LINE
   5
19C
 100
AcDbEntity
   8
LEVEL002
 370
30
 100
AcDbLine
   6
CONTINUOUS
  62
7
  10
 756.70000000000
  20
 535.15000000000
  30
0.0
  11
 769.30000000000
  21
 535.15000000000
  31
0.0
   0
LINE
   5
19D
 100
AcDbEntity
   8
LEVEL002
 370
30
 100
AcDbLine
   6
CONTINUOUS
  62
7
  10
 769.30000000000
  20
 535.15000000000
  30
0.0
  11
 769.30000000000
  21
 531.55000000000
  31
0.0
   0
LINE
   5
19E
 100
AcDbEntity
   8
LEVEL002
 370
30
 100
AcDbLine
   6
CONTINUOUS
  62
7
  10
 769.30000000000
  20
 531.55000000000
  30
0.0
  11
 756.70000000000
  21
 531.55000000000
  31
0.0
   0
LINE
   5
19F
 100
AcDbEntity
   8
LEVEL002
 370
30
 100
AcDbLine
   6
CONTINUOUS
  62
7
  10
 756.70000000000
  20
 531.55000000000
  30
0.0
  11
 756.70000000000
  21
 529.75000000000
  31
0.0
   0
LINE
   5
1A0
 100
AcDbEntity
   8
LEVEL002
 370
30
 100
AcDbLine
   6
CONTINUOUS
  62
7
  10
 756.70000000000
  20
 529.75000000000
  30
0.0
  11
 771.10000000000
  21
 529.75000000000
  31
0.0
   0
LINE
   5
1A1
 100
AcDbEntity
   8
LEVEL002
 370
30
 100
AcDbLine
   6
CONTINUOUS
  62
7
  10
 771.10000000000
  20
 529.75000000000
  30
0.0
  11
 771.10000000000
  21
 522.55000000000
  31
0.0
   0
LINE
   5
1A2
 100
AcDbEntity
   8
LEVEL002
 370
30
 100
AcDbLine
   6
CONTINUOUS
  62
7
  10
 771.10000000000
  20
 522.55000000000
  30
0.0
  11
 749.50000000000
  21
 522.55000000000
  31
0.0
   0
LINE
   5
1A3
 100
AcDbEntity
   8
LEVEL002
 370
30
 100
AcDbLine
   6
CONTINUOUS
  62
7
  10
 749.50000000000
  20
 522.55000000000
  30
0.0
  11
 749.50000000000
  21
 536.95000000000
  31
0.0
   0
LINE
   5
1A4
 100
AcDbEntity
   8
LEVEL002
 370
30
 100
AcDbLine
   6
CONTINUOUS
  62
7
  10
 749.50000000000
  20
 536.95000000000
  30
0.0
  11
 742.30000000000
  21
 536.95000000000
  31
0.0
   0
LINE
   5
1A5
 100
AcDbEntity
   8
LEVEL002
 370
30
 100
AcDbLine
   6
CONTINUOUS
  62
7
  10
 742.30000000000
  20
 536.95000000000
  30
0.0
  11
 742.30000000000
  21
 522.55000000000
  31
0.0
   0
LINE
   5
1A6
 100
AcDbEntity
   8
LEVEL002
 370
30
 100
AcDbLine
   6
CONTINUOUS
  62
7
  10
 742.30000000000
  20
 522.55000000000
  30
0.0
  11
 717.10000000000
  21
 522.55000000000
  31
0.0
   0
LINE
   5
1A7
 100
AcDbEntity
   8
LEVEL002
 370
30
 100
AcDbLine
   6
CONTINUOUS
  62
7
  10
 717.10000000000
  20
 522.55000000000
  30
0.0
  11
 717.10000000000
  21
 544.15000000000
  31
0.0
   0
LINE
   5
1A8
 100
AcDbEntity
   8
LEVEL002
 370
30
 100
AcDbLine
   6
CONTINUOUS
  62
7
  10
 717.10000000000
  20
 544.15000000000
  30
0.0
  11
 702.70000000000
  21
 522.55000000000
  31
0.0
   0
LINE
   5
1A9
 100
AcDbEntity
   8
LEVEL002
 370
30
 100
AcDbLine
   6
CONTINUOUS
  62
7
  10
 702.70000000000
  20
 522.55000000000
  30
0.0
  11
 691.90000000000
  21
 522.55000000000
  31
0.0
   0
LINE
   5
1AA
 100
AcDbEntity
   8
LEVEL002
 370
30
 100
AcDbLine
   6
CONTINUOUS
  62
7
  10
 714.70000000000
  20
 536.22333846940
  30
0.0
  11
 705.58444102040
  21
 522.55000000000
  31
0.0
   0
LINE
   5
1AB
 100
AcDbEntity
   8
LEVEL002
 370
30
 100
AcDbLine
   6
CONTINUOUS
  62
7
  10
 705.58444102040
  20
 522.55000000000
  30
0.0
  11
 714.70000000000
  21
 522.55000000000
  31
0.0
   0
LINE
   5
1AC
 100
AcDbEntity
   8
LEVEL002
 370
30
 100
AcDbLine
   6
CONTINUOUS
  62
7
  10
 714.70000000000
  20
 522.55000000000
  30
0.0
  11
 714.70000000000
  21
 536.22333846940
  31
0.0
   0
ARC
   5
1AD
 100
AcDbEntity
   8
LEVEL002
 370
30
   6
CONTINUOUS
  62
7
 100
AcDbCircle
  10
 781.90000000000
  20
 533.35000000000
  30
0.0
  40
 10.800000000000
 100
AcDbArc
  50
 90.000000000000
  51
 270.00000000000
   0
ARC
   5
1AE
 100
AcDbEntity
   8
LEVEL002
 370
30
   6
CONTINUOUS
  62
7
 100
AcDbCircle
  10
 781.90000000000
  20
 533.35000000000
  30
0.0
  40
 3.6000000000000
 100
AcDbArc
  50
 90.000000000000
  51
 270.00000000000
   0
LINE
   5
1AF
 100
AcDbEntity
   8
LEVEL002
 370
30
 100
AcDbLine
   6
CONTINUOUS
  62
7
  10
 781.90000000000
  20
 544.15000000000
  30
0.0
  11
 792.70000000000
  21
 544.15000000000
  31
0.0
   0
LINE
   5
1B0
 100
AcDbEntity
   8
LEVEL002
 370
30
 100
AcDbLine
   6
CONTINUOUS
  62
7
  10
 792.70000000000
  20
 544.15000000000
  30
0.0
  11
 792.70000000000
  21
 536.95000000000
  31
0.0
   0
LINE
   5
1B1
 100
AcDbEntity
   8
LEVEL002
 370
30
 100
AcDbLine
   6
CONTINUOUS
  62
7
  10
 792.70000000000
  20
 536.95000000000
  30
0.0
  11
 781.90000000000
  21
 536.95000000000
  31
0.0
   0
LINE
   5
1B2
 100
AcDbEntity
   8
LEVEL002
 370
30
 100
AcDbLine
   6
CONTINUOUS
  62
7
  10
 673.90000000000
  20
 544.15000000000
  30
0.0
  11
 673.90000000000
  21
 522.55000000000
  31
0.0
   0
LINE
   5
1B3
 100
AcDbEntity
   8
LEVEL002
 370
30
 100
AcDbLine
   6
CONTINUOUS
  62
7
  10
 673.90000000000
  20
 522.55000000000
  30
0.0
  11
 681.10000000000
  21
 522.55000000000
  31
0.0
   0
LINE
   5
1B4
 100
AcDbEntity
   8
LEVEL002
 370
30
 100
AcDbLine
   6
CONTINUOUS
  62
7
  10
 681.10000000000
  20
 522.55000000000
  30
0.0
  11
 681.10000000000
  21
 526.15000000000
  31
0.0
   0
LINE
   5
1B5
 100
AcDbEntity
   8
LEVEL002
 370
30
 100
AcDbLine
   6
CONTINUOUS
  62
7
  10
 681.10000000000
  20
 526.15000000000
  30
0.0
  11
 688.30000000000
  21
 526.15000000000
  31
0.0
   0
ARC
   5
1B6
 100
AcDbEntity
   8
LEVEL002
 370
30
   6
CONTINUOUS
  62
7
 100
AcDbCircle
  10
 688.30000000000
  20
 535.15000000000
  30
0.0
  40
 9.0000000000000
 100
AcDbArc
  50
 270.00000000000
  51
 90.000000000000
   0
LINE
   5
1B7
 100
AcDbEntity
   8
LEVEL002
 370
30
 100
AcDbLine
   6
CONTINUOUS
  62
7
  10
 688.30000000000
  20
 544.15000000000
  30
0.0
  11
 673.90000000000
  21
 544.15000000000
  31
0.0
   0
LINE
   5
1B8
 100
AcDbEntity
   8
LEVEL002
 370
30
 100
AcDbLine
   6
CONTINUOUS
  62
7
  10
 681.10000000000
  20
 536.95000000000
  30
0.0
  11
 681.10000000000
  21
 533.35000000000
  31
0.0
   0
LINE
   5
1B9
 100
AcDbEntity
   8
LEVEL002
 370
30
 100
AcDbLine
   6
CONTINUOUS
  62
7
  10
 681.10000000000
  20
 533.35000000000
  30
0.0
  11
 688.30000000000
  21
 533.35000000000
  31
0.0
   0
ARC
   5
1BA
 100
AcDbEntity
   8
LEVEL002
 370
30
   6
CONTINUOUS
  62
7
 100
AcDbCircle
  10
 688.30000000000
  20
 535.15000000000
  30
0.0
  40
 1.8000000000000
 100
AcDbArc
  50
 270.00000000000
  51
 90.000000000000
   0
LINE
   5
1BB
 100
AcDbEntity
   8
LEVEL002
 370
30
 100
AcDbLine
   6
CONTINUOUS
  62
7
  10
 688.30000000000
  20
 536.95000000000
  30
0.0
  11
 681.10000000000
  21
 536.95000000000
  31
0.0
   0
LINE
   5
1BC
 100
AcDbEntity
   8
LEVEL002
 370
30
 100
AcDbLine
   6
CONTINUOUS
  62
7
  10
 706.30000000000
  20
 544.15000000000
  30
0.0
  11
 691.90000000000
  21
 522.55000000000
  31
0.0
   0
LINE
   5
1BD
 100
AcDbEntity
   8
LEVEL002
 370
30
 100
AcDbLine
   6
CONTINUOUS
  62
7
  10
 691.90000000000
  20
 522.55000000000
  30
0.0
  11
 702.70000000000
  21
 522.55000000000
  31
0.0
   0
LINE
   5
1BE
 100
AcDbEntity
   8
LEVEL002
 370
30
 100
AcDbLine
   6
CONTINUOUS
  62
7
  10
 702.70000000000
  20
 522.55000000000
  30
0.0
  11
 717.10000000000
  21
 544.15000000000
  31
0.0
   0
LINE
   5
1BF
 100
AcDbEntity
   8
LEVEL002
 370
30
 100
AcDbLine
   6
CONTINUOUS
  62
7
  10
 717.10000000000
  20
 544.15000000000
  30
0.0
  11
 706.30000000000
  21
 544.15000000000
  31
0.0
   0
LINE
   5
1C0
 100
AcDbEntity
   8
LEVEL002
 370
30
 100
AcDbLine
   6
CONTINUOUS
  62
7
  10
 714.70000000000
  20
 522.55000000000
  30
0.0
  11
 714.70000000000
  21
 536.22333846940
  31
0.0
   0
LINE
   5
1C1
 100
AcDbEntity
   8
LEVEL002
 370
30
 100
AcDbLine
   6
CONTINUOUS
  62
7
  10
 714.70000000000
  20
 536.22333846940
  30
0.0
  11
 705.58444102040
  21
 522.55000000000
  31
0.0
   0
LINE
   5
1C2
 100
AcDbEntity
   8
LEVEL002
 370
30
 100
AcDbLine
   6
CONTINUOUS
  62
7
  10
 705.58444102040
  20
 522.55000000000
  30
0.0
  11
 714.70000000000
  21
 522.55000000000
  31
0.0
   0
LINE
   5
1C3
 100
AcDbEntity
   8
LEVEL002
 370
30
 100
AcDbLine
   6
CONTINUOUS
  62
7
  10
 717.10000000000
  20
 522.55000000000
  30
0.0
  11
 742.30000000000
  21
 522.55000000000
  31
0.0
   0
LINE
   5
1C4
 100
AcDbEntity
   8
LEVEL002
 370
30
 100
AcDbLine
   6
CONTINUOUS
  62
7
  10
 742.30000000000
  20
 522.55000000000
  30
0.0
  11
 742.30000000000
  21
 536.95000000000
  31
0.0
   0
LINE
   5
1C5
 100
AcDbEntity
   8
LEVEL002
 370
30
 100
AcDbLine
   6
CONTINUOUS
  62
7
  10
 742.30000000000
  20
 536.95000000000
  30
0.0
  11
 749.50000000000
  21
 536.95000000000
  31
0.0
   0
LINE
   5
1C6
 100
AcDbEntity
   8
LEVEL002
 370
30
 100
AcDbLine
   6
CONTINUOUS
  62
7
  10
 749.50000000000
  20
 536.95000000000
  30
0.0
  11
 749.50000000000
  21
 522.55000000000
  31
0.0
   0
LINE
   5
1C7
 100
AcDbEntity
   8
LEVEL002
 370
30
 100
AcDbLine
   6
CONTINUOUS
  62
7
  10
 749.50000000000
  20
 522.55000000000
  30
0.0
  11
 771.10000000000
  21
 522.55000000000
  31
0.0
   0
LINE
   5
1C8
 100
AcDbEntity
   8
LEVEL002
 370
30
 100
AcDbLine
   6
CONTINUOUS
  62
7
  10
 771.10000000000
  20
 522.55000000000
  30
0.0
  11
 771.10000000000
  21
 529.75000000000
  31
0.0
   0
LINE
   5
1C9
 100
AcDbEntity
   8
LEVEL002
 370
30
 100
AcDbLine
   6
CONTINUOUS
  62
7
  10
 771.10000000000
  20
 529.75000000000
  30
0.0
  11
 756.70000000000
  21
 529.75000000000
  31
0.0
   0
LINE
   5
1CA
 100
AcDbEntity
   8
LEVEL002
 370
30
 100
AcDbLine
   6
CONTINUOUS
  62
7
  10
 756.70000000000
  20
 529.75000000000
  30
0.0
  11
 756.70000000000
  21
 531.55000000000
  31
0.0
   0
LINE
   5
1CB
 100
AcDbEntity
   8
LEVEL002
 370
30
 100
AcDbLine
   6
CONTINUOUS
  62
7
  10
 756.70000000000
  20
 531.55000000000
  30
0.0
  11
 769.30000000000
  21
 531.55000000000
  31
0.0
   0
LINE
   5
1CC
 100
AcDbEntity
   8
LEVEL002
 370
30
 100
AcDbLine
   6
CONTINUOUS
  62
7
  10
 769.30000000000
  20
 531.55000000000
  30
0.0
  11
 769.30000000000
  21
 535.15000000000
  31
0.0
   0
LINE
   5
1CD
 100
AcDbEntity
   8
LEVEL002
 370
30
 100
AcDbLine
   6
CONTINUOUS
  62
7
  10
 769.30000000000
  20
 535.15000000000
  30
0.0
  11
 756.70000000000
  21
 535.15000000000
  31
0.0
   0
LINE
   5
1CE
 100
AcDbEntity
   8
LEVEL002
 370
30
 100
AcDbLine
   6
CONTINUOUS
  62
7
  10
 756.70000000000
  20
 535.15000000000
  30
0.0
  11
 756.70000000000
  21
 536.95000000000
  31
0.0
   0
LINE
   5
1CF
 100
AcDbEntity
   8
LEVEL002
 370
30
 100
AcDbLine
   6
CONTINUOUS
  62
7
  10
 756.70000000000
  20
 536.95000000000
  30
0.0
  11
 771.10000000000
  21
 536.95000000000
  31
0.0
   0
LINE
   5
1D0
 100
AcDbEntity
   8
LEVEL002
 370
30
 100
AcDbLine
   6
CONTINUOUS
  62
7
  10
 771.10000000000
  20
 536.95000000000
  30
0.0
  11
 771.10000000000
  21
 544.15000000000
  31
0.0
   0
LINE
   5
1D1
 100
AcDbEntity
   8
LEVEL002
 370
30
 100
AcDbLine
   6
CONTINUOUS
  62
7
  10
 771.10000000000
  20
 544.15000000000
  30
0.0
  11
 727.90000000000
  21
 544.15000000000
  31
0.0
   0
LINE
   5
1D2
 100
AcDbEntity
   8
LEVEL002
 370
30
 100
AcDbLine
   6
CONTINUOUS
  62
7
  10
 727.90000000000
  20
 544.15000000000
  30
0.0
  11
 727.90000000000
  21
 536.95000000000
  31
0.0
   0
LINE
   5
1D3
 100
AcDbEntity
   8
LEVEL002
 370
30
 100
AcDbLine
   6
CONTINUOUS
  62
7
  10
 727.90000000000
  20
 536.95000000000
  30
0.0
  11
 735.10000000000
  21
 536.95000000000
  31
0.0
   0
LINE
   5
1D4
 100
AcDbEntity
   8
LEVEL002
 370
30
 100
AcDbLine
   6
CONTINUOUS
  62
7
  10
 735.10000000000
  20
 536.95000000000
  30
0.0
  11
 735.10000000000
  21
 529.75000000000
  31
0.0
   0
LINE
   5
1D5
 100
AcDbEntity
   8
LEVEL002
 370
30
 100
AcDbLine
   6
CONTINUOUS
  62
7
  10
 735.10000000000
  20
 529.75000000000
  30
0.0
  11
 724.30000000000
  21
 529.75000000000
  31
0.0
   0
LINE
   5
1D6
 100
AcDbEntity
   8
LEVEL002
 370
30
 100
AcDbLine
   6
CONTINUOUS
  62
7
  10
 724.30000000000
  20
 529.75000000000
  30
0.0
  11
 724.30000000000
  21
 544.15000000000
  31
0.0
   0
LINE
   5
1D7
 100
AcDbEntity
   8
LEVEL002
 370
30
 100
AcDbLine
   6
CONTINUOUS
  62
7
  10
 724.30000000000
  20
 544.15000000000
  30
0.0
  11
 717.10000000000
  21
 544.15000000000
  31
0.0
   0
LINE
   5
1D8
 100
AcDbEntity
   8
LEVEL002
 370
30
 100
AcDbLine
   6
CONTINUOUS
  62
7
  10
 717.10000000000
  20
 544.15000000000
  30
0.0
  11
 717.10000000000
  21
 522.55000000000
  31
0.0
   0
LINE
   5
1D9
 100
AcDbEntity
   8
LEVEL002
 370
30
 100
AcDbLine
   6
CONTINUOUS
  62
7
  10
 781.90000000000
  20
 522.55000000000
  30
0.0
  11
 792.70000000000
  21
 522.55000000000
  31
0.0
   0
LINE
   5
1DA
 100
AcDbEntity
   8
LEVEL002
 370
30
 100
AcDbLine
   6
CONTINUOUS
  62
7
  10
 792.70000000000
  20
 522.55000000000
  30
0.0
  11
 792.70000000000
  21
 529.75000000000
  31
0.0
   0
LINE
   5
1DB
 100
AcDbEntity
   8
LEVEL002
 370
30
 100
AcDbLine
   6
CONTINUOUS
  62
7
  10
 792.70000000000
  20
 529.75000000000
  30
0.0
  11
 781.90000000000
  21
 529.75000000000
  31
0.0
   0
ARC
   5
1DC
 100
AcDbEntity
   8
LEVEL002
 370
30
   6
CONTINUOUS
  62
7
 100
AcDbCircle
  10
 781.90000000000
  20
 533.35000000000
  30
0.0
  40
 3.6000000000000
 100
AcDbArc
  50
 90.000000000000
  51
 270.00000000000
   0
LINE
   5
1DD
 100
AcDbEntity
   8
LEVEL002
 370
30
 100
AcDbLine
   6
CONTINUOUS
  62
7
  10
 781.90000000000
  20
 536.95000000000
  30
0.0
  11
 792.70000000000
  21
 536.95000000000
  31
0.0
   0
LINE
   5
1DE
 100
AcDbEntity
   8
LEVEL002
 370
30
 100
AcDbLine
   6
CONTINUOUS
  62
7
  10
 792.70000000000
  20
 536.95000000000
  30
0.0
  11
 792.70000000000
  21
 544.15000000000
  31
0.0
   0
LINE
   5
1DF
 100
AcDbEntity
   8
LEVEL002
 370
30
 100
AcDbLine
   6
CONTINUOUS
  62
7
  10
 792.70000000000
  20
 544.15000000000
  30
0.0
  11
 781.90000000000
  21
 544.15000000000
  31
0.0
   0
ARC
   5
1E0
 100
AcDbEntity
   8
LEVEL002
 370
30
   6
CONTINUOUS
  62
7
 100
AcDbCircle
  10
 781.90000000000
  20
 533.35000000000
  30
0.0
  40
 10.800000000000
 100
AcDbArc
  50
 90.000000000000
  51
 270.00000000000
   0
LINE
   5
1E1
 100
AcDbEntity
   8
LEVEL002
 370
30
 100
AcDbLine
   6
CONTINUOUS
  62
7
  10
 666.70000000000
  20
 527.35000000000
  30
0.0
  11
 657.70000000000
  21
 541.75000000000
  31
0.0
   0
LINE
   5
1E2
 100
AcDbEntity
   8
LEVEL002
 370
30
 100
AcDbLine
   6
CONTINUOUS
  62
7
  10
 657.70000000000
  20
 541.75000000000
  30
0.0
  11
 666.70000000000
  21
 541.75000000000
  31
0.0
   0
LINE
   5
1E3
 100
AcDbEntity
   8
LEVEL002
 370
30
 100
AcDbLine
   6
CONTINUOUS
  62
7
  10
 666.70000000000
  20
 541.75000000000
  30
0.0
  11
 666.70000000000
  21
 527.35000000000
  31
0.0
   0
LINE
   5
1E4
 100
AcDbEntity
   8
LEVEL002
 370
30
 100
AcDbLine
   6
CONTINUOUS
  62
7
  10
 657.70000000000
  20
 541.75000000000
  30
0.0
  11
 666.70000000000
  21
 527.35000000000
  31
0.0
   0
LINE
   5
1E5
 100
AcDbEntity
   8
LEVEL002
 370
30
 100
AcDbLine
   6
CONTINUOUS
  62
7
  10
 666.70000000000
  20
 527.35000000000
  30
0.0
  11
 666.70000000000
  21
 541.75000000000
  31
0.0
   0
LINE
   5
1E6
 100
AcDbEntity
   8
LEVEL002
 370
30
 100
AcDbLine
   6
CONTINUOUS
  62
7
  10
 666.70000000000
  20
 541.75000000000
  30
0.0
  11
 657.70000000000
  21
 541.75000000000
  31
0.0
   0
LINE
   5
1E7
 100
AcDbEntity
   8
LEVEL002
 370
30
 100
AcDbLine
   6
CONTINUOUS
  62
7
  10
 638.10000000000
  20
 560.95000000000
  30
0.0
  11
 625.30000000000
  21
 541.75000000000
  31
0.0
   0
LINE
   5
1E8
 100
AcDbEntity
   8
LEVEL002
 370
30
 100
AcDbLine
   6
CONTINUOUS
  62
7
  10
 625.30000000000
  20
 541.75000000000
  30
0.0
  11
 638.10000000000
  21
 522.55000000000
  31
0.0
   0
LINE
   5
1E9
 100
AcDbEntity
   8
LEVEL002
 370
30
 100
AcDbLine
   6
CONTINUOUS
  62
7
  10
 648.90000000000
  20
 522.55000000000
  30
0.0
  11
 636.10000000000
  21
 541.75000000000
  31
0.0
   0
LINE
   5
1EA
 100
AcDbEntity
   8
LEVEL002
 370
30
 100
AcDbLine
   6
CONTINUOUS
  62
7
  10
 636.10000000000
  20
 541.75000000000
  30
0.0
  11
 648.90000000000
  21
 560.95000000000
  31
0.0
   0
LINE
   5
1EB
 100
AcDbEntity
   8
LEVEL002
 370
30
 100
AcDbLine
   6
CONTINUOUS
  62
7
  10
 654.30000000000
  20
 560.95000000000
  30
0.0
  11
 641.50000000000
  21
 541.75000000000
  31
0.0
   0
LINE
   5
1EC
 100
AcDbEntity
   8
LEVEL002
 370
30
 100
AcDbLine
   6
CONTINUOUS
  62
7
  10
 641.50000000000
  20
 541.75000000000
  30
0.0
  11
 654.30000000000
  21
 522.55000000000
  31
0.0
   0
LINE
   5
1ED
 100
AcDbEntity
   8
LEVEL002
 370
30
 100
AcDbLine
   6
CONTINUOUS
  62
7
  10
 665.10000000000
  20
 522.55000000000
  30
0.0
  11
 652.30000000000
  21
 541.75000000000
  31
0.0
   0
LINE
   5
1EE
 100
AcDbEntity
   8
LEVEL002
 370
30
 100
AcDbLine
   6
CONTINUOUS
  62
7
  10
 652.30000000000
  20
 541.75000000000
  30
0.0
  11
 665.10000000000
  21
 560.95000000000
  31
0.0
   0
LINE
   5
1EF
 100
AcDbEntity
   8
LEVEL002
 370
30
 100
AcDbLine
   6
CONTINUOUS
  62
7
  10
 638.10000000000
  20
 522.55000000000
  30
0.0
  11
 625.30000000000
  21
 541.75000000000
  31
0.0
   0
LINE
   5
1F0
 100
AcDbEntity
   8
LEVEL002
 370
30
 100
AcDbLine
   6
CONTINUOUS
  62
7
  10
 625.30000000000
  20
 541.75000000000
  30
0.0
  11
 638.10000000000
  21
 560.95000000000
  31
0.0
   0
LINE
   5
1F1
 100
AcDbEntity
   8
LEVEL002
 370
30
 100
AcDbLine
   6
CONTINUOUS
  62
7
  10
 638.10000000000
  20
 560.95000000000
  30
0.0
  11
 648.90000000000
  21
 560.95000000000
  31
0.0
   0
LINE
   5
1F2
 100
AcDbEntity
   8
LEVEL002
 370
30
 100
AcDbLine
   6
CONTINUOUS
  62
7
  10
 648.90000000000
  20
 560.95000000000
  30
0.0
  11
 636.10000000000
  21
 541.75000000000
  31
0.0
   0
LINE
   5
1F3
 100
AcDbEntity
   8
LEVEL002
 370
30
 100
AcDbLine
   6
CONTINUOUS
  62
7
  10
 636.10000000000
  20
 541.75000000000
  30
0.0
  11
 648.90000000000
  21
 522.55000000000
  31
0.0
   0
LINE
   5
1F4
 100
AcDbEntity
   8
LEVEL002
 370
30
 100
AcDbLine
   6
CONTINUOUS
  62
7
  10
 648.90000000000
  20
 522.55000000000
  30
0.0
  11
 638.10000000000
  21
 522.55000000000
  31
0.0
   0
LINE
   5
1F5
 100
AcDbEntity
   8
LEVEL002
 370
30
 100
AcDbLine
   6
CONTINUOUS
  62
7
  10
 654.30000000000
  20
 522.55000000000
  30
0.0
  11
 641.50000000000
  21
 541.75000000000
  31
0.0
   0
LINE
   5
1F6
 100
AcDbEntity
   8
LEVEL002
 370
30
 100
AcDbLine
   6
CONTINUOUS
  62
7
  10
 641.50000000000
  20
 541.75000000000
  30
0.0
  11
 654.30000000000
  21
 560.95000000000
  31
0.0
   0
LINE
   5
1F7
 100
AcDbEntity
   8
LEVEL002
 370
30
 100
AcDbLine
   6
CONTINUOUS
  62
7
  10
 654.30000000000
  20
 560.95000000000
  30
0.0
  11
 665.10000000000
  21
 560.95000000000
  31
0.0
   0
LINE
   5
1F8
 100
AcDbEntity
   8
LEVEL002
 370
30
 100
AcDbLine
   6
CONTINUOUS
  62
7
  10
 665.10000000000
  20
 560.95000000000
  30
0.0
  11
 652.30000000000
  21
 541.75000000000
  31
0.0
   0
LINE
   5
1F9
 100
AcDbEntity
   8
LEVEL002
 370
30
 100
AcDbLine
   6
CONTINUOUS
  62
7
  10
 652.30000000000
  20
 541.75000000000
  30
0.0
  11
 665.10000000000
  21
 522.55000000000
  31
0.0
   0
LINE
   5
1FA
 100
AcDbEntity
   8
LEVEL002
 370
30
 100
AcDbLine
   6
CONTINUOUS
  62
7
  10
 665.10000000000
  20
 522.55000000000
  30
0.0
  11
 654.30000000000
  21
 522.55000000000
  31
0.0
   0
HATCH
   5
1FB
 100
AcDbEntity
   8
LEVEL001
  62
1
 100
AcDbHatch
  10
0.0
  20
0.0
  30
0.0
 210
0.0
 220
0.0
 230
 1.0000000000000
   2
SOLID
  70
1
  71
1
  91
7
  92
1
  93
6
  72
1
  10
 648.90000000000
  20
 560.95000000000
  11
 636.10000000000
  21
 541.75000000000
  72
1
  10
 636.10000000000
  20
 541.75000000000
  11
 648.90000000000
  21
 522.55000000000
  72
1
  10
 648.90000000000
  20
 522.55000000000
  11
 638.10000000000
  21
 522.55000000000
  72
1
  10
 638.10000000000
  20
 522.55000000000
  11
 625.30000000000
  21
 541.75000000000
  72
1
  10
 625.30000000000
  20
 541.75000000000
  11
 638.10000000000
  21
 560.95000000000
  72
1
  10
 638.10000000000
  20
 560.95000000000
  11
 648.90000000000
  21
 560.95000000000
  97
1
 330

  92
16
  93
6
  72
1
  10
 654.30000000000
  20
 560.95000000000
  11
 665.10000000000
  21
 560.95000000000
  72
1
  10
 665.10000000000
  20
 560.95000000000
  11
 652.30000000000
  21
 541.75000000000
  72
1
  10
 652.30000000000
  20
 541.75000000000
  11
 665.10000000000
  21
 522.55000000000
  72
1
  10
 665.10000000000
  20
 522.55000000000
  11
 654.30000000000
  21
 522.55000000000
  72
1
  10
 654.30000000000
  20
 522.55000000000
  11
 641.50000000000
  21
 541.75000000000
  72
1
  10
 641.50000000000
  20
 541.75000000000
  11
 654.30000000000
  21
 560.95000000000
  97
1
 330

  92
16
  93
3
  72
1
  10
 666.70000000000
  20
 541.75000000000
  11
 657.70000000000
  21
 541.75000000000
  72
1
  10
 657.70000000000
  20
 541.75000000000
  11
 666.70000000000
  21
 527.35000000000
  72
1
  10
 666.70000000000
  20
 527.35000000000
  11
 666.70000000000
  21
 541.75000000000
  97
1
 330

  92
16
  93
6
  72
1
  10
 673.90000000000
  20
 544.15000000000
  11
 688.30000000000
  21
 544.15000000000
  72
2
  10
 688.30000000000
  20
 535.15000000000
  40
 9.0000000000000
  50
 270.00000000000
  51
 90.000000000000
  73
0
  72
1
  10
 688.30000000000
  20
 526.15000000000
  11
 681.10000000000
  21
 526.15000000000
  72
1
  10
 681.10000000000
  20
 526.15000000000
  11
 681.10000000000
  21
 522.55000000000
  72
1
  10
 681.10000000000
  20
 522.55000000000
  11
 673.90000000000
  21
 522.55000000000
  72
1
  10
 673.90000000000
  20
 522.55000000000
  11
 673.90000000000
  21
 544.15000000000
  97
1
 330

  92
16
  93
4
  72
1
  10
 688.30000000000
  20
 536.95000000000
  11
 681.10000000000
  21
 536.95000000000
  72
1
  10
 681.10000000000
  20
 536.95000000000
  11
 681.10000000000
  21
 533.35000000000
  72
1
  10
 681.10000000000
  20
 533.35000000000
  11
 688.30000000000
  21
 533.35000000000
  72
2
  10
 688.30000000000
  20
 535.15000000000
  40
 1.8000000000000
  50
 270.00000000000
  51
 90.000000000000
  73
1
  97
1
 330

  92
16
  93
4
  72
1
  10
 691.90000000000
  20
 522.55000000000
  11
 706.30000000000
  21
 544.15000000000
  72
1
  10
 706.30000000000
  20
 544.15000000000
  11
 717.10000000000
  21
 544.15000000000
  72
1
  10
 717.10000000000
  20
 544.15000000000
  11
 702.70000000000
  21
 522.55000000000
  72
1
  10
 702.70000000000
  20
 522.55000000000
  11
 691.90000000000
  21
 522.55000000000
  97
1
 330

  92
16
  93
3
  72
1
  10
 714.70000000000
  20
 536.22333846940
  11
 705.58444102040
  21
 522.55000000000
  72
1
  10
 705.58444102040
  20
 522.55000000000
  11
 714.70000000000
  21
 522.55000000000
  72
1
  10
 714.70000000000
  20
 522.55000000000
  11
 714.70000000000
  21
 536.22333846940
  97
1
 330

  75
0
  76
1
  98
1
  10
0.0
  20
0.0
   0
HATCH
   5
1FC
 100
AcDbEntity
   8
LEVEL001
  62
1
 100
AcDbHatch
  10
0.0
  20
0.0
  30
0.0
 210
0.0
 220
0.0
 230
 1.0000000000000
   2
SOLID
  70
1
  71
1
  91
1
  92
1
  93
22
  72
1
  10
 717.10000000000
  20
 544.15000000000
  11
 724.30000000000
  21
 544.15000000000
  72
1
  10
 724.30000000000
  20
 544.15000000000
  11
 724.30000000000
  21
 529.75000000000
  72
1
  10
 724.30000000000
  20
 529.75000000000
  11
 735.10000000000
  21
 529.75000000000
  72
1
  10
 735.10000000000
  20
 529.75000000000
  11
 735.10000000000
  21
 536.95000000000
  72
1
  10
 735.10000000000
  20
 536.95000000000
  11
 727.90000000000
  21
 536.95000000000
  72
1
  10
 727.90000000000
  20
 536.95000000000
  11
 727.90000000000
  21
 544.15000000000
  72
1
  10
 727.90000000000
  20
 544.15000000000
  11
 771.10000000000
  21
 544.15000000000
  72
1
  10
 771.10000000000
  20
 544.15000000000
  11
 771.10000000000
  21
 536.95000000000
  72
1
  10
 771.10000000000
  20
 536.95000000000
  11
 756.70000000000
  21
 536.95000000000
  72
1
  10
 756.70000000000
  20
 536.95000000000
  11
 756.70000000000
  21
 535.15000000000
  72
1
  10
 756.70000000000
  20
 535.15000000000
  11
 769.30000000000
  21
 535.15000000000
  72
1
  10
 769.30000000000
  20
 535.15000000000
  11
 769.30000000000
  21
 531.55000000000
  72
1
  10
 769.30000000000
  20
 531.55000000000
  11
 756.70000000000
  21
 531.55000000000
  72
1
  10
 756.70000000000
  20
 531.55000000000
  11
 756.70000000000
  21
 529.75000000000
  72
1
  10
 756.70000000000
  20
 529.75000000000
  11
 771.10000000000
  21
 529.75000000000
  72
1
  10
 771.10000000000
  20
 529.75000000000
  11
 771.10000000000
  21
 522.55000000000
  72
1
  10
 771.10000000000
  20
 522.55000000000
  11
 749.50000000000
  21
 522.55000000000
  72
1
  10
 749.50000000000
  20
 522.55000000000
  11
 749.50000000000
  21
 536.95000000000
  72
1
  10
 749.50000000000
  20
 536.95000000000
  11
 742.30000000000
  21
 536.95000000000
  72
1
  10
 742.30000000000
  20
 536.95000000000
  11
 742.30000000000
  21
 522.55000000000
  72
1
  10
 742.30000000000
  20
 522.55000000000
  11
 717.10000000000
  21
 522.55000000000
  72
1
  10
 717.10000000000
  20
 522.55000000000
  11
 717.10000000000
  21
 544.15000000000
  97
1
 330

  75
0
  76
1
  98
1
  10
0.0
  20
0.0
   0
HATCH
   5
1FD
 100
AcDbEntity
   8
LEVEL001
  62
1
 100
AcDbHatch
  10
0.0
  20
0.0
  30
0.0
 210
0.0
 220
0.0
 230
 1.0000000000000
   2
SOLID
  70
1
  71
1
  91
1
  92
1
  93
8
  72
1
  10
 792.70000000000
  20
 544.15000000000
  11
 781.90000000000
  21
 544.15000000000
  72
2
  10
 781.90000000000
  20
 533.35000000000
  40
 10.800000000000
  50
 90.000000000000
  51
 270.00000000000
  73
1
  72
1
  10
 781.90000000000
  20
 522.55000000000
  11
 792.70000000000
  21
 522.55000000000
  72
1
  10
 792.70000000000
  20
 522.55000000000
  11
 792.70000000000
  21
 529.75000000000
  72
1
  10
 792.70000000000
  20
 529.75000000000
  11
 781.90000000000
  21
 529.75000000000
  72
2
  10
 781.90000000000
  20
 533.35000000000
  40
 3.6000000000000
  50
 90.000000000000
  51
 270.00000000000
  73
0
  72
1
  10
 781.90000000000
  20
 536.95000000000
  11
 792.70000000000
  21
 536.95000000000
  72
1
  10
 792.70000000000
  20
 536.95000000000
  11
 792.70000000000
  21
 544.15000000000
  97
1
 330

  75
0
  76
1
  98
1
  10
0.0
  20
0.0
   0
MTEXT
   5
1FF
 100
AcDbEntity
   8
LEVEL002
 370
15
  62
8
 100
AcDbMText
  10
 708.99999999990
  20
 453.50000000000
  30
0.0
  40
 8.0000000000000
  41
0.0
  71
5
  72
1
   1
\T1.000000;アルミ①
   7
GMM002
  44
 0.79999984000003
   0
MTEXT
   5
201
 100
AcDbEntity
   8
LEVEL002
 370
15
  62
8
 100
AcDbMText
  10
 758.99999999990
  20
 40.166666666690
  30
0.0
  40
 5.0000000000000
  41
0.0
  71
5
  72
1
   1
\T1.000000;パルステップアルミ－１
   7
GMM002
  44
 0.79999984000003
   0
ARC
   5
202
 100
AcDbEntity
   8
LEVEL002
 370
30
   6
CONTINUOUS
  62
7
 100
AcDbCircle
  10
 102.04837971810
  20
 451.46505400940
  30
0.0
  40
 10.000000000000
 100
AcDbArc
  50
 143.59461027689
  51
 215.67439713745
   0
ARC
   5
203
 100
AcDbEntity
   8
LEVEL002
 370
30
   6
CONTINUOUS
  62
7
 100
AcDbCircle
  10
 102.99999999990
  20
 452.19705818720
  30
0.0
  40
 12.000000000000
 100
AcDbArc
  50
 142.51321104516
  51
 215.87036430420
   0
ARC
   5
204
 100
AcDbEntity
   8
LEVEL002
 370
30
   6
CONTINUOUS
  62
7
 100
AcDbCircle
  10
 93.599999905415
  20
 445.40000013168
  30
0.0
  40
 0.40000000000000
 100
AcDbArc
  50
 215.87038751505
  51
 35.674373926502
   0
ARC
   5
205
 100
AcDbEntity
   8
LEVEL002
 370
30
   6
CONTINUOUS
  62
7
 100
AcDbCircle
  10
 98.993171219900
  20
 460.70000000000
  30
0.0
  40
 2.5000000000000
 100
AcDbArc
  50
 208.68540201389
  51
 269.99999999954
   0
ARC
   5
206
 100
AcDbEntity
   8
LEVEL002
 370
30
   6
CONTINUOUS
  62
7
 100
AcDbCircle
  10
 102.10682878000
  20
 460.70000000010
  30
0.0
  40
 2.5000000000000
 100
AcDbArc
  50
 269.99999999857
  51
 331.31459798291
   0
LINE
   5
207
 100
AcDbEntity
   8
LEVEL002
 370
30
 100
AcDbLine
   6
CONTINUOUS
  62
7
  10
 102.10682878000
  20
 458.20000000000
  30
0.0
  11
 98.993171219900
  21
 458.20000000000
  31
0.0
   0
LINE
   5
208
 100
AcDbEntity
   8
LEVEL002
 370
30
 100
AcDbLine
   6
CONTINUOUS
  62
7
  10
 96.799999999900
  20
 459.50000000000
  30
0.0
  11
 93.478075778500
  21
 459.50000000000
  31
0.0
   0
LINE
   5
209
 100
AcDbEntity
   8
LEVEL002
 370
30
 100
AcDbLine
   6
CONTINUOUS
  62
7
  10
 93.999999999900
  20
 457.40000000000
  30
0.0
  11
 128.79999999990
  21
 457.40000000000
  31
0.0
   0
LINE
   5
20A
 100
AcDbEntity
   8
LEVEL002
 370
30
 100
AcDbLine
   6
CONTINUOUS
  62
7
  10
 128.79999999990
  20
 457.40000000000
  30
0.0
  11
 128.79999999990
  21
 458.40000000000
  31
0.0
   0
LINE
   5
20B
 100
AcDbEntity
   8
LEVEL002
 370
30
 100
AcDbLine
   6
CONTINUOUS
  62
7
  10
 128.79999999990
  20
 458.40000000000
  30
0.0
  11
 126.79999999990
  21
 459.50000000000
  31
0.0
   0
LINE
   5
20C
 100
AcDbEntity
   8
LEVEL002
 370
30
 100
AcDbLine
   6
CONTINUOUS
  62
7
  10
 126.79999999990
  20
 459.50000000000
  30
0.0
  11
 124.29999999990
  21
 459.50000000000
  31
0.0
   0
ARC
   5
20D
 100
AcDbEntity
   8
LEVEL002
 370
30
   6
CONTINUOUS
  62
7
 100
AcDbCircle
  10
 108.99317121990
  20
 460.70000000000
  30
0.0
  40
 2.5000000000000
 100
AcDbArc
  50
 208.68540201386
  51
 269.99999999947
   0
ARC
   5
20E
 100
AcDbEntity
   8
LEVEL002
 370
30
   6
CONTINUOUS
  62
7
 100
AcDbCircle
  10
 112.10682878000
  20
 460.70000000010
  30
0.0
  40
 2.5000000000000
 100
AcDbArc
  50
 269.99999999854
  51
 331.31459798285
   0
LINE
   5
20F
 100
AcDbEntity
   8
LEVEL002
 370
30
 100
AcDbLine
   6
CONTINUOUS
  62
7
  10
 112.10682878000
  20
 458.20000000000
  30
0.0
  11
 108.99317121990
  21
 458.20000000000
  31
0.0
   0
ARC
   5
210
 100
AcDbEntity
   8
LEVEL002
 370
30
   6
CONTINUOUS
  62
7
 100
AcDbCircle
  10
 118.99317121990
  20
 460.70000000000
  30
0.0
  40
 2.5000000000000
 100
AcDbArc
  50
 208.68540201383
  51
 269.99999999941
   0
ARC
   5
211
 100
AcDbEntity
   8
LEVEL002
 370
30
   6
CONTINUOUS
  62
7
 100
AcDbCircle
  10
 122.10682878000
  20
 460.70000000010
  30
0.0
  40
 2.5000000000000
 100
AcDbArc
  50
 269.99999999851
  51
 331.31459798278
   0
LINE
   5
212
 100
AcDbEntity
   8
LEVEL002
 370
30
 100
AcDbLine
   6
CONTINUOUS
  62
7
  10
 122.10682878000
  20
 458.20000000000
  30
0.0
  11
 118.99317121990
  21
 458.20000000000
  31
0.0
   0
LINE
   5
213
 100
AcDbEntity
   8
LEVEL002
 370
30
 100
AcDbLine
   6
CONTINUOUS
  62
7
  10
 114.29999999990
  20
 459.50000000000
  30
0.0
  11
 116.79999999990
  21
 459.50000000000
  31
0.0
   0
LINE
   5
214
 100
AcDbEntity
   8
LEVEL002
 370
30
 100
AcDbLine
   6
CONTINUOUS
  62
7
  10
 104.29999999990
  20
 459.50000000000
  30
0.0
  11
 106.79999999990
  21
 459.50000000000
  31
0.0
   0
LINE
   5
215
 100
AcDbEntity
   8
LEVEL002
 370
30
 100
AcDbLine
   6
CONTINUOUS
  62
7
  10
 90.999999999900
  20
 543.50000000000
  30
0.0
  11
 90.999999999900
  21
 498.50000000000
  31
0.0
   0
LINE
   5
216
 100
AcDbEntity
   8
LEVEL002
 370
30
 100
AcDbLine
   6
CONTINUOUS
  62
7
  10
 90.999999999900
  20
 498.50000000000
  30
0.0
  11
 128.79999999990
  21
 498.50000000000
  31
0.0
   0
LINE
   5
217
 100
AcDbEntity
   8
LEVEL002
 370
30
 100
AcDbLine
   6
CONTINUOUS
  62
7
  10
 128.79999999990
  20
 498.50000000000
  30
0.0
  11
 128.79999999990
  21
 543.50000000000
  31
0.0
   0
LINE
   5
218
 100
AcDbEntity
   8
LEVEL002
 370
30
 100
AcDbLine
   6
CONTINUOUS
  62
7
  10
 93.478075778500
  20
 543.50000000000
  30
0.0
  11
 93.478075778500
  21
 498.50000000000
  31
0.0
   0
LINE
   5
219
 100
AcDbEntity
   8
LEVEL002
 370
30
 100
AcDbLine
   6
CONTINUOUS
  62
7
  10
 96.799999999900
  20
 543.50000000000
  30
0.0
  11
 96.799999999900
  21
 498.50000000000
  31
0.0
   0
LINE
   5
21A
 100
AcDbEntity
   8
LEVEL002
 370
30
 100
AcDbLine
   6
CONTINUOUS
  62
7
  10
 104.29999999990
  20
 543.50000000000
  30
0.0
  11
 104.29999999990
  21
 498.50000000000
  31
0.0
   0
LINE
   5
21B
 100
AcDbEntity
   8
LEVEL002
 370
30
 100
AcDbLine
   6
CONTINUOUS
  62
7
  10
 106.79999999990
  20
 543.50000000000
  30
0.0
  11
 106.79999999990
  21
 498.50000000000
  31
0.0
   0
LINE
   5
21C
 100
AcDbEntity
   8
LEVEL002
 370
30
 100
AcDbLine
   6
CONTINUOUS
  62
7
  10
 114.29999999990
  20
 543.50000000000
  30
0.0
  11
 114.29999999990
  21
 498.50000000000
  31
0.0
   0
LINE
   5
21D
 100
AcDbEntity
   8
LEVEL002
 370
30
 100
AcDbLine
   6
CONTINUOUS
  62
7
  10
 116.79999999990
  20
 543.50000000000
  30
0.0
  11
 116.79999999990
  21
 498.50000000000
  31
0.0
   0
LINE
   5
21E
 100
AcDbEntity
   8
LEVEL002
 370
30
 100
AcDbLine
   6
CONTINUOUS
  62
7
  10
 124.29999999990
  20
 543.50000000000
  30
0.0
  11
 124.29999999990
  21
 498.50000000000
  31
0.0
   0
LINE
   5
21F
 100
AcDbEntity
   8
LEVEL002
 370
30
 100
AcDbLine
   6
CONTINUOUS
  62
7
  10
 126.79999999990
  20
 543.50000000000
  30
0.0
  11
 126.79999999990
  21
 498.50000000000
  31
0.0
   0
ARC
   5
220
 100
AcDbEntity
   8
LEVEL002
 370
30
   6
CONTINUOUS
  62
7
 100
AcDbCircle
  10
 247.49999999990
  20
 451.98074069840
  30
0.0
  40
 12.000000000000
 100
AcDbArc
  50
 141.19991689205
  51
 214.30115275682
   0
ARC
   5
221
 100
AcDbEntity
   8
LEVEL002
 370
30
   6
CONTINUOUS
  62
7
 100
AcDbCircle
  10
 247.18044023930
  20
 450.59602953400
  30
0.0
  40
 10.000000000000
 100
AcDbArc
  50
 140.17856736109
  51
 209.03449813170
   0
ARC
   5
222
 100
AcDbEntity
   8
LEVEL002
 370
30
   6
CONTINUOUS
  62
7
 100
AcDbCircle
  10
 276.99999999990
  20
 462.83333333330
  30
0.0
  40
 4.8333333333333
 100
AcDbArc
  50
 223.60281897229
  51
 316.39718102732
   0
ARC
   5
223
 100
AcDbEntity
   8
LEVEL002
 370
30
   6
CONTINUOUS
  62
7
 100
AcDbCircle
  10
 266.49999999990
  20
 462.83333333330
  30
0.0
  40
 4.8333333333333
 100
AcDbArc
  50
 223.60281897229
  51
 316.39718102732
   0
ARC
   5
224
 100
AcDbEntity
   8
LEVEL002
 370
30
   6
CONTINUOUS
  62
7
 100
AcDbCircle
  10
 255.99999999990
  20
 462.83333333330
  30
0.0
  40
 4.8333333333334
 100
AcDbArc
  50
 223.60281897229
  51
 316.39718102732
   0
ARC
   5
225
 100
AcDbEntity
   8
LEVEL002
 370
30
   6
CONTINUOUS
  62
7
 100
AcDbCircle
  10
 245.49999999990
  20
 462.83333333330
  30
0.0
  40
 4.8333333333334
 100
AcDbArc
  50
 223.60281897229
  51
 316.39718102732
   0
LINE
   5
226
 100
AcDbEntity
   8
LEVEL002
 370
30
 100
AcDbLine
   6
CONTINUOUS
  62
7
  10
 238.14795532750
  20
 459.50000000000
  30
0.0
  11
 241.99999999990
  21
 459.50000000000
  31
0.0
   0
LINE
   5
227
 100
AcDbEntity
   8
LEVEL002
 370
30
 100
AcDbLine
   6
CONTINUOUS
  62
7
  10
 239.49999999990
  20
 457.00000000000
  30
0.0
  11
 285.49999999990
  21
 457.00000000000
  31
0.0
   0
LINE
   5
228
 100
AcDbEntity
   8
LEVEL002
 370
30
 100
AcDbLine
   6
CONTINUOUS
  62
7
  10
 285.49999999990
  20
 457.00000000000
  30
0.0
  11
 285.49999999990
  21
 458.00000000000
  31
0.0
   0
LINE
   5
229
 100
AcDbEntity
   8
LEVEL002
 370
30
 100
AcDbLine
   6
CONTINUOUS
  62
7
  10
 285.49999999990
  20
 458.00000000000
  30
0.0
  11
 283.49999999990
  21
 459.50000000000
  31
0.0
   0
LINE
   5
22A
 100
AcDbEntity
   8
LEVEL002
 370
30
 100
AcDbLine
   6
CONTINUOUS
  62
7
  10
 283.49999999990
  20
 459.50000000000
  30
0.0
  11
 280.49999999990
  21
 459.50000000000
  31
0.0
   0
LINE
   5
22B
 100
AcDbEntity
   8
LEVEL002
 370
30
 100
AcDbLine
   6
CONTINUOUS
  62
7
  10
 273.49999999990
  20
 459.50000000000
  30
0.0
  11
 269.99999999990
  21
 459.50000000000
  31
0.0
   0
LINE
   5
22C
 100
AcDbEntity
   8
LEVEL002
 370
30
 100
AcDbLine
   6
CONTINUOUS
  62
7
  10
 262.99999999990
  20
 459.50000000000
  30
0.0
  11
 259.49999999990
  21
 459.50000000000
  31
0.0
   0
LINE
   5
22D
 100
AcDbEntity
   8
LEVEL002
 370
30
 100
AcDbLine
   6
CONTINUOUS
  62
7
  10
 252.49999999990
  20
 459.50000000000
  30
0.0
  11
 248.99999999990
  21
 459.50000000000
  31
0.0
   0
ARC
   5
22E
 100
AcDbEntity
   8
LEVEL002
 370
30
   6
CONTINUOUS
  62
7
 100
AcDbCircle
  10
 237.99999999900
  20
 445.50000000170
  30
0.0
  40
 0.50000000000000
 100
AcDbArc
  50
 214.30115297505
  51
 29.034497912553
   0
LINE
   5
22F
 100
AcDbEntity
   8
LEVEL002
 370
30
 100
AcDbLine
   6
CONTINUOUS
  62
7
  10
 235.49999999990
  20
 543.50000000000
  30
0.0
  11
 235.49999999990
  21
 498.50000000000
  31
0.0
   0
LINE
   5
230
 100
AcDbEntity
   8
LEVEL002
 370
30
 100
AcDbLine
   6
CONTINUOUS
  62
7
  10
 235.49999999990
  20
 498.50000000000
  30
0.0
  11
 285.49999999990
  21
 498.50000000000
  31
0.0
   0
LINE
   5
231
 100
AcDbEntity
   8
LEVEL002
 370
30
 100
AcDbLine
   6
CONTINUOUS
  62
7
  10
 285.49999999990
  20
 498.50000000000
  30
0.0
  11
 285.49999999990
  21
 543.50000000000
  31
0.0
   0
LINE
   5
232
 100
AcDbEntity
   8
LEVEL002
 370
30
 100
AcDbLine
   6
CONTINUOUS
  62
7
  10
 241.99999999990
  20
 543.50000000000
  30
0.0
  11
 241.99999999990
  21
 498.50000000000
  31
0.0
   0
LINE
   5
233
 100
AcDbEntity
   8
LEVEL002
 370
30
 100
AcDbLine
   6
CONTINUOUS
  62
7
  10
 248.99999999990
  20
 543.50000000000
  30
0.0
  11
 248.99999999990
  21
 498.50000000000
  31
0.0
   0
LINE
   5
234
 100
AcDbEntity
   8
LEVEL002
 370
30
 100
AcDbLine
   6
CONTINUOUS
  62
7
  10
 252.49999999990
  20
 543.50000000000
  30
0.0
  11
 252.49999999990
  21
 498.50000000000
  31
0.0
   0
LINE
   5
235
 100
AcDbEntity
   8
LEVEL002
 370
30
 100
AcDbLine
   6
CONTINUOUS
  62
7
  10
 259.49999999990
  20
 543.50000000000
  30
0.0
  11
 259.49999999990
  21
 498.50000000000
  31
0.0
   0
LINE
   5
236
 100
AcDbEntity
   8
LEVEL002
 370
30
 100
AcDbLine
   6
CONTINUOUS
  62
7
  10
 262.99999999990
  20
 543.50000000000
  30
0.0
  11
 262.99999999990
  21
 498.50000000000
  31
0.0
   0
LINE
   5
237
 100
AcDbEntity
   8
LEVEL002
 370
30
 100
AcDbLine
   6
CONTINUOUS
  62
7
  10
 269.99999999990
  20
 543.50000000000
  30
0.0
  11
 269.99999999990
  21
 498.50000000000
  31
0.0
   0
LINE
   5
238
 100
AcDbEntity
   8
LEVEL002
 370
30
 100
AcDbLine
   6
CONTINUOUS
  62
7
  10
 273.49999999990
  20
 543.50000000000
  30
0.0
  11
 273.49999999990
  21
 498.50000000000
  31
0.0
   0
LINE
   5
239
 100
AcDbEntity
   8
LEVEL002
 370
30
 100
AcDbLine
   6
CONTINUOUS
  62
7
  10
 280.49999999990
  20
 543.50000000000
  30
0.0
  11
 280.49999999990
  21
 498.50000000000
  31
0.0
   0
LINE
   5
23A
 100
AcDbEntity
   8
LEVEL002
 370
30
 100
AcDbLine
   6
CONTINUOUS
  62
7
  10
 283.49999999990
  20
 543.50000000000
  30
0.0
  11
 283.49999999990
  21
 498.50000000000
  31
0.0
   0
ARC
   5
23B
 100
AcDbEntity
   8
LEVEL002
 370
30
   6
CONTINUOUS
  62
7
 100
AcDbCircle
  10
 274.49915410440
  20
 323.51293502130
  30
0.0
  40
 1.0000000000000
 100
AcDbArc
  50
0.0
  51
 89.254064001009
   0
LINE
   5
23C
 100
AcDbEntity
   8
LEVEL002
 370
30
 100
AcDbLine
   6
CONTINUOUS
  62
7
  10
 274.51217277580
  20
 324.51285027481
  30
0.0
  11
 260.69658361640
  21
 324.69272613662
  31
0.0
   0
LINE
   5
23D
 100
AcDbEntity
   8
LEVEL002
 370
30
 100
AcDbLine
   6
CONTINUOUS
  62
7
  10
 260.69658361640
  20
 324.69272613662
  30
0.0
  11
 260.49915410430
  21
 324.49529662452
  31
0.0
   0
LINE
   5
23E
 100
AcDbEntity
   8
LEVEL002
 370
30
 100
AcDbLine
   6
CONTINUOUS
  62
7
  10
 260.49915410430
  20
 324.49529662452
  30
0.0
  11
 260.29651579920
  21
 324.69793492957
  31
0.0
   0
LINE
   5
23F
 100
AcDbEntity
   8
LEVEL002
 370
30
 100
AcDbLine
   6
CONTINUOUS
  62
7
  10
 260.29651579920
  20
 324.69793492957
  30
0.0
  11
 237.09603258420
  21
 325.00000000002
  31
0.0
   0
ARC
   5
240
 100
AcDbEntity
   8
LEVEL002
 370
30
   6
CONTINUOUS
  62
7
 100
AcDbCircle
  10
 241.99915410390
  20
 331.50000000002
  30
0.0
  40
 0.50000000000000
 100
AcDbArc
  50
0.0
  51
 89.999999968838
   0
LINE
   5
241
 100
AcDbEntity
   8
LEVEL002
 370
30
 100
AcDbLine
   6
CONTINUOUS
  62
7
  10
 241.99915410420
  20
 332.00000000002
  30
0.0
  11
 238.49915410420
  21
 332.00000000002
  31
0.0
   0
ARC
   5
242
 100
AcDbEntity
   8
LEVEL002
 370
30
   6
CONTINUOUS
  62
7
 100
AcDbCircle
  10
 238.49915410420
  20
 329.00000000014
  30
0.0
  40
 3.0000000000000
 100
AcDbArc
  50
 89.999999999844
  51
 183.82255373156
   0
LINE
   5
243
 100
AcDbEntity
   8
LEVEL002
 370
30
 100
AcDbLine
   6
CONTINUOUS
  62
7
  10
 237.19625554990
  20
 323.50000000002
  30
0.0
  11
 245.49915410420
  21
 323.50000000002
  31
0.0
   0
LINE
   5
244
 100
AcDbEntity
   8
LEVEL002
 370
30
 100
AcDbLine
   6
CONTINUOUS
  62
7
  10
 245.49915410420
  20
 323.50000000002
  30
0.0
  11
 245.69915410420
  21
 323.71293502130
  31
0.0
   0
LINE
   5
245
 100
AcDbEntity
   8
LEVEL002
 370
30
 100
AcDbLine
   6
CONTINUOUS
  62
7
  10
 245.69915410420
  20
 323.71293502130
  30
0.0
  11
 245.89915410420
  21
 323.50000000002
  31
0.0
   0
LINE
   5
246
 100
AcDbEntity
   8
LEVEL002
 370
30
 100
AcDbLine
   6
CONTINUOUS
  62
7
  10
 245.89915410420
  20
 323.50000000002
  30
0.0
  11
 246.09915410420
  21
 323.71293502130
  31
0.0
   0
LINE
   5
247
 100
AcDbEntity
   8
LEVEL002
 370
30
 100
AcDbLine
   6
CONTINUOUS
  62
7
  10
 246.09915410420
  20
 323.71293502130
  30
0.0
  11
 246.29915410420
  21
 323.50000000002
  31
0.0
   0
LINE
   5
248
 100
AcDbEntity
   8
LEVEL002
 370
30
 100
AcDbLine
   6
CONTINUOUS
  62
7
  10
 246.29915410420
  20
 323.50000000002
  30
0.0
  11
 246.49915410420
  21
 323.71293502130
  31
0.0
   0
LINE
   5
249
 100
AcDbEntity
   8
LEVEL002
 370
30
 100
AcDbLine
   6
CONTINUOUS
  62
7
  10
 246.49915410420
  20
 323.71293502130
  30
0.0
  11
 246.69915410420
  21
 323.50000000002
  31
0.0
   0
LINE
   5
24A
 100
AcDbEntity
   8
LEVEL002
 370
30
 100
AcDbLine
   6
CONTINUOUS
  62
7
  10
 246.69915410420
  20
 323.50000000002
  30
0.0
  11
 246.89915410420
  21
 323.71293502130
  31
0.0
   0
LINE
   5
24B
 100
AcDbEntity
   8
LEVEL002
 370
30
 100
AcDbLine
   6
CONTINUOUS
  62
7
  10
 246.89915410420
  20
 323.71293502130
  30
0.0
  11
 247.09915410420
  21
 323.50000000002
  31
0.0
   0
LINE
   5
24C
 100
AcDbEntity
   8
LEVEL002
 370
30
 100
AcDbLine
   6
CONTINUOUS
  62
7
  10
 247.09915410420
  20
 323.50000000002
  30
0.0
  11
 247.29915410420
  21
 323.71293502130
  31
0.0
   0
LINE
   5
24D
 100
AcDbEntity
   8
LEVEL002
 370
30
 100
AcDbLine
   6
CONTINUOUS
  62
7
  10
 247.29915410420
  20
 323.71293502130
  30
0.0
  11
 247.49915410420
  21
 323.50000000002
  31
0.0
   0
LINE
   5
24E
 100
AcDbEntity
   8
LEVEL002
 370
30
 100
AcDbLine
   6
CONTINUOUS
  62
7
  10
 247.49915410420
  20
 323.50000000002
  30
0.0
  11
 247.69915410420
  21
 323.71293502130
  31
0.0
   0
LINE
   5
24F
 100
AcDbEntity
   8
LEVEL002
 370
30
 100
AcDbLine
   6
CONTINUOUS
  62
7
  10
 247.69915410420
  20
 323.71293502130
  30
0.0
  11
 247.89915410420
  21
 323.50000000002
  31
0.0
   0
LINE
   5
250
 100
AcDbEntity
   8
LEVEL002
 370
30
 100
AcDbLine
   6
CONTINUOUS
  62
7
  10
 247.89915410420
  20
 323.50000000002
  30
0.0
  11
 248.09915410420
  21
 323.71293502130
  31
0.0
   0
LINE
   5
251
 100
AcDbEntity
   8
LEVEL002
 370
30
 100
AcDbLine
   6
CONTINUOUS
  62
7
  10
 248.09915410420
  20
 323.71293502130
  30
0.0
  11
 248.29915410420
  21
 323.50000000002
  31
0.0
   0
LINE
   5
252
 100
AcDbEntity
   8
LEVEL002
 370
30
 100
AcDbLine
   6
CONTINUOUS
  62
7
  10
 248.29915410420
  20
 323.50000000002
  30
0.0
  11
 248.49915410420
  21
 323.71293502130
  31
0.0
   0
LINE
   5
253
 100
AcDbEntity
   8
LEVEL002
 370
30
 100
AcDbLine
   6
CONTINUOUS
  62
7
  10
 248.49915410420
  20
 323.71293502130
  30
0.0
  11
 248.69915410420
  21
 323.50000000002
  31
0.0
   0
LINE
   5
254
 100
AcDbEntity
   8
LEVEL002
 370
30
 100
AcDbLine
   6
CONTINUOUS
  62
7
  10
 248.69915410420
  20
 323.50000000002
  30
0.0
  11
 248.89915410420
  21
 323.71293502130
  31
0.0
   0
LINE
   5
255
 100
AcDbEntity
   8
LEVEL002
 370
30
 100
AcDbLine
   6
CONTINUOUS
  62
7
  10
 248.89915410420
  20
 323.71293502130
  30
0.0
  11
 249.09915410420
  21
 323.50000000002
  31
0.0
   0
LINE
   5
256
 100
AcDbEntity
   8
LEVEL002
 370
30
 100
AcDbLine
   6
CONTINUOUS
  62
7
  10
 249.09915410420
  20
 323.50000000002
  30
0.0
  11
 249.29915410420
  21
 323.71293502130
  31
0.0
   0
LINE
   5
257
 100
AcDbEntity
   8
LEVEL002
 370
30
 100
AcDbLine
   6
CONTINUOUS
  62
7
  10
 249.29915410420
  20
 323.71293502130
  30
0.0
  11
 249.49915410420
  21
 323.50000000002
  31
0.0
   0
LINE
   5
258
 100
AcDbEntity
   8
LEVEL002
 370
30
 100
AcDbLine
   6
CONTINUOUS
  62
7
  10
 249.49915410420
  20
 323.50000000002
  30
0.0
  11
 249.69915410420
  21
 323.71293502130
  31
0.0
   0
LINE
   5
259
 100
AcDbEntity
   8
LEVEL002
 370
30
 100
AcDbLine
   6
CONTINUOUS
  62
7
  10
 249.69915410420
  20
 323.71293502130
  30
0.0
  11
 249.89915410420
  21
 323.50000000002
  31
0.0
   0
LINE
   5
25A
 100
AcDbEntity
   8
LEVEL002
 370
30
 100
AcDbLine
   6
CONTINUOUS
  62
7
  10
 249.89915410420
  20
 323.50000000002
  30
0.0
  11
 250.09915410420
  21
 323.71293502130
  31
0.0
   0
LINE
   5
25B
 100
AcDbEntity
   8
LEVEL002
 370
30
 100
AcDbLine
   6
CONTINUOUS
  62
7
  10
 250.09915410420
  20
 323.71293502130
  30
0.0
  11
 250.29915410420
  21
 323.50000000002
  31
0.0
   0
LINE
   5
25C
 100
AcDbEntity
   8
LEVEL002
 370
30
 100
AcDbLine
   6
CONTINUOUS
  62
7
  10
 250.29915410420
  20
 323.50000000002
  30
0.0
  11
 250.49915410420
  21
 323.71293502130
  31
0.0
   0
LINE
   5
25D
 100
AcDbEntity
   8
LEVEL002
 370
30
 100
AcDbLine
   6
CONTINUOUS
  62
7
  10
 250.49915410420
  20
 323.71293502130
  30
0.0
  11
 250.69915410420
  21
 323.50000000002
  31
0.0
   0
LINE
   5
25E
 100
AcDbEntity
   8
LEVEL002
 370
30
 100
AcDbLine
   6
CONTINUOUS
  62
7
  10
 250.69915410420
  20
 323.50000000002
  30
0.0
  11
 250.89915410420
  21
 323.71293502130
  31
0.0
   0
LINE
   5
25F
 100
AcDbEntity
   8
LEVEL002
 370
30
 100
AcDbLine
   6
CONTINUOUS
  62
7
  10
 250.89915410420
  20
 323.71293502130
  30
0.0
  11
 251.09915410420
  21
 323.50000000002
  31
0.0
   0
LINE
   5
260
 100
AcDbEntity
   8
LEVEL002
 370
30
 100
AcDbLine
   6
CONTINUOUS
  62
7
  10
 251.09915410420
  20
 323.50000000002
  30
0.0
  11
 251.29915410420
  21
 323.71293502130
  31
0.0
   0
LINE
   5
261
 100
AcDbEntity
   8
LEVEL002
 370
30
 100
AcDbLine
   6
CONTINUOUS
  62
7
  10
 251.29915410420
  20
 323.71293502130
  30
0.0
  11
 251.49915410420
  21
 323.50000000002
  31
0.0
   0
LINE
   5
262
 100
AcDbEntity
   8
LEVEL002
 370
30
 100
AcDbLine
   6
CONTINUOUS
  62
7
  10
 251.49915410420
  20
 323.50000000002
  30
0.0
  11
 251.69915410420
  21
 323.71293502130
  31
0.0
   0
LINE
   5
263
 100
AcDbEntity
   8
LEVEL002
 370
30
 100
AcDbLine
   6
CONTINUOUS
  62
7
  10
 251.69915410420
  20
 323.71293502130
  30
0.0
  11
 251.89915410420
  21
 323.50000000002
  31
0.0
   0
LINE
   5
264
 100
AcDbEntity
   8
LEVEL002
 370
30
 100
AcDbLine
   6
CONTINUOUS
  62
7
  10
 251.89915410420
  20
 323.50000000002
  30
0.0
  11
 252.09915410420
  21
 323.71293502130
  31
0.0
   0
LINE
   5
265
 100
AcDbEntity
   8
LEVEL002
 370
30
 100
AcDbLine
   6
CONTINUOUS
  62
7
  10
 252.09915410420
  20
 323.71293502130
  30
0.0
  11
 252.29915410420
  21
 323.50000000002
  31
0.0
   0
LINE
   5
266
 100
AcDbEntity
   8
LEVEL002
 370
30
 100
AcDbLine
   6
CONTINUOUS
  62
7
  10
 252.29915410420
  20
 323.50000000002
  30
0.0
  11
 252.49915410420
  21
 323.71293502130
  31
0.0
   0
LINE
   5
267
 100
AcDbEntity
   8
LEVEL002
 370
30
 100
AcDbLine
   6
CONTINUOUS
  62
7
  10
 252.49915410420
  20
 323.71293502130
  30
0.0
  11
 252.69915410420
  21
 323.50000000002
  31
0.0
   0
LINE
   5
268
 100
AcDbEntity
   8
LEVEL002
 370
30
 100
AcDbLine
   6
CONTINUOUS
  62
7
  10
 252.69915410420
  20
 323.50000000002
  30
0.0
  11
 252.89915410420
  21
 323.71293502130
  31
0.0
   0
LINE
   5
269
 100
AcDbEntity
   8
LEVEL002
 370
30
 100
AcDbLine
   6
CONTINUOUS
  62
7
  10
 252.89915410420
  20
 323.71293502130
  30
0.0
  11
 253.09915410420
  21
 323.50000000002
  31
0.0
   0
LINE
   5
26A
 100
AcDbEntity
   8
LEVEL002
 370
30
 100
AcDbLine
   6
CONTINUOUS
  62
7
  10
 253.09915410420
  20
 323.50000000002
  30
0.0
  11
 253.29915410420
  21
 323.71293502130
  31
0.0
   0
LINE
   5
26B
 100
AcDbEntity
   8
LEVEL002
 370
30
 100
AcDbLine
   6
CONTINUOUS
  62
7
  10
 253.29915410420
  20
 323.71293502130
  30
0.0
  11
 253.49915410420
  21
 323.50000000002
  31
0.0
   0
LINE
   5
26C
 100
AcDbEntity
   8
LEVEL002
 370
30
 100
AcDbLine
   6
CONTINUOUS
  62
7
  10
 253.49915410420
  20
 323.50000000002
  30
0.0
  11
 253.69915410420
  21
 323.71293502130
  31
0.0
   0
LINE
   5
26D
 100
AcDbEntity
   8
LEVEL002
 370
30
 100
AcDbLine
   6
CONTINUOUS
  62
7
  10
 253.69915410420
  20
 323.71293502130
  30
0.0
  11
 253.89915410420
  21
 323.50000000002
  31
0.0
   0
LINE
   5
26E
 100
AcDbEntity
   8
LEVEL002
 370
30
 100
AcDbLine
   6
CONTINUOUS
  62
7
  10
 253.89915410420
  20
 323.50000000002
  30
0.0
  11
 254.09915410420
  21
 323.71293502130
  31
0.0
   0
LINE
   5
26F
 100
AcDbEntity
   8
LEVEL002
 370
30
 100
AcDbLine
   6
CONTINUOUS
  62
7
  10
 254.09915410420
  20
 323.71293502130
  30
0.0
  11
 254.29915410420
  21
 323.50000000002
  31
0.0
   0
LINE
   5
270
 100
AcDbEntity
   8
LEVEL002
 370
30
 100
AcDbLine
   6
CONTINUOUS
  62
7
  10
 254.29915410420
  20
 323.50000000002
  30
0.0
  11
 254.49915410420
  21
 323.71293502130
  31
0.0
   0
LINE
   5
271
 100
AcDbEntity
   8
LEVEL002
 370
30
 100
AcDbLine
   6
CONTINUOUS
  62
7
  10
 254.49915410420
  20
 323.71293502130
  30
0.0
  11
 254.69915410420
  21
 323.50000000002
  31
0.0
   0
LINE
   5
272
 100
AcDbEntity
   8
LEVEL002
 370
30
 100
AcDbLine
   6
CONTINUOUS
  62
7
  10
 254.69915410420
  20
 323.50000000002
  30
0.0
  11
 254.89915410420
  21
 323.71293502130
  31
0.0
   0
LINE
   5
273
 100
AcDbEntity
   8
LEVEL002
 370
30
 100
AcDbLine
   6
CONTINUOUS
  62
7
  10
 254.89915410420
  20
 323.71293502130
  30
0.0
  11
 255.09915410420
  21
 323.50000000002
  31
0.0
   0
LINE
   5
274
 100
AcDbEntity
   8
LEVEL002
 370
30
 100
AcDbLine
   6
CONTINUOUS
  62
7
  10
 255.09915410420
  20
 323.50000000002
  30
0.0
  11
 255.29915410420
  21
 323.71293502130
  31
0.0
   0
LINE
   5
275
 100
AcDbEntity
   8
LEVEL002
 370
30
 100
AcDbLine
   6
CONTINUOUS
  62
7
  10
 255.29915410420
  20
 323.71293502130
  30
0.0
  11
 255.49915410420
  21
 323.50000000002
  31
0.0
   0
LINE
   5
276
 100
AcDbEntity
   8
LEVEL002
 370
30
 100
AcDbLine
   6
CONTINUOUS
  62
7
  10
 255.49915410420
  20
 323.50000000002
  30
0.0
  11
 255.69915410420
  21
 323.71293502130
  31
0.0
   0
LINE
   5
277
 100
AcDbEntity
   8
LEVEL002
 370
30
 100
AcDbLine
   6
CONTINUOUS
  62
7
  10
 255.69915410420
  20
 323.71293502130
  30
0.0
  11
 255.89915410420
  21
 323.50000000002
  31
0.0
   0
LINE
   5
278
 100
AcDbEntity
   8
LEVEL002
 370
30
 100
AcDbLine
   6
CONTINUOUS
  62
7
  10
 255.89915410420
  20
 323.50000000002
  30
0.0
  11
 256.09915410420
  21
 323.71293502130
  31
0.0
   0
LINE
   5
279
 100
AcDbEntity
   8
LEVEL002
 370
30
 100
AcDbLine
   6
CONTINUOUS
  62
7
  10
 256.09915410420
  20
 323.71293502130
  30
0.0
  11
 256.29915410420
  21
 323.50000000002
  31
0.0
   0
LINE
   5
27A
 100
AcDbEntity
   8
LEVEL002
 370
30
 100
AcDbLine
   6
CONTINUOUS
  62
7
  10
 256.29915410420
  20
 323.50000000002
  30
0.0
  11
 256.49915410420
  21
 323.71293502130
  31
0.0
   0
LINE
   5
27B
 100
AcDbEntity
   8
LEVEL002
 370
30
 100
AcDbLine
   6
CONTINUOUS
  62
7
  10
 256.49915410420
  20
 323.71293502130
  30
0.0
  11
 256.69915410420
  21
 323.50000000002
  31
0.0
   0
LINE
   5
27C
 100
AcDbEntity
   8
LEVEL002
 370
30
 100
AcDbLine
   6
CONTINUOUS
  62
7
  10
 256.69915410420
  20
 323.50000000002
  30
0.0
  11
 256.89915410420
  21
 323.71293502130
  31
0.0
   0
LINE
   5
27D
 100
AcDbEntity
   8
LEVEL002
 370
30
 100
AcDbLine
   6
CONTINUOUS
  62
7
  10
 256.89915410420
  20
 323.71293502130
  30
0.0
  11
 257.09915410420
  21
 323.50000000002
  31
0.0
   0
LINE
   5
27E
 100
AcDbEntity
   8
LEVEL002
 370
30
 100
AcDbLine
   6
CONTINUOUS
  62
7
  10
 257.09915410420
  20
 323.50000000002
  30
0.0
  11
 257.29915410420
  21
 323.71293502130
  31
0.0
   0
LINE
   5
27F
 100
AcDbEntity
   8
LEVEL002
 370
30
 100
AcDbLine
   6
CONTINUOUS
  62
7
  10
 257.29915410420
  20
 323.71293502130
  30
0.0
  11
 257.49915410420
  21
 323.50000000002
  31
0.0
   0
LINE
   5
280
 100
AcDbEntity
   8
LEVEL002
 370
30
 100
AcDbLine
   6
CONTINUOUS
  62
7
  10
 257.49915410420
  20
 323.50000000002
  30
0.0
  11
 257.69915410420
  21
 323.71293502130
  31
0.0
   0
LINE
   5
281
 100
AcDbEntity
   8
LEVEL002
 370
30
 100
AcDbLine
   6
CONTINUOUS
  62
7
  10
 257.69915410420
  20
 323.71293502130
  30
0.0
  11
 257.89915410420
  21
 323.50000000002
  31
0.0
   0
LINE
   5
282
 100
AcDbEntity
   8
LEVEL002
 370
30
 100
AcDbLine
   6
CONTINUOUS
  62
7
  10
 257.89915410420
  20
 323.50000000002
  30
0.0
  11
 258.09915410420
  21
 323.71293502130
  31
0.0
   0
LINE
   5
283
 100
AcDbEntity
   8
LEVEL002
 370
30
 100
AcDbLine
   6
CONTINUOUS
  62
7
  10
 258.09915410420
  20
 323.71293502130
  30
0.0
  11
 258.29915410420
  21
 323.50000000002
  31
0.0
   0
LINE
   5
284
 100
AcDbEntity
   8
LEVEL002
 370
30
 100
AcDbLine
   6
CONTINUOUS
  62
7
  10
 258.29915410420
  20
 323.50000000002
  30
0.0
  11
 258.49915410420
  21
 323.71293502130
  31
0.0
   0
LINE
   5
285
 100
AcDbEntity
   8
LEVEL002
 370
30
 100
AcDbLine
   6
CONTINUOUS
  62
7
  10
 258.49915410420
  20
 323.71293502130
  30
0.0
  11
 258.69915410420
  21
 323.50000000002
  31
0.0
   0
LINE
   5
286
 100
AcDbEntity
   8
LEVEL002
 370
30
 100
AcDbLine
   6
CONTINUOUS
  62
7
  10
 258.69915410420
  20
 323.50000000002
  30
0.0
  11
 258.89915410420
  21
 323.71293502130
  31
0.0
   0
LINE
   5
287
 100
AcDbEntity
   8
LEVEL002
 370
30
 100
AcDbLine
   6
CONTINUOUS
  62
7
  10
 258.89915410420
  20
 323.71293502130
  30
0.0
  11
 259.09915410420
  21
 323.50000000002
  31
0.0
   0
LINE
   5
288
 100
AcDbEntity
   8
LEVEL002
 370
30
 100
AcDbLine
   6
CONTINUOUS
  62
7
  10
 259.09915410420
  20
 323.50000000002
  30
0.0
  11
 259.29915410420
  21
 323.71293502130
  31
0.0
   0
LINE
   5
289
 100
AcDbEntity
   8
LEVEL002
 370
30
 100
AcDbLine
   6
CONTINUOUS
  62
7
  10
 259.29915410420
  20
 323.71293502130
  30
0.0
  11
 259.49915410420
  21
 323.50000000002
  31
0.0
   0
LINE
   5
28A
 100
AcDbEntity
   8
LEVEL002
 370
30
 100
AcDbLine
   6
CONTINUOUS
  62
7
  10
 259.49915410420
  20
 323.50000000002
  30
0.0
  11
 259.69915410420
  21
 323.71293502130
  31
0.0
   0
LINE
   5
28B
 100
AcDbEntity
   8
LEVEL002
 370
30
 100
AcDbLine
   6
CONTINUOUS
  62
7
  10
 259.69915410420
  20
 323.71293502130
  30
0.0
  11
 259.89915410420
  21
 323.50000000002
  31
0.0
   0
LINE
   5
28C
 100
AcDbEntity
   8
LEVEL002
 370
30
 100
AcDbLine
   6
CONTINUOUS
  62
7
  10
 259.89915410420
  20
 323.50000000002
  30
0.0
  11
 260.09915410420
  21
 323.71293502130
  31
0.0
   0
LINE
   5
28D
 100
AcDbEntity
   8
LEVEL002
 370
30
 100
AcDbLine
   6
CONTINUOUS
  62
7
  10
 260.09915410420
  20
 323.71293502130
  30
0.0
  11
 260.29915410420
  21
 323.50000000002
  31
0.0
   0
LINE
   5
28E
 100
AcDbEntity
   8
LEVEL002
 370
30
 100
AcDbLine
   6
CONTINUOUS
  62
7
  10
 260.29915410420
  20
 323.50000000002
  30
0.0
  11
 260.49915410420
  21
 323.71293502130
  31
0.0
   0
LINE
   5
28F
 100
AcDbEntity
   8
LEVEL002
 370
30
 100
AcDbLine
   6
CONTINUOUS
  62
7
  10
 260.49915410420
  20
 323.71293502130
  30
0.0
  11
 260.69915410420
  21
 323.50000000002
  31
0.0
   0
LINE
   5
290
 100
AcDbEntity
   8
LEVEL002
 370
30
 100
AcDbLine
   6
CONTINUOUS
  62
7
  10
 260.69915410420
  20
 323.50000000002
  30
0.0
  11
 260.89915410420
  21
 323.71293502130
  31
0.0
   0
LINE
   5
291
 100
AcDbEntity
   8
LEVEL002
 370
30
 100
AcDbLine
   6
CONTINUOUS
  62
7
  10
 260.89915410420
  20
 323.71293502130
  30
0.0
  11
 261.09915410420
  21
 323.50000000002
  31
0.0
   0
LINE
   5
292
 100
AcDbEntity
   8
LEVEL002
 370
30
 100
AcDbLine
   6
CONTINUOUS
  62
7
  10
 261.09915410420
  20
 323.50000000002
  30
0.0
  11
 261.29915410420
  21
 323.71293502130
  31
0.0
   0
LINE
   5
293
 100
AcDbEntity
   8
LEVEL002
 370
30
 100
AcDbLine
   6
CONTINUOUS
  62
7
  10
 261.29915410420
  20
 323.71293502130
  30
0.0
  11
 261.49915410420
  21
 323.50000000002
  31
0.0
   0
LINE
   5
294
 100
AcDbEntity
   8
LEVEL002
 370
30
 100
AcDbLine
   6
CONTINUOUS
  62
7
  10
 261.49915410420
  20
 323.50000000002
  30
0.0
  11
 261.69915410420
  21
 323.71293502130
  31
0.0
   0
LINE
   5
295
 100
AcDbEntity
   8
LEVEL002
 370
30
 100
AcDbLine
   6
CONTINUOUS
  62
7
  10
 261.69915410420
  20
 323.71293502130
  30
0.0
  11
 261.89915410420
  21
 323.50000000002
  31
0.0
   0
LINE
   5
296
 100
AcDbEntity
   8
LEVEL002
 370
30
 100
AcDbLine
   6
CONTINUOUS
  62
7
  10
 261.89915410420
  20
 323.50000000002
  30
0.0
  11
 262.09915410420
  21
 323.71293502130
  31
0.0
   0
LINE
   5
297
 100
AcDbEntity
   8
LEVEL002
 370
30
 100
AcDbLine
   6
CONTINUOUS
  62
7
  10
 262.09915410420
  20
 323.71293502130
  30
0.0
  11
 262.29915410420
  21
 323.50000000002
  31
0.0
   0
LINE
   5
298
 100
AcDbEntity
   8
LEVEL002
 370
30
 100
AcDbLine
   6
CONTINUOUS
  62
7
  10
 262.29915410420
  20
 323.50000000002
  30
0.0
  11
 262.49915410420
  21
 323.71293502130
  31
0.0
   0
LINE
   5
299
 100
AcDbEntity
   8
LEVEL002
 370
30
 100
AcDbLine
   6
CONTINUOUS
  62
7
  10
 262.49915410420
  20
 323.71293502130
  30
0.0
  11
 262.69915410420
  21
 323.50000000002
  31
0.0
   0
LINE
   5
29A
 100
AcDbEntity
   8
LEVEL002
 370
30
 100
AcDbLine
   6
CONTINUOUS
  62
7
  10
 262.69915410420
  20
 323.50000000002
  30
0.0
  11
 262.89915410420
  21
 323.71293502130
  31
0.0
   0
LINE
   5
29B
 100
AcDbEntity
   8
LEVEL002
 370
30
 100
AcDbLine
   6
CONTINUOUS
  62
7
  10
 262.89915410420
  20
 323.71293502130
  30
0.0
  11
 263.09915410420
  21
 323.50000000002
  31
0.0
   0
LINE
   5
29C
 100
AcDbEntity
   8
LEVEL002
 370
30
 100
AcDbLine
   6
CONTINUOUS
  62
7
  10
 263.09915410420
  20
 323.50000000002
  30
0.0
  11
 263.29915410420
  21
 323.71293502130
  31
0.0
   0
LINE
   5
29D
 100
AcDbEntity
   8
LEVEL002
 370
30
 100
AcDbLine
   6
CONTINUOUS
  62
7
  10
 263.29915410420
  20
 323.71293502130
  30
0.0
  11
 263.49915410420
  21
 323.50000000002
  31
0.0
   0
LINE
   5
29E
 100
AcDbEntity
   8
LEVEL002
 370
30
 100
AcDbLine
   6
CONTINUOUS
  62
7
  10
 263.49915410420
  20
 323.50000000002
  30
0.0
  11
 263.69915410420
  21
 323.71293502130
  31
0.0
   0
LINE
   5
29F
 100
AcDbEntity
   8
LEVEL002
 370
30
 100
AcDbLine
   6
CONTINUOUS
  62
7
  10
 263.69915410420
  20
 323.71293502130
  30
0.0
  11
 263.89915410420
  21
 323.50000000002
  31
0.0
   0
LINE
   5
2A0
 100
AcDbEntity
   8
LEVEL002
 370
30
 100
AcDbLine
   6
CONTINUOUS
  62
7
  10
 263.89915410420
  20
 323.50000000002
  30
0.0
  11
 264.09915410420
  21
 323.71293502130
  31
0.0
   0
LINE
   5
2A1
 100
AcDbEntity
   8
LEVEL002
 370
30
 100
AcDbLine
   6
CONTINUOUS
  62
7
  10
 264.09915410420
  20
 323.71293502130
  30
0.0
  11
 264.29915410420
  21
 323.50000000002
  31
0.0
   0
LINE
   5
2A2
 100
AcDbEntity
   8
LEVEL002
 370
30
 100
AcDbLine
   6
CONTINUOUS
  62
7
  10
 264.29915410420
  20
 323.50000000002
  30
0.0
  11
 264.49915410420
  21
 323.71293502130
  31
0.0
   0
LINE
   5
2A3
 100
AcDbEntity
   8
LEVEL002
 370
30
 100
AcDbLine
   6
CONTINUOUS
  62
7
  10
 264.49915410420
  20
 323.71293502130
  30
0.0
  11
 264.69915410420
  21
 323.50000000002
  31
0.0
   0
LINE
   5
2A4
 100
AcDbEntity
   8
LEVEL002
 370
30
 100
AcDbLine
   6
CONTINUOUS
  62
7
  10
 264.69915410420
  20
 323.50000000002
  30
0.0
  11
 264.89915410420
  21
 323.71293502130
  31
0.0
   0
LINE
   5
2A5
 100
AcDbEntity
   8
LEVEL002
 370
30
 100
AcDbLine
   6
CONTINUOUS
  62
7
  10
 264.89915410420
  20
 323.71293502130
  30
0.0
  11
 265.09915410420
  21
 323.50000000002
  31
0.0
   0
LINE
   5
2A6
 100
AcDbEntity
   8
LEVEL002
 370
30
 100
AcDbLine
   6
CONTINUOUS
  62
7
  10
 265.09915410420
  20
 323.50000000002
  30
0.0
  11
 265.29915410420
  21
 323.71293502130
  31
0.0
   0
LINE
   5
2A7
 100
AcDbEntity
   8
LEVEL002
 370
30
 100
AcDbLine
   6
CONTINUOUS
  62
7
  10
 265.29915410420
  20
 323.71293502130
  30
0.0
  11
 265.49915410420
  21
 323.50000000002
  31
0.0
   0
LINE
   5
2A8
 100
AcDbEntity
   8
LEVEL002
 370
30
 100
AcDbLine
   6
CONTINUOUS
  62
7
  10
 265.49915410420
  20
 323.50000000002
  30
0.0
  11
 275.49915410420
  21
 323.50000000002
  31
0.0
   0
LINE
   5
2A9
 100
AcDbEntity
   8
LEVEL002
 370
30
 100
AcDbLine
   6
CONTINUOUS
  62
7
  10
 275.49915410420
  20
 323.50000000002
  30
0.0
  11
 275.49915410420
  21
 323.51293502130
  31
0.0
   0
ARC
   5
2AA
 100
AcDbEntity
   8
LEVEL002
 370
30
   6
CONTINUOUS
  62
7
 100
AcDbCircle
  10
 238.49915410430
  20
 304.00000000002
  30
0.0
  40
 2.0000000000000
 100
AcDbArc
  50
 183.82255372905
  51
 269.99999999648
   0
LINE
   5
2AB
 100
AcDbEntity
   8
LEVEL002
 370
30
 100
AcDbLine
   6
CONTINUOUS
  62
7
  10
 236.50075474470
  20
 303.92000000002
  30
0.0
  11
 235.50155506500
  21
 328.88000000002
  31
0.0
   0
LINE
   5
2AC
 100
AcDbEntity
   8
LEVEL002
 370
30
 100
AcDbLine
   6
CONTINUOUS
  62
7
  10
 237.93122396510
  20
 305.00000000002
  30
0.0
  11
 237.19625554990
  21
 323.50000000002
  31
0.0
   0
LINE
   5
2AD
 100
AcDbEntity
   8
LEVEL002
 370
30
 100
AcDbLine
   6
CONTINUOUS
  62
7
  10
 238.49915410420
  20
 302.00000000002
  30
0.0
  11
 238.43233879370
  21
 305.00000000002
  31
0.0
   0
LINE
   5
2AE
 100
AcDbEntity
   8
LEVEL002
 370
30
 100
AcDbLine
   6
CONTINUOUS
  62
7
  10
 238.43233879370
  20
 305.00000000002
  30
0.0
  11
 237.93122396510
  21
 305.00000000002
  31
0.0
   0
LINE
   5
2AF
 100
AcDbEntity
   8
LEVEL002
 370
30
 100
AcDbLine
   6
CONTINUOUS
  62
7
  10
 236.92899430800
  20
 330.00000000002
  30
0.0
  11
 242.49915410420
  21
 331.00000000002
  31
0.0
   0
LINE
   5
2B0
 100
AcDbEntity
   8
LEVEL002
 370
30
 100
AcDbLine
   6
CONTINUOUS
  62
7
  10
 242.49915410420
  20
 331.00000000002
  30
0.0
  11
 242.49915410420
  21
 331.50000000002
  31
0.0
   0
LINE
   5
2B1
 100
AcDbEntity
   8
LEVEL002
 370
30
 100
AcDbLine
   6
CONTINUOUS
  62
7
  10
 236.92899430800
  20
 330.00000000002
  30
0.0
  11
 237.09603258420
  21
 325.00000000002
  31
0.0
   0
LINE
   5
2B2
 100
AcDbEntity
   8
LEVEL002
 370
30
 100
AcDbLine
   6
CONTINUOUS
  62
7
  10
 235.49999999990
  20
 407.00000000000
  30
0.0
  11
 235.49999999990
  21
 362.00000000002
  31
0.0
   0
LINE
   5
2B3
 100
AcDbEntity
   8
LEVEL002
 370
30
 100
AcDbLine
   6
CONTINUOUS
  62
7
  10
 235.49999999990
  20
 362.00000000002
  30
0.0
  11
 275.49915410420
  21
 362.00000000002
  31
0.0
   0
LINE
   5
2B4
 100
AcDbEntity
   8
LEVEL002
 370
30
 100
AcDbLine
   6
CONTINUOUS
  62
7
  10
 275.49915410420
  20
 362.00000000002
  30
0.0
  11
 275.49915410420
  21
 407.00000000000
  31
0.0
   0
LINE
   5
2B5
 100
AcDbEntity
   8
LEVEL002
 370
30
 100
AcDbLine
   6
CONTINUOUS
  62
7
  10
 242.49915410420
  20
 407.00000000000
  30
0.0
  11
 242.49915410420
  21
 362.00000000002
  31
0.0
   0
LINE
   5
2B6
 100
AcDbEntity
   8
LEVEL002
 370
30
 100
AcDbLine
   6
CONTINUOUS
  62
7
  10
 377.50810582740
  20
 476.20000000000
  30
0.0
  11
 449.99963053890
  21
 476.20000000000
  31
0.0
   0
LINE
   5
2B7
 100
AcDbEntity
   8
LEVEL002
 370
30
 100
AcDbLine
   6
CONTINUOUS
  62
7
  10
 449.99963053890
  20
 476.20000000000
  30
0.0
  11
 449.99963053890
  21
 477.00000000000
  31
0.0
   0
LINE
   5
2B8
 100
AcDbEntity
   8
LEVEL002
 370
30
 100
AcDbLine
   6
CONTINUOUS
  62
7
  10
 449.99963053890
  20
 477.00000000000
  30
0.0
  11
 446.99963053890
  21
 478.50000000000
  31
0.0
   0
LINE
   5
2B9
 100
AcDbEntity
   8
LEVEL002
 370
30
 100
AcDbLine
   6
CONTINUOUS
  62
7
  10
 446.99963053890
  20
 478.50000000000
  30
0.0
  11
 443.99963053890
  21
 478.50000000000
  31
0.0
   0
ARC
   5
2BA
 100
AcDbEntity
   8
LEVEL002
 370
30
   6
CONTINUOUS
  62
7
 100
AcDbCircle
  10
 439.99963053890
  20
 483.62347538310
  30
0.0
  40
 6.5000000000000
 100
AcDbArc
  50
 232.02012755597
  51
 307.97987244505
   0
LINE
   5
2BB
 100
AcDbEntity
   8
LEVEL002
 370
30
 100
AcDbLine
   6
CONTINUOUS
  62
7
  10
 435.99963053890
  20
 478.50000000000
  30
0.0
  11
 432.99963053890
  21
 478.50000000000
  31
0.0
   0
ARC
   5
2BC
 100
AcDbEntity
   8
LEVEL002
 370
30
   6
CONTINUOUS
  62
7
 100
AcDbCircle
  10
 428.99963053900
  20
 483.62347538300
  30
0.0
  40
 6.5000000000000
 100
AcDbArc
  50
 232.02012755467
  51
 307.97987244474
   0
LINE
   5
2BD
 100
AcDbEntity
   8
LEVEL002
 370
30
 100
AcDbLine
   6
CONTINUOUS
  62
7
  10
 424.99963053890
  20
 478.50000000000
  30
0.0
  11
 421.99963053890
  21
 478.50000000000
  31
0.0
   0
ARC
   5
2BE
 100
AcDbEntity
   8
LEVEL002
 370
30
   6
CONTINUOUS
  62
7
 100
AcDbCircle
  10
 417.99963053900
  20
 483.62347538300
  30
0.0
  40
 6.5000000000000
 100
AcDbArc
  50
 232.02012755467
  51
 307.97987244474
   0
LINE
   5
2BF
 100
AcDbEntity
   8
LEVEL002
 370
30
 100
AcDbLine
   6
CONTINUOUS
  62
7
  10
 413.99963053890
  20
 478.50000000000
  30
0.0
  11
 410.99963053890
  21
 478.50000000000
  31
0.0
   0
ARC
   5
2C0
 100
AcDbEntity
   8
LEVEL002
 370
30
   6
CONTINUOUS
  62
7
 100
AcDbCircle
  10
 406.99963053900
  20
 483.62347538300
  30
0.0
  40
 6.5000000000000
 100
AcDbArc
  50
 232.02012755467
  51
 307.97987244474
   0
LINE
   5
2C1
 100
AcDbEntity
   8
LEVEL002
 370
30
 100
AcDbLine
   6
CONTINUOUS
  62
7
  10
 402.99963053890
  20
 478.50000000000
  30
0.0
  11
 399.99963053890
  21
 478.50000000000
  31
0.0
   0
ARC
   5
2C2
 100
AcDbEntity
   8
LEVEL002
 370
30
   6
CONTINUOUS
  62
7
 100
AcDbCircle
  10
 395.99963053890
  20
 483.62347538310
  30
0.0
  40
 6.5000000000000
 100
AcDbArc
  50
 232.02012755597
  51
 307.97987244505
   0
LINE
   5
2C3
 100
AcDbEntity
   8
LEVEL002
 370
30
 100
AcDbLine
   6
CONTINUOUS
  62
7
  10
 391.99963053890
  20
 478.50000000000
  30
0.0
  11
 388.99963053890
  21
 478.50000000000
  31
0.0
   0
ARC
   5
2C4
 100
AcDbEntity
   8
LEVEL002
 370
30
   6
CONTINUOUS
  62
7
 100
AcDbCircle
  10
 384.99963053900
  20
 483.62347538300
  30
0.0
  40
 6.5000000000000
 100
AcDbArc
  50
 232.02012755467
  51
 307.97987244474
   0
LINE
   5
2C5
 100
AcDbEntity
   8
LEVEL002
 370
30
 100
AcDbLine
   6
CONTINUOUS
  62
7
  10
 380.99963053890
  20
 478.50000000000
  30
0.0
  11
 377.99963053890
  21
 478.50000000000
  31
0.0
   0
ARC
   5
2C6
 100
AcDbEntity
   8
LEVEL002
 370
30
   6
CONTINUOUS
  62
7
 100
AcDbCircle
  10
 377.99963053890
  20
 475.50000000000
  30
0.0
  40
 3.0000000000000
 100
AcDbArc
  50
 90.000000000009
  51
 181.65884566586
   0
LINE
   5
2C7
 100
AcDbEntity
   8
LEVEL002
 370
30
 100
AcDbLine
   6
CONTINUOUS
  62
7
  10
 375.00088780620
  20
 475.41315517800
  30
0.0
  11
 376.00067826170
  21
 440.89049403220
  31
0.0
   0
ARC
   5
2C8
 100
AcDbEntity
   8
LEVEL002
 370
30
   6
CONTINUOUS
  62
7
 100
AcDbCircle
  10
 378.49963053900
  20
 440.96286471720
  30
0.0
  40
 2.5000000000000
 100
AcDbArc
  50
 181.65884566567
  51
 260.11219137186
   0
LINE
   5
2C9
 100
AcDbEntity
   8
LEVEL002
 370
30
 100
AcDbLine
   6
CONTINUOUS
  62
7
  10
 378.07033182590
  20
 438.50000000000
  30
0.0
  11
 377.86768745860
  21
 445.50000000000
  31
0.0
   0
LINE
   5
2CA
 100
AcDbEntity
   8
LEVEL002
 370
30
 100
AcDbLine
   6
CONTINUOUS
  62
7
  10
 377.86768745860
  20
 445.50000000000
  30
0.0
  11
 377.36747798850
  21
 445.50000000000
  31
0.0
   0
LINE
   5
2CB
 100
AcDbEntity
   8
LEVEL002
 370
30
 100
AcDbLine
   6
CONTINUOUS
  62
7
  10
 377.36747798850
  20
 445.50000000000
  30
0.0
  11
 376.50852459220
  21
 475.17106292760
  31
0.0
   0
ARC
   5
2CC
 100
AcDbEntity
   8
LEVEL002
 370
30
   6
CONTINUOUS
  62
7
 100
AcDbCircle
  10
 377.50810582690
  20
 475.20000000000
  30
0.0
  40
 1.0000000000000
 100
AcDbArc
  50
 89.999999970349
  51
 181.65820359444
   0
LINE
   5
2CD
 100
AcDbEntity
   8
LEVEL002
 370
30
 100
AcDbLine
   6
CONTINUOUS
  62
7
  10
 374.99999999990
  20
 543.50000000000
  30
0.0
  11
 374.99999999990
  21
 498.50000000000
  31
0.0
   0
LINE
   5
2CE
 100
AcDbEntity
   8
LEVEL002
 370
30
 100
AcDbLine
   6
CONTINUOUS
  62
7
  10
 374.99999999990
  20
 498.50000000000
  30
0.0
  11
 449.99963053890
  21
 498.50000000000
  31
0.0
   0
LINE
   5
2CF
 100
AcDbEntity
   8
LEVEL002
 370
30
 100
AcDbLine
   6
CONTINUOUS
  62
7
  10
 449.99963053890
  20
 498.50000000000
  30
0.0
  11
 449.99963053890
  21
 543.50000000000
  31
0.0
   0
LINE
   5
2D0
 100
AcDbEntity
   8
LEVEL002
 370
30
 100
AcDbLine
   6
CONTINUOUS
  62
7
  10
 380.99963053890
  20
 543.50000000000
  30
0.0
  11
 380.99963053890
  21
 498.50000000000
  31
0.0
   0
LINE
   5
2D1
 100
AcDbEntity
   8
LEVEL002
 370
30
 100
AcDbLine
   6
CONTINUOUS
  62
7
  10
 388.99963053890
  20
 543.50000000000
  30
0.0
  11
 388.99963053890
  21
 498.50000000000
  31
0.0
   0
LINE
   5
2D2
 100
AcDbEntity
   8
LEVEL002
 370
30
 100
AcDbLine
   6
CONTINUOUS
  62
7
  10
 391.99963053890
  20
 543.50000000000
  30
0.0
  11
 391.99963053890
  21
 498.50000000000
  31
0.0
   0
LINE
   5
2D3
 100
AcDbEntity
   8
LEVEL002
 370
30
 100
AcDbLine
   6
CONTINUOUS
  62
7
  10
 399.99963053890
  20
 543.50000000000
  30
0.0
  11
 399.99963053890
  21
 498.50000000000
  31
0.0
   0
LINE
   5
2D4
 100
AcDbEntity
   8
LEVEL002
 370
30
 100
AcDbLine
   6
CONTINUOUS
  62
7
  10
 402.99963053890
  20
 543.50000000000
  30
0.0
  11
 402.99963053890
  21
 498.50000000000
  31
0.0
   0
LINE
   5
2D5
 100
AcDbEntity
   8
LEVEL002
 370
30
 100
AcDbLine
   6
CONTINUOUS
  62
7
  10
 410.99963053890
  20
 543.50000000000
  30
0.0
  11
 410.99963053890
  21
 498.50000000000
  31
0.0
   0
LINE
   5
2D6
 100
AcDbEntity
   8
LEVEL002
 370
30
 100
AcDbLine
   6
CONTINUOUS
  62
7
  10
 413.99963053890
  20
 543.50000000000
  30
0.0
  11
 413.99963053890
  21
 498.50000000000
  31
0.0
   0
LINE
   5
2D7
 100
AcDbEntity
   8
LEVEL002
 370
30
 100
AcDbLine
   6
CONTINUOUS
  62
7
  10
 421.99963053890
  20
 543.50000000000
  30
0.0
  11
 421.99963053890
  21
 498.50000000000
  31
0.0
   0
LINE
   5
2D8
 100
AcDbEntity
   8
LEVEL002
 370
30
 100
AcDbLine
   6
CONTINUOUS
  62
7
  10
 424.99963053890
  20
 543.50000000000
  30
0.0
  11
 424.99963053890
  21
 498.50000000000
  31
0.0
   0
LINE
   5
2D9
 100
AcDbEntity
   8
LEVEL002
 370
30
 100
AcDbLine
   6
CONTINUOUS
  62
7
  10
 432.99963053890
  20
 543.50000000000
  30
0.0
  11
 432.99963053890
  21
 498.50000000000
  31
0.0
   0
LINE
   5
2DA
 100
AcDbEntity
   8
LEVEL002
 370
30
 100
AcDbLine
   6
CONTINUOUS
  62
7
  10
 435.99963053890
  20
 543.50000000000
  30
0.0
  11
 435.99963053890
  21
 498.50000000000
  31
0.0
   0
LINE
   5
2DB
 100
AcDbEntity
   8
LEVEL002
 370
30
 100
AcDbLine
   6
CONTINUOUS
  62
7
  10
 443.99963053890
  20
 543.50000000000
  30
0.0
  11
 443.99963053890
  21
 498.50000000000
  31
0.0
   0
LINE
   5
2DC
 100
AcDbEntity
   8
LEVEL002
 370
30
 100
AcDbLine
   6
CONTINUOUS
  62
7
  10
 446.99963053890
  20
 543.50000000000
  30
0.0
  11
 446.99963053890
  21
 498.50000000000
  31
0.0
   0
LINE
   5
2DD
 100
AcDbEntity
   8
LEVEL002
 370
30
 100
AcDbLine
   6
CONTINUOUS
  62
7
  10
 93.999154104200
  20
 303.00000000002
  30
0.0
  11
 93.932338793700
  21
 306.00000000002
  31
0.0
   0
LINE
   5
2DE
 100
AcDbEntity
   8
LEVEL002
 370
30
 100
AcDbLine
   6
CONTINUOUS
  62
7
  10
 93.932338793700
  20
 306.00000000002
  30
0.0
  11
 93.431223965100
  21
 306.00000000002
  31
0.0
   0
LINE
   5
2DF
 100
AcDbEntity
   8
LEVEL002
 370
30
 100
AcDbLine
   6
CONTINUOUS
  62
7
  10
 93.431223965100
  20
 306.00000000002
  30
0.0
  11
 92.696255549900
  21
 317.00000000002
  31
0.0
   0
LINE
   5
2E0
 100
AcDbEntity
   8
LEVEL002
 370
30
 100
AcDbLine
   6
CONTINUOUS
  62
7
  10
 92.696255549900
  20
 317.00000000002
  30
0.0
  11
 100.99915410420
  21
 317.00000000002
  31
0.0
   0
LINE
   5
2E1
 100
AcDbEntity
   8
LEVEL002
 370
30
 100
AcDbLine
   6
CONTINUOUS
  62
7
  10
 100.99915410420
  20
 317.00000000002
  30
0.0
  11
 101.19915410420
  21
 317.21293502130
  31
0.0
   0
LINE
   5
2E2
 100
AcDbEntity
   8
LEVEL002
 370
30
 100
AcDbLine
   6
CONTINUOUS
  62
7
  10
 101.19915410420
  20
 317.21293502130
  30
0.0
  11
 101.39915410420
  21
 317.00000000002
  31
0.0
   0
LINE
   5
2E3
 100
AcDbEntity
   8
LEVEL002
 370
30
 100
AcDbLine
   6
CONTINUOUS
  62
7
  10
 101.39915410420
  20
 317.00000000002
  30
0.0
  11
 101.59915410420
  21
 317.21293502130
  31
0.0
   0
LINE
   5
2E4
 100
AcDbEntity
   8
LEVEL002
 370
30
 100
AcDbLine
   6
CONTINUOUS
  62
7
  10
 101.59915410420
  20
 317.21293502130
  30
0.0
  11
 101.79915410420
  21
 317.00000000002
  31
0.0
   0
LINE
   5
2E5
 100
AcDbEntity
   8
LEVEL002
 370
30
 100
AcDbLine
   6
CONTINUOUS
  62
7
  10
 101.79915410420
  20
 317.00000000002
  30
0.0
  11
 101.99915410420
  21
 317.21293502130
  31
0.0
   0
LINE
   5
2E6
 100
AcDbEntity
   8
LEVEL002
 370
30
 100
AcDbLine
   6
CONTINUOUS
  62
7
  10
 101.99915410420
  20
 317.21293502130
  30
0.0
  11
 102.19915410420
  21
 317.00000000002
  31
0.0
   0
LINE
   5
2E7
 100
AcDbEntity
   8
LEVEL002
 370
30
 100
AcDbLine
   6
CONTINUOUS
  62
7
  10
 102.19915410420
  20
 317.00000000002
  30
0.0
  11
 102.39915410420
  21
 317.21293502130
  31
0.0
   0
LINE
   5
2E8
 100
AcDbEntity
   8
LEVEL002
 370
30
 100
AcDbLine
   6
CONTINUOUS
  62
7
  10
 102.39915410420
  20
 317.21293502130
  30
0.0
  11
 102.59915410420
  21
 317.00000000002
  31
0.0
   0
LINE
   5
2E9
 100
AcDbEntity
   8
LEVEL002
 370
30
 100
AcDbLine
   6
CONTINUOUS
  62
7
  10
 102.59915410420
  20
 317.00000000002
  30
0.0
  11
 102.79915410420
  21
 317.21293502130
  31
0.0
   0
LINE
   5
2EA
 100
AcDbEntity
   8
LEVEL002
 370
30
 100
AcDbLine
   6
CONTINUOUS
  62
7
  10
 102.79915410420
  20
 317.21293502130
  30
0.0
  11
 102.99915410420
  21
 317.00000000002
  31
0.0
   0
LINE
   5
2EB
 100
AcDbEntity
   8
LEVEL002
 370
30
 100
AcDbLine
   6
CONTINUOUS
  62
7
  10
 102.99915410420
  20
 317.00000000002
  30
0.0
  11
 103.19915410420
  21
 317.21293502130
  31
0.0
   0
LINE
   5
2EC
 100
AcDbEntity
   8
LEVEL002
 370
30
 100
AcDbLine
   6
CONTINUOUS
  62
7
  10
 103.19915410420
  20
 317.21293502130
  30
0.0
  11
 103.39915410420
  21
 317.00000000002
  31
0.0
   0
LINE
   5
2ED
 100
AcDbEntity
   8
LEVEL002
 370
30
 100
AcDbLine
   6
CONTINUOUS
  62
7
  10
 103.39915410420
  20
 317.00000000002
  30
0.0
  11
 103.59915410420
  21
 317.21293502130
  31
0.0
   0
LINE
   5
2EE
 100
AcDbEntity
   8
LEVEL002
 370
30
 100
AcDbLine
   6
CONTINUOUS
  62
7
  10
 103.59915410420
  20
 317.21293502130
  30
0.0
  11
 103.79915410420
  21
 317.00000000002
  31
0.0
   0
LINE
   5
2EF
 100
AcDbEntity
   8
LEVEL002
 370
30
 100
AcDbLine
   6
CONTINUOUS
  62
7
  10
 103.79915410420
  20
 317.00000000002
  30
0.0
  11
 103.99915410420
  21
 317.21293502130
  31
0.0
   0
LINE
   5
2F0
 100
AcDbEntity
   8
LEVEL002
 370
30
 100
AcDbLine
   6
CONTINUOUS
  62
7
  10
 103.99915410420
  20
 317.21293502130
  30
0.0
  11
 104.19915410420
  21
 317.00000000002
  31
0.0
   0
LINE
   5
2F1
 100
AcDbEntity
   8
LEVEL002
 370
30
 100
AcDbLine
   6
CONTINUOUS
  62
7
  10
 104.19915410420
  20
 317.00000000002
  30
0.0
  11
 104.39915410420
  21
 317.21293502130
  31
0.0
   0
LINE
   5
2F2
 100
AcDbEntity
   8
LEVEL002
 370
30
 100
AcDbLine
   6
CONTINUOUS
  62
7
  10
 104.39915410420
  20
 317.21293502130
  30
0.0
  11
 104.59915410420
  21
 317.00000000002
  31
0.0
   0
LINE
   5
2F3
 100
AcDbEntity
   8
LEVEL002
 370
30
 100
AcDbLine
   6
CONTINUOUS
  62
7
  10
 104.59915410420
  20
 317.00000000002
  30
0.0
  11
 104.79915410420
  21
 317.21293502130
  31
0.0
   0
LINE
   5
2F4
 100
AcDbEntity
   8
LEVEL002
 370
30
 100
AcDbLine
   6
CONTINUOUS
  62
7
  10
 104.79915410420
  20
 317.21293502130
  30
0.0
  11
 104.99915410420
  21
 317.00000000002
  31
0.0
   0
LINE
   5
2F5
 100
AcDbEntity
   8
LEVEL002
 370
30
 100
AcDbLine
   6
CONTINUOUS
  62
7
  10
 104.99915410420
  20
 317.00000000002
  30
0.0
  11
 105.19915410420
  21
 317.21293502130
  31
0.0
   0
LINE
   5
2F6
 100
AcDbEntity
   8
LEVEL002
 370
30
 100
AcDbLine
   6
CONTINUOUS
  62
7
  10
 105.19915410420
  20
 317.21293502130
  30
0.0
  11
 105.39915410420
  21
 317.00000000002
  31
0.0
   0
LINE
   5
2F7
 100
AcDbEntity
   8
LEVEL002
 370
30
 100
AcDbLine
   6
CONTINUOUS
  62
7
  10
 105.39915410420
  20
 317.00000000002
  30
0.0
  11
 105.59915410420
  21
 317.21293502130
  31
0.0
   0
LINE
   5
2F8
 100
AcDbEntity
   8
LEVEL002
 370
30
 100
AcDbLine
   6
CONTINUOUS
  62
7
  10
 105.59915410420
  20
 317.21293502130
  30
0.0
  11
 105.79915410420
  21
 317.00000000002
  31
0.0
   0
LINE
   5
2F9
 100
AcDbEntity
   8
LEVEL002
 370
30
 100
AcDbLine
   6
CONTINUOUS
  62
7
  10
 105.79915410420
  20
 317.00000000002
  30
0.0
  11
 105.99915410420
  21
 317.21293502130
  31
0.0
   0
LINE
   5
2FA
 100
AcDbEntity
   8
LEVEL002
 370
30
 100
AcDbLine
   6
CONTINUOUS
  62
7
  10
 105.99915410420
  20
 317.21293502130
  30
0.0
  11
 106.19915410420
  21
 317.00000000002
  31
0.0
   0
LINE
   5
2FB
 100
AcDbEntity
   8
LEVEL002
 370
30
 100
AcDbLine
   6
CONTINUOUS
  62
7
  10
 106.19915410420
  20
 317.00000000002
  30
0.0
  11
 106.39915410420
  21
 317.21293502130
  31
0.0
   0
LINE
   5
2FC
 100
AcDbEntity
   8
LEVEL002
 370
30
 100
AcDbLine
   6
CONTINUOUS
  62
7
  10
 106.39915410420
  20
 317.21293502130
  30
0.0
  11
 106.59915410420
  21
 317.00000000002
  31
0.0
   0
LINE
   5
2FD
 100
AcDbEntity
   8
LEVEL002
 370
30
 100
AcDbLine
   6
CONTINUOUS
  62
7
  10
 106.59915410420
  20
 317.00000000002
  30
0.0
  11
 106.79915410420
  21
 317.21293502130
  31
0.0
   0
LINE
   5
2FE
 100
AcDbEntity
   8
LEVEL002
 370
30
 100
AcDbLine
   6
CONTINUOUS
  62
7
  10
 106.79915410420
  20
 317.21293502130
  30
0.0
  11
 106.99915410420
  21
 317.00000000002
  31
0.0
   0
LINE
   5
2FF
 100
AcDbEntity
   8
LEVEL002
 370
30
 100
AcDbLine
   6
CONTINUOUS
  62
7
  10
 106.99915410420
  20
 317.00000000002
  30
0.0
  11
 107.19915410420
  21
 317.21293502130
  31
0.0
   0
LINE
   5
300
 100
AcDbEntity
   8
LEVEL002
 370
30
 100
AcDbLine
   6
CONTINUOUS
  62
7
  10
 107.19915410420
  20
 317.21293502130
  30
0.0
  11
 107.39915410420
  21
 317.00000000002
  31
0.0
   0
LINE
   5
301
 100
AcDbEntity
   8
LEVEL002
 370
30
 100
AcDbLine
   6
CONTINUOUS
  62
7
  10
 107.39915410420
  20
 317.00000000002
  30
0.0
  11
 107.59915410420
  21
 317.21293502130
  31
0.0
   0
LINE
   5
302
 100
AcDbEntity
   8
LEVEL002
 370
30
 100
AcDbLine
   6
CONTINUOUS
  62
7
  10
 107.59915410420
  20
 317.21293502130
  30
0.0
  11
 107.79915410420
  21
 317.00000000002
  31
0.0
   0
LINE
   5
303
 100
AcDbEntity
   8
LEVEL002
 370
30
 100
AcDbLine
   6
CONTINUOUS
  62
7
  10
 107.79915410420
  20
 317.00000000002
  30
0.0
  11
 107.99915410420
  21
 317.21293502130
  31
0.0
   0
LINE
   5
304
 100
AcDbEntity
   8
LEVEL002
 370
30
 100
AcDbLine
   6
CONTINUOUS
  62
7
  10
 107.99915410420
  20
 317.21293502130
  30
0.0
  11
 108.19915410420
  21
 317.00000000002
  31
0.0
   0
LINE
   5
305
 100
AcDbEntity
   8
LEVEL002
 370
30
 100
AcDbLine
   6
CONTINUOUS
  62
7
  10
 108.19915410420
  20
 317.00000000002
  30
0.0
  11
 108.39915410420
  21
 317.21293502130
  31
0.0
   0
LINE
   5
306
 100
AcDbEntity
   8
LEVEL002
 370
30
 100
AcDbLine
   6
CONTINUOUS
  62
7
  10
 108.39915410420
  20
 317.21293502130
  30
0.0
  11
 108.59915410420
  21
 317.00000000002
  31
0.0
   0
LINE
   5
307
 100
AcDbEntity
   8
LEVEL002
 370
30
 100
AcDbLine
   6
CONTINUOUS
  62
7
  10
 108.59915410420
  20
 317.00000000002
  30
0.0
  11
 108.79915410420
  21
 317.21293502130
  31
0.0
   0
LINE
   5
308
 100
AcDbEntity
   8
LEVEL002
 370
30
 100
AcDbLine
   6
CONTINUOUS
  62
7
  10
 108.79915410420
  20
 317.21293502130
  30
0.0
  11
 108.99915410420
  21
 317.00000000002
  31
0.0
   0
LINE
   5
309
 100
AcDbEntity
   8
LEVEL002
 370
30
 100
AcDbLine
   6
CONTINUOUS
  62
7
  10
 108.99915410420
  20
 317.00000000002
  30
0.0
  11
 109.19915410420
  21
 317.21293502130
  31
0.0
   0
LINE
   5
30A
 100
AcDbEntity
   8
LEVEL002
 370
30
 100
AcDbLine
   6
CONTINUOUS
  62
7
  10
 109.19915410420
  20
 317.21293502130
  30
0.0
  11
 109.39915410420
  21
 317.00000000002
  31
0.0
   0
LINE
   5
30B
 100
AcDbEntity
   8
LEVEL002
 370
30
 100
AcDbLine
   6
CONTINUOUS
  62
7
  10
 109.39915410420
  20
 317.00000000002
  30
0.0
  11
 109.59915410420
  21
 317.21293502130
  31
0.0
   0
LINE
   5
30C
 100
AcDbEntity
   8
LEVEL002
 370
30
 100
AcDbLine
   6
CONTINUOUS
  62
7
  10
 109.59915410420
  20
 317.21293502130
  30
0.0
  11
 109.79915410420
  21
 317.00000000002
  31
0.0
   0
LINE
   5
30D
 100
AcDbEntity
   8
LEVEL002
 370
30
 100
AcDbLine
   6
CONTINUOUS
  62
7
  10
 109.79915410420
  20
 317.00000000002
  30
0.0
  11
 109.99915410420
  21
 317.21293502130
  31
0.0
   0
LINE
   5
30E
 100
AcDbEntity
   8
LEVEL002
 370
30
 100
AcDbLine
   6
CONTINUOUS
  62
7
  10
 109.99915410420
  20
 317.21293502130
  30
0.0
  11
 110.19915410420
  21
 317.00000000002
  31
0.0
   0
LINE
   5
30F
 100
AcDbEntity
   8
LEVEL002
 370
30
 100
AcDbLine
   6
CONTINUOUS
  62
7
  10
 110.19915410420
  20
 317.00000000002
  30
0.0
  11
 110.39915410420
  21
 317.21293502130
  31
0.0
   0
LINE
   5
310
 100
AcDbEntity
   8
LEVEL002
 370
30
 100
AcDbLine
   6
CONTINUOUS
  62
7
  10
 110.39915410420
  20
 317.21293502130
  30
0.0
  11
 110.59915410420
  21
 317.00000000002
  31
0.0
   0
LINE
   5
311
 100
AcDbEntity
   8
LEVEL002
 370
30
 100
AcDbLine
   6
CONTINUOUS
  62
7
  10
 110.59915410420
  20
 317.00000000002
  30
0.0
  11
 110.79915410420
  21
 317.21293502130
  31
0.0
   0
LINE
   5
312
 100
AcDbEntity
   8
LEVEL002
 370
30
 100
AcDbLine
   6
CONTINUOUS
  62
7
  10
 110.79915410420
  20
 317.21293502130
  30
0.0
  11
 110.99915410420
  21
 317.00000000002
  31
0.0
   0
LINE
   5
313
 100
AcDbEntity
   8
LEVEL002
 370
30
 100
AcDbLine
   6
CONTINUOUS
  62
7
  10
 110.99915410420
  20
 317.00000000002
  30
0.0
  11
 111.19915410420
  21
 317.21293502130
  31
0.0
   0
LINE
   5
314
 100
AcDbEntity
   8
LEVEL002
 370
30
 100
AcDbLine
   6
CONTINUOUS
  62
7
  10
 111.19915410420
  20
 317.21293502130
  30
0.0
  11
 111.39915410420
  21
 317.00000000002
  31
0.0
   0
LINE
   5
315
 100
AcDbEntity
   8
LEVEL002
 370
30
 100
AcDbLine
   6
CONTINUOUS
  62
7
  10
 111.39915410420
  20
 317.00000000002
  30
0.0
  11
 111.59915410420
  21
 317.21293502130
  31
0.0
   0
LINE
   5
316
 100
AcDbEntity
   8
LEVEL002
 370
30
 100
AcDbLine
   6
CONTINUOUS
  62
7
  10
 111.59915410420
  20
 317.21293502130
  30
0.0
  11
 111.79915410420
  21
 317.00000000002
  31
0.0
   0
LINE
   5
317
 100
AcDbEntity
   8
LEVEL002
 370
30
 100
AcDbLine
   6
CONTINUOUS
  62
7
  10
 111.79915410420
  20
 317.00000000002
  30
0.0
  11
 111.99915410420
  21
 317.21293502130
  31
0.0
   0
LINE
   5
318
 100
AcDbEntity
   8
LEVEL002
 370
30
 100
AcDbLine
   6
CONTINUOUS
  62
7
  10
 111.99915410420
  20
 317.21293502130
  30
0.0
  11
 112.19915410420
  21
 317.00000000002
  31
0.0
   0
LINE
   5
319
 100
AcDbEntity
   8
LEVEL002
 370
30
 100
AcDbLine
   6
CONTINUOUS
  62
7
  10
 112.19915410420
  20
 317.00000000002
  30
0.0
  11
 112.39915410420
  21
 317.21293502130
  31
0.0
   0
LINE
   5
31A
 100
AcDbEntity
   8
LEVEL002
 370
30
 100
AcDbLine
   6
CONTINUOUS
  62
7
  10
 112.39915410420
  20
 317.21293502130
  30
0.0
  11
 112.59915410420
  21
 317.00000000002
  31
0.0
   0
LINE
   5
31B
 100
AcDbEntity
   8
LEVEL002
 370
30
 100
AcDbLine
   6
CONTINUOUS
  62
7
  10
 112.59915410420
  20
 317.00000000002
  30
0.0
  11
 112.79915410420
  21
 317.21293502130
  31
0.0
   0
LINE
   5
31C
 100
AcDbEntity
   8
LEVEL002
 370
30
 100
AcDbLine
   6
CONTINUOUS
  62
7
  10
 112.79915410420
  20
 317.21293502130
  30
0.0
  11
 112.99915410420
  21
 317.00000000002
  31
0.0
   0
LINE
   5
31D
 100
AcDbEntity
   8
LEVEL002
 370
30
 100
AcDbLine
   6
CONTINUOUS
  62
7
  10
 112.99915410420
  20
 317.00000000002
  30
0.0
  11
 113.19915410420
  21
 317.21293502130
  31
0.0
   0
LINE
   5
31E
 100
AcDbEntity
   8
LEVEL002
 370
30
 100
AcDbLine
   6
CONTINUOUS
  62
7
  10
 113.19915410420
  20
 317.21293502130
  30
0.0
  11
 113.39915410420
  21
 317.00000000002
  31
0.0
   0
LINE
   5
31F
 100
AcDbEntity
   8
LEVEL002
 370
30
 100
AcDbLine
   6
CONTINUOUS
  62
7
  10
 113.39915410420
  20
 317.00000000002
  30
0.0
  11
 113.59915410420
  21
 317.21293502130
  31
0.0
   0
LINE
   5
320
 100
AcDbEntity
   8
LEVEL002
 370
30
 100
AcDbLine
   6
CONTINUOUS
  62
7
  10
 113.59915410420
  20
 317.21293502130
  30
0.0
  11
 113.79915410420
  21
 317.00000000002
  31
0.0
   0
LINE
   5
321
 100
AcDbEntity
   8
LEVEL002
 370
30
 100
AcDbLine
   6
CONTINUOUS
  62
7
  10
 113.79915410420
  20
 317.00000000002
  30
0.0
  11
 113.99915410420
  21
 317.21293502130
  31
0.0
   0
LINE
   5
322
 100
AcDbEntity
   8
LEVEL002
 370
30
 100
AcDbLine
   6
CONTINUOUS
  62
7
  10
 113.99915410420
  20
 317.21293502130
  30
0.0
  11
 114.19915410420
  21
 317.00000000002
  31
0.0
   0
LINE
   5
323
 100
AcDbEntity
   8
LEVEL002
 370
30
 100
AcDbLine
   6
CONTINUOUS
  62
7
  10
 114.19915410420
  20
 317.00000000002
  30
0.0
  11
 114.39915410420
  21
 317.21293502130
  31
0.0
   0
LINE
   5
324
 100
AcDbEntity
   8
LEVEL002
 370
30
 100
AcDbLine
   6
CONTINUOUS
  62
7
  10
 114.39915410420
  20
 317.21293502130
  30
0.0
  11
 114.59915410420
  21
 317.00000000002
  31
0.0
   0
LINE
   5
325
 100
AcDbEntity
   8
LEVEL002
 370
30
 100
AcDbLine
   6
CONTINUOUS
  62
7
  10
 114.59915410420
  20
 317.00000000002
  30
0.0
  11
 114.79915410420
  21
 317.21293502130
  31
0.0
   0
LINE
   5
326
 100
AcDbEntity
   8
LEVEL002
 370
30
 100
AcDbLine
   6
CONTINUOUS
  62
7
  10
 114.79915410420
  20
 317.21293502130
  30
0.0
  11
 114.99915410420
  21
 317.00000000002
  31
0.0
   0
LINE
   5
327
 100
AcDbEntity
   8
LEVEL002
 370
30
 100
AcDbLine
   6
CONTINUOUS
  62
7
  10
 114.99915410420
  20
 317.00000000002
  30
0.0
  11
 115.19915410420
  21
 317.21293502130
  31
0.0
   0
LINE
   5
328
 100
AcDbEntity
   8
LEVEL002
 370
30
 100
AcDbLine
   6
CONTINUOUS
  62
7
  10
 115.19915410420
  20
 317.21293502130
  30
0.0
  11
 115.39915410420
  21
 317.00000000002
  31
0.0
   0
LINE
   5
329
 100
AcDbEntity
   8
LEVEL002
 370
30
 100
AcDbLine
   6
CONTINUOUS
  62
7
  10
 115.39915410420
  20
 317.00000000002
  30
0.0
  11
 115.59915410420
  21
 317.21293502130
  31
0.0
   0
LINE
   5
32A
 100
AcDbEntity
   8
LEVEL002
 370
30
 100
AcDbLine
   6
CONTINUOUS
  62
7
  10
 115.59915410420
  20
 317.21293502130
  30
0.0
  11
 115.79915410420
  21
 317.00000000002
  31
0.0
   0
LINE
   5
32B
 100
AcDbEntity
   8
LEVEL002
 370
30
 100
AcDbLine
   6
CONTINUOUS
  62
7
  10
 115.79915410420
  20
 317.00000000002
  30
0.0
  11
 115.99915410420
  21
 317.21293502130
  31
0.0
   0
LINE
   5
32C
 100
AcDbEntity
   8
LEVEL002
 370
30
 100
AcDbLine
   6
CONTINUOUS
  62
7
  10
 115.99915410420
  20
 317.21293502130
  30
0.0
  11
 116.19915410420
  21
 317.00000000002
  31
0.0
   0
LINE
   5
32D
 100
AcDbEntity
   8
LEVEL002
 370
30
 100
AcDbLine
   6
CONTINUOUS
  62
7
  10
 116.19915410420
  20
 317.00000000002
  30
0.0
  11
 116.39915410420
  21
 317.21293502130
  31
0.0
   0
LINE
   5
32E
 100
AcDbEntity
   8
LEVEL002
 370
30
 100
AcDbLine
   6
CONTINUOUS
  62
7
  10
 116.39915410420
  20
 317.21293502130
  30
0.0
  11
 116.59915410420
  21
 317.00000000002
  31
0.0
   0
LINE
   5
32F
 100
AcDbEntity
   8
LEVEL002
 370
30
 100
AcDbLine
   6
CONTINUOUS
  62
7
  10
 116.59915410420
  20
 317.00000000002
  30
0.0
  11
 116.79915410420
  21
 317.21293502130
  31
0.0
   0
LINE
   5
330
 100
AcDbEntity
   8
LEVEL002
 370
30
 100
AcDbLine
   6
CONTINUOUS
  62
7
  10
 116.79915410420
  20
 317.21293502130
  30
0.0
  11
 116.99915410420
  21
 317.00000000002
  31
0.0
   0
LINE
   5
331
 100
AcDbEntity
   8
LEVEL002
 370
30
 100
AcDbLine
   6
CONTINUOUS
  62
7
  10
 116.99915410420
  20
 317.00000000002
  30
0.0
  11
 117.19915410420
  21
 317.21293502130
  31
0.0
   0
LINE
   5
332
 100
AcDbEntity
   8
LEVEL002
 370
30
 100
AcDbLine
   6
CONTINUOUS
  62
7
  10
 117.19915410420
  20
 317.21293502130
  30
0.0
  11
 117.39915410420
  21
 317.00000000002
  31
0.0
   0
LINE
   5
333
 100
AcDbEntity
   8
LEVEL002
 370
30
 100
AcDbLine
   6
CONTINUOUS
  62
7
  10
 117.39915410420
  20
 317.00000000002
  30
0.0
  11
 117.59915410420
  21
 317.21293502130
  31
0.0
   0
LINE
   5
334
 100
AcDbEntity
   8
LEVEL002
 370
30
 100
AcDbLine
   6
CONTINUOUS
  62
7
  10
 117.59915410420
  20
 317.21293502130
  30
0.0
  11
 117.79915410420
  21
 317.00000000002
  31
0.0
   0
LINE
   5
335
 100
AcDbEntity
   8
LEVEL002
 370
30
 100
AcDbLine
   6
CONTINUOUS
  62
7
  10
 117.79915410420
  20
 317.00000000002
  30
0.0
  11
 117.99915410420
  21
 317.21293502130
  31
0.0
   0
LINE
   5
336
 100
AcDbEntity
   8
LEVEL002
 370
30
 100
AcDbLine
   6
CONTINUOUS
  62
7
  10
 117.99915410420
  20
 317.21293502130
  30
0.0
  11
 118.19915410420
  21
 317.00000000002
  31
0.0
   0
LINE
   5
337
 100
AcDbEntity
   8
LEVEL002
 370
30
 100
AcDbLine
   6
CONTINUOUS
  62
7
  10
 118.19915410420
  20
 317.00000000002
  30
0.0
  11
 118.39915410420
  21
 317.21293502130
  31
0.0
   0
LINE
   5
338
 100
AcDbEntity
   8
LEVEL002
 370
30
 100
AcDbLine
   6
CONTINUOUS
  62
7
  10
 118.39915410420
  20
 317.21293502130
  30
0.0
  11
 118.59915410420
  21
 317.00000000002
  31
0.0
   0
LINE
   5
339
 100
AcDbEntity
   8
LEVEL002
 370
30
 100
AcDbLine
   6
CONTINUOUS
  62
7
  10
 118.59915410420
  20
 317.00000000002
  30
0.0
  11
 118.79915410420
  21
 317.21293502130
  31
0.0
   0
LINE
   5
33A
 100
AcDbEntity
   8
LEVEL002
 370
30
 100
AcDbLine
   6
CONTINUOUS
  62
7
  10
 118.79915410420
  20
 317.21293502130
  30
0.0
  11
 118.99915410420
  21
 317.00000000002
  31
0.0
   0
LINE
   5
33B
 100
AcDbEntity
   8
LEVEL002
 370
30
 100
AcDbLine
   6
CONTINUOUS
  62
7
  10
 118.99915410420
  20
 317.00000000002
  30
0.0
  11
 119.19915410420
  21
 317.21293502130
  31
0.0
   0
LINE
   5
33C
 100
AcDbEntity
   8
LEVEL002
 370
30
 100
AcDbLine
   6
CONTINUOUS
  62
7
  10
 119.19915410420
  20
 317.21293502130
  30
0.0
  11
 119.39915410420
  21
 317.00000000002
  31
0.0
   0
LINE
   5
33D
 100
AcDbEntity
   8
LEVEL002
 370
30
 100
AcDbLine
   6
CONTINUOUS
  62
7
  10
 119.39915410420
  20
 317.00000000002
  30
0.0
  11
 119.59915410420
  21
 317.21293502130
  31
0.0
   0
LINE
   5
33E
 100
AcDbEntity
   8
LEVEL002
 370
30
 100
AcDbLine
   6
CONTINUOUS
  62
7
  10
 119.59915410420
  20
 317.21293502130
  30
0.0
  11
 119.79915410420
  21
 317.00000000002
  31
0.0
   0
LINE
   5
33F
 100
AcDbEntity
   8
LEVEL002
 370
30
 100
AcDbLine
   6
CONTINUOUS
  62
7
  10
 119.79915410420
  20
 317.00000000002
  30
0.0
  11
 119.99915410420
  21
 317.21293502130
  31
0.0
   0
LINE
   5
340
 100
AcDbEntity
   8
LEVEL002
 370
30
 100
AcDbLine
   6
CONTINUOUS
  62
7
  10
 119.99915410420
  20
 317.21293502130
  30
0.0
  11
 120.19915410420
  21
 317.00000000002
  31
0.0
   0
LINE
   5
341
 100
AcDbEntity
   8
LEVEL002
 370
30
 100
AcDbLine
   6
CONTINUOUS
  62
7
  10
 120.19915410420
  20
 317.00000000002
  30
0.0
  11
 120.39915410420
  21
 317.21293502130
  31
0.0
   0
LINE
   5
342
 100
AcDbEntity
   8
LEVEL002
 370
30
 100
AcDbLine
   6
CONTINUOUS
  62
7
  10
 120.39915410420
  20
 317.21293502130
  30
0.0
  11
 120.59915410420
  21
 317.00000000002
  31
0.0
   0
LINE
   5
343
 100
AcDbEntity
   8
LEVEL002
 370
30
 100
AcDbLine
   6
CONTINUOUS
  62
7
  10
 120.59915410420
  20
 317.00000000002
  30
0.0
  11
 120.79915410420
  21
 317.21293502130
  31
0.0
   0
LINE
   5
344
 100
AcDbEntity
   8
LEVEL002
 370
30
 100
AcDbLine
   6
CONTINUOUS
  62
7
  10
 120.79915410420
  20
 317.21293502130
  30
0.0
  11
 120.99915410420
  21
 317.00000000002
  31
0.0
   0
LINE
   5
345
 100
AcDbEntity
   8
LEVEL002
 370
30
 100
AcDbLine
   6
CONTINUOUS
  62
7
  10
 120.99915410420
  20
 317.00000000002
  30
0.0
  11
 130.99915410420
  21
 317.00000000002
  31
0.0
   0
LINE
   5
346
 100
AcDbEntity
   8
LEVEL002
 370
30
 100
AcDbLine
   6
CONTINUOUS
  62
7
  10
 130.99915410420
  20
 317.00000000002
  30
0.0
  11
 130.99915410420
  21
 317.01293502130
  31
0.0
   0
ARC
   5
347
 100
AcDbEntity
   8
LEVEL002
 370
30
   6
CONTINUOUS
  62
7
 100
AcDbCircle
  10
 129.99915410440
  20
 317.01293502130
  30
0.0
  40
 1.0000000000000
 100
AcDbArc
  50
0.0
  51
 89.254064002468
   0
LINE
   5
348
 100
AcDbEntity
   8
LEVEL002
 370
30
 100
AcDbLine
   6
CONTINUOUS
  62
7
  10
 130.01217277580
  20
 318.01285027481
  30
0.0
  11
 116.19658361640
  21
 318.19272613662
  31
0.0
   0
LINE
   5
349
 100
AcDbEntity
   8
LEVEL002
 370
30
 100
AcDbLine
   6
CONTINUOUS
  62
7
  10
 116.19658361640
  20
 318.19272613662
  30
0.0
  11
 115.99915410430
  21
 317.99529662452
  31
0.0
   0
LINE
   5
34A
 100
AcDbEntity
   8
LEVEL002
 370
30
 100
AcDbLine
   6
CONTINUOUS
  62
7
  10
 115.99915410430
  20
 317.99529662452
  30
0.0
  11
 115.79651579920
  21
 318.19793492957
  31
0.0
   0
LINE
   5
34B
 100
AcDbEntity
   8
LEVEL002
 370
30
 100
AcDbLine
   6
CONTINUOUS
  62
7
  10
 115.79651579920
  20
 318.19793492957
  30
0.0
  11
 92.596032584200
  21
 318.50000000002
  31
0.0
   0
LINE
   5
34C
 100
AcDbEntity
   8
LEVEL002
 370
30
 100
AcDbLine
   6
CONTINUOUS
  62
7
  10
 92.596032584200
  20
 318.50000000002
  30
0.0
  11
 92.428994308000
  21
 321.00000000002
  31
0.0
   0
LINE
   5
34D
 100
AcDbEntity
   8
LEVEL002
 370
30
 100
AcDbLine
   6
CONTINUOUS
  62
7
  10
 92.428994308000
  20
 321.00000000002
  30
0.0
  11
 97.999154104200
  21
 322.00000000002
  31
0.0
   0
LINE
   5
34E
 100
AcDbEntity
   8
LEVEL002
 370
30
 100
AcDbLine
   6
CONTINUOUS
  62
7
  10
 97.999154104200
  20
 322.00000000002
  30
0.0
  11
 97.999154104200
  21
 322.50000000002
  31
0.0
   0
ARC
   5
34F
 100
AcDbEntity
   8
LEVEL002
 370
30
   6
CONTINUOUS
  62
7
 100
AcDbCircle
  10
 97.499154103900
  20
 322.50000000002
  30
0.0
  40
 0.50000000000000
 100
AcDbArc
  50
0.0
  51
 89.999999968838
   0
LINE
   5
350
 100
AcDbEntity
   8
LEVEL002
 370
30
 100
AcDbLine
   6
CONTINUOUS
  62
7
  10
 97.499154104200
  20
 323.00000000002
  30
0.0
  11
 93.999154104200
  21
 323.00000000002
  31
0.0
   0
ARC
   5
351
 100
AcDbEntity
   8
LEVEL002
 370
30
   6
CONTINUOUS
  62
7
 100
AcDbCircle
  10
 93.999154104200
  20
 319.99999999999
  30
0.0
  40
 3.0000000000000
 100
AcDbArc
  50
 90.000000000043
  51
 183.82255372861
   0
LINE
   5
352
 100
AcDbEntity
   8
LEVEL002
 370
30
 100
AcDbLine
   6
CONTINUOUS
  62
7
  10
 91.005828194800
  20
 319.80000000002
  30
0.0
  11
 92.003603497900
  21
 304.86666666669
  31
0.0
   0
ARC
   5
353
 100
AcDbEntity
   8
LEVEL002
 370
30
   6
CONTINUOUS
  62
7
 100
AcDbCircle
  10
 93.999154104000
  20
 305.00000000002
  30
0.0
  40
 2.0000000000000
 100
AcDbArc
  50
 183.82255372970
  51
 270.00000000627
   0
LINE
   5
354
 100
AcDbEntity
   8
LEVEL002
 370
30
 100
AcDbLine
   6
CONTINUOUS
  62
7
  10
 90.999999999900
  20
 407.00000000000
  30
0.0
  11
 90.999999999900
  21
 362.00000000002
  31
0.0
   0
LINE
   5
355
 100
AcDbEntity
   8
LEVEL002
 370
30
 100
AcDbLine
   6
CONTINUOUS
  62
7
  10
 90.999999999900
  20
 362.00000000002
  30
0.0
  11
 130.99915410420
  21
 362.00000000002
  31
0.0
   0
LINE
   5
356
 100
AcDbEntity
   8
LEVEL002
 370
30
 100
AcDbLine
   6
CONTINUOUS
  62
7
  10
 130.99915410420
  20
 362.00000000002
  30
0.0
  11
 130.99915410420
  21
 407.00000000000
  31
0.0
   0
LINE
   5
357
 100
AcDbEntity
   8
LEVEL002
 370
30
 100
AcDbLine
   6
CONTINUOUS
  62
7
  10
 97.999154104200
  20
 407.00000000000
  30
0.0
  11
 97.999154104200
  21
 362.00000000002
  31
0.0
   0
DIMENSION
   5
358
 100
AcDbEntity
   8
LEVEL001
 370
15
   6
CONTINUOUS
  62
8
 100
AcDbDimension
   2
*D1
  10
 140.79999999990
  20
 459.50000000000
  30
0.0
  11
 140.79999999990
  21
 461.03905235961
  31
0.0
  70
128
   1
\A1;3
   3
GMM001
 100
AcDbAlignedDimension
  13
 130.79999999990
  23
 457.40000000000
  33
0.0
  14
 130.79999999990
  24
 459.50000000000
  34
0.0
  50
 90.000000000000
 100
AcDbRotatedDimension
   0
DIMENSION
   5
359
 100
AcDbEntity
   8
LEVEL001
 370
15
   6
CONTINUOUS
  62
8
 100
AcDbDimension
   2
*D2
  10
 128.79999999990
  20
 469.50000000000
  30
0.0
  11
 109.89999999990
  21
 469.50000000000
  31
0.0
  70
0
   1
\A1;38
   3
GMM002
 100
AcDbAlignedDimension
  13
 90.999999999900
  23
 461.50000000000
  33
0.0
  14
 128.79999999990
  24
 461.50000000000
  34
0.0
 100
AcDbRotatedDimension
   0
DIMENSION
   5
35A
 100
AcDbEntity
   8
LEVEL001
 370
15
   6
CONTINUOUS
  62
8
 100
AcDbDimension
   2
*D3
  10
 80.999999999900
  20
 459.50000000000
  30
0.0
  11
 80.999999999900
  21
 452.25000000000
  31
0.0
  70
0
   1
\A1;14
   3
GMM002
 100
AcDbAlignedDimension
  13
 88.999999999900
  23
 445.00000000000
  33
0.0
  14
 88.999999999900
  24
 459.50000000000
  34
0.0
  50
 90.000000000000
 100
AcDbRotatedDimension
   0
DIMENSION
   5
35B
 100
AcDbEntity
   8
LEVEL001
 370
15
   6
CONTINUOUS
  62
8
 100
AcDbDimension
   2
*D4
  10
 285.49999999990
  20
 469.50000000000
  30
0.0
  11
 260.49999999990
  21
 469.50000000000
  31
0.0
  70
0
   3
GMM002
 100
AcDbAlignedDimension
  13
 235.49999999990
  23
 461.50000000000
  33
0.0
  14
 285.49999999990
  24
 461.50000000000
  34
0.0
 100
AcDbRotatedDimension
   0
DIMENSION
   5
35C
 100
AcDbEntity
   8
LEVEL001
 370
15
   6
CONTINUOUS
  62
8
 100
AcDbDimension
   2
*D5
  10
 225.49999999990
  20
 445.00000000000
  30
0.0
  11
 225.49999999990
  21
 452.25000000000
  31
0.0
  70
0
   1
\A1;14
   3
GMM002
 100
AcDbAlignedDimension
  13
 233.49999999990
  23
 459.50000000000
  33
0.0
  14
 233.49999999990
  24
 445.00000000000
  34
0.0
  50
 270.00000000000
 100
AcDbRotatedDimension
   0
DIMENSION
   5
35D
 100
AcDbEntity
   8
LEVEL001
 370
15
   6
CONTINUOUS
  62
8
 100
AcDbDimension
   2
*D6
  10
 297.49999999990
  20
 457.00000000000
  30
0.0
  11
 297.49999999990
  21
 461.13732148300
  31
0.0
  70
128
   1
\A1;3
   3
GMM003
 100
AcDbAlignedDimension
  13
 287.49999999990
  23
 459.50000000000
  33
0.0
  14
 287.49999999990
  24
 457.00000000000
  34
0.0
  50
 270.00000000000
 100
AcDbRotatedDimension
   0
DIMENSION
   5
35E
 100
AcDbEntity
   8
LEVEL001
 370
15
   6
CONTINUOUS
  62
8
 100
AcDbDimension
   2
*D7
  10
 364.99999999990
  20
 438.50000000000
  30
0.0
  11
 364.99999999990
  21
 458.50000000000
  31
0.0
  70
0
   3
GMM002
 100
AcDbAlignedDimension
  13
 372.99999999990
  23
 478.50000000000
  33
0.0
  14
 372.99999999990
  24
 438.50000000000
  34
0.0
  50
 270.00000000000
 100
AcDbRotatedDimension
   0
DIMENSION
   5
35F
 100
AcDbEntity
   8
LEVEL001
 370
15
   6
CONTINUOUS
  62
8
 100
AcDbDimension
   2
*D8
  10
 461.99963053890
  20
 476.20000000000
  30
0.0
  11
 461.99963053890
  21
 480.79114616196
  31
0.0
  70
128
   1
\A1;2.5
   3
GMM004
 100
AcDbAlignedDimension
  13
 451.99963053890
  23
 478.50000000000
  33
0.0
  14
 451.99963053890
  24
 476.20000000000
  34
0.0
  50
 270.00000000000
 100
AcDbRotatedDimension
   0
DIMENSION
   5
360
 100
AcDbEntity
   8
LEVEL001
 370
15
   6
CONTINUOUS
  62
8
 100
AcDbDimension
   2
*D9
  10
 449.99963053890
  20
 488.50000000000
  30
0.0
  11
 412.49981526940
  21
 488.50000000000
  31
0.0
  70
0
   1
\A1;75
   3
GMM002
 100
AcDbAlignedDimension
  13
 374.99999999990
  23
 480.50000000000
  33
0.0
  14
 449.99963053890
  24
 480.50000000000
  34
0.0
 100
AcDbRotatedDimension
   0
DIMENSION
   5
361
 100
AcDbEntity
   8
LEVEL001
 370
15
   6
CONTINUOUS
  62
8
 100
AcDbDimension
   2
*D10
  10
 80.999999999900
  20
 303.00000000002
  30
0.0
  11
 80.999999999900
  21
 313.00000000002
  31
0.0
  70
0
   3
GMM002
 100
AcDbAlignedDimension
  13
 88.999999999900
  23
 323.00000000002
  33
0.0
  14
 88.999999999900
  24
 303.00000000002
  34
0.0
  50
 270.00000000000
 100
AcDbRotatedDimension
   0
DIMENSION
   5
362
 100
AcDbEntity
   8
LEVEL001
 370
15
   6
CONTINUOUS
  62
8
 100
AcDbDimension
   2
*D11
  10
 142.99915410420
  20
 317.00000000002
  30
0.0
  11
 142.99915410420
  21
 320.00000000002
  31
0.0
  70
0
   3
GMM002
 100
AcDbAlignedDimension
  13
 132.99915410420
  23
 323.00000000002
  33
0.0
  14
 132.99915410420
  24
 317.00000000002
  34
0.0
  50
 270.00000000000
 100
AcDbRotatedDimension
   0
DIMENSION
   5
363
 100
AcDbEntity
   8
LEVEL001
 370
15
   6
CONTINUOUS
  62
8
 100
AcDbDimension
   2
*D12
  10
 106.14392389486
  20
 322.00000000002
  30
0.0
  11
 106.14392389486
  21
 322.49323686235
  31
0.0
  70
128
   3
GMM005
 100
AcDbAlignedDimension
  13
 92.596032584200
  23
 318.50000000002
  33
0.0
  14
 99.999154104200
  24
 322.00000000002
  34
0.0
  50
 90.000000000000
 100
AcDbRotatedDimension
   0
DIMENSION
   5
364
 100
AcDbEntity
   8
LEVEL001
 370
15
   6
CONTINUOUS
  62
8
 100
AcDbDimension
   2
*D13
  10
 130.99915410420
  20
 343.93934313408
  30
0.0
  11
 110.99957705205
  21
 343.93934313408
  31
0.0
  70
0
   1
\A1;40
   3
GMM002
 100
AcDbAlignedDimension
  13
 90.999999999900
  23
 325.00000000002
  33
0.0
  14
 130.99915410420
  24
 318.96646721163
  34
0.0
 100
AcDbRotatedDimension
   0
DIMENSION
   5
365
 100
AcDbEntity
   8
LEVEL001
 370
15
   6
CONTINUOUS
  62
8
 100
AcDbDimension
   2
*D14
  10
 225.49999999990
  20
 332.00000000002
  30
0.0
  11
 225.49999999990
  21
 317.00000000002
  31
0.0
  70
0
   3
GMM002
 100
AcDbAlignedDimension
  13
 233.49999999990
  23
 302.00000000002
  33
0.0
  14
 233.49999999990
  24
 332.00000000002
  34
0.0
  50
 90.000000000000
 100
AcDbRotatedDimension
   0
DIMENSION
   5
366
 100
AcDbEntity
   8
LEVEL001
 370
15
   6
CONTINUOUS
  62
8
 100
AcDbDimension
   2
*D15
  10
 256.32098202504
  20
 331.00000000002
  30
0.0
  11
 256.32098202504
  21
 332.93160152517
  31
0.0
  70
128
   3
GMM006
 100
AcDbAlignedDimension
  13
 237.09603258420
  23
 325.00000000002
  33
0.0
  14
 242.49915410420
  24
 331.00000000002
  34
0.0
  50
 90.000000000000
 100
AcDbRotatedDimension
   0
DIMENSION
   5
367
 100
AcDbEntity
   8
LEVEL001
 370
15
   6
CONTINUOUS
  62
8
 100
AcDbDimension
   2
*D16
  10
 287.49915410420
  20
 332.00000000002
  30
0.0
  11
 287.49915410420
  21
 322.44956169640
  31
0.0
  70
128
   3
GMM007
 100
AcDbAlignedDimension
  13
 277.49915410420
  23
 323.50000000002
  33
0.0
  14
 277.49915410420
  24
 332.00000000002
  34
0.0
  50
 90.000000000000
 100
AcDbRotatedDimension
   0
DIMENSION
   5
368
 100
AcDbEntity
   8
LEVEL001
 370
15
   6
CONTINUOUS
  62
8
 100
AcDbDimension
   2
*D17
  10
 275.49915410420
  20
 347.63921365992
  30
0.0
  11
 255.49957705205
  21
 347.63921365992
  31
0.0
  70
0
   3
GMM008
 100
AcDbAlignedDimension
  13
 235.49999999990
  23
 334.00000000002
  33
0.0
  14
 275.49915410420
  24
 324.05462404518
  34
0.0
 100
AcDbRotatedDimension
   0
MTEXT
   5
36A
 100
AcDbEntity
   8
LEVEL002
 370
15
  62
8
 100
AcDbMText
  10
 392.24999999990
  20
 560.00000000000
  30
0.0
  40
 6.0000000000000
  41
0.0
  71
5
  72
1
   1
\T1.000000;Ａ７５
   7
GMM002
  44
 0.79999984000003
   0
MTEXT
   5
36C
 100
AcDbEntity
   8
LEVEL002
 370
15
  62
8
 100
AcDbMText
  10
 247.74999999990
  20
 423.50000000000
  30
0.0
  40
 6.0000000000000
  41
0.0
  71
5
  72
1
   1
\T1.000000;ＰＳＡ３
   7
GMM002
  44
 0.79999984000003
   0
MTEXT
   5
36E
 100
AcDbEntity
   8
LEVEL002
 370
15
  62
8
 100
AcDbMText
  10
 103.24999999990
  20
 423.50000000000
  30
0.0
  40
 6.0000000000000
  41
0.0
  71
5
  72
1
   1
\T1.000000;ＰＳＡ２
   7
GMM002
  44
 0.79999984000003
   0
MTEXT
   5
370
 100
AcDbEntity
   8
LEVEL002
 370
15
  62
8
 100
AcDbMText
  10
 650.49999999990
  20
 493.50000000000
  30
0.0
  40
 9.0000000000000
  41
0.0
  71
7
  72
1
   1
\T1.000000;　屋内用階段すべり止め①
   7
GMM004
  44
 0.79999984000003
   0
LINE
   5
371
 100
AcDbEntity
   8
LEVEL002
 370
50
 100
AcDbLine
   6
CONTINUOUS
  62
4
  10
 808.99999999990
  20
 570.00000000000
  30
0.0
  11
 30.999999999900
  21
 570.00000000000
  31
0.0
   0
LINE
   5
372
 100
AcDbEntity
   8
LEVEL002
 370
50
 100
AcDbLine
   6
CONTINUOUS
  62
4
  10
 808.99999999990
  20
 24.000000000000
  30
0.0
  11
 808.99999999990
  21
 570.00000000000
  31
0.0
   0
LINE
   5
373
 100
AcDbEntity
   8
LEVEL002
 370
50
 100
AcDbLine
   6
CONTINUOUS
  62
4
  10
 608.99999999990
  20
 570.00000000000
  30
0.0
  11
 608.99999999990
  21
 24.000000000000
  31
0.0
   0
LINE
   5
374
 100
AcDbEntity
   8
LEVEL002
 370
50
 100
AcDbLine
   6
CONTINUOUS
  62
4
  10
 30.999999999900
  20
 24.000000000000
  30
0.0
  11
 808.99999999990
  21
 24.000000000000
  31
0.0
   0
LINE
   5
375
 100
AcDbEntity
   8
LEVEL002
 370
50
 100
AcDbLine
   6
CONTINUOUS
  62
4
  10
 30.999999999900
  20
 570.00000000000
  30
0.0
  11
 30.999999999900
  21
 24.000000000000
  31
0.0
   0
MTEXT
   5
377
 100
AcDbEntity
   8
LEVEL002
 370
15
  62
8
 100
AcDbMText
  10
 650.49999999990
  20
 481.50000000000
  30
0.0
  40
 9.0000000000000
  41
0.0
  71
7
  72
1
   1
\W0.888889;\T1.000000;パルステップ\W0.444444;\T1.000000;(\W0.888889;\T1.000000;アルミタイプ\W0.444444;\T1.000000;)
   7
GMM004
  44
 0.79999984000003
   0
MTEXT
   5
379
 100
AcDbEntity
   8
LEVEL002
 370
15
  62
8
 100
AcDbMText
  10
 774.43016912150
  20
 97.333333333360
  30
0.0
  40
 6.0000000000000
  41
0.0
  71
5
  72
1
   1
\T1.000000;平成３０年　７月２８日
   7
GMM002
  44
 0.79999984000003
   0
MTEXT
   5
37B
 100
AcDbEntity
   8
LEVEL002
 370
15
  62
8
 100
AcDbMText
  10
 638.99999999990
  20
 408.83333333340
  30
0.0
  40
 7.0000000000000
  41
0.0
  71
4
  72
1
   1
{\W0.500000;\T1.000000;･\W1.000000;\T1.000000;金台}\P{\W0.500000;\T1.000000; \W1.000000;\T1.000000;　　Ａ６０６３Ｓ－Ｔ５}
   7
GMM002
  44
 0.79999984000003
   0
MTEXT
   5
37D
 100
AcDbEntity
   8
LEVEL002
 370
15
  62
8
 100
AcDbMText
  10
 774.43016912150
  20
 84.000000000020
  30
0.0
  40
 6.0000000000000
  41
0.0
  71
5
  72
1
   1
\T1.000000;令和０５年０６月１９日
   7
GMM002
  44
 0.79999984000003
   0
MTEXT
   5
37F
 100
AcDbEntity
   8
LEVEL002
 370
15
  62
8
 100
AcDbMText
  10
 774.43016912150
  20
 70.666666666690
  30
0.0
  40
 6.0000000000000
  41
0.0
  71
5
  72
1
   1
\T1.000000;令和　　年　　月　　日
   7
GMM002
  44
 0.79999984000003
   0
MTEXT
   5
381
 100
AcDbEntity
   8
LEVEL002
 370
15
  62
8
 100
AcDbMText
  10
 103.24999999990
  20
 560.00000000000
  30
0.0
  40
 6.0000000000000
  41
0.0
  71
5
  72
1
   1
\T1.000000;Ａ３８Ｓ／Ａ３８ＡＢ／Ａ３８Ｙ
   7
GMM002
  44
 0.79999984000003
   0
MTEXT
   5
383
 100
AcDbEntity
   8
LEVEL002
 370
15
  62
8
 100
AcDbMText
  10
 247.74999999990
  20
 560.00000000000
  30
0.0
  40
 6.0000000000000
  41
0.0
  71
5
  72
1
   1
\T1.000000;Ａ５０Ｓ
   7
GMM002
  44
 0.79999984000003
   0
MTEXT
   5
385
 100
AcDbEntity
   8
LEVEL002
 370
15
  62
8
 100
AcDbMText
  10
 35.999999999900
  20
 546.33333333340
  30
0.0
  40
 4.0000000000000
  41
0.0
  71
1
  72
1
   3
{\W0.500000;\T1.000000;･\W1.000000;\T1.000000;長尺シート／コンクリート}\P{\W0.500000;\T1.000000; \W1.000000;\T1.000000;石／木製用}\P\P{\W0.500000;\T1.000000;･\W1.000000;\T1.000000;色－Ｂ２シルバー}\P{\W1.000000;\T1.000000;　　\W0.500000;\T1.000000; \
   3
W1.000000;\T1.000000;ＡＢアンバー}\P{\W1.000000;\T1.000000;　　\W0.500000;\T1.000000; \W1.000000;\T1.000000;Ｙ\W0.500000;\T1.000000;(\W1.000000;\T1.000000;黄塗装\W0.500000;\T1.000000;)}\P\P{\W0.500000;\T1.000000;･\W1.000000;\T1.000000;定尺}\P{\W1.000
   1
000;\T1.000000;　　３６６０\W0.500000;\T1.000000;m/m}\P{\W1.000000;\T1.000000;　　４０００\W0.500000;\T1.000000;m/m}
   7
GMM002
  44
 0.79999984000003
   0
MTEXT
   5
387
 100
AcDbEntity
   8
LEVEL002
 370
15
  62
8
 100
AcDbMText
  10
 180.49999999990
  20
 546.33333333340
  30
0.0
  40
 4.0000000000000
  41
0.0
  71
1
  72
1
   3
{\W0.500000;\T1.000000;･\W1.000000;\T1.000000;長尺シート／コンクリート}\P{\W0.500000;\T1.000000; \W1.000000;\T1.000000;石／木製用}\P\P{\W0.500000;\T1.000000;･\W1.000000;\T1.000000;色－Ｂ２シルバー}\P\P{\W0.500000;\T1.000000;･\W1.000000;\T1.000000;定
   1
尺}\P{\W1.000000;\T1.000000;　　４０００\W0.500000;\T1.000000;m/m}
   7
GMM002
  44
 0.79999984000003
   0
MTEXT
   5
389
 100
AcDbEntity
   8
LEVEL002
 370
15
  62
8
 100
AcDbMText
  10
 324.99999999990
  20
 546.33333333340
  30
0.0
  40
 4.0000000000000
  41
0.0
  71
1
  72
1
   3
{\W0.500000;\T1.000000;･\W1.000000;\T1.000000;直付用}\P{\W0.500000;\T1.000000;･\W1.000000;\T1.000000;リフレッシュタイプ}\P\P{\W0.500000;\T1.000000;･\W1.000000;\T1.000000;色－Ｂ２シルバー}\P\P{\W0.500000;\T1.000000;･\W1.000000;\T1.000000;定尺}\P{\W1.0
   1
00000;\T1.000000;　　４０００\W0.500000;\T1.000000;m/m}
   7
GMM002
  44
 0.79999984000003
   0
MTEXT
   5
38B
 100
AcDbEntity
   8
LEVEL002
 370
15
  62
8
 100
AcDbMText
  10
 35.999999999900
  20
 409.83333333336
  30
0.0
  40
 4.0000000000000
  41
0.0
  71
1
  72
1
   1
{\W0.500000;\T1.000000;･\W1.000000;\T1.000000;長尺シート用}\P\P{\W0.500000;\T1.000000;･\W1.000000;\T1.000000;色－Ｂ２シルバー}\P\P{\W0.500000;\T1.000000;･\W1.000000;\T1.000000;定尺}\P{\W1.000000;\T1.000000;　　３６４０\W0.500000;\T1.000000;m/m}
   7
GMM002
  44
 0.79999984000003
   0
MTEXT
   5
38D
 100
AcDbEntity
   8
LEVEL002
 370
15
  62
8
 100
AcDbMText
  10
 180.49999999990
  20
 409.83333333336
  30
0.0
  40
 4.0000000000000
  41
0.0
  71
1
  72
1
   3
{\W0.500000;\T1.000000;･\W1.000000;\T1.000000;パンチカーペット}\P{\W1.000000;\T1.000000;　　\W0.500000;\T1.000000;･\W1.000000;\T1.000000;タイルカーペット用}\P\P{\W0.500000;\T1.000000;･\W1.000000;\T1.000000;色－Ｂ２シルバー}\P\P{\W0.500000;\T1.000000;
   1
･\W1.000000;\T1.000000;定尺}\P{\W1.000000;\T1.000000;　　３６４０\W0.500000;\T1.000000;m/m}
   7
GMM002
  44
 0.79999984000003
   0
ENDSEC
  0
SECTION
  2
OBJECTS
  0
DICTIONARY
  5
C
100
AcDbDictionary
  3
ACAD_GROUP
350
D
  3
ACAD_MLINESTYLE
350
1B
  3
DWGPROPS
350
1C
  0
DICTIONARY
  5
D
102
{ACAD_REACTORS
330
C
102
}
100
AcDbDictionary
  0
DICTIONARY
  5
1B
102
{ACAD_REACTORS
330
C
102
}
100
AcDbDictionary
  3
STANDARD
350
1D
  0
MLINESTYLE
  5
1D
102
{ACAD_REACTORS
330
1B
102
}
100
AcDbMlineStyle
  2
STANDARD
 70
     0
  3

 62
   256
 51
90.0
 52
90.0
 71
     2
 49
0.5
 62
   256
  6
BYLAYER
 49
-0.5
 62
   256
  6
BYLAYER
   0
XRECORD
   5
1C
 102
{ACAD_REACTORS
 330
C
 102
}
 330
C
 100
AcDbXrecord
 280
1
   1
DWGPROPS COOKIE
   2
 
   3
 
   4
 
   6
 
   7
00000000.DRW
   8
 
   9

 300
 = 
 301
 = 
 302
 = 
 303
 = 
 304
 = 
 305
 = 
 306
 = 
 307
 = 
 308
 = 
 309
 = 
  40
0.0
  41
 2460114.5000000
  42
 2460114.5000000
   1

  90
10
   0
ENDSEC
   0
EOF
