   0
SECTION
   2
HEADER
   9
$ACADVER
   1
AC1015
   9
$DWGCODEPAGE
   3
ANSI_932
   9
$LIMMIN
  10
0.0
  20
0.0
   9
$LIMMAX
  10
 840.00000000000
  20
 594.00000000000
   9
$EXTMIN
  10
0.0
  20
0.0
  30
0.0
   9
$EXTMAX
  10
 840.00000000000
  20
 594.00000000000
  30
0.0
   9
$LTSCALE
  40
 16.800000000000
   9
$HANDSEED
   5
509
   0
ENDSEC
   0
SECTION
   2
TABLES
  0
TABLE
  2
VPORT
  5
8
100
AcDbSymbolTable
 70
     1
  0
VPORT
  5
508
100
AcDbSymbolTableRecord
100
AcDbViewportTableRecord
  2
*ACTIVE
 70
     0
 10
0.0
 20
0.0
 11
1.0
 21
1.0
  12
 420.00000000000
  22
 297.00000000000
 13
0.0
 23
0.0
 14
1.0
 24
1.0
 15
0.0
 25
0.0
 16
0.0
 26
0.0
 36
1.0
 17
0.0
 27
0.0
 37
0.0
  40
 840.00000000000
  41
 1.4787878787879
 42
50.0
 43
0.0
 44
0.0
 50
0.0
 51
0.0
 71
     0
 72
   100
 73
     1
 74
     1
 75
     0
 76
     0
 77
     0
 78
     0
  0
ENDTAB
  0
TABLE
  2
LTYPE
  5
5
100
AcDbSymbolTable
 70
    25
  0
LTYPE
  5
12
100
AcDbSymbolTableRecord
100
AcDbLinetypeTableRecord
  2
BYBLOCK
 70
     0
  3

 72
    65
 73
     0
 40
0.0
  0
LTYPE
  5
13
100
AcDbSymbolTableRecord
100
AcDbLinetypeTableRecord
  2
BYLAYER
 70
     0
  3

 72
    65
 73
     0
 40
0.0
  0
LTYPE
  5
14
100
AcDbSymbolTableRecord
100
AcDbLinetypeTableRecord
  2
CONTINUOUS
 70
     0
  3
Solid line
 72
    65
 73
     0
 40
0.0
  0
LTYPE
  5
20
100
AcDbSymbolTableRecord
100
AcDbLinetypeTableRecord
  2
BORDER
 70
     0
  3
__ __ . __ __ . __ __ . __ __ . __ __ . __ __ .
 72
    65
 73
     6
 40
1.75
 49
0.5
 74
     0
 49
-0.25
 74
     0
 49
0.5
 74
     0
 49
-0.25
 74
     0
 49
0.0
 74
     0
 49
-0.25
 74
     0
  0
LTYPE
  5
21
100
AcDbSymbolTableRecord
100
AcDbLinetypeTableRecord
  2
BORDER2
 70
     0
  3
__.__.__.__.__.__.__.__.__.__.__.__.__.__.__.__
 72
    65
 73
     6
 40
0.875
 49
0.25
 74
     0
 49
-0.125
 74
     0
 49
0.25
 74
     0
 49
-0.125
 74
     0
 49
0.0
 74
     0
 49
-0.125
 74
     0
  0
LTYPE
  5
22
100
AcDbSymbolTableRecord
100
AcDbLinetypeTableRecord
  2
BORDERX2
 70
     0
  3
____  ____  .  ____  ____  .  ____  ____  .  __
 72
    65
 73
     6
 40
3.5
 49
1.0
 74
     0
 49
-0.5
 74
     0
 49
1.0
 74
     0
 49
-0.5
 74
     0
 49
0.0
 74
     0
 49
-0.5
 74
     0
  0
LTYPE
  5
23
100
AcDbSymbolTableRecord
100
AcDbLinetypeTableRecord
  2
CENTER
 70
     0
  3
____ _ ____ _ ____ _ ____ _ ____ _ ____ _ ____ 
 72
    65
 73
     4
 40
2.0
 49
1.25
 74
     0
 49
-0.25
 74
     0
 49
0.25
 74
     0
 49
-0.25
 74
     0
  0
LTYPE
  5
24
100
AcDbSymbolTableRecord
100
AcDbLinetypeTableRecord
  2
CENTER2
 70
     0
  3
___ _ ___ _ ___ _ ___ _ ___ _ ___ _ ___ _ ___ _
 72
    65
 73
     4
 40
1.125
 49
0.75
 74
     0
 49
-0.125
 74
     0
 49
0.125
 74
     0
 49
-0.125
 74
     0
  0
LTYPE
  5
25
100
AcDbSymbolTableRecord
100
AcDbLinetypeTableRecord
  2
CENTERX2
 70
     0
  3
________  __  ________  __  ________  __  _____
 72
    65
 73
     4
 40
4.0
 49
2.5
 74
     0
 49
-0.5
 74
     0
 49
0.5
 74
     0
 49
-0.5
 74
     0
  0
LTYPE
  5
26
100
AcDbSymbolTableRecord
100
AcDbLinetypeTableRecord
  2
DASHDOT
 70
     0
  3
__ . __ . __ . __ . __ . __ . __ . __ . __ . __
 72
    65
 73
     4
 40
1.0
 49
0.5
 74
     0
 49
-0.25
 74
     0
 49
0.0
 74
     0
 49
-0.25
 74
     0
  0
LTYPE
  5
27
100
AcDbSymbolTableRecord
100
AcDbLinetypeTableRecord
  2
DASHDOT2
 70
     0
  3
_._._._._._._._._._._._._._._._._._._._._._._._
 72
    65
 73
     4
 40
0.5
 49
0.25
 74
     0
 49
-0.125
 74
     0
 49
0.0
 74
     0
 49
-0.125
 74
     0
  0
LTYPE
  5
28
100
AcDbSymbolTableRecord
100
AcDbLinetypeTableRecord
  2
DASHDOTX2
 70
     0
  3
____  .  ____  .  ____  .  ____  .  ____  .  __
 72
    65
 73
     4
 40
2.0
 49
1.0
 74
     0
 49
-0.5
 74
     0
 49
0.0
 74
     0
 49
-0.5
 74
     0
  0
LTYPE
  5
29
100
AcDbSymbolTableRecord
100
AcDbLinetypeTableRecord
  2
DASHED
 70
     0
  3
__ __ __ __ __ __ __ __ __ __ __ __ __ __ __ __
 72
    65
 73
     2
 40
0.75
 49
0.5
 74
     0
 49
-0.25
 74
     0
  0
LTYPE
  5
2A
100
AcDbSymbolTableRecord
100
AcDbLinetypeTableRecord
  2
DASHED2
 70
     0
  3
_ _ _ _ _ _ _ _ _ _ _ _ _ _ _ _ _ _ _ _ _ _ _ _
 72
    65
 73
     2
 40
0.375
 49
0.25
 74
     0
 49
-0.125
 74
     0
  0
LTYPE
  5
2B
100
AcDbSymbolTableRecord
100
AcDbLinetypeTableRecord
  2
DASHEDX2
 70
     0
  3
____  ____  ____  ____  ____  ____  ____  ____ 
 72
    65
 73
     2
 40
1.5
 49
1.0
 74
     0
 49
-0.5
 74
     0
  0
LTYPE
  5
2C
100
AcDbSymbolTableRecord
100
AcDbLinetypeTableRecord
  2
DIVIDE
 70
     0
  3
____ . . ____ . . ____ . . ____ . . ____ . . __
 72
    65
 73
     6
 40
1.25
 49
0.5
 74
     0
 49
-0.25
 74
     0
 49
0.0
 74
     0
 49
-0.25
 74
     0
 49
0.0
 74
     0
 49
-0.25
 74
     0
  0
LTYPE
  5
2D
100
AcDbSymbolTableRecord
100
AcDbLinetypeTableRecord
  2
DIVIDE2
 70
     0
  3
__..__..__..__..__..__..__..__..__..__..__..__.
 72
    65
 73
     6
 40
0.625
 49
0.25
 74
     0
 49
-0.125
 74
     0
 49
0.0
 74
     0
 49
-0.125
 74
     0
 49
0.0
 74
     0
 49
-0.125
 74
     0
  0
LTYPE
  5
2E
100
AcDbSymbolTableRecord
100
AcDbLinetypeTableRecord
  2
DIVIDEX2
 70
     0
  3
________  .  .  ________  .  .  ________  .  . 
 72
    65
 73
     6
 40
2.5
 49
1.0
 74
     0
 49
-0.5
 74
     0
 49
0.0
 74
     0
 49
-0.5
 74
     0
 49
0.0
 74
     0
 49
-0.5
 74
     0
  0
LTYPE
  5
2F
100
AcDbSymbolTableRecord
100
AcDbLinetypeTableRecord
  2
DOT
 70
     0
  3
. . . . . . . . . . . . . . . . . . . . . . . .
 72
    65
 73
     2
 40
0.25
 49
0.0
 74
     0
 49
-0.25
 74
     0
  0
LTYPE
  5
30
100
AcDbSymbolTableRecord
100
AcDbLinetypeTableRecord
  2
DOT2
 70
     0
  3
...............................................
 72
    65
 73
     2
 40
0.125
 49
0.0
 74
     0
 49
-0.125
 74
     0
  0
LTYPE
  5
31
100
AcDbSymbolTableRecord
100
AcDbLinetypeTableRecord
  2
DOTX2
 70
     0
  3
.  .  .  .  .  .  .  .  .  .  .  .  .  .  .  . 
 72
    65
 73
     2
 40
0.5
 49
0.0
 74
     0
 49
-0.5
 74
     0
  0
LTYPE
  5
32
100
AcDbSymbolTableRecord
100
AcDbLinetypeTableRecord
  2
HIDDEN
 70
     0
  3
__ __ __ __ __ __ __ __ __ __ __ __ __ __ __ __
 72
    65
 73
     2
 40
0.375
 49
0.25
 74
     0
 49
-0.125
 74
     0
  0
LTYPE
  5
33
100
AcDbSymbolTableRecord
100
AcDbLinetypeTableRecord
  2
HIDDEN2
 70
     0
  3
_ _ _ _ _ _ _ _ _ _ _ _ _ _ _ _ _ _ _ _ _ _ _ _
 72
    65
 73
     2
 40
0.1875
 49
0.125
 74
     0
 49
-0.0625
 74
     0
  0
LTYPE
  5
34
100
AcDbSymbolTableRecord
100
AcDbLinetypeTableRecord
  2
HIDDENX2
 70
     0
  3
____ ____ ____ ____ ____ ____ ____ ____ ____ __
 72
    65
 73
     2
 40
0.75
 49
0.5
 74
     0
 49
-0.25
 74
     0
  0
LTYPE
  5
35
100
AcDbSymbolTableRecord
100
AcDbLinetypeTableRecord
  2
PHANTOM
 70
     0
  3
______  __  __  ______  __  __  ______  __  __ 
 72
    65
 73
     6
 40
2.5
 49
1.25
 74
     0
 49
-0.25
 74
     0
 49
0.25
 74
     0
 49
-0.25
 74
     0
 49
0.25
 74
     0
 49
-0.25
 74
     0
  0
LTYPE
  5
36
100
AcDbSymbolTableRecord
100
AcDbLinetypeTableRecord
  2
PHANTOM2
 70
     0
  3
___ _ _ ___ _ _ ___ _ _ ___ _ _ ___ _ _ ___ _ _
 72
    65
 73
     6
 40
1.25
 49
0.625
 74
     0
 49
-0.125
 74
     0
 49
0.125
 74
     0
 49
-0.125
 74
     0
 49
0.125
 74
     0
 49
-0.125
 74
     0
  0
LTYPE
  5
37
100
AcDbSymbolTableRecord
100
AcDbLinetypeTableRecord
  2
PHANTOMX2
 70
     0
  3
____________    ____    ____    ____________   
 72
    65
 73
     6
 40
5.0
 49
2.5
 74
     0
 49
-0.5
 74
     0
 49
0.5
 74
     0
 49
-0.5
 74
     0
 49
0.5
 74
     0
 49
-0.5
 74
     0
  0
ENDTAB
   0
TABLE
   2
LAYER
   5
2
 100
AcDbSymbolTable
  70
4
   0
LAYER
   5
E
 100
AcDbSymbolTableRecord
 100
AcDbLayerTableRecord
   2
0
  70
0
  62
7
   6
CONTINUOUS
 390
30
   0
LAYER
   5
39
 100
AcDbSymbolTableRecord
 100
AcDbLayerTableRecord
   2
LEVEL001
  70
0
  62
7
   6
CONTINUOUS
 390
30
   0
LAYER
   5
3A
 100
AcDbSymbolTableRecord
 100
AcDbLayerTableRecord
   2
LEVEL002
  70
0
  62
7
   6
CONTINUOUS
 390
30
   0
LAYER
   5
3B
 100
AcDbSymbolTableRecord
 100
AcDbLayerTableRecord
   2
LEVEL003
  70
0
  62
7
   6
CONTINUOUS
 390
30
   0
ENDTAB
  0
TABLE
  2
STYLE
  5
3
100
AcDbSymbolTable
  70
6
  0
STYLE
  5
F
100
AcDbSymbolTableRecord
100
AcDbTextStyleTableRecord
  2
STANDARD
 70
     0
 40
0.0
 41
1.0
 50
0.0
 71
     0
 42
0.2
  3
TXT
  4
BIGFONT
  0
STYLE
  5
38
100
AcDbSymbolTableRecord
100
AcDbTextStyleTableRecord
  2
STANDARD1
 70
     4
 40
0.0
 41
1.0
 50
0.0
 71
     0
 42
0.2
  3
TXT
  4
BIGFONT
   0
STYLE
   5
3C
 100
AcDbSymbolTableRecord
 100
AcDbTextStyleTableRecord
   2
GMM001
  70
0
  40
0.0
  41
 0.80000000000000
  50
0.0
  71
     0
  42
1.0
   3
txt.shx
   4
bigfont.shx
   0
STYLE
   5
3D
 100
AcDbSymbolTableRecord
 100
AcDbTextStyleTableRecord
   2
GMM002
  70
0
  40
0.0
  41
 1.0000000000000
  50
0.0
  71
     0
  42
1.0
   3
txt.shx
   4
bigfont.shx
   0
STYLE
   5
3E
 100
AcDbSymbolTableRecord
 100
AcDbTextStyleTableRecord
   2
GMM003
  70
0
  40
0.0
  41
 1.0714285714286
  50
0.0
  71
     0
  42
1.0
   3
txt.shx
   4
bigfont.shx
   0
STYLE
   5
3F
 100
AcDbSymbolTableRecord
 100
AcDbTextStyleTableRecord
   2
GMM004
  70
0
  40
0.0
  41
 0.88888888888889
  50
0.0
  71
     0
  42
1.0
   3
txt.shx
   4
bigfont.shx
   0
ENDTAB
  0
TABLE
  2
VIEW
  5
6
100
AcDbSymbolTable
 70
     0
  0
ENDTAB
  0
TABLE
  2
UCS
  5
7
100
AcDbSymbolTable
 70
     0
  0
ENDTAB
  0
TABLE
  2
APPID
  5
9
100
AcDbSymbolTable
 70
     1
  0
APPID
  5
10
100
AcDbSymbolTableRecord
100
AcDbRegAppTableRecord
  2
ACAD
 70
     0
  0
ENDTAB
   0
TABLE
   2
DIMSTYLE
   5
A
 100
AcDbSymbolTable
  70
10
 100
AcDbDimStyleTable
  0
DIMSTYLE
105
1D
100
AcDbSymbolTableRecord
100
AcDbDimStyleTableRecord
  2
STANDARD
 70
     0
  3

  4

  5

  6

  7

 40
1.0
 41
0.18
 42
0.0625
 43
0.38
 44
0.18
 45
0.0
 46
0.0
 47
0.0
 48
0.0
140
0.18
141
0.09
142
0.0
143
25.4
144
1.0
145
0.0
146
1.0
147
0.09
 71
     0
 72
     0
 73
     1
 74
     1
 75
     0
 76
     0
 77
     0
 78
     0
170
     0
171
     2
172
     0
173
     0
174
     0
175
     0
176
     0
177
     0
178
     0
270
     2
271
     4
272
     4
273
     2
274
     2
340
F
275
     0
280
     0
281
     0
282
     0
283
     1
284
     0
285
     0
286
     0
287
     3
288
     0
   0
DIMSTYLE
 105
40
 100
AcDbSymbolTableRecord
 100
AcDbDimStyleTableRecord
   2
GMM001
  70
0
   3

   4

   5

   6
_DOT
   7
_DOT
  40
 1.0000000000000
  41
 0.80000000000000
  42
 2.0000000000000
  43
 16.000000000000
  44
 2.0000000000000
  45
0.0
  46
0.0
  47
0.0
  48
0.0
 140
 6.0000000000000
 141
 2.0000000000000
 142
0.0
 143
 0.39400000000000E-1
 144
 1.0000000000000
 145
0.0
 146
 0.83333333333333
 147
 2.0000000000000
  71
0
  72
0
  73
0
  74
0
  75
0
  76
0
  77
3
  78
8
 170
0
 171
2
 172
1
 173
1
 174
0
 175
0
 176
8
 177
8
 178
8
 270
2
 271
6
 272
0
 273
2
 274
2
 340
3D
 275
1
 280
0
 281
0
 282
0
 283
1
 284
0
 285
0
 286
0
 287
3
 288
0
   0
DIMSTYLE
 105
41
 100
AcDbSymbolTableRecord
 100
AcDbDimStyleTableRecord
   2
GMM002
  70
0
   3

   4

   5

   6
_DOT
   7
_DOT
  40
 1.0000000000000
  41
 0.80000000000000
  42
 2.0000000000000
  43
 16.000000000000
  44
 2.0000000000000
  45
0.0
  46
0.0
  47
0.0
  48
0.0
 140
 6.0000000000000
 141
 2.0000000000000
 142
0.0
 143
 0.39400000000000E-1
 144
 1.0000000000000
 145
0.0
 146
 0.83333333333333
 147
 1.9984627778230
  71
0
  72
0
  73
0
  74
0
  75
0
  76
0
  77
3
  78
8
 170
0
 171
2
 172
1
 173
1
 174
0
 175
0
 176
8
 177
8
 178
8
 270
2
 271
6
 272
0
 273
2
 274
2
 340
3D
 275
1
 280
0
 281
0
 282
0
 283
1
 284
0
 285
0
 286
0
 287
3
 288
1
   0
DIMSTYLE
 105
42
 100
AcDbSymbolTableRecord
 100
AcDbDimStyleTableRecord
   2
GMM003
  70
0
   3

   4

   5

   6
_DOT
   7
_DOT
  40
 1.0000000000000
  41
 0.80000000000000
  42
 2.0000000000000
  43
 16.000000000000
  44
 2.0000000000000
  45
0.0
  46
0.0
  47
0.0
  48
0.0
 140
 6.0000000000000
 141
 2.0000000000000
 142
0.0
 143
 0.39400000000000E-1
 144
 1.0000000000000
 145
0.0
 146
 0.83333333333333
 147
 2.1228668050751
  71
0
  72
0
  73
0
  74
0
  75
0
  76
0
  77
3
  78
8
 170
0
 171
2
 172
1
 173
1
 174
0
 175
0
 176
8
 177
8
 178
8
 270
2
 271
6
 272
0
 273
2
 274
2
 340
3D
 275
1
 280
0
 281
0
 282
0
 283
1
 284
0
 285
0
 286
0
 287
3
 288
1
   0
DIMSTYLE
 105
43
 100
AcDbSymbolTableRecord
 100
AcDbDimStyleTableRecord
   2
GMM004
  70
0
   3

   4

   5

   6
_DOT
   7
_DOT
  40
 1.0000000000000
  41
 0.80000000000000
  42
 2.0000000000000
  43
 16.000000000000
  44
 2.0000000000000
  45
0.0
  46
0.0
  47
0.0
  48
0.0
 140
 6.0000000000000
 141
 2.0000000000000
 142
0.0
 143
 0.39400000000000E-1
 144
 1.0000000000000
 145
0.0
 146
 0.83333333333333
 147
 2.0568777381453
  71
0
  72
0
  73
0
  74
0
  75
0
  76
0
  77
3
  78
8
 170
0
 171
2
 172
1
 173
1
 174
0
 175
0
 176
8
 177
8
 178
8
 270
2
 271
6
 272
0
 273
2
 274
2
 340
3D
 275
1
 280
0
 281
0
 282
0
 283
1
 284
0
 285
0
 286
0
 287
3
 288
1
   0
DIMSTYLE
 105
44
 100
AcDbSymbolTableRecord
 100
AcDbDimStyleTableRecord
   2
GMM005
  70
0
   3

   4

   5

   6
_DOT
   7
_DOT
  40
 1.0000000000000
  41
 0.80000000000000
  42
 2.0000000000000
  43
 16.000000000000
  44
 2.0000000000000
  45
0.0
  46
0.0
  47
0.0
  48
0.0
 140
 6.0000000000000
 141
 2.0000000000000
 142
0.0
 143
 0.39400000000000E-1
 144
 1.0000000000000
 145
0.0
 146
 0.83333333333333
 147
 2.2338278951515
  71
0
  72
0
  73
0
  74
0
  75
0
  76
0
  77
3
  78
8
 170
0
 171
2
 172
1
 173
1
 174
0
 175
0
 176
8
 177
8
 178
8
 270
2
 271
6
 272
0
 273
2
 274
2
 340
3D
 275
1
 280
0
 281
0
 282
0
 283
1
 284
0
 285
0
 286
0
 287
3
 288
1
   0
DIMSTYLE
 105
45
 100
AcDbSymbolTableRecord
 100
AcDbDimStyleTableRecord
   2
GMM006
  70
0
   3

   4

   5

   6

   7

  40
 1.0000000000000
  41
 4.0000000000000
  42
 2.0000000000000
  43
 16.000000000000
  44
 2.0000000000000
  45
0.0
  46
0.0
  47
0.0
  48
0.0
 140
 6.0000000000000
 141
 2.0000000000000
 142
0.0
 143
 0.39400000000000E-1
 144
 1.0000000000000
 145
0.0
 146
 0.83333333333333
 147
0.0
  71
0
  72
0
  73
0
  74
0
  75
0
  76
0
  77
1
  78
8
 170
0
 171
2
 172
1
 173
1
 174
0
 175
0
 176
8
 177
8
 178
8
 270
2
 271
6
 272
0
 273
2
 274
2
 340
3D
 275
1
 280
0
 281
0
 282
0
 283
1
 284
0
 285
0
 286
0
 287
3
 288
0
   0
DIMSTYLE
 105
46
 100
AcDbSymbolTableRecord
 100
AcDbDimStyleTableRecord
   2
GMM007
  70
0
   3

   4

   5

   6
_DOT
   7
_DOT
  40
 1.0000000000000
  41
 0.80000000000000
  42
 2.0000000000000
  43
 16.000000000000
  44
 2.0000000000000
  45
0.0
  46
0.0
  47
0.0
  48
0.0
 140
 6.0000000000000
 141
 2.0000000000000
 142
0.0
 143
 0.39400000000000E-1
 144
 1.0000000000000
 145
0.0
 146
 0.83333333333333
 147
 2.0117755221946
  71
0
  72
0
  73
0
  74
0
  75
0
  76
0
  77
3
  78
8
 170
0
 171
2
 172
1
 173
1
 174
0
 175
0
 176
8
 177
8
 178
8
 270
2
 271
6
 272
0
 273
2
 274
2
 340
3D
 275
1
 280
0
 281
0
 282
0
 283
1
 284
0
 285
0
 286
0
 287
3
 288
1
   0
DIMSTYLE
 105
47
 100
AcDbSymbolTableRecord
 100
AcDbDimStyleTableRecord
   2
GMM008
  70
0
   3

   4

   5

   6
_DOT
   7
_DOT
  40
 1.0000000000000
  41
 0.80000000000000
  42
 2.0000000000000
  43
 16.000000000000
  44
 2.0000000000000
  45
0.0
  46
0.0
  47
0.0
  48
0.0
 140
 6.0000000000000
 141
 2.0000000000000
 142
0.0
 143
 0.39400000000000E-1
 144
 1.0000000000000
 145
0.0
 146
 0.83333333333333
 147
 1.7453450148836
  71
0
  72
0
  73
0
  74
0
  75
0
  76
0
  77
3
  78
8
 170
0
 171
2
 172
1
 173
1
 174
0
 175
0
 176
8
 177
8
 178
8
 270
2
 271
6
 272
0
 273
2
 274
2
 340
3D
 275
1
 280
0
 281
0
 282
0
 283
1
 284
0
 285
0
 286
0
 287
3
 288
1
   0
ENDTAB
  0
TABLE
  2
BLOCK_RECORD
  5
1
100
AcDbSymbolTable
 70
     0
  0
BLOCK_RECORD
  5
18
100
AcDbSymbolTableRecord
100
AcDbBlockTableRecord
  2
*MODEL_SPACE
  0
BLOCK_RECORD
  5
15
100
AcDbSymbolTableRecord
100
AcDbBlockTableRecord
  2
*PAPER_SPACE
   0
BLOCK_RECORD
   5
48
 100
AcDbSymbolTableRecord
 100
AcDbBlockTableRecord
   2
*D1
   0
BLOCK_RECORD
   5
49
 100
AcDbSymbolTableRecord
 100
AcDbBlockTableRecord
   2
*D2
   0
BLOCK_RECORD
   5
4A
 100
AcDbSymbolTableRecord
 100
AcDbBlockTableRecord
   2
*D3
   0
BLOCK_RECORD
   5
4B
 100
AcDbSymbolTableRecord
 100
AcDbBlockTableRecord
   2
*D4
   0
BLOCK_RECORD
   5
4C
 100
AcDbSymbolTableRecord
 100
AcDbBlockTableRecord
   2
*D5
   0
BLOCK_RECORD
   5
4D
 100
AcDbSymbolTableRecord
 100
AcDbBlockTableRecord
   2
*D6
   0
BLOCK_RECORD
   5
4E
 100
AcDbSymbolTableRecord
 100
AcDbBlockTableRecord
   2
*D7
   0
BLOCK_RECORD
   5
4F
 100
AcDbSymbolTableRecord
 100
AcDbBlockTableRecord
   2
*D8
   0
BLOCK_RECORD
   5
50
 100
AcDbSymbolTableRecord
 100
AcDbBlockTableRecord
   2
*D9
   0
BLOCK_RECORD
   5
51
 100
AcDbSymbolTableRecord
 100
AcDbBlockTableRecord
   2
*D10
   0
BLOCK_RECORD
   5
52
 100
AcDbSymbolTableRecord
 100
AcDbBlockTableRecord
   2
*D11
   0
BLOCK_RECORD
   5
53
 100
AcDbSymbolTableRecord
 100
AcDbBlockTableRecord
   2
*D12
   0
BLOCK_RECORD
   5
54
 100
AcDbSymbolTableRecord
 100
AcDbBlockTableRecord
   2
*D16
   0
BLOCK_RECORD
   5
55
 100
AcDbSymbolTableRecord
 100
AcDbBlockTableRecord
   2
*D17
   0
BLOCK_RECORD
   5
56
 100
AcDbSymbolTableRecord
 100
AcDbBlockTableRecord
   2
*D18
   0
BLOCK_RECORD
   5
57
 100
AcDbSymbolTableRecord
 100
AcDbBlockTableRecord
   2
*D21
   0
BLOCK_RECORD
   5
58
 100
AcDbSymbolTableRecord
 100
AcDbBlockTableRecord
   2
*D22
   0
BLOCK_RECORD
   5
59
 100
AcDbSymbolTableRecord
 100
AcDbBlockTableRecord
   2
*D23
   0
BLOCK_RECORD
   5
5A
 100
AcDbSymbolTableRecord
 100
AcDbBlockTableRecord
   2
*D24
   0
BLOCK_RECORD
   5
5B
 100
AcDbSymbolTableRecord
 100
AcDbBlockTableRecord
   2
*D25
   0
BLOCK_RECORD
   5
5C
 100
AcDbSymbolTableRecord
 100
AcDbBlockTableRecord
   2
*D26
   0
BLOCK_RECORD
   5
5D
 100
AcDbSymbolTableRecord
 100
AcDbBlockTableRecord
   2
_ARCHTICK
   0
BLOCK_RECORD
   5
5E
 100
AcDbSymbolTableRecord
 100
AcDbBlockTableRecord
   2
_BOXBLANK
   0
BLOCK_RECORD
   5
5F
 100
AcDbSymbolTableRecord
 100
AcDbBlockTableRecord
   2
_BOXFILLED
   0
BLOCK_RECORD
   5
60
 100
AcDbSymbolTableRecord
 100
AcDbBlockTableRecord
   2
_CLOSED
   0
BLOCK_RECORD
   5
61
 100
AcDbSymbolTableRecord
 100
AcDbBlockTableRecord
   2
_CLOSEDBLANK
   0
BLOCK_RECORD
   5
62
 100
AcDbSymbolTableRecord
 100
AcDbBlockTableRecord
   2
_DATUMBLANK
   0
BLOCK_RECORD
   5
63
 100
AcDbSymbolTableRecord
 100
AcDbBlockTableRecord
   2
_DATUMFILLED
   0
BLOCK_RECORD
   5
64
 100
AcDbSymbolTableRecord
 100
AcDbBlockTableRecord
   2
_DOT
   0
BLOCK_RECORD
   5
65
 100
AcDbSymbolTableRecord
 100
AcDbBlockTableRecord
   2
_DOTBLANK
   0
BLOCK_RECORD
   5
66
 100
AcDbSymbolTableRecord
 100
AcDbBlockTableRecord
   2
_DOTSMALL
   0
BLOCK_RECORD
   5
67
 100
AcDbSymbolTableRecord
 100
AcDbBlockTableRecord
   2
_INTEGRAL
   0
BLOCK_RECORD
   5
68
 100
AcDbSymbolTableRecord
 100
AcDbBlockTableRecord
   2
_NONE
   0
BLOCK_RECORD
   5
69
 100
AcDbSymbolTableRecord
 100
AcDbBlockTableRecord
   2
_OBLIQUE
   0
BLOCK_RECORD
   5
6A
 100
AcDbSymbolTableRecord
 100
AcDbBlockTableRecord
   2
_OPEN
   0
BLOCK_RECORD
   5
6B
 100
AcDbSymbolTableRecord
 100
AcDbBlockTableRecord
   2
_OPEN30
   0
BLOCK_RECORD
   5
6C
 100
AcDbSymbolTableRecord
 100
AcDbBlockTableRecord
   2
_OPEN90
   0
BLOCK_RECORD
   5
6D
 100
AcDbSymbolTableRecord
 100
AcDbBlockTableRecord
   2
_ORIGIN
   0
ENDTAB
   0
ENDSEC
  0
SECTION
  2
BLOCKS
  0
BLOCK
  5
19
100
AcDbEntity
  8
0
100
AcDbBlockBegin
  2
*MODEL_SPACE
 70
     0
 10
0.0
 20
0.0
 30
0.0
  3
*MODEL_SPACE
  1

  0
ENDBLK
  5
1A
100
AcDbEntity
  8
0
100
AcDbBlockEnd
  0
BLOCK
  5
16
100
AcDbEntity
 67
     1
  8
0
100
AcDbBlockBegin
  2
*PAPER_SPACE
 70
     0
 10
0.0
 20
0.0
 30
0.0
  3
*PAPER_SPACE
  1

  0
ENDBLK
  5
17
100
AcDbEntity
 67
     1
  8
0
100
AcDbBlockEnd
   0
BLOCK
   5
6E
 100
AcDbEntity
   8
0
 100
AcDbBlockBegin
   2
_ARCHTICK
  70
0
  10
0.0
  20
0.0
  30
0.0
   3
_ARCHTICK
   0
POLYLINE
   5
6F
 100
AcDbEntity
   8
0
 370
-2
   6
BYBLOCK
  62
0
 100
AcDb2dPolyline
  66
1
  10
0.0
  20
0.0
  30
0.0
  70
1
  40
 0.15000000000000
  41
 0.15000000000000
   0
VERTEX
   5
70
 100
AcDbEntity
   8
0
   6
BYBLOCK
  62
0
 100
AcDbVertex
 100
AcDb2dVertex
  10
-0.50000000000000
  20
-0.50000000000000
  30
0.0
  40
 0.15000000000000
  41
 0.15000000000000
   0
VERTEX
   5
71
 100
AcDbEntity
   8
0
   6
BYBLOCK
  62
0
 100
AcDbVertex
 100
AcDb2dVertex
  10
 0.50000000000000
  20
 0.50000000000000
  30
0.0
  40
 0.15000000000000
  41
 0.15000000000000
   0
SEQEND
   5
72
 100
AcDbEntity
   8
0
   6
BYBLOCK
  62
0
   0
ENDBLK
   5
73
 100
AcDbEntity
   8
0
 100
AcDbBlockEnd
   0
BLOCK
   5
74
 100
AcDbEntity
   8
0
 100
AcDbBlockBegin
   2
_OBLIQUE
  70
0
  10
0.0
  20
0.0
  30
0.0
   3
_OBLIQUE
   0
LINE
   5
75
 100
AcDbEntity
   8
0
 370
-2
 100
AcDbLine
   6
BYBLOCK
  62
0
  10
-0.50000000000000
  20
-0.50000000000000
  30
0.0
  11
 0.50000000000000
  21
 0.50000000000000
  31
0.0
   0
ENDBLK
   5
76
 100
AcDbEntity
   8
0
 100
AcDbBlockEnd
   0
BLOCK
   5
77
 100
AcDbEntity
   8
0
 100
AcDbBlockBegin
   2
_BOXBLANK
  70
0
  10
0.0
  20
0.0
  30
0.0
   3
_BOXBLANK
   0
LINE
   5
78
 100
AcDbEntity
   8
0
 370
-2
 100
AcDbLine
   6
BYBLOCK
  62
0
  10
-0.50000000000000
  20
-0.50000000000000
  30
0.0
  11
 0.50000000000000
  21
-0.50000000000000
  31
0.0
   0
LINE
   5
79
 100
AcDbEntity
   8
0
 370
-2
 100
AcDbLine
   6
BYBLOCK
  62
0
  10
 0.50000000000000
  20
-0.50000000000000
  30
0.0
  11
 0.50000000000000
  21
 0.50000000000000
  31
0.0
   0
LINE
   5
7A
 100
AcDbEntity
   8
0
 370
-2
 100
AcDbLine
   6
BYBLOCK
  62
0
  10
 0.50000000000000
  20
 0.50000000000000
  30
0.0
  11
-0.50000000000000
  21
 0.50000000000000
  31
0.0
   0
LINE
   5
7B
 100
AcDbEntity
   8
0
 370
-2
 100
AcDbLine
   6
BYBLOCK
  62
0
  10
-0.50000000000000
  20
 0.50000000000000
  30
0.0
  11
-0.50000000000000
  21
-0.50000000000000
  31
0.0
   0
LINE
   5
7C
 100
AcDbEntity
   8
0
 370
-2
 100
AcDbLine
   6
BYBLOCK
  62
0
  10
-0.50000000000000
  20
0.0
  30
0.0
  11
-1.0000000000000
  21
0.0
  31
0.0
   0
ENDBLK
   5
7D
 100
AcDbEntity
   8
0
 100
AcDbBlockEnd
   0
BLOCK
   5
7E
 100
AcDbEntity
   8
0
 100
AcDbBlockBegin
   2
_BOXFILLED
  70
0
  10
0.0
  20
0.0
  30
0.0
   3
_BOXFILLED
   0
SOLID
   5
7F
 100
AcDbEntity
   8
0
 100
AcDbTrace
   6
BYBLOCK
  62
0
  10
-0.50000000000000
  20
 0.50000000000000
  30
0.0
  11
 0.50000000000000
  21
 0.50000000000000
  31
0.0
  12
-0.50000000000000
  22
-0.50000000000000
  32
0.0
  13
 0.50000000000000
  23
-0.50000000000000
  33
0.0
   0
LINE
   5
80
 100
AcDbEntity
   8
0
 370
-2
 100
AcDbLine
   6
BYBLOCK
  62
0
  10
-0.50000000000000
  20
0.0
  30
0.0
  11
-1.0000000000000
  21
0.0
  31
0.0
   0
ENDBLK
   5
81
 100
AcDbEntity
   8
0
 100
AcDbBlockEnd
   0
BLOCK
   5
82
 100
AcDbEntity
   8
0
 100
AcDbBlockBegin
   2
_CLOSED
  70
0
  10
0.0
  20
0.0
  30
0.0
   3
_CLOSED
   0
LINE
   5
83
 100
AcDbEntity
   8
0
 370
-2
 100
AcDbLine
   6
BYBLOCK
  62
0
  10
-1.0000000000000
  20
 0.16666666666667
  30
0.0
  11
0.0
  21
0.0
  31
0.0
   0
LINE
   5
84
 100
AcDbEntity
   8
0
 370
-2
 100
AcDbLine
   6
BYBLOCK
  62
0
  10
0.0
  20
0.0
  30
0.0
  11
-1.0000000000000
  21
-0.16666666666667
  31
0.0
   0
LINE
   5
85
 100
AcDbEntity
   8
0
 370
-2
 100
AcDbLine
   6
BYBLOCK
  62
0
  10
-1.0000000000000
  20
 0.16666666666667
  30
0.0
  11
-1.0000000000000
  21
-0.16666666666667
  31
0.0
   0
LINE
   5
86
 100
AcDbEntity
   8
0
 370
-2
 100
AcDbLine
   6
BYBLOCK
  62
0
  10
0.0
  20
0.0
  30
0.0
  11
-1.0000000000000
  21
0.0
  31
0.0
   0
ENDBLK
   5
87
 100
AcDbEntity
   8
0
 100
AcDbBlockEnd
   0
BLOCK
   5
88
 100
AcDbEntity
   8
0
 100
AcDbBlockBegin
   2
_OPEN
  70
0
  10
0.0
  20
0.0
  30
0.0
   3
_OPEN
   0
LINE
   5
89
 100
AcDbEntity
   8
0
 370
-2
 100
AcDbLine
   6
BYBLOCK
  62
0
  10
-1.0000000000000
  20
 0.16666666666667
  30
0.0
  11
0.0
  21
0.0
  31
0.0
   0
LINE
   5
8A
 100
AcDbEntity
   8
0
 370
-2
 100
AcDbLine
   6
BYBLOCK
  62
0
  10
0.0
  20
0.0
  30
0.0
  11
-1.0000000000000
  21
-0.16666666666667
  31
0.0
   0
LINE
   5
8B
 100
AcDbEntity
   8
0
 370
-2
 100
AcDbLine
   6
BYBLOCK
  62
0
  10
0.0
  20
0.0
  30
0.0
  11
-1.0000000000000
  21
0.0
  31
0.0
   0
ENDBLK
   5
8C
 100
AcDbEntity
   8
0
 100
AcDbBlockEnd
   0
BLOCK
   5
8D
 100
AcDbEntity
   8
0
 100
AcDbBlockBegin
   2
_OPEN30
  70
0
  10
0.0
  20
0.0
  30
0.0
   3
_OPEN30
   0
LINE
   5
8E
 100
AcDbEntity
   8
0
 370
-2
 100
AcDbLine
   6
BYBLOCK
  62
0
  10
-1.0000000000000
  20
 0.26794919243110
  30
0.0
  11
0.0
  21
0.0
  31
0.0
   0
LINE
   5
8F
 100
AcDbEntity
   8
0
 370
-2
 100
AcDbLine
   6
BYBLOCK
  62
0
  10
0.0
  20
0.0
  30
0.0
  11
-1.0000000000000
  21
-0.26794919243110
  31
0.0
   0
LINE
   5
90
 100
AcDbEntity
   8
0
 370
-2
 100
AcDbLine
   6
BYBLOCK
  62
0
  10
0.0
  20
0.0
  30
0.0
  11
-1.0000000000000
  21
0.0
  31
0.0
   0
ENDBLK
   5
91
 100
AcDbEntity
   8
0
 100
AcDbBlockEnd
   0
BLOCK
   5
92
 100
AcDbEntity
   8
0
 100
AcDbBlockBegin
   2
_OPEN90
  70
0
  10
0.0
  20
0.0
  30
0.0
   3
_OPEN90
   0
LINE
   5
93
 100
AcDbEntity
   8
0
 370
-2
 100
AcDbLine
   6
BYBLOCK
  62
0
  10
-0.50000000000000
  20
 0.50000000000000
  30
0.0
  11
0.0
  21
0.0
  31
0.0
   0
LINE
   5
94
 100
AcDbEntity
   8
0
 370
-2
 100
AcDbLine
   6
BYBLOCK
  62
0
  10
0.0
  20
0.0
  30
0.0
  11
-0.50000000000000
  21
-0.50000000000000
  31
0.0
   0
LINE
   5
95
 100
AcDbEntity
   8
0
 370
-2
 100
AcDbLine
   6
BYBLOCK
  62
0
  10
0.0
  20
0.0
  30
0.0
  11
-1.0000000000000
  21
0.0
  31
0.0
   0
ENDBLK
   5
96
 100
AcDbEntity
   8
0
 100
AcDbBlockEnd
   0
BLOCK
   5
97
 100
AcDbEntity
   8
0
 100
AcDbBlockBegin
   2
_CLOSEDBLANK
  70
0
  10
0.0
  20
0.0
  30
0.0
   3
_CLOSEDBLANK
   0
LINE
   5
98
 100
AcDbEntity
   8
0
 370
-2
 100
AcDbLine
   6
BYBLOCK
  62
0
  10
-1.0000000000000
  20
 0.16666666666667
  30
0.0
  11
0.0
  21
0.0
  31
0.0
   0
LINE
   5
99
 100
AcDbEntity
   8
0
 370
-2
 100
AcDbLine
   6
BYBLOCK
  62
0
  10
0.0
  20
0.0
  30
0.0
  11
-1.0000000000000
  21
-0.16666666666667
  31
0.0
   0
LINE
   5
9A
 100
AcDbEntity
   8
0
 370
-2
 100
AcDbLine
   6
BYBLOCK
  62
0
  10
-1.0000000000000
  20
 0.16666666666667
  30
0.0
  11
-1.0000000000000
  21
-0.16666666666667
  31
0.0
   0
ENDBLK
   5
9B
 100
AcDbEntity
   8
0
 100
AcDbBlockEnd
   0
BLOCK
   5
9C
 100
AcDbEntity
   8
0
 100
AcDbBlockBegin
   2
_DOT
  70
0
  10
0.0
  20
0.0
  30
0.0
   3
_DOT
   0
POLYLINE
   5
9D
 100
AcDbEntity
   8
0
 370
-2
   6
BYBLOCK
  62
0
 100
AcDb2dPolyline
  66
1
  10
0.0
  20
0.0
  30
0.0
  70
1
  40
 0.50000000000000
  41
 0.50000000000000
   0
VERTEX
   5
9E
 100
AcDbEntity
   8
0
   6
BYBLOCK
  62
0
 100
AcDbVertex
 100
AcDb2dVertex
  10
-0.25000000000000
  20
0.0
  30
0.0
  42
 1.0000000000000
  40
 0.50000000000000
  41
 0.50000000000000
   0
VERTEX
   5
9F
 100
AcDbEntity
   8
0
   6
BYBLOCK
  62
0
 100
AcDbVertex
 100
AcDb2dVertex
  10
 0.25000000000000
  20
0.0
  30
0.0
  42
 1.0000000000000
  40
 0.50000000000000
  41
 0.50000000000000
   0
SEQEND
   5
A0
 100
AcDbEntity
   8
0
   6
BYBLOCK
  62
0
   0
LINE
   5
A1
 100
AcDbEntity
   8
0
 370
-2
 100
AcDbLine
   6
BYBLOCK
  62
0
  10
-0.50000000000000
  20
0.0
  30
0.0
  11
-1.0000000000000
  21
0.0
  31
0.0
   0
ENDBLK
   5
A2
 100
AcDbEntity
   8
0
 100
AcDbBlockEnd
   0
BLOCK
   5
A3
 100
AcDbEntity
   8
0
 100
AcDbBlockBegin
   2
_DOTSMALL
  70
0
  10
0.0
  20
0.0
  30
0.0
   3
_DOTSMALL
   0
POLYLINE
   5
A4
 100
AcDbEntity
   8
0
 370
-2
   6
BYBLOCK
  62
0
 100
AcDb2dPolyline
  66
1
  10
0.0
  20
0.0
  30
0.0
  70
1
  40
 0.50000000000000
  41
 0.50000000000000
   0
VERTEX
   5
A5
 100
AcDbEntity
   8
0
   6
BYBLOCK
  62
0
 100
AcDbVertex
 100
AcDb2dVertex
  10
-0.62500000000000E-1
  20
0.0
  30
0.0
  42
 1.0000000000000
  40
 0.50000000000000
  41
 0.50000000000000
   0
VERTEX
   5
A6
 100
AcDbEntity
   8
0
   6
BYBLOCK
  62
0
 100
AcDbVertex
 100
AcDb2dVertex
  10
 0.62500000000000E-1
  20
0.0
  30
0.0
  42
 1.0000000000000
  40
 0.50000000000000
  41
 0.50000000000000
   0
SEQEND
   5
A7
 100
AcDbEntity
   8
0
   6
BYBLOCK
  62
0
   0
ENDBLK
   5
A8
 100
AcDbEntity
   8
0
 100
AcDbBlockEnd
   0
BLOCK
   5
A9
 100
AcDbEntity
   8
0
 100
AcDbBlockBegin
   2
_DATUMBLANK
  70
0
  10
0.0
  20
0.0
  30
0.0
   3
_DATUMBLANK
   0
LINE
   5
AA
 100
AcDbEntity
   8
0
 370
-2
 100
AcDbLine
   6
BYBLOCK
  62
0
  10
0.0
  20
 0.57735027000000
  30
0.0
  11
-1.0000000000000
  21
0.0
  31
0.0
   0
LINE
   5
AB
 100
AcDbEntity
   8
0
 370
-2
 100
AcDbLine
   6
BYBLOCK
  62
0
  10
-1.0000000000000
  20
0.0
  30
0.0
  11
0.0
  21
-0.57735027000000
  31
0.0
   0
LINE
   5
AC
 100
AcDbEntity
   8
0
 370
-2
 100
AcDbLine
   6
BYBLOCK
  62
0
  10
0.0
  20
-0.57735027000000
  30
0.0
  11
0.0
  21
 0.57735027000000
  31
0.0
   0
ENDBLK
   5
AD
 100
AcDbEntity
   8
0
 100
AcDbBlockEnd
   0
BLOCK
   5
AE
 100
AcDbEntity
   8
0
 100
AcDbBlockBegin
   2
_DATUMFILLED
  70
0
  10
0.0
  20
0.0
  30
0.0
   3
_DATUMFILLED
   0
SOLID
   5
AF
 100
AcDbEntity
   8
0
 100
AcDbTrace
   6
BYBLOCK
  62
0
  10
0.0
  20
 0.57735027000000
  30
0.0
  11
-1.0000000000000
  21
0.0
  31
0.0
  12
0.0
  22
-0.57735027000000
  32
0.0
  13
0.0
  23
-0.57735027000000
  33
0.0
   0
ENDBLK
   5
B0
 100
AcDbEntity
   8
0
 100
AcDbBlockEnd
   0
BLOCK
   5
B1
 100
AcDbEntity
   8
0
 100
AcDbBlockBegin
   2
_ORIGIN
  70
0
  10
0.0
  20
0.0
  30
0.0
   3
_ORIGIN
   0
CIRCLE
   5
B2
 100
AcDbEntity
   8
0
 370
-2
 100
AcDbCircle
   6
BYBLOCK
  62
0
  10
0.0
  20
0.0
  30
0.0
  40
 0.50000000000000
   0
LINE
   5
B3
 100
AcDbEntity
   8
0
 370
-2
 100
AcDbLine
   6
BYBLOCK
  62
0
  10
0.0
  20
0.0
  30
0.0
  11
-1.0000000000000
  21
0.0
  31
0.0
   0
ENDBLK
   5
B4
 100
AcDbEntity
   8
0
 100
AcDbBlockEnd
   0
BLOCK
   5
B5
 100
AcDbEntity
   8
0
 100
AcDbBlockBegin
   2
_NONE
  70
0
  10
0.0
  20
0.0
  30
0.0
   3
_NONE
   0
CIRCLE
   5
B6
 100
AcDbEntity
   8
0
 370
-2
 100
AcDbCircle
   6
BYBLOCK
  62
0
  10
0.0
  20
0.0
  30
0.0
  40
 0.25000000000000
   0
ENDBLK
   5
B7
 100
AcDbEntity
   8
0
 100
AcDbBlockEnd
   0
BLOCK
   5
B8
 100
AcDbEntity
   8
0
 100
AcDbBlockBegin
   2
_DOTBLANK
  70
0
  10
0.0
  20
0.0
  30
0.0
   3
_DOTBLANK
   0
CIRCLE
   5
B9
 100
AcDbEntity
   8
0
 370
-2
 100
AcDbCircle
   6
BYBLOCK
  62
0
  10
0.0
  20
0.0
  30
0.0
  40
 0.50000000000000
   0
LINE
   5
BA
 100
AcDbEntity
   8
0
 370
-2
 100
AcDbLine
   6
BYBLOCK
  62
0
  10
-0.50000000000000
  20
0.0
  30
0.0
  11
-1.0000000000000
  21
0.0
  31
0.0
   0
ENDBLK
   5
BB
 100
AcDbEntity
   8
0
 100
AcDbBlockEnd
   0
BLOCK
   5
BC
 100
AcDbEntity
   8
0
 100
AcDbBlockBegin
   2
_INTEGRAL
  70
0
  10
0.0
  20
0.0
  30
0.0
   3
_INTEGRAL
   0
ARC
   5
BD
 100
AcDbEntity
   8
0
 370
-2
   6
BYBLOCK
  62
0
 100
AcDbCircle
  10
 0.44488800000000
  20
-0.91335000000000E-1
  30
0.0
  40
 0.45416700000000
 100
AcDbArc
  50
 102.00000000000
  51
 168.00000000000
   0
ARC
   5
BE
 100
AcDbEntity
   8
0
 370
-2
   6
BYBLOCK
  62
0
 100
AcDbCircle
  10
-0.44488800000000
  20
 0.91335000000000E-1
  30
0.0
  40
 0.45416700000000
 100
AcDbArc
  50
 282.00000000000
  51
 348.00000000000
   0
ENDBLK
   5
BF
 100
AcDbEntity
   8
0
 100
AcDbBlockEnd
   0
BLOCK
   5
C0
 100
AcDbEntity
   8
0
 100
AcDbBlockBegin
   2
*D1
  70
65
  10
0.0
  20
0.0
  30
0.0
   3
*D1
   0
LINE
   5
C1
 100
AcDbEntity
   8
LEVEL001
 370
15
 100
AcDbLine
   6
CONTINUOUS
  62
8
  10
 90.999999999900
  20
 327.00000000000
  30
0.0
  11
 90.999999999900
  21
 335.00000000000
  31
0.0
   0
LINE
   5
C2
 100
AcDbEntity
   8
LEVEL001
 370
15
 100
AcDbLine
   6
CONTINUOUS
  62
8
  10
 125.99999999990
  20
 327.00000000000
  30
0.0
  11
 125.99999999990
  21
 335.00000000000
  31
0.0
   0
LINE
   5
C3
 100
AcDbEntity
   8
LEVEL001
 370
15
 100
AcDbLine
   6
CONTINUOUS
  62
8
  10
 90.999999999900
  20
 333.00000000000
  30
0.0
  11
 108.49999999990
  21
 333.00000000000
  31
0.0
   0
LINE
   5
C4
 100
AcDbEntity
   8
LEVEL001
 370
15
 100
AcDbLine
   6
CONTINUOUS
  62
8
  10
 125.99999999990
  20
 333.00000000000
  30
0.0
  11
 108.49999999990
  21
 333.00000000000
  31
0.0
   0
INSERT
   5
C5
 100
AcDbEntity
   8
LEVEL001
   6
CONTINUOUS
  62
8
 100
AcDbBlockReference
   2
_DOT
  10
 90.999999999900
  20
 333.00000000000
  30
0.0
  41
 0.80000000000000
  42
 0.80000000000000
  43
 0.80000000000000
  50
 180.00000000000
   0
INSERT
   5
C6
 100
AcDbEntity
   8
LEVEL001
   6
CONTINUOUS
  62
8
 100
AcDbBlockReference
   2
_DOT
  10
 125.99999999990
  20
 333.00000000000
  30
0.0
  41
 0.80000000000000
  42
 0.80000000000000
  43
 0.80000000000000
  50
0.0
   0
MTEXT
   5
C7
 100
AcDbEntity
   8
LEVEL001
 370
15
  62
8
 100
AcDbMText
  10
 108.49999999990
  20
 335.00000000000
  30
0.0
  40
 6.0000000000000
  41
0.0
  71
8
  72
1
   1
\A1;35
   7
GMM002
   0
ENDBLK
   5
C8
 100
AcDbEntity
   8
0
 100
AcDbBlockEnd
   0
BLOCK
   5
C9
 100
AcDbEntity
   8
0
 100
AcDbBlockBegin
   2
*D2
  70
65
  10
0.0
  20
0.0
  30
0.0
   3
*D2
   0
LINE
   5
CA
 100
AcDbEntity
   8
LEVEL001
 370
15
 100
AcDbLine
   6
CONTINUOUS
  62
8
  10
 235.49999999990
  20
 327.00000000000
  30
0.0
  11
 235.49999999990
  21
 335.00000000000
  31
0.0
   0
LINE
   5
CB
 100
AcDbEntity
   8
LEVEL001
 370
15
 100
AcDbLine
   6
CONTINUOUS
  62
8
  10
 275.49999999990
  20
 327.00000000000
  30
0.0
  11
 275.49999999990
  21
 335.00000000000
  31
0.0
   0
LINE
   5
CC
 100
AcDbEntity
   8
LEVEL001
 370
15
 100
AcDbLine
   6
CONTINUOUS
  62
8
  10
 235.49999999990
  20
 333.00000000000
  30
0.0
  11
 255.49999999990
  21
 333.00000000000
  31
0.0
   0
LINE
   5
CD
 100
AcDbEntity
   8
LEVEL001
 370
15
 100
AcDbLine
   6
CONTINUOUS
  62
8
  10
 275.49999999990
  20
 333.00000000000
  30
0.0
  11
 255.49999999990
  21
 333.00000000000
  31
0.0
   0
INSERT
   5
CE
 100
AcDbEntity
   8
LEVEL001
   6
CONTINUOUS
  62
8
 100
AcDbBlockReference
   2
_DOT
  10
 235.49999999990
  20
 333.00000000000
  30
0.0
  41
 0.80000000000000
  42
 0.80000000000000
  43
 0.80000000000000
  50
 180.00000000000
   0
INSERT
   5
CF
 100
AcDbEntity
   8
LEVEL001
   6
CONTINUOUS
  62
8
 100
AcDbBlockReference
   2
_DOT
  10
 275.49999999990
  20
 333.00000000000
  30
0.0
  41
 0.80000000000000
  42
 0.80000000000000
  43
 0.80000000000000
  50
0.0
   0
MTEXT
   5
D0
 100
AcDbEntity
   8
LEVEL001
 370
15
  62
8
 100
AcDbMText
  10
 255.49999999990
  20
 335.00000000000
  30
0.0
  40
 6.0000000000000
  41
0.0
  71
8
  72
1
   1
\A1;40
   7
GMM002
   0
ENDBLK
   5
D1
 100
AcDbEntity
   8
0
 100
AcDbBlockEnd
   0
BLOCK
   5
D2
 100
AcDbEntity
   8
0
 100
AcDbBlockBegin
   2
*D3
  70
65
  10
0.0
  20
0.0
  30
0.0
   3
*D3
   0
LINE
   5
D3
 100
AcDbEntity
   8
LEVEL001
 370
15
 100
AcDbLine
   6
CONTINUOUS
  62
8
  10
 379.99999999990
  20
 327.00000000000
  30
0.0
  11
 379.99999999990
  21
 335.00000000000
  31
0.0
   0
LINE
   5
D4
 100
AcDbEntity
   8
LEVEL001
 370
15
 100
AcDbLine
   6
CONTINUOUS
  62
8
  10
 429.99999999990
  20
 327.00000000000
  30
0.0
  11
 429.99999999990
  21
 335.00000000000
  31
0.0
   0
LINE
   5
D5
 100
AcDbEntity
   8
LEVEL001
 370
15
 100
AcDbLine
   6
CONTINUOUS
  62
8
  10
 379.99999999990
  20
 333.00000000000
  30
0.0
  11
 404.99999999990
  21
 333.00000000000
  31
0.0
   0
LINE
   5
D6
 100
AcDbEntity
   8
LEVEL001
 370
15
 100
AcDbLine
   6
CONTINUOUS
  62
8
  10
 429.99999999990
  20
 333.00000000000
  30
0.0
  11
 404.99999999990
  21
 333.00000000000
  31
0.0
   0
INSERT
   5
D7
 100
AcDbEntity
   8
LEVEL001
   6
CONTINUOUS
  62
8
 100
AcDbBlockReference
   2
_DOT
  10
 379.99999999990
  20
 333.00000000000
  30
0.0
  41
 0.80000000000000
  42
 0.80000000000000
  43
 0.80000000000000
  50
 180.00000000000
   0
INSERT
   5
D8
 100
AcDbEntity
   8
LEVEL001
   6
CONTINUOUS
  62
8
 100
AcDbBlockReference
   2
_DOT
  10
 429.99999999990
  20
 333.00000000000
  30
0.0
  41
 0.80000000000000
  42
 0.80000000000000
  43
 0.80000000000000
  50
0.0
   0
MTEXT
   5
D9
 100
AcDbEntity
   8
LEVEL001
 370
15
  62
8
 100
AcDbMText
  10
 404.99999999990
  20
 335.00000000000
  30
0.0
  40
 6.0000000000000
  41
0.0
  71
8
  72
1
   1
\A1;50
   7
GMM002
   0
ENDBLK
   5
DA
 100
AcDbEntity
   8
0
 100
AcDbBlockEnd
   0
BLOCK
   5
DB
 100
AcDbEntity
   8
0
 100
AcDbBlockBegin
   2
*D4
  70
65
  10
0.0
  20
0.0
  30
0.0
   3
*D4
   0
LINE
   5
DC
 100
AcDbEntity
   8
LEVEL001
 370
15
 100
AcDbLine
   6
CONTINUOUS
  62
8
  10
 86.999999999900
  20
 307.00000000000
  30
0.0
  11
 78.999999999900
  21
 307.00000000000
  31
0.0
   0
LINE
   5
DD
 100
AcDbEntity
   8
LEVEL001
 370
15
 100
AcDbLine
   6
CONTINUOUS
  62
8
  10
 86.999999999900
  20
 323.00000000000
  30
0.0
  11
 78.999999999900
  21
 323.00000000000
  31
0.0
   0
LINE
   5
DE
 100
AcDbEntity
   8
LEVEL001
 370
15
 100
AcDbLine
   6
CONTINUOUS
  62
8
  10
 80.999999999900
  20
 307.00000000000
  30
0.0
  11
 80.999999999900
  21
 315.00000000000
  31
0.0
   0
LINE
   5
DF
 100
AcDbEntity
   8
LEVEL001
 370
15
 100
AcDbLine
   6
CONTINUOUS
  62
8
  10
 80.999999999900
  20
 323.00000000000
  30
0.0
  11
 80.999999999900
  21
 315.00000000000
  31
0.0
   0
INSERT
   5
E0
 100
AcDbEntity
   8
LEVEL001
   6
CONTINUOUS
  62
8
 100
AcDbBlockReference
   2
_DOT
  10
 80.999999999900
  20
 307.00000000000
  30
0.0
  41
 0.80000000000000
  42
 0.80000000000000
  43
 0.80000000000000
  50
 270.00000000000
   0
INSERT
   5
E1
 100
AcDbEntity
   8
LEVEL001
   6
CONTINUOUS
  62
8
 100
AcDbBlockReference
   2
_DOT
  10
 80.999999999900
  20
 323.00000000000
  30
0.0
  41
 0.80000000000000
  42
 0.80000000000000
  43
 0.80000000000000
  50
 90.000000000000
   0
MTEXT
   5
E2
 100
AcDbEntity
   8
LEVEL001
 370
15
  62
8
 100
AcDbMText
  10
 78.999999999900
  20
 315.00000000000
  30
0.0
  40
 6.0000000000000
  41
0.0
  71
8
  72
1
   1
\A1;16
   7
GMM002
  11
0.0
  21
 1.0000000000000
  31
0.0
   0
ENDBLK
   5
E3
 100
AcDbEntity
   8
0
 100
AcDbBlockEnd
   0
BLOCK
   5
E4
 100
AcDbEntity
   8
0
 100
AcDbBlockBegin
   2
*D5
  70
65
  10
0.0
  20
0.0
  30
0.0
   3
*D5
   0
LINE
   5
E5
 100
AcDbEntity
   8
LEVEL001
 370
15
 100
AcDbLine
   6
CONTINUOUS
  62
8
  10
 129.99999999990
  20
 320.00000000000
  30
0.0
  11
 139.99999999990
  21
 320.00000000000
  31
0.0
   0
LINE
   5
E6
 100
AcDbEntity
   8
LEVEL001
 370
15
 100
AcDbLine
   6
CONTINUOUS
  62
8
  10
 129.99999999990
  20
 323.00000000000
  30
0.0
  11
 139.99999999990
  21
 323.00000000000
  31
0.0
   0
LINE
   5
E7
 100
AcDbEntity
   8
LEVEL001
 370
15
 100
AcDbLine
   6
CONTINUOUS
  62
8
  10
 137.99999999990
  20
 320.00000000000
  30
0.0
  11
 137.99999999990
  21
 321.50000000000
  31
0.0
   0
LINE
   5
E8
 100
AcDbEntity
   8
LEVEL001
 370
15
 100
AcDbLine
   6
CONTINUOUS
  62
8
  10
 137.99999999990
  20
 330.89575825165
  30
0.0
  11
 137.99999999990
  21
 321.50000000000
  31
0.0
   0
INSERT
   5
E9
 100
AcDbEntity
   8
LEVEL001
   6
CONTINUOUS
  62
8
 100
AcDbBlockReference
   2
_DOT
  10
 137.99999999990
  20
 320.00000000000
  30
0.0
  41
 0.80000000000000
  42
 0.80000000000000
  43
 0.80000000000000
  50
 270.00000000000
   0
INSERT
   5
EA
 100
AcDbEntity
   8
LEVEL001
   6
CONTINUOUS
  62
8
 100
AcDbBlockReference
   2
_DOT
  10
 137.99999999990
  20
 323.00000000000
  30
0.0
  41
 0.80000000000000
  42
 0.80000000000000
  43
 0.80000000000000
  50
 90.000000000000
   0
MTEXT
   5
EB
 100
AcDbEntity
   8
LEVEL001
 370
15
  62
8
 100
AcDbMText
  10
 136.00153722208
  20
 324.89575825165
  30
0.0
  40
 6.0000000000000
  41
0.0
  71
7
  72
1
   1
\A1;3
   7
GMM002
  11
0.0
  21
 1.0000000000000
  31
0.0
   0
ENDBLK
   5
EC
 100
AcDbEntity
   8
0
 100
AcDbBlockEnd
   0
BLOCK
   5
ED
 100
AcDbEntity
   8
0
 100
AcDbBlockBegin
   2
*D6
  70
65
  10
0.0
  20
0.0
  30
0.0
   3
*D6
   0
LINE
   5
EE
 100
AcDbEntity
   8
LEVEL001
 370
15
 100
AcDbLine
   6
CONTINUOUS
  62
8
  10
 231.49999999990
  20
 305.00000000000
  30
0.0
  11
 223.49999999990
  21
 305.00000000000
  31
0.0
   0
LINE
   5
EF
 100
AcDbEntity
   8
LEVEL001
 370
15
 100
AcDbLine
   6
CONTINUOUS
  62
8
  10
 231.49999999990
  20
 323.00000000000
  30
0.0
  11
 223.49999999990
  21
 323.00000000000
  31
0.0
   0
LINE
   5
F0
 100
AcDbEntity
   8
LEVEL001
 370
15
 100
AcDbLine
   6
CONTINUOUS
  62
8
  10
 225.49999999990
  20
 305.00000000000
  30
0.0
  11
 225.49999999990
  21
 314.00000000000
  31
0.0
   0
LINE
   5
F1
 100
AcDbEntity
   8
LEVEL001
 370
15
 100
AcDbLine
   6
CONTINUOUS
  62
8
  10
 225.49999999990
  20
 323.00000000000
  30
0.0
  11
 225.49999999990
  21
 314.00000000000
  31
0.0
   0
INSERT
   5
F2
 100
AcDbEntity
   8
LEVEL001
   6
CONTINUOUS
  62
8
 100
AcDbBlockReference
   2
_DOT
  10
 225.49999999990
  20
 305.00000000000
  30
0.0
  41
 0.80000000000000
  42
 0.80000000000000
  43
 0.80000000000000
  50
 270.00000000000
   0
INSERT
   5
F3
 100
AcDbEntity
   8
LEVEL001
   6
CONTINUOUS
  62
8
 100
AcDbBlockReference
   2
_DOT
  10
 225.49999999990
  20
 323.00000000000
  30
0.0
  41
 0.80000000000000
  42
 0.80000000000000
  43
 0.80000000000000
  50
 90.000000000000
   0
MTEXT
   5
F4
 100
AcDbEntity
   8
LEVEL001
 370
15
  62
8
 100
AcDbMText
  10
 223.49999999990
  20
 314.00000000000
  30
0.0
  40
 6.0000000000000
  41
0.0
  71
8
  72
1
   1
\A1;18
   7
GMM002
  11
0.0
  21
 1.0000000000000
  31
0.0
   0
ENDBLK
   5
F5
 100
AcDbEntity
   8
0
 100
AcDbBlockEnd
   0
BLOCK
   5
F6
 100
AcDbEntity
   8
0
 100
AcDbBlockBegin
   2
*D7
  70
65
  10
0.0
  20
0.0
  30
0.0
   3
*D7
   0
LINE
   5
F7
 100
AcDbEntity
   8
LEVEL001
 370
15
 100
AcDbLine
   6
CONTINUOUS
  62
8
  10
 279.49999999990
  20
 320.00000000000
  30
0.0
  11
 289.49999999990
  21
 320.00000000000
  31
0.0
   0
LINE
   5
F8
 100
AcDbEntity
   8
LEVEL001
 370
15
 100
AcDbLine
   6
CONTINUOUS
  62
8
  10
 279.49999999990
  20
 323.00000000000
  30
0.0
  11
 289.49999999990
  21
 323.00000000000
  31
0.0
   0
LINE
   5
F9
 100
AcDbEntity
   8
LEVEL001
 370
15
 100
AcDbLine
   6
CONTINUOUS
  62
8
  10
 287.49999999990
  20
 320.00000000000
  30
0.0
  11
 287.49999999990
  21
 321.50000000000
  31
0.0
   0
LINE
   5
FA
 100
AcDbEntity
   8
LEVEL001
 370
15
 100
AcDbLine
   6
CONTINUOUS
  62
8
  10
 287.49999999990
  20
 331.89466409242
  30
0.0
  11
 287.49999999990
  21
 321.50000000000
  31
0.0
   0
INSERT
   5
FB
 100
AcDbEntity
   8
LEVEL001
   6
CONTINUOUS
  62
8
 100
AcDbBlockReference
   2
_DOT
  10
 287.49999999990
  20
 320.00000000000
  30
0.0
  41
 0.80000000000000
  42
 0.80000000000000
  43
 0.80000000000000
  50
 270.00000000000
   0
INSERT
   5
FC
 100
AcDbEntity
   8
LEVEL001
   6
CONTINUOUS
  62
8
 100
AcDbBlockReference
   2
_DOT
  10
 287.49999999990
  20
 323.00000000000
  30
0.0
  41
 0.80000000000000
  42
 0.80000000000000
  43
 0.80000000000000
  50
 90.000000000000
   0
MTEXT
   5
FD
 100
AcDbEntity
   8
LEVEL001
 370
15
  62
8
 100
AcDbMText
  10
 285.37713319482
  20
 325.89466409242
  30
0.0
  40
 6.0000000000000
  41
0.0
  71
7
  72
1
   1
\A1;3
   7
GMM002
  11
0.0
  21
 1.0000000000000
  31
0.0
   0
ENDBLK
   5
FE
 100
AcDbEntity
   8
0
 100
AcDbBlockEnd
   0
BLOCK
   5
FF
 100
AcDbEntity
   8
0
 100
AcDbBlockBegin
   2
*D8
  70
65
  10
0.0
  20
0.0
  30
0.0
   3
*D8
   0
LINE
   5
100
 100
AcDbEntity
   8
LEVEL001
 370
15
 100
AcDbLine
   6
CONTINUOUS
  62
8
  10
 375.99999999990
  20
 305.00000000000
  30
0.0
  11
 367.99999999990
  21
 305.00000000000
  31
0.0
   0
LINE
   5
101
 100
AcDbEntity
   8
LEVEL001
 370
15
 100
AcDbLine
   6
CONTINUOUS
  62
8
  10
 375.99999999990
  20
 323.00000000000
  30
0.0
  11
 367.99999999990
  21
 323.00000000000
  31
0.0
   0
LINE
   5
102
 100
AcDbEntity
   8
LEVEL001
 370
15
 100
AcDbLine
   6
CONTINUOUS
  62
8
  10
 369.99999999990
  20
 305.00000000000
  30
0.0
  11
 369.99999999990
  21
 314.00000000000
  31
0.0
   0
LINE
   5
103
 100
AcDbEntity
   8
LEVEL001
 370
15
 100
AcDbLine
   6
CONTINUOUS
  62
8
  10
 369.99999999990
  20
 323.00000000000
  30
0.0
  11
 369.99999999990
  21
 314.00000000000
  31
0.0
   0
INSERT
   5
104
 100
AcDbEntity
   8
LEVEL001
   6
CONTINUOUS
  62
8
 100
AcDbBlockReference
   2
_DOT
  10
 369.99999999990
  20
 305.00000000000
  30
0.0
  41
 0.80000000000000
  42
 0.80000000000000
  43
 0.80000000000000
  50
 270.00000000000
   0
INSERT
   5
105
 100
AcDbEntity
   8
LEVEL001
   6
CONTINUOUS
  62
8
 100
AcDbBlockReference
   2
_DOT
  10
 369.99999999990
  20
 323.00000000000
  30
0.0
  41
 0.80000000000000
  42
 0.80000000000000
  43
 0.80000000000000
  50
 90.000000000000
   0
MTEXT
   5
106
 100
AcDbEntity
   8
LEVEL001
 370
15
  62
8
 100
AcDbMText
  10
 367.99999999990
  20
 314.00000000000
  30
0.0
  40
 6.0000000000000
  41
0.0
  71
8
  72
1
   1
\A1;18
   7
GMM002
  11
0.0
  21
 1.0000000000000
  31
0.0
   0
ENDBLK
   5
107
 100
AcDbEntity
   8
0
 100
AcDbBlockEnd
   0
BLOCK
   5
108
 100
AcDbEntity
   8
0
 100
AcDbBlockBegin
   2
*D9
  70
65
  10
0.0
  20
0.0
  30
0.0
   3
*D9
   0
LINE
   5
109
 100
AcDbEntity
   8
LEVEL001
 370
15
 100
AcDbLine
   6
CONTINUOUS
  62
8
  10
 433.99999999990
  20
 320.00000000000
  30
0.0
  11
 443.99999999990
  21
 320.00000000000
  31
0.0
   0
LINE
   5
10A
 100
AcDbEntity
   8
LEVEL001
 370
15
 100
AcDbLine
   6
CONTINUOUS
  62
8
  10
 433.99999999990
  20
 323.00000000000
  30
0.0
  11
 443.99999999990
  21
 323.00000000000
  31
0.0
   0
LINE
   5
10B
 100
AcDbEntity
   8
LEVEL001
 370
15
 100
AcDbLine
   6
CONTINUOUS
  62
8
  10
 441.99999999990
  20
 320.00000000000
  30
0.0
  11
 441.99999999990
  21
 321.50000000000
  31
0.0
   0
LINE
   5
10C
 100
AcDbEntity
   8
LEVEL001
 370
15
 100
AcDbLine
   6
CONTINUOUS
  62
8
  10
 441.99999999990
  20
 331.18955408717
  30
0.0
  11
 441.99999999990
  21
 321.50000000000
  31
0.0
   0
INSERT
   5
10D
 100
AcDbEntity
   8
LEVEL001
   6
CONTINUOUS
  62
8
 100
AcDbBlockReference
   2
_DOT
  10
 441.99999999990
  20
 320.00000000000
  30
0.0
  41
 0.80000000000000
  42
 0.80000000000000
  43
 0.80000000000000
  50
 270.00000000000
   0
INSERT
   5
10E
 100
AcDbEntity
   8
LEVEL001
   6
CONTINUOUS
  62
8
 100
AcDbBlockReference
   2
_DOT
  10
 441.99999999990
  20
 323.00000000000
  30
0.0
  41
 0.80000000000000
  42
 0.80000000000000
  43
 0.80000000000000
  50
 90.000000000000
   0
MTEXT
   5
10F
 100
AcDbEntity
   8
LEVEL001
 370
15
  62
8
 100
AcDbMText
  10
 439.94312226175
  20
 325.18955408717
  30
0.0
  40
 6.0000000000000
  41
0.0
  71
7
  72
1
   1
\A1;3
   7
GMM002
  11
0.0
  21
 1.0000000000000
  31
0.0
   0
ENDBLK
   5
110
 100
AcDbEntity
   8
0
 100
AcDbBlockEnd
   0
BLOCK
   5
111
 100
AcDbEntity
   8
0
 100
AcDbBlockBegin
   2
*D10
  70
65
  10
0.0
  20
0.0
  30
0.0
   3
*D10
   0
LINE
   5
112
 100
AcDbEntity
   8
LEVEL001
 370
15
 100
AcDbLine
   6
CONTINUOUS
  62
8
  10
 86.999999999900
  20
 444.50000000000
  30
0.0
  11
 78.999999999900
  21
 444.50000000000
  31
0.0
   0
LINE
   5
113
 100
AcDbEntity
   8
LEVEL001
 370
15
 100
AcDbLine
   6
CONTINUOUS
  62
8
  10
 86.999999999900
  20
 459.50000000000
  30
0.0
  11
 78.999999999900
  21
 459.50000000000
  31
0.0
   0
LINE
   5
114
 100
AcDbEntity
   8
LEVEL001
 370
15
 100
AcDbLine
   6
CONTINUOUS
  62
8
  10
 80.999999999900
  20
 444.50000000000
  30
0.0
  11
 80.999999999900
  21
 452.00000000000
  31
0.0
   0
LINE
   5
115
 100
AcDbEntity
   8
LEVEL001
 370
15
 100
AcDbLine
   6
CONTINUOUS
  62
8
  10
 80.999999999900
  20
 459.50000000000
  30
0.0
  11
 80.999999999900
  21
 452.00000000000
  31
0.0
   0
INSERT
   5
116
 100
AcDbEntity
   8
LEVEL001
   6
CONTINUOUS
  62
8
 100
AcDbBlockReference
   2
_DOT
  10
 80.999999999900
  20
 444.50000000000
  30
0.0
  41
 0.80000000000000
  42
 0.80000000000000
  43
 0.80000000000000
  50
 270.00000000000
   0
INSERT
   5
117
 100
AcDbEntity
   8
LEVEL001
   6
CONTINUOUS
  62
8
 100
AcDbBlockReference
   2
_DOT
  10
 80.999999999900
  20
 459.50000000000
  30
0.0
  41
 0.80000000000000
  42
 0.80000000000000
  43
 0.80000000000000
  50
 90.000000000000
   0
MTEXT
   5
118
 100
AcDbEntity
   8
LEVEL001
 370
15
  62
8
 100
AcDbMText
  10
 78.999999999900
  20
 452.00000000000
  30
0.0
  40
 6.0000000000000
  41
0.0
  71
8
  72
1
   1
\A1;15
   7
GMM002
  11
0.0
  21
 1.0000000000000
  31
0.0
   0
ENDBLK
   5
119
 100
AcDbEntity
   8
0
 100
AcDbBlockEnd
   0
BLOCK
   5
11A
 100
AcDbEntity
   8
0
 100
AcDbBlockBegin
   2
*D11
  70
65
  10
0.0
  20
0.0
  30
0.0
   3
*D11
   0
LINE
   5
11B
 100
AcDbEntity
   8
LEVEL001
 370
15
 100
AcDbLine
   6
CONTINUOUS
  62
8
  10
 90.999999999900
  20
 463.50000000000
  30
0.0
  11
 90.999999999900
  21
 471.50000000000
  31
0.0
   0
LINE
   5
11C
 100
AcDbEntity
   8
LEVEL001
 370
15
 100
AcDbLine
   6
CONTINUOUS
  62
8
  10
 128.99867817020
  20
 463.50000000000
  30
0.0
  11
 128.99867817020
  21
 471.50000000000
  31
0.0
   0
LINE
   5
11D
 100
AcDbEntity
   8
LEVEL001
 370
15
 100
AcDbLine
   6
CONTINUOUS
  62
8
  10
 90.999999999900
  20
 469.50000000000
  30
0.0
  11
 109.99933908505
  21
 469.50000000000
  31
0.0
   0
LINE
   5
11E
 100
AcDbEntity
   8
LEVEL001
 370
15
 100
AcDbLine
   6
CONTINUOUS
  62
8
  10
 128.99867817020
  20
 469.50000000000
  30
0.0
  11
 109.99933908505
  21
 469.50000000000
  31
0.0
   0
INSERT
   5
11F
 100
AcDbEntity
   8
LEVEL001
   6
CONTINUOUS
  62
8
 100
AcDbBlockReference
   2
_DOT
  10
 90.999999999900
  20
 469.50000000000
  30
0.0
  41
 0.80000000000000
  42
 0.80000000000000
  43
 0.80000000000000
  50
 180.00000000000
   0
INSERT
   5
120
 100
AcDbEntity
   8
LEVEL001
   6
CONTINUOUS
  62
8
 100
AcDbBlockReference
   2
_DOT
  10
 128.99867817020
  20
 469.50000000000
  30
0.0
  41
 0.80000000000000
  42
 0.80000000000000
  43
 0.80000000000000
  50
0.0
   0
MTEXT
   5
121
 100
AcDbEntity
   8
LEVEL001
 370
15
  62
8
 100
AcDbMText
  10
 109.99933908505
  20
 471.50000000000
  30
0.0
  40
 6.0000000000000
  41
0.0
  71
8
  72
1
   1
\A1;38
   7
GMM002
   0
ENDBLK
   5
122
 100
AcDbEntity
   8
0
 100
AcDbBlockEnd
   0
BLOCK
   5
123
 100
AcDbEntity
   8
0
 100
AcDbBlockBegin
   2
*D12
  70
65
  10
0.0
  20
0.0
  30
0.0
   3
*D12
   0
LINE
   5
124
 100
AcDbEntity
   8
LEVEL001
 370
15
 100
AcDbLine
   6
CONTINUOUS
  62
8
  10
 132.99867817020
  20
 456.27850816350
  30
0.0
  11
 142.99867817020
  21
 456.27850816350
  31
0.0
   0
LINE
   5
125
 100
AcDbEntity
   8
LEVEL001
 370
15
 100
AcDbLine
   6
CONTINUOUS
  62
8
  10
 132.99867817020
  20
 459.50000000000
  30
0.0
  11
 142.99867817020
  21
 459.50000000000
  31
0.0
   0
LINE
   5
126
 100
AcDbEntity
   8
LEVEL001
 370
15
 100
AcDbLine
   6
CONTINUOUS
  62
8
  10
 140.99867817020
  20
 456.27850816350
  30
0.0
  11
 140.99867817020
  21
 457.88925408175
  31
0.0
   0
LINE
   5
127
 100
AcDbEntity
   8
LEVEL001
 370
15
 100
AcDbLine
   6
CONTINUOUS
  62
8
  10
 140.99867817020
  20
 467.63813329705
  30
0.0
  11
 140.99867817020
  21
 457.88925408175
  31
0.0
   0
INSERT
   5
128
 100
AcDbEntity
   8
LEVEL001
   6
CONTINUOUS
  62
8
 100
AcDbBlockReference
   2
_DOT
  10
 140.99867817020
  20
 456.27850816350
  30
0.0
  41
 0.80000000000000
  42
 0.80000000000000
  43
 0.80000000000000
  50
 270.00000000000
   0
INSERT
   5
129
 100
AcDbEntity
   8
LEVEL001
   6
CONTINUOUS
  62
8
 100
AcDbBlockReference
   2
_DOT
  10
 140.99867817020
  20
 459.50000000000
  30
0.0
  41
 0.80000000000000
  42
 0.80000000000000
  43
 0.80000000000000
  50
 90.000000000000
   0
MTEXT
   5
12A
 100
AcDbEntity
   8
LEVEL001
 370
15
  62
8
 100
AcDbMText
  10
 138.76485027505
  20
 461.63813329705
  30
0.0
  40
 6.0000000000000
  41
0.0
  71
7
  72
1
   1
\A1;3
   7
GMM002
  11
0.0
  21
 1.0000000000000
  31
0.0
   0
ENDBLK
   5
12B
 100
AcDbEntity
   8
0
 100
AcDbBlockEnd
   0
BLOCK
   5
12C
 100
AcDbEntity
   8
0
 100
AcDbBlockBegin
   2
*D16
  70
65
  10
0.0
  20
0.0
  30
0.0
   3
*D16
   0
LINE
   5
12D
 100
AcDbEntity
   8
LEVEL001
 370
15
 100
AcDbLine
   6
CONTINUOUS
  62
8
  10
 88.545715712364
  20
 190.50000000002
  30
0.0
  11
 88.545715712364
  21
 198.50000000002
  31
0.0
   0
LINE
   5
12E
 100
AcDbEntity
   8
LEVEL001
 370
15
 100
AcDbLine
   6
CONTINUOUS
  62
8
  10
 123.54571571236
  20
 190.50000000002
  30
0.0
  11
 123.54571571236
  21
 198.50000000002
  31
0.0
   0
LINE
   5
12F
 100
AcDbEntity
   8
LEVEL001
 370
15
 100
AcDbLine
   6
CONTINUOUS
  62
8
  10
 88.545715712364
  20
 196.50000000002
  30
0.0
  11
 106.04571571236
  21
 196.50000000002
  31
0.0
   0
LINE
   5
130
 100
AcDbEntity
   8
LEVEL001
 370
15
 100
AcDbLine
   6
CONTINUOUS
  62
8
  10
 123.54571571236
  20
 196.50000000002
  30
0.0
  11
 106.04571571236
  21
 196.50000000002
  31
0.0
   0
INSERT
   5
131
 100
AcDbEntity
   8
LEVEL001
   6
CONTINUOUS
  62
8
 100
AcDbBlockReference
   2
_DOT
  10
 88.545715712364
  20
 196.50000000002
  30
0.0
  41
 0.80000000000000
  42
 0.80000000000000
  43
 0.80000000000000
  50
 180.00000000000
   0
INSERT
   5
132
 100
AcDbEntity
   8
LEVEL001
   6
CONTINUOUS
  62
8
 100
AcDbBlockReference
   2
_DOT
  10
 123.54571571236
  20
 196.50000000002
  30
0.0
  41
 0.80000000000000
  42
 0.80000000000000
  43
 0.80000000000000
  50
0.0
   0
MTEXT
   5
133
 100
AcDbEntity
   8
LEVEL001
 370
15
  62
8
 100
AcDbMText
  10
 106.04571571236
  20
 198.50000000002
  30
0.0
  40
 6.0000000000000
  41
0.0
  71
8
  72
1
   1
\A1;35
   7
GMM002
   0
ENDBLK
   5
134
 100
AcDbEntity
   8
0
 100
AcDbBlockEnd
   0
BLOCK
   5
135
 100
AcDbEntity
   8
0
 100
AcDbBlockBegin
   2
*D17
  70
65
  10
0.0
  20
0.0
  30
0.0
   3
*D17
   0
LINE
   5
136
 100
AcDbEntity
   8
LEVEL001
 370
15
 100
AcDbLine
   6
CONTINUOUS
  62
8
  10
 84.545715712364
  20
 168.20000000002
  30
0.0
  11
 78.999999999900
  21
 168.20000000002
  31
0.0
   0
LINE
   5
137
 100
AcDbEntity
   8
LEVEL001
 370
15
 100
AcDbLine
   6
CONTINUOUS
  62
8
  10
 84.545715712364
  20
 186.50000000002
  30
0.0
  11
 78.999999999900
  21
 186.50000000002
  31
0.0
   0
LINE
   5
138
 100
AcDbEntity
   8
LEVEL001
 370
15
 100
AcDbLine
   6
CONTINUOUS
  62
8
  10
 80.999999999900
  20
 168.20000000002
  30
0.0
  11
 80.999999999900
  21
 177.35000000002
  31
0.0
   0
LINE
   5
139
 100
AcDbEntity
   8
LEVEL001
 370
15
 100
AcDbLine
   6
CONTINUOUS
  62
8
  10
 80.999999999900
  20
 186.50000000002
  30
0.0
  11
 80.999999999900
  21
 177.35000000002
  31
0.0
   0
INSERT
   5
13A
 100
AcDbEntity
   8
LEVEL001
   6
CONTINUOUS
  62
8
 100
AcDbBlockReference
   2
_DOT
  10
 80.999999999900
  20
 168.20000000002
  30
0.0
  41
 0.80000000000000
  42
 0.80000000000000
  43
 0.80000000000000
  50
 270.00000000000
   0
INSERT
   5
13B
 100
AcDbEntity
   8
LEVEL001
   6
CONTINUOUS
  62
8
 100
AcDbBlockReference
   2
_DOT
  10
 80.999999999900
  20
 186.50000000002
  30
0.0
  41
 0.80000000000000
  42
 0.80000000000000
  43
 0.80000000000000
  50
 90.000000000000
   0
MTEXT
   5
13C
 100
AcDbEntity
   8
LEVEL001
 370
15
  62
8
 100
AcDbMText
  10
 78.999999999900
  20
 177.35000000002
  30
0.0
  40
 6.0000000000000
  41
0.0
  71
8
  72
1
   1
\A1;18
   7
GMM002
  11
0.0
  21
 1.0000000000000
  31
0.0
   0
ENDBLK
   5
13D
 100
AcDbEntity
   8
0
 100
AcDbBlockEnd
   0
BLOCK
   5
13E
 100
AcDbEntity
   8
0
 100
AcDbBlockBegin
   2
*D18
  70
65
  10
0.0
  20
0.0
  30
0.0
   3
*D18
   0
LINE
   5
13F
 100
AcDbEntity
   8
LEVEL001
 370
15
 100
AcDbLine
   6
CONTINUOUS
  62
8
  10
 127.54571571236
  20
 181.50000000002
  30
0.0
  11
 137.54571571236
  21
 181.50000000002
  31
0.0
   0
LINE
   5
140
 100
AcDbEntity
   8
LEVEL001
 370
15
 100
AcDbLine
   6
CONTINUOUS
  62
8
  10
 127.54571571236
  20
 185.50000000002
  30
0.0
  11
 137.54571571236
  21
 185.50000000002
  31
0.0
   0
LINE
   5
141
 100
AcDbEntity
   8
LEVEL001
 370
15
 100
AcDbLine
   6
CONTINUOUS
  62
8
  10
 135.54571571236
  20
 181.50000000002
  30
0.0
  11
 135.54571571236
  21
 183.50000000002
  31
0.0
   0
LINE
   5
142
 100
AcDbEntity
   8
LEVEL001
 370
15
 100
AcDbLine
   6
CONTINUOUS
  62
8
  10
 135.54571571236
  20
 193.03953953956
  30
0.0
  11
 135.54571571236
  21
 183.50000000002
  31
0.0
   0
INSERT
   5
143
 100
AcDbEntity
   8
LEVEL001
   6
CONTINUOUS
  62
8
 100
AcDbBlockReference
   2
_DOT
  10
 135.54571571236
  20
 181.50000000002
  30
0.0
  41
 0.80000000000000
  42
 0.80000000000000
  43
 0.80000000000000
  50
 270.00000000000
   0
INSERT
   5
144
 100
AcDbEntity
   8
LEVEL001
   6
CONTINUOUS
  62
8
 100
AcDbBlockReference
   2
_DOT
  10
 135.54571571236
  20
 185.50000000002
  30
0.0
  41
 0.80000000000000
  42
 0.80000000000000
  43
 0.80000000000000
  50
 90.000000000000
   0
MTEXT
   5
145
 100
AcDbEntity
   8
LEVEL001
 370
15
  62
8
 100
AcDbMText
  10
 133.53394019017
  20
 187.03953953956
  30
0.0
  40
 6.0000000000000
  41
0.0
  71
7
  72
1
   1
\A1;4
   7
GMM002
  11
0.0
  21
 1.0000000000000
  31
0.0
   0
ENDBLK
   5
146
 100
AcDbEntity
   8
0
 100
AcDbBlockEnd
   0
BLOCK
   5
147
 100
AcDbEntity
   8
0
 100
AcDbBlockBegin
   2
*D21
  70
65
  10
0.0
  20
0.0
  30
0.0
   3
*D21
   0
LINE
   5
148
 100
AcDbEntity
   8
LEVEL001
 370
15
 100
AcDbLine
   6
CONTINUOUS
  62
8
  10
 379.99999999990
  20
 463.50000000000
  30
0.0
  11
 379.99999999990
  21
 471.50000000000
  31
0.0
   0
LINE
   5
149
 100
AcDbEntity
   8
LEVEL001
 370
15
 100
AcDbLine
   6
CONTINUOUS
  62
8
  10
 429.99999999990
  20
 463.50000000000
  30
0.0
  11
 429.99999999990
  21
 471.50000000000
  31
0.0
   0
LINE
   5
14A
 100
AcDbEntity
   8
LEVEL001
 370
15
 100
AcDbLine
   6
CONTINUOUS
  62
8
  10
 379.99999999990
  20
 469.50000000000
  30
0.0
  11
 404.99999999990
  21
 469.50000000000
  31
0.0
   0
LINE
   5
14B
 100
AcDbEntity
   8
LEVEL001
 370
15
 100
AcDbLine
   6
CONTINUOUS
  62
8
  10
 429.99999999990
  20
 469.50000000000
  30
0.0
  11
 404.99999999990
  21
 469.50000000000
  31
0.0
   0
INSERT
   5
14C
 100
AcDbEntity
   8
LEVEL001
   6
CONTINUOUS
  62
8
 100
AcDbBlockReference
   2
_DOT
  10
 379.99999999990
  20
 469.50000000000
  30
0.0
  41
 0.80000000000000
  42
 0.80000000000000
  43
 0.80000000000000
  50
 180.00000000000
   0
INSERT
   5
14D
 100
AcDbEntity
   8
LEVEL001
   6
CONTINUOUS
  62
8
 100
AcDbBlockReference
   2
_DOT
  10
 429.99999999990
  20
 469.50000000000
  30
0.0
  41
 0.80000000000000
  42
 0.80000000000000
  43
 0.80000000000000
  50
0.0
   0
MTEXT
   5
14E
 100
AcDbEntity
   8
LEVEL001
 370
15
  62
8
 100
AcDbMText
  10
 404.99999999990
  20
 471.50000000000
  30
0.0
  40
 6.0000000000000
  41
0.0
  71
8
  72
1
   1
\A1;50
   7
GMM002
   0
ENDBLK
   5
14F
 100
AcDbEntity
   8
0
 100
AcDbBlockEnd
   0
BLOCK
   5
150
 100
AcDbEntity
   8
0
 100
AcDbBlockBegin
   2
*D22
  70
65
  10
0.0
  20
0.0
  30
0.0
   3
*D22
   0
LINE
   5
151
 100
AcDbEntity
   8
LEVEL001
 370
15
 100
AcDbLine
   6
CONTINUOUS
  62
8
  10
 375.99999999990
  20
 444.50000000000
  30
0.0
  11
 367.99999999990
  21
 444.50000000000
  31
0.0
   0
LINE
   5
152
 100
AcDbEntity
   8
LEVEL001
 370
15
 100
AcDbLine
   6
CONTINUOUS
  62
8
  10
 375.99999999990
  20
 459.50000000000
  30
0.0
  11
 367.99999999990
  21
 459.50000000000
  31
0.0
   0
LINE
   5
153
 100
AcDbEntity
   8
LEVEL001
 370
15
 100
AcDbLine
   6
CONTINUOUS
  62
8
  10
 369.99999999990
  20
 444.50000000000
  30
0.0
  11
 369.99999999990
  21
 452.00000000000
  31
0.0
   0
LINE
   5
154
 100
AcDbEntity
   8
LEVEL001
 370
15
 100
AcDbLine
   6
CONTINUOUS
  62
8
  10
 369.99999999990
  20
 459.50000000000
  30
0.0
  11
 369.99999999990
  21
 452.00000000000
  31
0.0
   0
INSERT
   5
155
 100
AcDbEntity
   8
LEVEL001
   6
CONTINUOUS
  62
8
 100
AcDbBlockReference
   2
_DOT
  10
 369.99999999990
  20
 444.50000000000
  30
0.0
  41
 0.80000000000000
  42
 0.80000000000000
  43
 0.80000000000000
  50
 270.00000000000
   0
INSERT
   5
156
 100
AcDbEntity
   8
LEVEL001
   6
CONTINUOUS
  62
8
 100
AcDbBlockReference
   2
_DOT
  10
 369.99999999990
  20
 459.50000000000
  30
0.0
  41
 0.80000000000000
  42
 0.80000000000000
  43
 0.80000000000000
  50
 90.000000000000
   0
MTEXT
   5
157
 100
AcDbEntity
   8
LEVEL001
 370
15
  62
8
 100
AcDbMText
  10
 367.99999999990
  20
 452.00000000000
  30
0.0
  40
 6.0000000000000
  41
0.0
  71
8
  72
1
   1
\A1;15
   7
GMM002
  11
0.0
  21
 1.0000000000000
  31
0.0
   0
ENDBLK
   5
158
 100
AcDbEntity
   8
0
 100
AcDbBlockEnd
   0
BLOCK
   5
159
 100
AcDbEntity
   8
0
 100
AcDbBlockBegin
   2
*D23
  70
65
  10
0.0
  20
0.0
  30
0.0
   3
*D23
   0
LINE
   5
15A
 100
AcDbEntity
   8
LEVEL001
 370
15
 100
AcDbLine
   6
CONTINUOUS
  62
8
  10
 433.99999999990
  20
 456.10000000000
  30
0.0
  11
 443.99999999990
  21
 456.10000000000
  31
0.0
   0
LINE
   5
15B
 100
AcDbEntity
   8
LEVEL001
 370
15
 100
AcDbLine
   6
CONTINUOUS
  62
8
  10
 433.99999999990
  20
 459.50000000000
  30
0.0
  11
 443.99999999990
  21
 459.50000000000
  31
0.0
   0
LINE
   5
15C
 100
AcDbEntity
   8
LEVEL001
 370
15
 100
AcDbLine
   6
CONTINUOUS
  62
8
  10
 441.99999999990
  20
 456.10000000000
  30
0.0
  11
 441.99999999990
  21
 457.80000000000
  31
0.0
   0
LINE
   5
15D
 100
AcDbEntity
   8
LEVEL001
 370
15
 100
AcDbLine
   6
CONTINUOUS
  62
8
  10
 441.99999999990
  20
 468.77414386106
  30
0.0
  11
 441.99999999990
  21
 457.80000000000
  31
0.0
   0
INSERT
   5
15E
 100
AcDbEntity
   8
LEVEL001
   6
CONTINUOUS
  62
8
 100
AcDbBlockReference
   2
_DOT
  10
 441.99999999990
  20
 456.10000000000
  30
0.0
  41
 0.80000000000000
  42
 0.80000000000000
  43
 0.80000000000000
  50
 270.00000000000
   0
INSERT
   5
15F
 100
AcDbEntity
   8
LEVEL001
   6
CONTINUOUS
  62
8
 100
AcDbBlockReference
   2
_DOT
  10
 441.99999999990
  20
 459.50000000000
  30
0.0
  41
 0.80000000000000
  42
 0.80000000000000
  43
 0.80000000000000
  50
 90.000000000000
   0
MTEXT
   5
160
 100
AcDbEntity
   8
LEVEL001
 370
15
  62
8
 100
AcDbMText
  10
 440.25465498502
  20
 462.77414386106
  30
0.0
  40
 6.0000000000000
  41
0.0
  71
7
  72
1
   1
\A1;3
   7
GMM002
  11
0.0
  21
 1.0000000000000
  31
0.0
   0
ENDBLK
   5
161
 100
AcDbEntity
   8
0
 100
AcDbBlockEnd
   0
BLOCK
   5
162
 100
AcDbEntity
   8
0
 100
AcDbBlockBegin
   2
*D24
  70
65
  10
0.0
  20
0.0
  30
0.0
   3
*D24
   0
LINE
   5
163
 100
AcDbEntity
   8
LEVEL001
 370
15
 100
AcDbLine
   6
CONTINUOUS
  62
8
  10
 231.49999999990
  20
 444.50000000000
  30
0.0
  11
 223.49999999990
  21
 444.50000000000
  31
0.0
   0
LINE
   5
164
 100
AcDbEntity
   8
LEVEL001
 370
15
 100
AcDbLine
   6
CONTINUOUS
  62
8
  10
 231.49999999990
  20
 459.50000000000
  30
0.0
  11
 223.49999999990
  21
 459.50000000000
  31
0.0
   0
LINE
   5
165
 100
AcDbEntity
   8
LEVEL001
 370
15
 100
AcDbLine
   6
CONTINUOUS
  62
8
  10
 225.49999999990
  20
 444.50000000000
  30
0.0
  11
 225.49999999990
  21
 452.00000000000
  31
0.0
   0
LINE
   5
166
 100
AcDbEntity
   8
LEVEL001
 370
15
 100
AcDbLine
   6
CONTINUOUS
  62
8
  10
 225.49999999990
  20
 459.50000000000
  30
0.0
  11
 225.49999999990
  21
 452.00000000000
  31
0.0
   0
INSERT
   5
167
 100
AcDbEntity
   8
LEVEL001
   6
CONTINUOUS
  62
8
 100
AcDbBlockReference
   2
_DOT
  10
 225.49999999990
  20
 444.50000000000
  30
0.0
  41
 0.80000000000000
  42
 0.80000000000000
  43
 0.80000000000000
  50
 270.00000000000
   0
INSERT
   5
168
 100
AcDbEntity
   8
LEVEL001
   6
CONTINUOUS
  62
8
 100
AcDbBlockReference
   2
_DOT
  10
 225.49999999990
  20
 459.50000000000
  30
0.0
  41
 0.80000000000000
  42
 0.80000000000000
  43
 0.80000000000000
  50
 90.000000000000
   0
MTEXT
   5
169
 100
AcDbEntity
   8
LEVEL001
 370
15
  62
8
 100
AcDbMText
  10
 223.49999999990
  20
 452.00000000000
  30
0.0
  40
 6.0000000000000
  41
0.0
  71
8
  72
1
   1
\A1;15
   7
GMM002
  11
0.0
  21
 1.0000000000000
  31
0.0
   0
ENDBLK
   5
16A
 100
AcDbEntity
   8
0
 100
AcDbBlockEnd
   0
BLOCK
   5
16B
 100
AcDbEntity
   8
0
 100
AcDbBlockBegin
   2
*D25
  70
65
  10
0.0
  20
0.0
  30
0.0
   3
*D25
   0
LINE
   5
16C
 100
AcDbEntity
   8
LEVEL001
 370
15
 100
AcDbLine
   6
CONTINUOUS
  62
8
  10
 235.49999999990
  20
 463.50000000000
  30
0.0
  11
 235.49999999990
  21
 471.50000000000
  31
0.0
   0
LINE
   5
16D
 100
AcDbEntity
   8
LEVEL001
 370
15
 100
AcDbLine
   6
CONTINUOUS
  62
8
  10
 273.49867817020
  20
 463.50000000000
  30
0.0
  11
 273.49867817020
  21
 471.50000000000
  31
0.0
   0
LINE
   5
16E
 100
AcDbEntity
   8
LEVEL001
 370
15
 100
AcDbLine
   6
CONTINUOUS
  62
8
  10
 235.49999999990
  20
 469.50000000000
  30
0.0
  11
 254.49933908505
  21
 469.50000000000
  31
0.0
   0
LINE
   5
16F
 100
AcDbEntity
   8
LEVEL001
 370
15
 100
AcDbLine
   6
CONTINUOUS
  62
8
  10
 273.49867817020
  20
 469.50000000000
  30
0.0
  11
 254.49933908505
  21
 469.50000000000
  31
0.0
   0
INSERT
   5
170
 100
AcDbEntity
   8
LEVEL001
   6
CONTINUOUS
  62
8
 100
AcDbBlockReference
   2
_DOT
  10
 235.49999999990
  20
 469.50000000000
  30
0.0
  41
 0.80000000000000
  42
 0.80000000000000
  43
 0.80000000000000
  50
 180.00000000000
   0
INSERT
   5
171
 100
AcDbEntity
   8
LEVEL001
   6
CONTINUOUS
  62
8
 100
AcDbBlockReference
   2
_DOT
  10
 273.49867817020
  20
 469.50000000000
  30
0.0
  41
 0.80000000000000
  42
 0.80000000000000
  43
 0.80000000000000
  50
0.0
   0
MTEXT
   5
172
 100
AcDbEntity
   8
LEVEL001
 370
15
  62
8
 100
AcDbMText
  10
 254.49933908505
  20
 471.50000000000
  30
0.0
  40
 6.0000000000000
  41
0.0
  71
8
  72
1
   1
\A1;38
   7
GMM002
   0
ENDBLK
   5
173
 100
AcDbEntity
   8
0
 100
AcDbBlockEnd
   0
BLOCK
   5
174
 100
AcDbEntity
   8
0
 100
AcDbBlockBegin
   2
*D26
  70
65
  10
0.0
  20
0.0
  30
0.0
   3
*D26
   0
LINE
   5
175
 100
AcDbEntity
   8
LEVEL001
 370
15
 100
AcDbLine
   6
CONTINUOUS
  62
8
  10
 277.49867817020
  20
 456.27850816350
  30
0.0
  11
 287.49867817020
  21
 456.27850816350
  31
0.0
   0
LINE
   5
176
 100
AcDbEntity
   8
LEVEL001
 370
15
 100
AcDbLine
   6
CONTINUOUS
  62
8
  10
 277.49867817020
  20
 459.50000000000
  30
0.0
  11
 287.49867817020
  21
 459.50000000000
  31
0.0
   0
LINE
   5
177
 100
AcDbEntity
   8
LEVEL001
 370
15
 100
AcDbLine
   6
CONTINUOUS
  62
8
  10
 285.49867817020
  20
 456.27850816350
  30
0.0
  11
 285.49867817020
  21
 457.88925408175
  31
0.0
   0
LINE
   5
178
 100
AcDbEntity
   8
LEVEL001
 370
15
 100
AcDbLine
   6
CONTINUOUS
  62
8
  10
 285.49867817020
  20
 467.63813329705
  30
0.0
  11
 285.49867817020
  21
 457.88925408175
  31
0.0
   0
INSERT
   5
179
 100
AcDbEntity
   8
LEVEL001
   6
CONTINUOUS
  62
8
 100
AcDbBlockReference
   2
_DOT
  10
 285.49867817020
  20
 456.27850816350
  30
0.0
  41
 0.80000000000000
  42
 0.80000000000000
  43
 0.80000000000000
  50
 270.00000000000
   0
INSERT
   5
17A
 100
AcDbEntity
   8
LEVEL001
   6
CONTINUOUS
  62
8
 100
AcDbBlockReference
   2
_DOT
  10
 285.49867817020
  20
 459.50000000000
  30
0.0
  41
 0.80000000000000
  42
 0.80000000000000
  43
 0.80000000000000
  50
 90.000000000000
   0
MTEXT
   5
17B
 100
AcDbEntity
   8
LEVEL001
 370
15
  62
8
 100
AcDbMText
  10
 283.26485027505
  20
 461.63813329705
  30
0.0
  40
 6.0000000000000
  41
0.0
  71
7
  72
1
   1
\A1;3
   7
GMM002
  11
0.0
  21
 1.0000000000000
  31
0.0
   0
ENDBLK
   5
17C
 100
AcDbEntity
   8
0
 100
AcDbBlockEnd
   0
ENDSEC
   0
SECTION
   2
ENTITIES
   0
LINE
   5
17D
 100
AcDbEntity
   8
LEVEL002
 370
30
 100
AcDbLine
   6
CONTINUOUS
  62
7
  10
 688.30000000000
  20
 544.15000000000
  30
0.0
  11
 673.90000000000
  21
 544.15000000000
  31
0.0
   0
LINE
   5
17E
 100
AcDbEntity
   8
LEVEL002
 370
30
 100
AcDbLine
   6
CONTINUOUS
  62
7
  10
 673.90000000000
  20
 544.15000000000
  30
0.0
  11
 673.90000000000
  21
 522.55000000000
  31
0.0
   0
LINE
   5
17F
 100
AcDbEntity
   8
LEVEL002
 370
30
 100
AcDbLine
   6
CONTINUOUS
  62
7
  10
 673.90000000000
  20
 522.55000000000
  30
0.0
  11
 681.10000000000
  21
 522.55000000000
  31
0.0
   0
LINE
   5
180
 100
AcDbEntity
   8
LEVEL002
 370
30
 100
AcDbLine
   6
CONTINUOUS
  62
7
  10
 681.10000000000
  20
 522.55000000000
  30
0.0
  11
 681.10000000000
  21
 526.15000000000
  31
0.0
   0
LINE
   5
181
 100
AcDbEntity
   8
LEVEL002
 370
30
 100
AcDbLine
   6
CONTINUOUS
  62
7
  10
 681.10000000000
  20
 526.15000000000
  30
0.0
  11
 688.30000000000
  21
 526.15000000000
  31
0.0
   0
ARC
   5
182
 100
AcDbEntity
   8
LEVEL002
 370
30
   6
CONTINUOUS
  62
7
 100
AcDbCircle
  10
 688.30000000000
  20
 535.15000000000
  30
0.0
  40
 9.0000000000000
 100
AcDbArc
  50
 270.00000000000
  51
 90.000000000000
   0
LINE
   5
183
 100
AcDbEntity
   8
LEVEL002
 370
30
 100
AcDbLine
   6
CONTINUOUS
  62
7
  10
 681.10000000000
  20
 533.35000000000
  30
0.0
  11
 688.30000000000
  21
 533.35000000000
  31
0.0
   0
ARC
   5
184
 100
AcDbEntity
   8
LEVEL002
 370
30
   6
CONTINUOUS
  62
7
 100
AcDbCircle
  10
 688.30000000000
  20
 535.15000000000
  30
0.0
  40
 1.8000000000000
 100
AcDbArc
  50
 270.00000000000
  51
 90.000000000000
   0
LINE
   5
185
 100
AcDbEntity
   8
LEVEL002
 370
30
 100
AcDbLine
   6
CONTINUOUS
  62
7
  10
 688.30000000000
  20
 536.95000000000
  30
0.0
  11
 681.10000000000
  21
 536.95000000000
  31
0.0
   0
LINE
   5
186
 100
AcDbEntity
   8
LEVEL002
 370
30
 100
AcDbLine
   6
CONTINUOUS
  62
7
  10
 681.10000000000
  20
 536.95000000000
  30
0.0
  11
 681.10000000000
  21
 533.35000000000
  31
0.0
   0
LINE
   5
187
 100
AcDbEntity
   8
LEVEL002
 370
30
 100
AcDbLine
   6
CONTINUOUS
  62
7
  10
 691.90000000000
  20
 522.55000000000
  30
0.0
  11
 706.30000000000
  21
 544.15000000000
  31
0.0
   0
LINE
   5
188
 100
AcDbEntity
   8
LEVEL002
 370
30
 100
AcDbLine
   6
CONTINUOUS
  62
7
  10
 706.30000000000
  20
 544.15000000000
  30
0.0
  11
 724.30000000000
  21
 544.15000000000
  31
0.0
   0
LINE
   5
189
 100
AcDbEntity
   8
LEVEL002
 370
30
 100
AcDbLine
   6
CONTINUOUS
  62
7
  10
 724.30000000000
  20
 544.15000000000
  30
0.0
  11
 724.30000000000
  21
 529.75000000000
  31
0.0
   0
LINE
   5
18A
 100
AcDbEntity
   8
LEVEL002
 370
30
 100
AcDbLine
   6
CONTINUOUS
  62
7
  10
 724.30000000000
  20
 529.75000000000
  30
0.0
  11
 735.10000000000
  21
 529.75000000000
  31
0.0
   0
LINE
   5
18B
 100
AcDbEntity
   8
LEVEL002
 370
30
 100
AcDbLine
   6
CONTINUOUS
  62
7
  10
 735.10000000000
  20
 529.75000000000
  30
0.0
  11
 735.10000000000
  21
 536.95000000000
  31
0.0
   0
LINE
   5
18C
 100
AcDbEntity
   8
LEVEL002
 370
30
 100
AcDbLine
   6
CONTINUOUS
  62
7
  10
 735.10000000000
  20
 536.95000000000
  30
0.0
  11
 727.90000000000
  21
 536.95000000000
  31
0.0
   0
LINE
   5
18D
 100
AcDbEntity
   8
LEVEL002
 370
30
 100
AcDbLine
   6
CONTINUOUS
  62
7
  10
 727.90000000000
  20
 536.95000000000
  30
0.0
  11
 727.90000000000
  21
 544.15000000000
  31
0.0
   0
LINE
   5
18E
 100
AcDbEntity
   8
LEVEL002
 370
30
 100
AcDbLine
   6
CONTINUOUS
  62
7
  10
 727.90000000000
  20
 544.15000000000
  30
0.0
  11
 771.10000000000
  21
 544.15000000000
  31
0.0
   0
LINE
   5
18F
 100
AcDbEntity
   8
LEVEL002
 370
30
 100
AcDbLine
   6
CONTINUOUS
  62
7
  10
 771.10000000000
  20
 544.15000000000
  30
0.0
  11
 771.10000000000
  21
 536.95000000000
  31
0.0
   0
LINE
   5
190
 100
AcDbEntity
   8
LEVEL002
 370
30
 100
AcDbLine
   6
CONTINUOUS
  62
7
  10
 771.10000000000
  20
 536.95000000000
  30
0.0
  11
 756.70000000000
  21
 536.95000000000
  31
0.0
   0
LINE
   5
191
 100
AcDbEntity
   8
LEVEL002
 370
30
 100
AcDbLine
   6
CONTINUOUS
  62
7
  10
 756.70000000000
  20
 536.95000000000
  30
0.0
  11
 756.70000000000
  21
 535.15000000000
  31
0.0
   0
LINE
   5
192
 100
AcDbEntity
   8
LEVEL002
 370
30
 100
AcDbLine
   6
CONTINUOUS
  62
7
  10
 756.70000000000
  20
 535.15000000000
  30
0.0
  11
 769.30000000000
  21
 535.15000000000
  31
0.0
   0
LINE
   5
193
 100
AcDbEntity
   8
LEVEL002
 370
30
 100
AcDbLine
   6
CONTINUOUS
  62
7
  10
 769.30000000000
  20
 535.15000000000
  30
0.0
  11
 769.30000000000
  21
 531.55000000000
  31
0.0
   0
LINE
   5
194
 100
AcDbEntity
   8
LEVEL002
 370
30
 100
AcDbLine
   6
CONTINUOUS
  62
7
  10
 769.30000000000
  20
 531.55000000000
  30
0.0
  11
 756.70000000000
  21
 531.55000000000
  31
0.0
   0
LINE
   5
195
 100
AcDbEntity
   8
LEVEL002
 370
30
 100
AcDbLine
   6
CONTINUOUS
  62
7
  10
 756.70000000000
  20
 531.55000000000
  30
0.0
  11
 756.70000000000
  21
 529.75000000000
  31
0.0
   0
LINE
   5
196
 100
AcDbEntity
   8
LEVEL002
 370
30
 100
AcDbLine
   6
CONTINUOUS
  62
7
  10
 756.70000000000
  20
 529.75000000000
  30
0.0
  11
 771.10000000000
  21
 529.75000000000
  31
0.0
   0
LINE
   5
197
 100
AcDbEntity
   8
LEVEL002
 370
30
 100
AcDbLine
   6
CONTINUOUS
  62
7
  10
 771.10000000000
  20
 529.75000000000
  30
0.0
  11
 771.10000000000
  21
 522.55000000000
  31
0.0
   0
LINE
   5
198
 100
AcDbEntity
   8
LEVEL002
 370
30
 100
AcDbLine
   6
CONTINUOUS
  62
7
  10
 771.10000000000
  20
 522.55000000000
  30
0.0
  11
 749.50000000000
  21
 522.55000000000
  31
0.0
   0
LINE
   5
199
 100
AcDbEntity
   8
LEVEL002
 370
30
 100
AcDbLine
   6
CONTINUOUS
  62
7
  10
 749.50000000000
  20
 522.55000000000
  30
0.0
  11
 749.50000000000
  21
 536.95000000000
  31
0.0
   0
LINE
   5
19A
 100
AcDbEntity
   8
LEVEL002
 370
30
 100
AcDbLine
   6
CONTINUOUS
  62
7
  10
 749.50000000000
  20
 536.95000000000
  30
0.0
  11
 742.30000000000
  21
 536.95000000000
  31
0.0
   0
LINE
   5
19B
 100
AcDbEntity
   8
LEVEL002
 370
30
 100
AcDbLine
   6
CONTINUOUS
  62
7
  10
 742.30000000000
  20
 536.95000000000
  30
0.0
  11
 742.30000000000
  21
 522.55000000000
  31
0.0
   0
LINE
   5
19C
 100
AcDbEntity
   8
LEVEL002
 370
30
 100
AcDbLine
   6
CONTINUOUS
  62
7
  10
 742.30000000000
  20
 522.55000000000
  30
0.0
  11
 717.10000000000
  21
 522.55000000000
  31
0.0
   0
LINE
   5
19D
 100
AcDbEntity
   8
LEVEL002
 370
30
 100
AcDbLine
   6
CONTINUOUS
  62
7
  10
 717.10000000000
  20
 522.55000000000
  30
0.0
  11
 717.10000000000
  21
 544.15000000000
  31
0.0
   0
LINE
   5
19E
 100
AcDbEntity
   8
LEVEL002
 370
30
 100
AcDbLine
   6
CONTINUOUS
  62
7
  10
 717.10000000000
  20
 544.15000000000
  30
0.0
  11
 702.70000000000
  21
 522.55000000000
  31
0.0
   0
LINE
   5
19F
 100
AcDbEntity
   8
LEVEL002
 370
30
 100
AcDbLine
   6
CONTINUOUS
  62
7
  10
 702.70000000000
  20
 522.55000000000
  30
0.0
  11
 691.90000000000
  21
 522.55000000000
  31
0.0
   0
LINE
   5
1A0
 100
AcDbEntity
   8
LEVEL002
 370
30
 100
AcDbLine
   6
CONTINUOUS
  62
7
  10
 714.70000000000
  20
 536.22333846940
  30
0.0
  11
 705.58444102040
  21
 522.55000000000
  31
0.0
   0
LINE
   5
1A1
 100
AcDbEntity
   8
LEVEL002
 370
30
 100
AcDbLine
   6
CONTINUOUS
  62
7
  10
 705.58444102040
  20
 522.55000000000
  30
0.0
  11
 714.70000000000
  21
 522.55000000000
  31
0.0
   0
LINE
   5
1A2
 100
AcDbEntity
   8
LEVEL002
 370
30
 100
AcDbLine
   6
CONTINUOUS
  62
7
  10
 714.70000000000
  20
 522.55000000000
  30
0.0
  11
 714.70000000000
  21
 536.22333846940
  31
0.0
   0
ARC
   5
1A3
 100
AcDbEntity
   8
LEVEL002
 370
30
   6
CONTINUOUS
  62
7
 100
AcDbCircle
  10
 781.90000000000
  20
 533.35000000000
  30
0.0
  40
 10.800000000000
 100
AcDbArc
  50
 90.000000000000
  51
 270.00000000000
   0
ARC
   5
1A4
 100
AcDbEntity
   8
LEVEL002
 370
30
   6
CONTINUOUS
  62
7
 100
AcDbCircle
  10
 781.90000000000
  20
 533.35000000000
  30
0.0
  40
 3.6000000000000
 100
AcDbArc
  50
 90.000000000000
  51
 270.00000000000
   0
LINE
   5
1A5
 100
AcDbEntity
   8
LEVEL002
 370
30
 100
AcDbLine
   6
CONTINUOUS
  62
7
  10
 781.90000000000
  20
 544.15000000000
  30
0.0
  11
 792.70000000000
  21
 544.15000000000
  31
0.0
   0
LINE
   5
1A6
 100
AcDbEntity
   8
LEVEL002
 370
30
 100
AcDbLine
   6
CONTINUOUS
  62
7
  10
 792.70000000000
  20
 544.15000000000
  30
0.0
  11
 792.70000000000
  21
 536.95000000000
  31
0.0
   0
LINE
   5
1A7
 100
AcDbEntity
   8
LEVEL002
 370
30
 100
AcDbLine
   6
CONTINUOUS
  62
7
  10
 792.70000000000
  20
 536.95000000000
  30
0.0
  11
 781.90000000000
  21
 536.95000000000
  31
0.0
   0
LINE
   5
1A8
 100
AcDbEntity
   8
LEVEL002
 370
30
 100
AcDbLine
   6
CONTINUOUS
  62
7
  10
 673.90000000000
  20
 544.15000000000
  30
0.0
  11
 673.90000000000
  21
 522.55000000000
  31
0.0
   0
LINE
   5
1A9
 100
AcDbEntity
   8
LEVEL002
 370
30
 100
AcDbLine
   6
CONTINUOUS
  62
7
  10
 673.90000000000
  20
 522.55000000000
  30
0.0
  11
 681.10000000000
  21
 522.55000000000
  31
0.0
   0
LINE
   5
1AA
 100
AcDbEntity
   8
LEVEL002
 370
30
 100
AcDbLine
   6
CONTINUOUS
  62
7
  10
 681.10000000000
  20
 522.55000000000
  30
0.0
  11
 681.10000000000
  21
 526.15000000000
  31
0.0
   0
LINE
   5
1AB
 100
AcDbEntity
   8
LEVEL002
 370
30
 100
AcDbLine
   6
CONTINUOUS
  62
7
  10
 681.10000000000
  20
 526.15000000000
  30
0.0
  11
 688.30000000000
  21
 526.15000000000
  31
0.0
   0
ARC
   5
1AC
 100
AcDbEntity
   8
LEVEL002
 370
30
   6
CONTINUOUS
  62
7
 100
AcDbCircle
  10
 688.30000000000
  20
 535.15000000000
  30
0.0
  40
 9.0000000000000
 100
AcDbArc
  50
 270.00000000000
  51
 90.000000000000
   0
LINE
   5
1AD
 100
AcDbEntity
   8
LEVEL002
 370
30
 100
AcDbLine
   6
CONTINUOUS
  62
7
  10
 688.30000000000
  20
 544.15000000000
  30
0.0
  11
 673.90000000000
  21
 544.15000000000
  31
0.0
   0
LINE
   5
1AE
 100
AcDbEntity
   8
LEVEL002
 370
30
 100
AcDbLine
   6
CONTINUOUS
  62
7
  10
 681.10000000000
  20
 536.95000000000
  30
0.0
  11
 681.10000000000
  21
 533.35000000000
  31
0.0
   0
LINE
   5
1AF
 100
AcDbEntity
   8
LEVEL002
 370
30
 100
AcDbLine
   6
CONTINUOUS
  62
7
  10
 681.10000000000
  20
 533.35000000000
  30
0.0
  11
 688.30000000000
  21
 533.35000000000
  31
0.0
   0
ARC
   5
1B0
 100
AcDbEntity
   8
LEVEL002
 370
30
   6
CONTINUOUS
  62
7
 100
AcDbCircle
  10
 688.30000000000
  20
 535.15000000000
  30
0.0
  40
 1.8000000000000
 100
AcDbArc
  50
 270.00000000000
  51
 90.000000000000
   0
LINE
   5
1B1
 100
AcDbEntity
   8
LEVEL002
 370
30
 100
AcDbLine
   6
CONTINUOUS
  62
7
  10
 688.30000000000
  20
 536.95000000000
  30
0.0
  11
 681.10000000000
  21
 536.95000000000
  31
0.0
   0
LINE
   5
1B2
 100
AcDbEntity
   8
LEVEL002
 370
30
 100
AcDbLine
   6
CONTINUOUS
  62
7
  10
 706.30000000000
  20
 544.15000000000
  30
0.0
  11
 691.90000000000
  21
 522.55000000000
  31
0.0
   0
LINE
   5
1B3
 100
AcDbEntity
   8
LEVEL002
 370
30
 100
AcDbLine
   6
CONTINUOUS
  62
7
  10
 691.90000000000
  20
 522.55000000000
  30
0.0
  11
 702.70000000000
  21
 522.55000000000
  31
0.0
   0
LINE
   5
1B4
 100
AcDbEntity
   8
LEVEL002
 370
30
 100
AcDbLine
   6
CONTINUOUS
  62
7
  10
 702.70000000000
  20
 522.55000000000
  30
0.0
  11
 717.10000000000
  21
 544.15000000000
  31
0.0
   0
LINE
   5
1B5
 100
AcDbEntity
   8
LEVEL002
 370
30
 100
AcDbLine
   6
CONTINUOUS
  62
7
  10
 717.10000000000
  20
 544.15000000000
  30
0.0
  11
 706.30000000000
  21
 544.15000000000
  31
0.0
   0
LINE
   5
1B6
 100
AcDbEntity
   8
LEVEL002
 370
30
 100
AcDbLine
   6
CONTINUOUS
  62
7
  10
 714.70000000000
  20
 522.55000000000
  30
0.0
  11
 714.70000000000
  21
 536.22333846940
  31
0.0
   0
LINE
   5
1B7
 100
AcDbEntity
   8
LEVEL002
 370
30
 100
AcDbLine
   6
CONTINUOUS
  62
7
  10
 714.70000000000
  20
 536.22333846940
  30
0.0
  11
 705.58444102040
  21
 522.55000000000
  31
0.0
   0
LINE
   5
1B8
 100
AcDbEntity
   8
LEVEL002
 370
30
 100
AcDbLine
   6
CONTINUOUS
  62
7
  10
 705.58444102040
  20
 522.55000000000
  30
0.0
  11
 714.70000000000
  21
 522.55000000000
  31
0.0
   0
LINE
   5
1B9
 100
AcDbEntity
   8
LEVEL002
 370
30
 100
AcDbLine
   6
CONTINUOUS
  62
7
  10
 717.10000000000
  20
 522.55000000000
  30
0.0
  11
 742.30000000000
  21
 522.55000000000
  31
0.0
   0
LINE
   5
1BA
 100
AcDbEntity
   8
LEVEL002
 370
30
 100
AcDbLine
   6
CONTINUOUS
  62
7
  10
 742.30000000000
  20
 522.55000000000
  30
0.0
  11
 742.30000000000
  21
 536.95000000000
  31
0.0
   0
LINE
   5
1BB
 100
AcDbEntity
   8
LEVEL002
 370
30
 100
AcDbLine
   6
CONTINUOUS
  62
7
  10
 742.30000000000
  20
 536.95000000000
  30
0.0
  11
 749.50000000000
  21
 536.95000000000
  31
0.0
   0
LINE
   5
1BC
 100
AcDbEntity
   8
LEVEL002
 370
30
 100
AcDbLine
   6
CONTINUOUS
  62
7
  10
 749.50000000000
  20
 536.95000000000
  30
0.0
  11
 749.50000000000
  21
 522.55000000000
  31
0.0
   0
LINE
   5
1BD
 100
AcDbEntity
   8
LEVEL002
 370
30
 100
AcDbLine
   6
CONTINUOUS
  62
7
  10
 749.50000000000
  20
 522.55000000000
  30
0.0
  11
 771.10000000000
  21
 522.55000000000
  31
0.0
   0
LINE
   5
1BE
 100
AcDbEntity
   8
LEVEL002
 370
30
 100
AcDbLine
   6
CONTINUOUS
  62
7
  10
 771.10000000000
  20
 522.55000000000
  30
0.0
  11
 771.10000000000
  21
 529.75000000000
  31
0.0
   0
LINE
   5
1BF
 100
AcDbEntity
   8
LEVEL002
 370
30
 100
AcDbLine
   6
CONTINUOUS
  62
7
  10
 771.10000000000
  20
 529.75000000000
  30
0.0
  11
 756.70000000000
  21
 529.75000000000
  31
0.0
   0
LINE
   5
1C0
 100
AcDbEntity
   8
LEVEL002
 370
30
 100
AcDbLine
   6
CONTINUOUS
  62
7
  10
 756.70000000000
  20
 529.75000000000
  30
0.0
  11
 756.70000000000
  21
 531.55000000000
  31
0.0
   0
LINE
   5
1C1
 100
AcDbEntity
   8
LEVEL002
 370
30
 100
AcDbLine
   6
CONTINUOUS
  62
7
  10
 756.70000000000
  20
 531.55000000000
  30
0.0
  11
 769.30000000000
  21
 531.55000000000
  31
0.0
   0
LINE
   5
1C2
 100
AcDbEntity
   8
LEVEL002
 370
30
 100
AcDbLine
   6
CONTINUOUS
  62
7
  10
 769.30000000000
  20
 531.55000000000
  30
0.0
  11
 769.30000000000
  21
 535.15000000000
  31
0.0
   0
LINE
   5
1C3
 100
AcDbEntity
   8
LEVEL002
 370
30
 100
AcDbLine
   6
CONTINUOUS
  62
7
  10
 769.30000000000
  20
 535.15000000000
  30
0.0
  11
 756.70000000000
  21
 535.15000000000
  31
0.0
   0
LINE
   5
1C4
 100
AcDbEntity
   8
LEVEL002
 370
30
 100
AcDbLine
   6
CONTINUOUS
  62
7
  10
 756.70000000000
  20
 535.15000000000
  30
0.0
  11
 756.70000000000
  21
 536.95000000000
  31
0.0
   0
LINE
   5
1C5
 100
AcDbEntity
   8
LEVEL002
 370
30
 100
AcDbLine
   6
CONTINUOUS
  62
7
  10
 756.70000000000
  20
 536.95000000000
  30
0.0
  11
 771.10000000000
  21
 536.95000000000
  31
0.0
   0
LINE
   5
1C6
 100
AcDbEntity
   8
LEVEL002
 370
30
 100
AcDbLine
   6
CONTINUOUS
  62
7
  10
 771.10000000000
  20
 536.95000000000
  30
0.0
  11
 771.10000000000
  21
 544.15000000000
  31
0.0
   0
LINE
   5
1C7
 100
AcDbEntity
   8
LEVEL002
 370
30
 100
AcDbLine
   6
CONTINUOUS
  62
7
  10
 771.10000000000
  20
 544.15000000000
  30
0.0
  11
 727.90000000000
  21
 544.15000000000
  31
0.0
   0
LINE
   5
1C8
 100
AcDbEntity
   8
LEVEL002
 370
30
 100
AcDbLine
   6
CONTINUOUS
  62
7
  10
 727.90000000000
  20
 544.15000000000
  30
0.0
  11
 727.90000000000
  21
 536.95000000000
  31
0.0
   0
LINE
   5
1C9
 100
AcDbEntity
   8
LEVEL002
 370
30
 100
AcDbLine
   6
CONTINUOUS
  62
7
  10
 727.90000000000
  20
 536.95000000000
  30
0.0
  11
 735.10000000000
  21
 536.95000000000
  31
0.0
   0
LINE
   5
1CA
 100
AcDbEntity
   8
LEVEL002
 370
30
 100
AcDbLine
   6
CONTINUOUS
  62
7
  10
 735.10000000000
  20
 536.95000000000
  30
0.0
  11
 735.10000000000
  21
 529.75000000000
  31
0.0
   0
LINE
   5
1CB
 100
AcDbEntity
   8
LEVEL002
 370
30
 100
AcDbLine
   6
CONTINUOUS
  62
7
  10
 735.10000000000
  20
 529.75000000000
  30
0.0
  11
 724.30000000000
  21
 529.75000000000
  31
0.0
   0
LINE
   5
1CC
 100
AcDbEntity
   8
LEVEL002
 370
30
 100
AcDbLine
   6
CONTINUOUS
  62
7
  10
 724.30000000000
  20
 529.75000000000
  30
0.0
  11
 724.30000000000
  21
 544.15000000000
  31
0.0
   0
LINE
   5
1CD
 100
AcDbEntity
   8
LEVEL002
 370
30
 100
AcDbLine
   6
CONTINUOUS
  62
7
  10
 724.30000000000
  20
 544.15000000000
  30
0.0
  11
 717.10000000000
  21
 544.15000000000
  31
0.0
   0
LINE
   5
1CE
 100
AcDbEntity
   8
LEVEL002
 370
30
 100
AcDbLine
   6
CONTINUOUS
  62
7
  10
 717.10000000000
  20
 544.15000000000
  30
0.0
  11
 717.10000000000
  21
 522.55000000000
  31
0.0
   0
LINE
   5
1CF
 100
AcDbEntity
   8
LEVEL002
 370
30
 100
AcDbLine
   6
CONTINUOUS
  62
7
  10
 781.90000000000
  20
 522.55000000000
  30
0.0
  11
 792.70000000000
  21
 522.55000000000
  31
0.0
   0
LINE
   5
1D0
 100
AcDbEntity
   8
LEVEL002
 370
30
 100
AcDbLine
   6
CONTINUOUS
  62
7
  10
 792.70000000000
  20
 522.55000000000
  30
0.0
  11
 792.70000000000
  21
 529.75000000000
  31
0.0
   0
LINE
   5
1D1
 100
AcDbEntity
   8
LEVEL002
 370
30
 100
AcDbLine
   6
CONTINUOUS
  62
7
  10
 792.70000000000
  20
 529.75000000000
  30
0.0
  11
 781.90000000000
  21
 529.75000000000
  31
0.0
   0
ARC
   5
1D2
 100
AcDbEntity
   8
LEVEL002
 370
30
   6
CONTINUOUS
  62
7
 100
AcDbCircle
  10
 781.90000000000
  20
 533.35000000000
  30
0.0
  40
 3.6000000000000
 100
AcDbArc
  50
 90.000000000000
  51
 270.00000000000
   0
LINE
   5
1D3
 100
AcDbEntity
   8
LEVEL002
 370
30
 100
AcDbLine
   6
CONTINUOUS
  62
7
  10
 781.90000000000
  20
 536.95000000000
  30
0.0
  11
 792.70000000000
  21
 536.95000000000
  31
0.0
   0
LINE
   5
1D4
 100
AcDbEntity
   8
LEVEL002
 370
30
 100
AcDbLine
   6
CONTINUOUS
  62
7
  10
 792.70000000000
  20
 536.95000000000
  30
0.0
  11
 792.70000000000
  21
 544.15000000000
  31
0.0
   0
LINE
   5
1D5
 100
AcDbEntity
   8
LEVEL002
 370
30
 100
AcDbLine
   6
CONTINUOUS
  62
7
  10
 792.70000000000
  20
 544.15000000000
  30
0.0
  11
 781.90000000000
  21
 544.15000000000
  31
0.0
   0
ARC
   5
1D6
 100
AcDbEntity
   8
LEVEL002
 370
30
   6
CONTINUOUS
  62
7
 100
AcDbCircle
  10
 781.90000000000
  20
 533.35000000000
  30
0.0
  40
 10.800000000000
 100
AcDbArc
  50
 90.000000000000
  51
 270.00000000000
   0
MTEXT
   5
1D8
 100
AcDbEntity
   8
LEVEL002
 370
30
  62
7
 100
AcDbMText
  10
 673.90000000000
  20
 547.75000000000
  30
0.0
  40
 7.5000000000000
  41
0.0
  71
7
  72
1
   1
\T1.000000;ケージーパルテック株式会社
   7
GMM001
  44
 0.79999984000003
   0
LINE
   5
1D9
 100
AcDbEntity
   8
LEVEL002
 370
30
 100
AcDbLine
   6
CONTINUOUS
  62
7
  10
 666.70000000000
  20
 527.35000000000
  30
0.0
  11
 657.70000000000
  21
 541.75000000000
  31
0.0
   0
LINE
   5
1DA
 100
AcDbEntity
   8
LEVEL002
 370
30
 100
AcDbLine
   6
CONTINUOUS
  62
7
  10
 657.70000000000
  20
 541.75000000000
  30
0.0
  11
 666.70000000000
  21
 541.75000000000
  31
0.0
   0
LINE
   5
1DB
 100
AcDbEntity
   8
LEVEL002
 370
30
 100
AcDbLine
   6
CONTINUOUS
  62
7
  10
 666.70000000000
  20
 541.75000000000
  30
0.0
  11
 666.70000000000
  21
 527.35000000000
  31
0.0
   0
LINE
   5
1DC
 100
AcDbEntity
   8
LEVEL002
 370
30
 100
AcDbLine
   6
CONTINUOUS
  62
7
  10
 657.70000000000
  20
 541.75000000000
  30
0.0
  11
 666.70000000000
  21
 527.35000000000
  31
0.0
   0
LINE
   5
1DD
 100
AcDbEntity
   8
LEVEL002
 370
30
 100
AcDbLine
   6
CONTINUOUS
  62
7
  10
 666.70000000000
  20
 527.35000000000
  30
0.0
  11
 666.70000000000
  21
 541.75000000000
  31
0.0
   0
LINE
   5
1DE
 100
AcDbEntity
   8
LEVEL002
 370
30
 100
AcDbLine
   6
CONTINUOUS
  62
7
  10
 666.70000000000
  20
 541.75000000000
  30
0.0
  11
 657.70000000000
  21
 541.75000000000
  31
0.0
   0
LINE
   5
1DF
 100
AcDbEntity
   8
LEVEL002
 370
30
 100
AcDbLine
   6
CONTINUOUS
  62
7
  10
 638.10000000000
  20
 560.95000000000
  30
0.0
  11
 625.30000000000
  21
 541.75000000000
  31
0.0
   0
LINE
   5
1E0
 100
AcDbEntity
   8
LEVEL002
 370
30
 100
AcDbLine
   6
CONTINUOUS
  62
7
  10
 625.30000000000
  20
 541.75000000000
  30
0.0
  11
 638.10000000000
  21
 522.55000000000
  31
0.0
   0
LINE
   5
1E1
 100
AcDbEntity
   8
LEVEL002
 370
30
 100
AcDbLine
   6
CONTINUOUS
  62
7
  10
 648.90000000000
  20
 522.55000000000
  30
0.0
  11
 636.10000000000
  21
 541.75000000000
  31
0.0
   0
LINE
   5
1E2
 100
AcDbEntity
   8
LEVEL002
 370
30
 100
AcDbLine
   6
CONTINUOUS
  62
7
  10
 636.10000000000
  20
 541.75000000000
  30
0.0
  11
 648.90000000000
  21
 560.95000000000
  31
0.0
   0
LINE
   5
1E3
 100
AcDbEntity
   8
LEVEL002
 370
30
 100
AcDbLine
   6
CONTINUOUS
  62
7
  10
 654.30000000000
  20
 560.95000000000
  30
0.0
  11
 641.50000000000
  21
 541.75000000000
  31
0.0
   0
LINE
   5
1E4
 100
AcDbEntity
   8
LEVEL002
 370
30
 100
AcDbLine
   6
CONTINUOUS
  62
7
  10
 641.50000000000
  20
 541.75000000000
  30
0.0
  11
 654.30000000000
  21
 522.55000000000
  31
0.0
   0
LINE
   5
1E5
 100
AcDbEntity
   8
LEVEL002
 370
30
 100
AcDbLine
   6
CONTINUOUS
  62
7
  10
 665.10000000000
  20
 522.55000000000
  30
0.0
  11
 652.30000000000
  21
 541.75000000000
  31
0.0
   0
LINE
   5
1E6
 100
AcDbEntity
   8
LEVEL002
 370
30
 100
AcDbLine
   6
CONTINUOUS
  62
7
  10
 652.30000000000
  20
 541.75000000000
  30
0.0
  11
 665.10000000000
  21
 560.95000000000
  31
0.0
   0
LINE
   5
1E7
 100
AcDbEntity
   8
LEVEL002
 370
30
 100
AcDbLine
   6
CONTINUOUS
  62
7
  10
 638.10000000000
  20
 522.55000000000
  30
0.0
  11
 625.30000000000
  21
 541.75000000000
  31
0.0
   0
LINE
   5
1E8
 100
AcDbEntity
   8
LEVEL002
 370
30
 100
AcDbLine
   6
CONTINUOUS
  62
7
  10
 625.30000000000
  20
 541.75000000000
  30
0.0
  11
 638.10000000000
  21
 560.95000000000
  31
0.0
   0
LINE
   5
1E9
 100
AcDbEntity
   8
LEVEL002
 370
30
 100
AcDbLine
   6
CONTINUOUS
  62
7
  10
 638.10000000000
  20
 560.95000000000
  30
0.0
  11
 648.90000000000
  21
 560.95000000000
  31
0.0
   0
LINE
   5
1EA
 100
AcDbEntity
   8
LEVEL002
 370
30
 100
AcDbLine
   6
CONTINUOUS
  62
7
  10
 648.90000000000
  20
 560.95000000000
  30
0.0
  11
 636.10000000000
  21
 541.75000000000
  31
0.0
   0
LINE
   5
1EB
 100
AcDbEntity
   8
LEVEL002
 370
30
 100
AcDbLine
   6
CONTINUOUS
  62
7
  10
 636.10000000000
  20
 541.75000000000
  30
0.0
  11
 648.90000000000
  21
 522.55000000000
  31
0.0
   0
LINE
   5
1EC
 100
AcDbEntity
   8
LEVEL002
 370
30
 100
AcDbLine
   6
CONTINUOUS
  62
7
  10
 648.90000000000
  20
 522.55000000000
  30
0.0
  11
 638.10000000000
  21
 522.55000000000
  31
0.0
   0
LINE
   5
1ED
 100
AcDbEntity
   8
LEVEL002
 370
30
 100
AcDbLine
   6
CONTINUOUS
  62
7
  10
 654.30000000000
  20
 522.55000000000
  30
0.0
  11
 641.50000000000
  21
 541.75000000000
  31
0.0
   0
LINE
   5
1EE
 100
AcDbEntity
   8
LEVEL002
 370
30
 100
AcDbLine
   6
CONTINUOUS
  62
7
  10
 641.50000000000
  20
 541.75000000000
  30
0.0
  11
 654.30000000000
  21
 560.95000000000
  31
0.0
   0
LINE
   5
1EF
 100
AcDbEntity
   8
LEVEL002
 370
30
 100
AcDbLine
   6
CONTINUOUS
  62
7
  10
 654.30000000000
  20
 560.95000000000
  30
0.0
  11
 665.10000000000
  21
 560.95000000000
  31
0.0
   0
LINE
   5
1F0
 100
AcDbEntity
   8
LEVEL002
 370
30
 100
AcDbLine
   6
CONTINUOUS
  62
7
  10
 665.10000000000
  20
 560.95000000000
  30
0.0
  11
 652.30000000000
  21
 541.75000000000
  31
0.0
   0
LINE
   5
1F1
 100
AcDbEntity
   8
LEVEL002
 370
30
 100
AcDbLine
   6
CONTINUOUS
  62
7
  10
 652.30000000000
  20
 541.75000000000
  30
0.0
  11
 665.10000000000
  21
 522.55000000000
  31
0.0
   0
LINE
   5
1F2
 100
AcDbEntity
   8
LEVEL002
 370
30
 100
AcDbLine
   6
CONTINUOUS
  62
7
  10
 665.10000000000
  20
 522.55000000000
  30
0.0
  11
 654.30000000000
  21
 522.55000000000
  31
0.0
   0
LINE
   5
1F3
 100
AcDbEntity
   8
LEVEL001
 370
30
 100
AcDbLine
   6
DOT
  62
7
  10
0.0
  20
0.0
  30
0.0
  11
 840.00000000000
  21
0.0
  31
0.0
   0
LINE
   5
1F4
 100
AcDbEntity
   8
LEVEL001
 370
30
 100
AcDbLine
   6
DOT
  62
7
  10
 840.00000000000
  20
0.0
  30
0.0
  11
 840.00000000000
  21
 594.00000000000
  31
0.0
   0
LINE
   5
1F5
 100
AcDbEntity
   8
LEVEL001
 370
30
 100
AcDbLine
   6
DOT
  62
7
  10
 840.00000000000
  20
 594.00000000000
  30
0.0
  11
0.0
  21
 594.00000000000
  31
0.0
   0
LINE
   5
1F6
 100
AcDbEntity
   8
LEVEL001
 370
30
 100
AcDbLine
   6
DOT
  62
7
  10
0.0
  20
 594.00000000000
  30
0.0
  11
0.0
  21
0.0
  31
0.0
   0
LINE
   5
1F7
 100
AcDbEntity
   8
LEVEL002
 370
40
 100
AcDbLine
   6
CONTINUOUS
  62
3
  10
 30.999999999900
  20
 433.50000000000
  30
0.0
  11
 608.99999999990
  21
 433.50000000000
  31
0.0
   0
LINE
   5
1F8
 100
AcDbEntity
   8
LEVEL002
 370
40
 100
AcDbLine
   6
CONTINUOUS
  62
3
  10
 30.999999999900
  20
 550.00000000000
  30
0.0
  11
 608.99999999990
  21
 550.00000000000
  31
0.0
   0
LINE
   5
1F9
 100
AcDbEntity
   8
LEVEL002
 370
40
 100
AcDbLine
   6
CONTINUOUS
  62
3
  10
 30.999999999900
  20
 413.50000000000
  30
0.0
  11
 608.99999999990
  21
 413.50000000000
  31
0.0
   0
LINE
   5
1FA
 100
AcDbEntity
   8
LEVEL002
 370
40
 100
AcDbLine
   6
CONTINUOUS
  62
3
  10
 608.99999999990
  20
 513.50000000000
  30
0.0
  11
 808.99999999990
  21
 513.50000000000
  31
0.0
   0
LINE
   5
1FB
 100
AcDbEntity
   8
LEVEL002
 370
40
 100
AcDbLine
   6
CONTINUOUS
  62
3
  10
 608.99999999990
  20
 473.50000000000
  30
0.0
  11
 808.99999999990
  21
 473.50000000000
  31
0.0
   0
LINE
   5
1FC
 100
AcDbEntity
   8
LEVEL002
 370
40
 100
AcDbLine
   6
CONTINUOUS
  62
3
  10
 608.99999999990
  20
 433.50000000000
  30
0.0
  11
 808.99999999990
  21
 433.50000000000
  31
0.0
   0
LINE
   5
1FD
 100
AcDbEntity
   8
LEVEL002
 370
40
 100
AcDbLine
   6
CONTINUOUS
  62
3
  10
 464.49999999990
  20
 570.00000000000
  30
0.0
  11
 464.49999999990
  21
 24.000000000020
  31
0.0
   0
LINE
   5
1FE
 100
AcDbEntity
   8
LEVEL002
 370
40
 100
AcDbLine
   6
CONTINUOUS
  62
3
  10
 319.99999999990
  20
 570.00000000000
  30
0.0
  11
 319.99999999990
  21
 24.000000000020
  31
0.0
   0
LINE
   5
1FF
 100
AcDbEntity
   8
LEVEL002
 370
40
 100
AcDbLine
   6
CONTINUOUS
  62
3
  10
 175.49999999990
  20
 570.00000000000
  30
0.0
  11
 175.49999999990
  21
 24.000000000020
  31
0.0
   0
LINE
   5
200
 100
AcDbEntity
   8
LEVEL002
 370
40
 100
AcDbLine
   6
CONTINUOUS
  62
3
  10
 30.999999999900
  20
 297.00000000002
  30
0.0
  11
 608.99999999990
  21
 297.00000000002
  31
0.0
   0
LINE
   5
201
 100
AcDbEntity
   8
LEVEL002
 370
40
 100
AcDbLine
   6
CONTINUOUS
  62
3
  10
 30.999999999900
  20
 277.00000000002
  30
0.0
  11
 608.99999999990
  21
 277.00000000002
  31
0.0
   0
LINE
   5
202
 100
AcDbEntity
   8
LEVEL002
 370
40
 100
AcDbLine
   6
CONTINUOUS
  62
3
  10
 30.999999999900
  20
 160.50000000002
  30
0.0
  11
 608.99999999990
  21
 160.50000000002
  31
0.0
   0
LINE
   5
203
 100
AcDbEntity
   8
LEVEL002
 370
40
 100
AcDbLine
   6
CONTINUOUS
  62
3
  10
 30.999999999900
  20
 140.50000000002
  30
0.0
  11
 608.99999999990
  21
 140.50000000002
  31
0.0
   0
LINE
   5
204
 100
AcDbEntity
   8
LEVEL002
 370
40
 100
AcDbLine
   6
CONTINUOUS
  62
3
  10
 608.99999999990
  20
 144.00000000002
  30
0.0
  11
 808.99999999990
  21
 144.00000000002
  31
0.0
   0
LINE
   5
205
 100
AcDbEntity
   8
LEVEL002
 370
40
 100
AcDbLine
   6
CONTINUOUS
  62
3
  10
 608.99999999990
  20
 104.00000000002
  30
0.0
  11
 808.99999999990
  21
 104.00000000002
  31
0.0
   0
LINE
   5
206
 100
AcDbEntity
   8
LEVEL002
 370
40
 100
AcDbLine
   6
CONTINUOUS
  62
3
  10
 608.99999999990
  20
 64.000000000020
  30
0.0
  11
 808.99999999990
  21
 64.000000000020
  31
0.0
   0
LINE
   5
207
 100
AcDbEntity
   8
LEVEL002
 370
40
 100
AcDbLine
   6
CONTINUOUS
  62
3
  10
 708.99999999990
  20
 104.00000000002
  30
0.0
  11
 708.99999999990
  21
 24.000000000020
  31
0.0
   0
LINE
   5
208
 100
AcDbEntity
   8
LEVEL002
 370
40
 100
AcDbLine
   6
CONTINUOUS
  62
3
  10
 708.99999999990
  20
 77.333333333360
  30
0.0
  11
 808.99999999990
  21
 77.333333333360
  31
0.0
   0
LINE
   5
209
 100
AcDbEntity
   8
LEVEL002
 370
40
 100
AcDbLine
   6
CONTINUOUS
  62
3
  10
 708.99999999990
  20
 90.666666666690
  30
0.0
  11
 808.99999999990
  21
 90.666666666690
  31
0.0
   0
LINE
   5
20A
 100
AcDbEntity
   8
LEVEL002
 370
50
 100
AcDbLine
   6
CONTINUOUS
  62
4
  10
 808.99999999990
  20
 570.00000000000
  30
0.0
  11
 30.999999999900
  21
 570.00000000000
  31
0.0
   0
LINE
   5
20B
 100
AcDbEntity
   8
LEVEL002
 370
50
 100
AcDbLine
   6
CONTINUOUS
  62
4
  10
 608.99999999990
  20
 570.00000000000
  30
0.0
  11
 608.99999999990
  21
 24.000000000020
  31
0.0
   0
LINE
   5
20C
 100
AcDbEntity
   8
LEVEL002
 370
50
 100
AcDbLine
   6
CONTINUOUS
  62
4
  10
 808.99999999990
  20
 24.000000000020
  30
0.0
  11
 808.99999999990
  21
 570.00000000000
  31
0.0
   0
LINE
   5
20D
 100
AcDbEntity
   8
LEVEL002
 370
50
 100
AcDbLine
   6
CONTINUOUS
  62
4
  10
 30.999999999900
  20
 570.00000000000
  30
0.0
  11
 30.999999999900
  21
 24.000000000020
  31
0.0
   0
LINE
   5
20E
 100
AcDbEntity
   8
LEVEL002
 370
50
 100
AcDbLine
   6
CONTINUOUS
  62
4
  10
 30.999999999900
  20
 24.000000000020
  30
0.0
  11
 808.99999999990
  21
 24.000000000020
  31
0.0
   0
HATCH
   5
20F
 100
AcDbEntity
   8
LEVEL001
  62
1
 100
AcDbHatch
  10
0.0
  20
0.0
  30
0.0
 210
0.0
 220
0.0
 230
 1.0000000000000
   2
SOLID
  70
1
  71
1
  91
7
  92
1
  93
6
  72
1
  10
 648.90000000000
  20
 560.95000000000
  11
 636.10000000000
  21
 541.75000000000
  72
1
  10
 636.10000000000
  20
 541.75000000000
  11
 648.90000000000
  21
 522.55000000000
  72
1
  10
 648.90000000000
  20
 522.55000000000
  11
 638.10000000000
  21
 522.55000000000
  72
1
  10
 638.10000000000
  20
 522.55000000000
  11
 625.30000000000
  21
 541.75000000000
  72
1
  10
 625.30000000000
  20
 541.75000000000
  11
 638.10000000000
  21
 560.95000000000
  72
1
  10
 638.10000000000
  20
 560.95000000000
  11
 648.90000000000
  21
 560.95000000000
  97
1
 330

  92
16
  93
6
  72
1
  10
 654.30000000000
  20
 560.95000000000
  11
 665.10000000000
  21
 560.95000000000
  72
1
  10
 665.10000000000
  20
 560.95000000000
  11
 652.30000000000
  21
 541.75000000000
  72
1
  10
 652.30000000000
  20
 541.75000000000
  11
 665.10000000000
  21
 522.55000000000
  72
1
  10
 665.10000000000
  20
 522.55000000000
  11
 654.30000000000
  21
 522.55000000000
  72
1
  10
 654.30000000000
  20
 522.55000000000
  11
 641.50000000000
  21
 541.75000000000
  72
1
  10
 641.50000000000
  20
 541.75000000000
  11
 654.30000000000
  21
 560.95000000000
  97
1
 330

  92
16
  93
3
  72
1
  10
 666.70000000000
  20
 541.75000000000
  11
 657.70000000000
  21
 541.75000000000
  72
1
  10
 657.70000000000
  20
 541.75000000000
  11
 666.70000000000
  21
 527.35000000000
  72
1
  10
 666.70000000000
  20
 527.35000000000
  11
 666.70000000000
  21
 541.75000000000
  97
1
 330

  92
16
  93
6
  72
1
  10
 673.90000000000
  20
 544.15000000000
  11
 688.30000000000
  21
 544.15000000000
  72
2
  10
 688.30000000000
  20
 535.15000000000
  40
 9.0000000000000
  50
 270.00000000000
  51
 90.000000000000
  73
0
  72
1
  10
 688.30000000000
  20
 526.15000000000
  11
 681.10000000000
  21
 526.15000000000
  72
1
  10
 681.10000000000
  20
 526.15000000000
  11
 681.10000000000
  21
 522.55000000000
  72
1
  10
 681.10000000000
  20
 522.55000000000
  11
 673.90000000000
  21
 522.55000000000
  72
1
  10
 673.90000000000
  20
 522.55000000000
  11
 673.90000000000
  21
 544.15000000000
  97
1
 330

  92
16
  93
4
  72
1
  10
 688.30000000000
  20
 536.95000000000
  11
 681.10000000000
  21
 536.95000000000
  72
1
  10
 681.10000000000
  20
 536.95000000000
  11
 681.10000000000
  21
 533.35000000000
  72
1
  10
 681.10000000000
  20
 533.35000000000
  11
 688.30000000000
  21
 533.35000000000
  72
2
  10
 688.30000000000
  20
 535.15000000000
  40
 1.8000000000000
  50
 270.00000000000
  51
 90.000000000000
  73
1
  97
1
 330

  92
16
  93
4
  72
1
  10
 691.90000000000
  20
 522.55000000000
  11
 706.30000000000
  21
 544.15000000000
  72
1
  10
 706.30000000000
  20
 544.15000000000
  11
 717.10000000000
  21
 544.15000000000
  72
1
  10
 717.10000000000
  20
 544.15000000000
  11
 702.70000000000
  21
 522.55000000000
  72
1
  10
 702.70000000000
  20
 522.55000000000
  11
 691.90000000000
  21
 522.55000000000
  97
1
 330

  92
16
  93
3
  72
1
  10
 714.70000000000
  20
 536.22333846940
  11
 705.58444102040
  21
 522.55000000000
  72
1
  10
 705.58444102040
  20
 522.55000000000
  11
 714.70000000000
  21
 522.55000000000
  72
1
  10
 714.70000000000
  20
 522.55000000000
  11
 714.70000000000
  21
 536.22333846940
  97
1
 330

  75
0
  76
1
  98
1
  10
0.0
  20
0.0
   0
HATCH
   5
210
 100
AcDbEntity
   8
LEVEL001
  62
1
 100
AcDbHatch
  10
0.0
  20
0.0
  30
0.0
 210
0.0
 220
0.0
 230
 1.0000000000000
   2
SOLID
  70
1
  71
1
  91
1
  92
1
  93
22
  72
1
  10
 717.10000000000
  20
 544.15000000000
  11
 724.30000000000
  21
 544.15000000000
  72
1
  10
 724.30000000000
  20
 544.15000000000
  11
 724.30000000000
  21
 529.75000000000
  72
1
  10
 724.30000000000
  20
 529.75000000000
  11
 735.10000000000
  21
 529.75000000000
  72
1
  10
 735.10000000000
  20
 529.75000000000
  11
 735.10000000000
  21
 536.95000000000
  72
1
  10
 735.10000000000
  20
 536.95000000000
  11
 727.90000000000
  21
 536.95000000000
  72
1
  10
 727.90000000000
  20
 536.95000000000
  11
 727.90000000000
  21
 544.15000000000
  72
1
  10
 727.90000000000
  20
 544.15000000000
  11
 771.10000000000
  21
 544.15000000000
  72
1
  10
 771.10000000000
  20
 544.15000000000
  11
 771.10000000000
  21
 536.95000000000
  72
1
  10
 771.10000000000
  20
 536.95000000000
  11
 756.70000000000
  21
 536.95000000000
  72
1
  10
 756.70000000000
  20
 536.95000000000
  11
 756.70000000000
  21
 535.15000000000
  72
1
  10
 756.70000000000
  20
 535.15000000000
  11
 769.30000000000
  21
 535.15000000000
  72
1
  10
 769.30000000000
  20
 535.15000000000
  11
 769.30000000000
  21
 531.55000000000
  72
1
  10
 769.30000000000
  20
 531.55000000000
  11
 756.70000000000
  21
 531.55000000000
  72
1
  10
 756.70000000000
  20
 531.55000000000
  11
 756.70000000000
  21
 529.75000000000
  72
1
  10
 756.70000000000
  20
 529.75000000000
  11
 771.10000000000
  21
 529.75000000000
  72
1
  10
 771.10000000000
  20
 529.75000000000
  11
 771.10000000000
  21
 522.55000000000
  72
1
  10
 771.10000000000
  20
 522.55000000000
  11
 749.50000000000
  21
 522.55000000000
  72
1
  10
 749.50000000000
  20
 522.55000000000
  11
 749.50000000000
  21
 536.95000000000
  72
1
  10
 749.50000000000
  20
 536.95000000000
  11
 742.30000000000
  21
 536.95000000000
  72
1
  10
 742.30000000000
  20
 536.95000000000
  11
 742.30000000000
  21
 522.55000000000
  72
1
  10
 742.30000000000
  20
 522.55000000000
  11
 717.10000000000
  21
 522.55000000000
  72
1
  10
 717.10000000000
  20
 522.55000000000
  11
 717.10000000000
  21
 544.15000000000
  97
1
 330

  75
0
  76
1
  98
1
  10
0.0
  20
0.0
   0
HATCH
   5
211
 100
AcDbEntity
   8
LEVEL001
  62
1
 100
AcDbHatch
  10
0.0
  20
0.0
  30
0.0
 210
0.0
 220
0.0
 230
 1.0000000000000
   2
SOLID
  70
1
  71
1
  91
1
  92
1
  93
8
  72
1
  10
 792.70000000000
  20
 544.15000000000
  11
 781.90000000000
  21
 544.15000000000
  72
2
  10
 781.90000000000
  20
 533.35000000000
  40
 10.800000000000
  50
 90.000000000000
  51
 270.00000000000
  73
1
  72
1
  10
 781.90000000000
  20
 522.55000000000
  11
 792.70000000000
  21
 522.55000000000
  72
1
  10
 792.70000000000
  20
 522.55000000000
  11
 792.70000000000
  21
 529.75000000000
  72
1
  10
 792.70000000000
  20
 529.75000000000
  11
 781.90000000000
  21
 529.75000000000
  72
2
  10
 781.90000000000
  20
 533.35000000000
  40
 3.6000000000000
  50
 90.000000000000
  51
 270.00000000000
  73
0
  72
1
  10
 781.90000000000
  20
 536.95000000000
  11
 792.70000000000
  21
 536.95000000000
  72
1
  10
 792.70000000000
  20
 536.95000000000
  11
 792.70000000000
  21
 544.15000000000
  97
1
 330

  75
0
  76
1
  98
1
  10
0.0
  20
0.0
   0
MTEXT
   5
213
 100
AcDbEntity
   8
LEVEL002
 370
15
  62
8
 100
AcDbMText
  10
 621.59999999990
  20
 56.500000000020
  30
0.0
  40
 6.0000000000000
  41
0.0
  71
5
  72
1
   1
\T1.000000;サイズ：
   7
GMM002
  44
 0.79999984000003
   0
MTEXT
   5
215
 100
AcDbEntity
   8
LEVEL002
 370
15
  62
8
 100
AcDbMText
  10
 618.59999999990
  20
 96.500000000020
  30
0.0
  40
 6.0000000000000
  41
0.0
  71
5
  72
1
   1
\T1.000000;縮尺：
   7
GMM002
  44
 0.79999984000003
   0
MTEXT
   5
217
 100
AcDbEntity
   8
LEVEL002
 370
15
  62
8
 100
AcDbMText
  10
 624.59999999990
  20
 136.50000000002
  30
0.0
  40
 6.0000000000000
  41
0.0
  71
5
  72
1
   1
\T1.000000;図面名称：
   7
GMM002
  44
 0.79999984000003
   0
MTEXT
   5
219
 100
AcDbEntity
   8
LEVEL002
 370
15
  62
8
 100
AcDbMText
  10
 727.59999999990
  20
 56.500000000020
  30
0.0
  40
 6.0000000000000
  41
0.0
  71
5
  72
1
   1
\T1.000000;ファイル名：
   7
GMM002
  44
 0.79999984000003
   0
MTEXT
   5
21B
 100
AcDbEntity
   8
LEVEL002
 370
15
  62
8
 100
AcDbMText
  10
 724.59999999990
  20
 97.333333333360
  30
0.0
  40
 5.6000000000000
  41
0.0
  71
5
  72
1
   1
\T1.000000;作成日付：
   7
GMM003
  44
 0.79999984000003
   0
MTEXT
   5
21D
 100
AcDbEntity
   8
LEVEL002
 370
15
  62
8
 100
AcDbMText
  10
 724.59999999990
  20
 84.000000000020
  30
0.0
  40
 5.6000000000000
  41
0.0
  71
5
  72
1
   1
\T1.000000;変更日付：
   7
GMM003
  44
 0.79999984000003
   0
MTEXT
   5
21F
 100
AcDbEntity
   8
LEVEL002
 370
15
  62
8
 100
AcDbMText
  10
 708.99999999990
  20
 116.50000000002
  30
0.0
  40
 7.5000000000000
  41
0.0
  71
5
  72
1
   1
\W1.000000;\T1.000000;平面図\W0.500000;\T1.000000;･\W1.000000;\T1.000000;断面図
   7
GMM002
  44
 0.79999984000003
   0
MTEXT
   5
221
 100
AcDbEntity
   8
LEVEL002
 370
15
  62
8
 100
AcDbMText
  10
 658.99999999990
  20
 76.500000000020
  30
0.0
  40
 7.5000000000000
  41
0.0
  71
5
  72
1
   1
\T1.000000;Ｓ＝１：２
   7
GMM002
  44
 0.79999984000003
   0
MTEXT
   5
223
 100
AcDbEntity
   8
LEVEL002
 370
15
  62
8
 100
AcDbMText
  10
 658.99999999990
  20
 36.500000000020
  30
0.0
  40
 7.5000000000000
  41
0.0
  71
5
  72
1
   1
\T1.000000;Ａ３
   7
GMM002
  44
 0.79999984000003
   0
MTEXT
   5
225
 100
AcDbEntity
   8
LEVEL002
 370
15
  62
8
 100
AcDbMText
  10
 618.59999999990
  20
 426.00000000000
  30
0.0
  40
 6.0000000000000
  41
0.0
  71
5
  72
1
   1
\T1.000000;仕様：
   7
GMM002
  44
 0.79999984000003
   0
MTEXT
   5
227
 100
AcDbEntity
   8
LEVEL002
 370
15
  62
8
 100
AcDbMText
  10
 618.59999999990
  20
 466.00000000000
  30
0.0
  40
 6.0000000000000
  41
0.0
  71
5
  72
1
   1
\T1.000000;形式：
   7
GMM002
  44
 0.79999984000003
   0
MTEXT
   5
229
 100
AcDbEntity
   8
LEVEL002
 370
15
  62
8
 100
AcDbMText
  10
 621.59999999990
  20
 506.00000000000
  30
0.0
  40
 6.0000000000000
  41
0.0
  71
5
  72
1
   1
\T1.000000;商品名：
   7
GMM002
  44
 0.79999984000003
   0
LINE
   5
22A
 100
AcDbEntity
   8
LEVEL002
 370
30
 100
AcDbLine
   6
CONTINUOUS
  62
7
  10
 128.09847694910
  20
 456.27850816350
  30
0.0
  11
 128.99867817020
  21
 457.07200533510
  31
0.0
   0
LINE
   5
22B
 100
AcDbEntity
   8
LEVEL002
 370
30
 100
AcDbLine
   6
CONTINUOUS
  62
7
  10
 128.99867817020
  20
 457.07200533510
  30
0.0
  11
 127.60497943140
  21
 458.65311910770
  31
0.0
   0
ARC
   5
22C
 100
AcDbEntity
   8
LEVEL002
 370
30
   6
CONTINUOUS
  62
7
 100
AcDbCircle
  10
 125.72956022050
  20
 457.00000000000
  30
0.0
  40
 2.5000000000000
 100
AcDbArc
  50
 41.395094689843
  51
 89.999999996935
   0
LINE
   5
22D
 100
AcDbEntity
   8
LEVEL002
 370
30
 100
AcDbLine
   6
CONTINUOUS
  62
7
  10
 125.72956022070
  20
 459.50000000000
  30
0.0
  11
 125.26779611960
  21
 459.50000000000
  31
0.0
   0
ARC
   5
22E
 100
AcDbEntity
   8
LEVEL002
 370
30
   6
CONTINUOUS
  62
7
 100
AcDbCircle
  10
 125.26779611950
  20
 457.00000000000
  30
0.0
  40
 2.5000000000000
 100
AcDbArc
  50
 89.999999999324
  51
 134.35625428487
   0
LINE
   5
22F
 100
AcDbEntity
   8
LEVEL002
 370
30
 100
AcDbLine
   6
CONTINUOUS
  62
7
  10
 123.52000203980
  20
 458.78751667260
  30
0.0
  11
 122.49417793880
  21
 457.78448866270
  31
0.0
   0
ARC
   5
230
 100
AcDbEntity
   8
LEVEL002
 370
30
   6
CONTINUOUS
  62
7
 100
AcDbCircle
  10
 121.30567796440
  20
 459.00000000000
  30
0.0
  40
 1.7000000000000
 100
AcDbArc
  50
 270.00000000480
  51
 314.35625428925
   0
LINE
   5
231
 100
AcDbEntity
   8
LEVEL002
 370
30
 100
AcDbLine
   6
CONTINUOUS
  62
7
  10
 121.30567796450
  20
 457.30000000000
  30
0.0
  11
 119.19167837570
  21
 457.30000000000
  31
0.0
   0
ARC
   5
232
 100
AcDbEntity
   8
LEVEL002
 370
30
   6
CONTINUOUS
  62
7
 100
AcDbCircle
  10
 119.19167837570
  20
 459.00000000010
  30
0.0
  40
 1.7000000000000
 100
AcDbArc
  50
 225.64374571696
  51
 270.00000000198
   0
LINE
   5
233
 100
AcDbEntity
   8
LEVEL002
 370
30
 100
AcDbLine
   6
CONTINUOUS
  62
7
  10
 118.00317840150
  20
 457.78448866270
  30
0.0
  11
 116.97735430050
  21
 458.78751667260
  31
0.0
   0
ARC
   5
234
 100
AcDbEntity
   8
LEVEL002
 370
30
   6
CONTINUOUS
  62
7
 100
AcDbCircle
  10
 115.22956022060
  20
 457.00000000000
  30
0.0
  40
 2.5000000000000
 100
AcDbArc
  50
 45.643745712789
  51
 89.999999998051
   0
LINE
   5
235
 100
AcDbEntity
   8
LEVEL002
 370
30
 100
AcDbLine
   6
CONTINUOUS
  62
7
  10
 115.22956022070
  20
 459.50000000000
  30
0.0
  11
 114.76779611960
  21
 459.50000000000
  31
0.0
   0
ARC
   5
236
 100
AcDbEntity
   8
LEVEL002
 370
30
   6
CONTINUOUS
  62
7
 100
AcDbCircle
  10
 114.76779611970
  20
 457.00000000020
  30
0.0
  40
 2.5000000000000
 100
AcDbArc
  50
 90.000000003035
  51
 134.35625429006
   0
LINE
   5
237
 100
AcDbEntity
   8
LEVEL002
 370
30
 100
AcDbLine
   6
CONTINUOUS
  62
7
  10
 113.02000203980
  20
 458.78751667260
  30
0.0
  11
 111.99417793880
  21
 457.78448866270
  31
0.0
   0
ARC
   5
238
 100
AcDbEntity
   8
LEVEL002
 370
30
   6
CONTINUOUS
  62
7
 100
AcDbCircle
  10
 110.80567796480
  20
 459.00000000000
  30
0.0
  40
 1.7000000000000
 100
AcDbArc
  50
 269.99999998972
  51
 314.35625427847
   0
LINE
   5
239
 100
AcDbEntity
   8
LEVEL002
 370
30
 100
AcDbLine
   6
CONTINUOUS
  62
7
  10
 110.80567796450
  20
 457.30000000000
  30
0.0
  11
 108.69167837570
  21
 457.30000000000
  31
0.0
   0
ARC
   5
23A
 100
AcDbEntity
   8
LEVEL002
 370
30
   6
CONTINUOUS
  62
7
 100
AcDbCircle
  10
 108.69167837570
  20
 459.00000000000
  30
0.0
  40
 1.7000000000000
 100
AcDbArc
  50
 225.64374571523
  51
 270.00000000074
   0
LINE
   5
23B
 100
AcDbEntity
   8
LEVEL002
 370
30
 100
AcDbLine
   6
CONTINUOUS
  62
7
  10
 107.50317840150
  20
 457.78448866270
  30
0.0
  11
 106.47735430050
  21
 458.78751667260
  31
0.0
   0
ARC
   5
23C
 100
AcDbEntity
   8
LEVEL002
 370
30
   6
CONTINUOUS
  62
7
 100
AcDbCircle
  10
 104.72956022060
  20
 457.00000000000
  30
0.0
  40
 2.5000000000000
 100
AcDbArc
  50
 45.643745712134
  51
 89.999999997134
   0
LINE
   5
23D
 100
AcDbEntity
   8
LEVEL002
 370
30
 100
AcDbLine
   6
CONTINUOUS
  62
7
  10
 104.72956022070
  20
 459.50000000000
  30
0.0
  11
 104.26779611960
  21
 459.50000000000
  31
0.0
   0
ARC
   5
23E
 100
AcDbEntity
   8
LEVEL002
 370
30
   6
CONTINUOUS
  62
7
 100
AcDbCircle
  10
 104.26779611970
  20
 457.00000000010
  30
0.0
  40
 2.5000000000000
 100
AcDbArc
  50
 90.000000002377
  51
 134.35625428915
   0
LINE
   5
23F
 100
AcDbEntity
   8
LEVEL002
 370
30
 100
AcDbLine
   6
CONTINUOUS
  62
7
  10
 102.52000203980
  20
 458.78751667260
  30
0.0
  11
 101.49417793880
  21
 457.78448866270
  31
0.0
   0
ARC
   5
240
 100
AcDbEntity
   8
LEVEL002
 370
30
   6
CONTINUOUS
  62
7
 100
AcDbCircle
  10
 100.30567796450
  20
 459.00000000000
  30
0.0
  40
 1.7000000000000
 100
AcDbArc
  50
 270.00000000103
  51
 314.35625428655
   0
LINE
   5
241
 100
AcDbEntity
   8
LEVEL002
 370
30
 100
AcDbLine
   6
CONTINUOUS
  62
7
  10
 100.30567796450
  20
 457.30000000000
  30
0.0
  11
 98.191678375700
  21
 457.30000000000
  31
0.0
   0
ARC
   5
242
 100
AcDbEntity
   8
LEVEL002
 370
30
   6
CONTINUOUS
  62
7
 100
AcDbCircle
  10
 98.191678375700
  20
 459.00000000010
  30
0.0
  40
 1.7000000000000
 100
AcDbArc
  50
 203.91653442451
  51
 270.00000000106
   0
ARC
   5
243
 100
AcDbEntity
   8
LEVEL002
 370
30
   6
CONTINUOUS
  62
7
 100
AcDbCircle
  10
 94.809371470700
  20
 457.50000000000
  30
0.0
  40
 2.0000000000000
 100
AcDbArc
  50
 23.916534422082
  51
 90.000000000561
   0
LINE
   5
244
 100
AcDbEntity
   8
LEVEL002
 370
30
 100
AcDbLine
   6
CONTINUOUS
  62
7
  10
 94.809371470700
  20
 459.50000000000
  30
0.0
  11
 93.885596723500
  21
 459.50000000000
  31
0.0
   0
ARC
   5
245
 100
AcDbEntity
   8
LEVEL002
 370
30
   6
CONTINUOUS
  62
7
 100
AcDbCircle
  10
 93.885596723500
  20
 457.00000000000
  30
0.0
  40
 2.5000000000000
 100
AcDbArc
  50
 89.999999999989
  51
 171.15011690148
   0
ARC
   5
246
 100
AcDbEntity
   8
LEVEL002
 370
30
   6
CONTINUOUS
  62
7
 100
AcDbCircle
  10
 125.99867817010
  20
 452.00000000000
  30
0.0
  40
 35.000000000000
 100
AcDbArc
  50
 171.15011690156
  51
 192.37362511618
   0
LINE
   5
247
 100
AcDbEntity
   8
LEVEL002
 370
30
 100
AcDbLine
   6
CONTINUOUS
  62
7
  10
 91.811692342200
  20
 444.50000000000
  30
0.0
  11
 92.983817570600
  21
 444.75714285720
  31
0.0
   0
ARC
   5
248
 100
AcDbEntity
   8
LEVEL002
 370
30
   6
CONTINUOUS
  62
7
 100
AcDbCircle
  10
 125.99867817010
  20
 452.00000000000
  30
0.0
  40
 33.800000000000
 100
AcDbArc
  50
 171.15011690155
  51
 192.37362511617
   0
ARC
   5
249
 100
AcDbEntity
   8
LEVEL002
 370
30
   6
CONTINUOUS
  62
7
 100
AcDbCircle
  10
 93.885596723600
  20
 457.00000000000
  30
0.0
  40
 1.3000000000000
 100
AcDbArc
  50
 90.000000005110
  51
 171.15011690236
   0
LINE
   5
24A
 100
AcDbEntity
   8
LEVEL002
 370
30
 100
AcDbLine
   6
CONTINUOUS
  62
7
  10
 93.885596723500
  20
 458.30000000000
  30
0.0
  11
 94.809371470700
  21
 458.30000000000
  31
0.0
   0
ARC
   5
24B
 100
AcDbEntity
   8
LEVEL002
 370
30
   6
CONTINUOUS
  62
7
 100
AcDbCircle
  10
 94.809371470600
  20
 457.50000000010
  30
0.0
  40
 0.80000000000000
 100
AcDbArc
  50
 23.916534411963
  51
 89.999999995961
   0
ARC
   5
24C
 100
AcDbEntity
   8
LEVEL002
 370
30
   6
CONTINUOUS
  62
7
 100
AcDbCircle
  10
 98.191678375800
  20
 459.00000000000
  30
0.0
  40
 2.9000000000000
 100
AcDbArc
  50
 203.91653442116
  51
 269.99999999830
   0
LINE
   5
24D
 100
AcDbEntity
   8
LEVEL002
 370
30
 100
AcDbLine
   6
CONTINUOUS
  62
7
  10
 98.191678375700
  20
 456.10000000000
  30
0.0
  11
 100.30567796450
  21
 456.10000000000
  31
0.0
   0
ARC
   5
24E
 100
AcDbEntity
   8
LEVEL002
 370
30
   6
CONTINUOUS
  62
7
 100
AcDbCircle
  10
 100.30567796460
  20
 459.00000000010
  30
0.0
  40
 2.9000000000000
 100
AcDbArc
  50
 269.99999999832
  51
 314.35625428348
   0
LINE
   5
24F
 100
AcDbEntity
   8
LEVEL002
 370
30
 100
AcDbLine
   6
CONTINUOUS
  62
7
  10
 102.33311909710
  20
 456.92648065990
  30
0.0
  11
 103.35894319810
  21
 457.92950866970
  31
0.0
   0
ARC
   5
250
 100
AcDbEntity
   8
LEVEL002
 370
30
   6
CONTINUOUS
  62
7
 100
AcDbCircle
  10
 104.26779612000
  20
 457.00000000000
  30
0.0
  40
 1.3000000000000
 100
AcDbArc
  50
 90.000000018279
  51
 134.35625429891
   0
LINE
   5
251
 100
AcDbEntity
   8
LEVEL002
 370
30
 100
AcDbLine
   6
CONTINUOUS
  62
7
  10
 104.26779611960
  20
 458.30000000000
  30
0.0
  11
 104.72956022070
  21
 458.30000000000
  31
0.0
   0
ARC
   5
252
 100
AcDbEntity
   8
LEVEL002
 370
30
   6
CONTINUOUS
  62
7
 100
AcDbCircle
  10
 104.72956022050
  20
 457.00000000020
  30
0.0
  40
 1.3000000000000
 100
AcDbArc
  50
 45.643745704364
  51
 89.999999992981
   0
LINE
   5
253
 100
AcDbEntity
   8
LEVEL002
 370
30
 100
AcDbLine
   6
CONTINUOUS
  62
7
  10
 105.63841314220
  20
 457.92950866970
  30
0.0
  11
 106.66423724320
  21
 456.92648065990
  31
0.0
   0
ARC
   5
254
 100
AcDbEntity
   8
LEVEL002
 370
30
   6
CONTINUOUS
  62
7
 100
AcDbCircle
  10
 108.69167837580
  20
 459.00000000000
  30
0.0
  40
 2.9000000000000
 100
AcDbArc
  50
 225.64374571407
  51
 269.99999999986
   0
LINE
   5
255
 100
AcDbEntity
   8
LEVEL002
 370
30
 100
AcDbLine
   6
CONTINUOUS
  62
7
  10
 108.69167837570
  20
 456.10000000000
  30
0.0
  11
 110.80567796450
  21
 456.10000000000
  31
0.0
   0
ARC
   5
256
 100
AcDbEntity
   8
LEVEL002
 370
30
   6
CONTINUOUS
  62
7
 100
AcDbCircle
  10
 110.80567796440
  20
 458.99999999990
  30
0.0
  40
 2.9000000000000
 100
AcDbArc
  50
 270.00000000290
  51
 314.35625428988
   0
LINE
   5
257
 100
AcDbEntity
   8
LEVEL002
 370
30
 100
AcDbLine
   6
CONTINUOUS
  62
7
  10
 112.83311909710
  20
 456.92648065990
  30
0.0
  11
 113.85894319810
  21
 457.92950866970
  31
0.0
   0
ARC
   5
258
 100
AcDbEntity
   8
LEVEL002
 370
30
   6
CONTINUOUS
  62
7
 100
AcDbCircle
  10
 114.76779611960
  20
 457.00000000000
  30
0.0
  40
 1.3000000000000
 100
AcDbArc
  50
 90.000000002043
  51
 134.35625428729
   0
LINE
   5
259
 100
AcDbEntity
   8
LEVEL002
 370
30
 100
AcDbLine
   6
CONTINUOUS
  62
7
  10
 114.76779611960
  20
 458.30000000000
  30
0.0
  11
 115.22956022070
  21
 458.30000000000
  31
0.0
   0
ARC
   5
25A
 100
AcDbEntity
   8
LEVEL002
 370
30
   6
CONTINUOUS
  62
7
 100
AcDbCircle
  10
 115.22956022080
  20
 456.99999999990
  30
0.0
  40
 1.3000000000000
 100
AcDbArc
  50
 45.643745720566
  51
 90.000000004570
   0
LINE
   5
25B
 100
AcDbEntity
   8
LEVEL002
 370
30
 100
AcDbLine
   6
CONTINUOUS
  62
7
  10
 116.13841314220
  20
 457.92950866970
  30
0.0
  11
 117.16423724320
  21
 456.92648065990
  31
0.0
   0
ARC
   5
25C
 100
AcDbEntity
   8
LEVEL002
 370
30
   6
CONTINUOUS
  62
7
 100
AcDbCircle
  10
 119.19167837580
  20
 459.00000000000
  30
0.0
  40
 2.9000000000000
 100
AcDbArc
  50
 225.64374571402
  51
 269.99999999978
   0
LINE
   5
25D
 100
AcDbEntity
   8
LEVEL002
 370
30
 100
AcDbLine
   6
CONTINUOUS
  62
7
  10
 119.19167837570
  20
 456.10000000000
  30
0.0
  11
 121.30567796450
  21
 456.10000000000
  31
0.0
   0
ARC
   5
25E
 100
AcDbEntity
   8
LEVEL002
 370
30
   6
CONTINUOUS
  62
7
 100
AcDbCircle
  10
 121.30567796440
  20
 459.00000000000
  30
0.0
  40
 2.9000000000000
 100
AcDbArc
  50
 270.00000000119
  51
 314.35625428747
   0
LINE
   5
25F
 100
AcDbEntity
   8
LEVEL002
 370
30
 100
AcDbLine
   6
CONTINUOUS
  62
7
  10
 123.33311909710
  20
 456.92648065990
  30
0.0
  11
 124.35894319810
  21
 457.92950866970
  31
0.0
   0
ARC
   5
260
 100
AcDbEntity
   8
LEVEL002
 370
30
   6
CONTINUOUS
  62
7
 100
AcDbCircle
  10
 125.26779611960
  20
 457.00000000000
  30
0.0
  40
 1.3000000000000
 100
AcDbArc
  50
 90.000000000941
  51
 134.35625428649
   0
LINE
   5
261
 100
AcDbEntity
   8
LEVEL002
 370
30
 100
AcDbLine
   6
CONTINUOUS
  62
7
  10
 125.26779611960
  20
 458.30000000000
  30
0.0
  11
 125.72956022070
  21
 458.30000000000
  31
0.0
   0
ARC
   5
262
 100
AcDbEntity
   8
LEVEL002
 370
30
   6
CONTINUOUS
  62
7
 100
AcDbCircle
  10
 125.72956022070
  20
 456.99999999990
  30
0.0
  40
 1.3000000000000
 100
AcDbArc
  50
 41.395094696135
  51
 90.000000002824
   0
LINE
   5
263
 100
AcDbEntity
   8
LEVEL002
 370
30
 100
AcDbLine
   6
CONTINUOUS
  62
7
  10
 126.70477821030
  20
 457.85962193600
  30
0.0
  11
 128.09847694910
  21
 456.27850816350
  31
0.0
   0
LINE
   5
264
 100
AcDbEntity
   8
LEVEL002
 370
30
 100
AcDbLine
   6
CONTINUOUS
  62
7
  10
 90.999999999900
  20
 543.50000000000
  30
0.0
  11
 90.999999999900
  21
 498.50000000000
  31
0.0
   0
LINE
   5
265
 100
AcDbEntity
   8
LEVEL002
 370
30
 100
AcDbLine
   6
CONTINUOUS
  62
7
  10
 90.999999999900
  20
 498.50000000000
  30
0.0
  11
 128.99867817020
  21
 498.50000000000
  31
0.0
   0
LINE
   5
266
 100
AcDbEntity
   8
LEVEL002
 370
30
 100
AcDbLine
   6
CONTINUOUS
  62
7
  10
 128.99867817020
  20
 498.50000000000
  30
0.0
  11
 128.99867817020
  21
 543.50000000000
  31
0.0
   0
LINE
   5
267
 100
AcDbEntity
   8
LEVEL002
 370
30
 100
AcDbLine
   6
CONTINUOUS
  62
7
  10
 96.637645473400
  20
 543.50000000000
  30
0.0
  11
 96.637645473400
  21
 498.50000000000
  31
0.0
   0
LINE
   5
268
 100
AcDbEntity
   8
LEVEL002
 370
30
 100
AcDbLine
   6
CONTINUOUS
  62
7
  10
 101.49417793880
  20
 543.50000000000
  30
0.0
  11
 101.49417793880
  21
 498.50000000000
  31
0.0
   0
LINE
   5
269
 100
AcDbEntity
   8
LEVEL002
 370
30
 100
AcDbLine
   6
CONTINUOUS
  62
7
  10
 107.50317840150
  20
 543.50000000000
  30
0.0
  11
 107.50317840150
  21
 498.50000000000
  31
0.0
   0
LINE
   5
26A
 100
AcDbEntity
   8
LEVEL002
 370
30
 100
AcDbLine
   6
CONTINUOUS
  62
7
  10
 111.99417793880
  20
 543.50000000000
  30
0.0
  11
 111.99417793880
  21
 498.50000000000
  31
0.0
   0
LINE
   5
26B
 100
AcDbEntity
   8
LEVEL002
 370
30
 100
AcDbLine
   6
CONTINUOUS
  62
7
  10
 118.00317840150
  20
 543.50000000000
  30
0.0
  11
 118.00317840150
  21
 498.50000000000
  31
0.0
   0
LINE
   5
26C
 100
AcDbEntity
   8
LEVEL002
 370
30
 100
AcDbLine
   6
CONTINUOUS
  62
7
  10
 122.49417793880
  20
 543.50000000000
  30
0.0
  11
 122.49417793880
  21
 498.50000000000
  31
0.0
   0
LINE
   5
26D
 100
AcDbEntity
   8
LEVEL002
 370
30
 100
AcDbLine
   6
CONTINUOUS
  62
7
  10
 91.547048555300
  20
 310.00000000000
  30
0.0
  11
 91.012172652600
  21
 317.65131912400
  31
0.0
   0
ARC
   5
26E
 100
AcDbEntity
   8
LEVEL002
 370
30
   6
CONTINUOUS
  62
7
 100
AcDbCircle
  10
 95.999999999900
  20
 318.00000000000
  30
0.0
  40
 5.0000000000000
 100
AcDbArc
  50
 90.000000000011
  51
 183.99883413993
   0
ARC
   5
26F
 100
AcDbEntity
   8
LEVEL002
 370
30
   6
CONTINUOUS
  62
7
 100
AcDbCircle
  10
 116.99999999990
  20
 325.30000000000
  30
0.0
  40
 3.5000000000000
 100
AcDbArc
  50
 235.15009542113
  51
 304.84990457956
   0
LINE
   5
270
 100
AcDbEntity
   8
LEVEL002
 370
30
 100
AcDbLine
   6
CONTINUOUS
  62
7
  10
 125.99999999990
  20
 321.80000000000
  30
0.0
  11
 121.49999999990
  21
 323.00000000000
  31
0.0
   0
LINE
   5
271
 100
AcDbEntity
   8
LEVEL002
 370
30
 100
AcDbLine
   6
CONTINUOUS
  62
7
  10
 121.49999999990
  20
 323.00000000000
  30
0.0
  11
 118.99999999990
  21
 323.00000000000
  31
0.0
   0
LINE
   5
272
 100
AcDbEntity
   8
LEVEL002
 370
30
 100
AcDbLine
   6
CONTINUOUS
  62
7
  10
 118.99999999990
  20
 323.00000000000
  30
0.0
  11
 118.99999999990
  21
 322.42771867680
  31
0.0
   0
ARC
   5
273
 100
AcDbEntity
   8
LEVEL002
 370
30
   6
CONTINUOUS
  62
7
 100
AcDbCircle
  10
 109.00000000000
  20
 325.30000000010
  30
0.0
  40
 3.5000000000000
 100
AcDbArc
  50
 235.15009542033
  51
 304.84990457724
   0
ARC
   5
274
 100
AcDbEntity
   8
LEVEL002
 370
30
   6
CONTINUOUS
  62
7
 100
AcDbCircle
  10
 100.99999999990
  20
 325.30000000000
  30
0.0
  40
 3.5000000000000
 100
AcDbArc
  50
 235.15009542113
  51
 304.84990457956
   0
LINE
   5
275
 100
AcDbEntity
   8
LEVEL002
 370
30
 100
AcDbLine
   6
CONTINUOUS
  62
7
  10
 95.999999999900
  20
 323.00000000000
  30
0.0
  11
 98.999999999900
  21
 323.00000000000
  31
0.0
   0
LINE
   5
276
 100
AcDbEntity
   8
LEVEL002
 370
30
 100
AcDbLine
   6
CONTINUOUS
  62
7
  10
 98.999999999900
  20
 323.00000000000
  30
0.0
  11
 98.999999999900
  21
 322.42771867680
  31
0.0
   0
LINE
   5
277
 100
AcDbEntity
   8
LEVEL002
 370
30
 100
AcDbLine
   6
CONTINUOUS
  62
7
  10
 102.99999999990
  20
 322.42771867680
  30
0.0
  11
 102.99999999990
  21
 323.00000000000
  31
0.0
   0
LINE
   5
278
 100
AcDbEntity
   8
LEVEL002
 370
30
 100
AcDbLine
   6
CONTINUOUS
  62
7
  10
 102.99999999990
  20
 323.00000000000
  30
0.0
  11
 106.99999999990
  21
 323.00000000000
  31
0.0
   0
LINE
   5
279
 100
AcDbEntity
   8
LEVEL002
 370
30
 100
AcDbLine
   6
CONTINUOUS
  62
7
  10
 106.99999999990
  20
 323.00000000000
  30
0.0
  11
 106.99999999990
  21
 322.42771867680
  31
0.0
   0
LINE
   5
27A
 100
AcDbEntity
   8
LEVEL002
 370
30
 100
AcDbLine
   6
CONTINUOUS
  62
7
  10
 110.99999999990
  20
 322.42771867680
  30
0.0
  11
 110.99999999990
  21
 323.00000000000
  31
0.0
   0
LINE
   5
27B
 100
AcDbEntity
   8
LEVEL002
 370
30
 100
AcDbLine
   6
CONTINUOUS
  62
7
  10
 110.99999999990
  20
 323.00000000000
  30
0.0
  11
 114.99999999990
  21
 323.00000000000
  31
0.0
   0
LINE
   5
27C
 100
AcDbEntity
   8
LEVEL002
 370
30
 100
AcDbLine
   6
CONTINUOUS
  62
7
  10
 114.99999999990
  20
 323.00000000000
  30
0.0
  11
 114.99999999990
  21
 322.42771867680
  31
0.0
   0
LINE
   5
27D
 100
AcDbEntity
   8
LEVEL002
 370
30
 100
AcDbLine
   6
CONTINUOUS
  62
7
  10
 91.547048555300
  20
 310.00000000000
  30
0.0
  11
 92.759127232800
  21
 307.00000000000
  31
0.0
   0
LINE
   5
27E
 100
AcDbEntity
   8
LEVEL002
 370
30
 100
AcDbLine
   6
CONTINUOUS
  62
7
  10
 92.759127232800
  20
 307.00000000000
  30
0.0
  11
 94.764154685300
  21
 307.00000000000
  31
0.0
   0
LINE
   5
27F
 100
AcDbEntity
   8
LEVEL002
 370
30
 100
AcDbLine
   6
CONTINUOUS
  62
7
  10
 94.764154685300
  20
 307.00000000000
  30
0.0
  11
 93.929910789800
  21
 318.93024352630
  31
0.0
   0
LINE
   5
280
 100
AcDbEntity
   8
LEVEL002
 370
30
 100
AcDbLine
   6
CONTINUOUS
  62
7
  10
 94.927474840000
  20
 320.00000000000
  30
0.0
  11
 125.99999999990
  21
 320.00000000000
  31
0.0
   0
LINE
   5
281
 100
AcDbEntity
   8
LEVEL002
 370
30
 100
AcDbLine
   6
CONTINUOUS
  62
7
  10
 125.99999999990
  20
 320.00000000000
  30
0.0
  11
 125.99999999990
  21
 321.80000000000
  31
0.0
   0
ARC
   5
282
 100
AcDbEntity
   8
LEVEL002
 370
30
   6
CONTINUOUS
  62
7
 100
AcDbCircle
  10
 94.927474840200
  20
 319.00000000000
  30
0.0
  40
 1.0000000000000
 100
AcDbArc
  50
 90.000000013103
  51
 183.99999999910
   0
LINE
   5
283
 100
AcDbEntity
   8
LEVEL002
 370
30
 100
AcDbLine
   6
CONTINUOUS
  62
7
  10
 90.999999999900
  20
 407.00000000000
  30
0.0
  11
 90.999999999900
  21
 362.00000000000
  31
0.0
   0
LINE
   5
284
 100
AcDbEntity
   8
LEVEL002
 370
30
 100
AcDbLine
   6
CONTINUOUS
  62
7
  10
 90.999999999900
  20
 362.00000000000
  30
0.0
  11
 125.99999999990
  21
 362.00000000000
  31
0.0
   0
LINE
   5
285
 100
AcDbEntity
   8
LEVEL002
 370
30
 100
AcDbLine
   6
CONTINUOUS
  62
7
  10
 125.99999999990
  20
 362.00000000000
  30
0.0
  11
 125.99999999990
  21
 407.00000000000
  31
0.0
   0
LINE
   5
286
 100
AcDbEntity
   8
LEVEL002
 370
30
 100
AcDbLine
   6
CONTINUOUS
  62
7
  10
 98.999999999900
  20
 407.00000000000
  30
0.0
  11
 98.999999999900
  21
 362.00000000000
  31
0.0
   0
LINE
   5
287
 100
AcDbEntity
   8
LEVEL002
 370
30
 100
AcDbLine
   6
CONTINUOUS
  62
7
  10
 102.99999999990
  20
 407.00000000000
  30
0.0
  11
 102.99999999990
  21
 362.00000000000
  31
0.0
   0
LINE
   5
288
 100
AcDbEntity
   8
LEVEL002
 370
30
 100
AcDbLine
   6
CONTINUOUS
  62
7
  10
 106.99999999990
  20
 407.00000000000
  30
0.0
  11
 106.99999999990
  21
 362.00000000000
  31
0.0
   0
LINE
   5
289
 100
AcDbEntity
   8
LEVEL002
 370
30
 100
AcDbLine
   6
CONTINUOUS
  62
7
  10
 110.99999999990
  20
 407.00000000000
  30
0.0
  11
 110.99999999990
  21
 362.00000000000
  31
0.0
   0
LINE
   5
28A
 100
AcDbEntity
   8
LEVEL002
 370
30
 100
AcDbLine
   6
CONTINUOUS
  62
7
  10
 114.99999999990
  20
 407.00000000000
  30
0.0
  11
 114.99999999990
  21
 362.00000000000
  31
0.0
   0
LINE
   5
28B
 100
AcDbEntity
   8
LEVEL002
 370
30
 100
AcDbLine
   6
CONTINUOUS
  62
7
  10
 118.99999999990
  20
 407.00000000000
  30
0.0
  11
 118.99999999990
  21
 362.00000000000
  31
0.0
   0
LINE
   5
28C
 100
AcDbEntity
   8
LEVEL002
 370
30
 100
AcDbLine
   6
CONTINUOUS
  62
7
  10
 121.49999999990
  20
 407.00000000000
  30
0.0
  11
 121.49999999990
  21
 362.00000000000
  31
0.0
   0
ARC
   5
28D
 100
AcDbEntity
   8
LEVEL002
 370
30
   6
CONTINUOUS
  62
7
 100
AcDbCircle
  10
 240.49999999990
  20
 318.00000000000
  30
0.0
  40
 5.0000000000000
 100
AcDbArc
  50
 90.000000000000
  51
 179.99999999972
   0
LINE
   5
28E
 100
AcDbEntity
   8
LEVEL002
 370
30
 100
AcDbLine
   6
CONTINUOUS
  62
7
  10
 235.49999999990
  20
 318.00000000000
  30
0.0
  11
 236.19926811940
  21
 307.99999999990
  31
0.0
   0
LINE
   5
28F
 100
AcDbEntity
   8
LEVEL002
 370
30
 100
AcDbLine
   6
CONTINUOUS
  62
7
  10
 236.19926811940
  20
 307.99999999990
  30
0.0
  11
 237.35086022440
  21
 305.00000000000
  31
0.0
   0
LINE
   5
290
 100
AcDbEntity
   8
LEVEL002
 370
30
 100
AcDbLine
   6
CONTINUOUS
  62
7
  10
 237.35086022440
  20
 305.00000000000
  30
0.0
  11
 239.41637424940
  21
 305.00000000000
  31
0.0
   0
LINE
   5
291
 100
AcDbEntity
   8
LEVEL002
 370
30
 100
AcDbLine
   6
CONTINUOUS
  62
7
  10
 239.41637424940
  20
 305.00000000000
  30
0.0
  11
 238.51708138980
  21
 317.86048705250
  31
0.0
   0
ARC
   5
292
 100
AcDbEntity
   8
LEVEL002
 370
30
   6
CONTINUOUS
  62
7
 100
AcDbCircle
  10
 240.51220949030
  20
 318.00000000020
  30
0.0
  40
 2.0000000000000
 100
AcDbArc
  50
 89.999999999660
  51
 184.00000000479
   0
ARC
   5
293
 100
AcDbEntity
   8
LEVEL002
 370
30
   6
CONTINUOUS
  62
7
 100
AcDbCircle
  10
 247.04999999990
  20
 325.30000000000
  30
0.0
  40
 3.5000000000000
 100
AcDbArc
  50
 235.15009542081
  51
 304.84990457864
   0
LINE
   5
294
 100
AcDbEntity
   8
LEVEL002
 370
30
 100
AcDbLine
   6
CONTINUOUS
  62
7
  10
 245.04999999990
  20
 322.42771867680
  30
0.0
  11
 245.04999999990
  21
 323.00000000000
  31
0.0
   0
ARC
   5
295
 100
AcDbEntity
   8
LEVEL002
 370
30
   6
CONTINUOUS
  62
7
 100
AcDbCircle
  10
 255.85000000000
  20
 325.30000000010
  30
0.0
  40
 3.5000000000000
 100
AcDbArc
  50
 235.15009542049
  51
 304.84990457771
   0
LINE
   5
296
 100
AcDbEntity
   8
LEVEL002
 370
30
 100
AcDbLine
   6
CONTINUOUS
  62
7
  10
 253.84999999990
  20
 322.42771867680
  30
0.0
  11
 253.84999999990
  21
 323.00000000000
  31
0.0
   0
ARC
   5
297
 100
AcDbEntity
   8
LEVEL002
 370
30
   6
CONTINUOUS
  62
7
 100
AcDbCircle
  10
 264.64999999990
  20
 325.30000000000
  30
0.0
  40
 3.5000000000000
 100
AcDbArc
  50
 235.15009542097
  51
 304.84990457910
   0
LINE
   5
298
 100
AcDbEntity
   8
LEVEL002
 370
30
 100
AcDbLine
   6
CONTINUOUS
  62
7
  10
 262.64999999990
  20
 322.42771867680
  30
0.0
  11
 262.64999999990
  21
 323.00000000000
  31
0.0
   0
LINE
   5
299
 100
AcDbEntity
   8
LEVEL002
 370
30
 100
AcDbLine
   6
CONTINUOUS
  62
7
  10
 249.04999999990
  20
 322.42771867680
  30
0.0
  11
 249.04999999990
  21
 323.00000000000
  31
0.0
   0
LINE
   5
29A
 100
AcDbEntity
   8
LEVEL002
 370
30
 100
AcDbLine
   6
CONTINUOUS
  62
7
  10
 257.84999999990
  20
 322.42771867680
  30
0.0
  11
 257.84999999990
  21
 323.00000000000
  31
0.0
   0
LINE
   5
29B
 100
AcDbEntity
   8
LEVEL002
 370
30
 100
AcDbLine
   6
CONTINUOUS
  62
7
  10
 266.64999999990
  20
 322.42771867680
  30
0.0
  11
 266.64999999990
  21
 323.00000000000
  31
0.0
   0
LINE
   5
29C
 100
AcDbEntity
   8
LEVEL002
 370
30
 100
AcDbLine
   6
CONTINUOUS
  62
7
  10
 240.49999999990
  20
 323.00000000000
  30
0.0
  11
 245.04999999990
  21
 323.00000000000
  31
0.0
   0
LINE
   5
29D
 100
AcDbEntity
   8
LEVEL002
 370
30
 100
AcDbLine
   6
CONTINUOUS
  62
7
  10
 249.04999999990
  20
 323.00000000000
  30
0.0
  11
 253.84999999990
  21
 323.00000000000
  31
0.0
   0
LINE
   5
29E
 100
AcDbEntity
   8
LEVEL002
 370
30
 100
AcDbLine
   6
CONTINUOUS
  62
7
  10
 257.84999999990
  20
 323.00000000000
  30
0.0
  11
 262.64999999990
  21
 323.00000000000
  31
0.0
   0
LINE
   5
29F
 100
AcDbEntity
   8
LEVEL002
 370
30
 100
AcDbLine
   6
CONTINUOUS
  62
7
  10
 266.64999999990
  20
 323.00000000000
  30
0.0
  11
 270.99999999990
  21
 323.00000000000
  31
0.0
   0
LINE
   5
2A0
 100
AcDbEntity
   8
LEVEL002
 370
30
 100
AcDbLine
   6
CONTINUOUS
  62
7
  10
 270.99999999990
  20
 323.00000000000
  30
0.0
  11
 266.64999999990
  21
 323.00000000000
  31
0.0
   0
LINE
   5
2A1
 100
AcDbEntity
   8
LEVEL002
 370
30
 100
AcDbLine
   6
CONTINUOUS
  62
7
  10
 266.64999999990
  20
 323.00000000000
  30
0.0
  11
 270.99999999990
  21
 323.00000000000
  31
0.0
   0
LINE
   5
2A2
 100
AcDbEntity
   8
LEVEL002
 370
30
 100
AcDbLine
   6
CONTINUOUS
  62
7
  10
 270.99999999990
  20
 323.00000000000
  30
0.0
  11
 275.49999999990
  21
 322.00237401810
  31
0.0
   0
LINE
   5
2A3
 100
AcDbEntity
   8
LEVEL002
 370
30
 100
AcDbLine
   6
CONTINUOUS
  62
7
  10
 275.49999999990
  20
 322.00237401810
  30
0.0
  11
 275.49999999990
  21
 320.00000000000
  31
0.0
   0
LINE
   5
2A4
 100
AcDbEntity
   8
LEVEL002
 370
30
 100
AcDbLine
   6
CONTINUOUS
  62
7
  10
 275.49999999990
  20
 320.00000000000
  30
0.0
  11
 240.51220949030
  21
 320.00000000000
  31
0.0
   0
LINE
   5
2A5
 100
AcDbEntity
   8
LEVEL002
 370
30
 100
AcDbLine
   6
CONTINUOUS
  62
7
  10
 235.49999999990
  20
 407.00000000000
  30
0.0
  11
 235.49999999990
  21
 362.00000000000
  31
0.0
   0
LINE
   5
2A6
 100
AcDbEntity
   8
LEVEL002
 370
30
 100
AcDbLine
   6
CONTINUOUS
  62
7
  10
 235.49999999990
  20
 362.00000000000
  30
0.0
  11
 275.49999999990
  21
 362.00000000000
  31
0.0
   0
LINE
   5
2A7
 100
AcDbEntity
   8
LEVEL002
 370
30
 100
AcDbLine
   6
CONTINUOUS
  62
7
  10
 275.49999999990
  20
 362.00000000000
  30
0.0
  11
 275.49999999990
  21
 407.00000000000
  31
0.0
   0
LINE
   5
2A8
 100
AcDbEntity
   8
LEVEL002
 370
30
 100
AcDbLine
   6
CONTINUOUS
  62
7
  10
 245.04999999990
  20
 407.00000000000
  30
0.0
  11
 245.04999999990
  21
 362.00000000000
  31
0.0
   0
LINE
   5
2A9
 100
AcDbEntity
   8
LEVEL002
 370
30
 100
AcDbLine
   6
CONTINUOUS
  62
7
  10
 249.04999999990
  20
 407.00000000000
  30
0.0
  11
 249.04999999990
  21
 362.00000000000
  31
0.0
   0
LINE
   5
2AA
 100
AcDbEntity
   8
LEVEL002
 370
30
 100
AcDbLine
   6
CONTINUOUS
  62
7
  10
 253.84999999990
  20
 407.00000000000
  30
0.0
  11
 253.84999999990
  21
 362.00000000000
  31
0.0
   0
LINE
   5
2AB
 100
AcDbEntity
   8
LEVEL002
 370
30
 100
AcDbLine
   6
CONTINUOUS
  62
7
  10
 257.84999999990
  20
 407.00000000000
  30
0.0
  11
 257.84999999990
  21
 362.00000000000
  31
0.0
   0
LINE
   5
2AC
 100
AcDbEntity
   8
LEVEL002
 370
30
 100
AcDbLine
   6
CONTINUOUS
  62
7
  10
 262.64999999990
  20
 407.00000000000
  30
0.0
  11
 262.64999999990
  21
 362.00000000000
  31
0.0
   0
LINE
   5
2AD
 100
AcDbEntity
   8
LEVEL002
 370
30
 100
AcDbLine
   6
CONTINUOUS
  62
7
  10
 266.64999999990
  20
 407.00000000000
  30
0.0
  11
 266.64999999990
  21
 362.00000000000
  31
0.0
   0
LINE
   5
2AE
 100
AcDbEntity
   8
LEVEL002
 370
30
 100
AcDbLine
   6
CONTINUOUS
  62
7
  10
 270.99999999990
  20
 407.00000000000
  30
0.0
  11
 270.99999999990
  21
 362.00000000000
  31
0.0
   0
ARC
   5
2AF
 100
AcDbEntity
   8
LEVEL002
 370
30
   6
CONTINUOUS
  62
7
 100
AcDbCircle
  10
 417.99999999980
  20
 327.50000000000
  30
0.0
  40
 6.0000000000000
 100
AcDbArc
  50
 240.00000000036
  51
 300.00000000071
   0
ARC
   5
2B0
 100
AcDbEntity
   8
LEVEL002
 370
30
   6
CONTINUOUS
  62
7
 100
AcDbCircle
  10
 405.99999999980
  20
 327.50000000000
  30
0.0
  40
 6.0000000000000
 100
AcDbArc
  50
 240.00000000036
  51
 300.00000000071
   0
ARC
   5
2B1
 100
AcDbEntity
   8
LEVEL002
 370
30
   6
CONTINUOUS
  62
7
 100
AcDbCircle
  10
 394.00000000000
  20
 327.50000000010
  30
0.0
  40
 6.0000000000000
 100
AcDbArc
  50
 239.99999999950
  51
 299.99999999900
   0
LINE
   5
2B2
 100
AcDbEntity
   8
LEVEL002
 370
30
 100
AcDbLine
   6
CONTINUOUS
  62
7
  10
 414.99999999990
  20
 322.30384757730
  30
0.0
  11
 414.99999999990
  21
 323.00000000000
  31
0.0
   0
LINE
   5
2B3
 100
AcDbEntity
   8
LEVEL002
 370
30
 100
AcDbLine
   6
CONTINUOUS
  62
7
  10
 414.99999999990
  20
 323.00000000000
  30
0.0
  11
 408.99999999990
  21
 323.00000000000
  31
0.0
   0
LINE
   5
2B4
 100
AcDbEntity
   8
LEVEL002
 370
30
 100
AcDbLine
   6
CONTINUOUS
  62
7
  10
 408.99999999990
  20
 323.00000000000
  30
0.0
  11
 408.99999999990
  21
 322.30384757730
  31
0.0
   0
LINE
   5
2B5
 100
AcDbEntity
   8
LEVEL002
 370
30
 100
AcDbLine
   6
CONTINUOUS
  62
7
  10
 402.99999999990
  20
 322.30384757730
  30
0.0
  11
 402.99999999990
  21
 323.00000000000
  31
0.0
   0
LINE
   5
2B6
 100
AcDbEntity
   8
LEVEL002
 370
30
 100
AcDbLine
   6
CONTINUOUS
  62
7
  10
 402.99999999990
  20
 323.00000000000
  30
0.0
  11
 396.99999999990
  21
 323.00000000000
  31
0.0
   0
LINE
   5
2B7
 100
AcDbEntity
   8
LEVEL002
 370
30
 100
AcDbLine
   6
CONTINUOUS
  62
7
  10
 396.99999999990
  20
 323.00000000000
  30
0.0
  11
 396.99999999990
  21
 322.30384757730
  31
0.0
   0
LINE
   5
2B8
 100
AcDbEntity
   8
LEVEL002
 370
30
 100
AcDbLine
   6
CONTINUOUS
  62
7
  10
 384.99999999990
  20
 323.00000000000
  30
0.0
  11
 390.99999999990
  21
 323.00000000000
  31
0.0
   0
LINE
   5
2B9
 100
AcDbEntity
   8
LEVEL002
 370
30
 100
AcDbLine
   6
CONTINUOUS
  62
7
  10
 390.99999999990
  20
 323.00000000000
  30
0.0
  11
 390.99999999990
  21
 322.30384757730
  31
0.0
   0
ARC
   5
2BA
 100
AcDbEntity
   8
LEVEL002
 370
30
   6
CONTINUOUS
  62
7
 100
AcDbCircle
  10
 384.99999999990
  20
 318.00000000010
  30
0.0
  40
 5.0000000000000
 100
AcDbArc
  50
 90.000000000000
  51
 180.00000000080
   0
ARC
   5
2BB
 100
AcDbEntity
   8
LEVEL002
 370
30
   6
CONTINUOUS
  62
7
 100
AcDbCircle
  10
 449.99999999990
  20
 318.18883371940
  30
0.0
  40
 70.000000000000
 100
AcDbArc
  50
 179.99999999999
  51
 189.19763733385
   0
LINE
   5
2BC
 100
AcDbEntity
   8
LEVEL002
 370
30
 100
AcDbLine
   6
CONTINUOUS
  62
7
  10
 380.89999999990
  20
 307.00000000000
  30
0.0
  11
 382.19999999990
  21
 305.00000000000
  31
0.0
   0
LINE
   5
2BD
 100
AcDbEntity
   8
LEVEL002
 370
30
 100
AcDbLine
   6
CONTINUOUS
  62
7
  10
 382.19999999990
  20
 305.00000000000
  30
0.0
  11
 384.19999999990
  21
 305.00000000000
  31
0.0
   0
LINE
   5
2BE
 100
AcDbEntity
   8
LEVEL002
 370
30
 100
AcDbLine
   6
CONTINUOUS
  62
7
  10
 384.89357919430
  20
 320.00000000000
  30
0.0
  11
 429.99999999990
  21
 320.00000000000
  31
0.0
   0
LINE
   5
2BF
 100
AcDbEntity
   8
LEVEL002
 370
30
 100
AcDbLine
   6
CONTINUOUS
  62
7
  10
 429.99999999990
  20
 320.00000000000
  30
0.0
  11
 429.99999999990
  21
 322.20000000000
  31
0.0
   0
LINE
   5
2C0
 100
AcDbEntity
   8
LEVEL002
 370
30
 100
AcDbLine
   6
CONTINUOUS
  62
7
  10
 429.99999999990
  20
 322.20000000000
  30
0.0
  11
 420.99999999990
  21
 323.00000000000
  31
0.0
   0
LINE
   5
2C1
 100
AcDbEntity
   8
LEVEL002
 370
30
 100
AcDbLine
   6
CONTINUOUS
  62
7
  10
 420.99999999990
  20
 323.00000000000
  30
0.0
  11
 420.99999999990
  21
 322.30384757730
  31
0.0
   0
ARC
   5
2C2
 100
AcDbEntity
   8
LEVEL002
 370
30
   6
CONTINUOUS
  62
7
 100
AcDbCircle
  10
 384.89357919430
  20
 318.00000000000
  30
0.0
  40
 2.0000000000000
 100
AcDbArc
  50
 89.999999999998
  51
 180.14761144513
   0
ARC
   5
2C3
 100
AcDbEntity
   8
LEVEL002
 370
30
   6
CONTINUOUS
  62
7
 100
AcDbCircle
  10
 449.89336348050
  20
 318.16745968710
  30
0.0
  40
 67.000000000000
 100
AcDbArc
  50
 180.14761144499
  51
 191.33407192815
   0
LINE
   5
2C4
 100
AcDbEntity
   8
LEVEL002
 370
30
 100
AcDbLine
   6
CONTINUOUS
  62
7
  10
 379.99999999990
  20
 407.00000000000
  30
0.0
  11
 379.99999999990
  21
 362.00000000000
  31
0.0
   0
LINE
   5
2C5
 100
AcDbEntity
   8
LEVEL002
 370
30
 100
AcDbLine
   6
CONTINUOUS
  62
7
  10
 379.99999999990
  20
 362.00000000000
  30
0.0
  11
 429.99999999990
  21
 362.00000000000
  31
0.0
   0
LINE
   5
2C6
 100
AcDbEntity
   8
LEVEL002
 370
30
 100
AcDbLine
   6
CONTINUOUS
  62
7
  10
 429.99999999990
  20
 362.00000000000
  30
0.0
  11
 429.99999999990
  21
 407.00000000000
  31
0.0
   0
LINE
   5
2C7
 100
AcDbEntity
   8
LEVEL002
 370
30
 100
AcDbLine
   6
CONTINUOUS
  62
7
  10
 390.99999999990
  20
 407.00000000000
  30
0.0
  11
 390.99999999990
  21
 362.00000000000
  31
0.0
   0
LINE
   5
2C8
 100
AcDbEntity
   8
LEVEL002
 370
30
 100
AcDbLine
   6
CONTINUOUS
  62
7
  10
 396.99999999990
  20
 407.00000000000
  30
0.0
  11
 396.99999999990
  21
 362.00000000000
  31
0.0
   0
LINE
   5
2C9
 100
AcDbEntity
   8
LEVEL002
 370
30
 100
AcDbLine
   6
CONTINUOUS
  62
7
  10
 402.99999999990
  20
 407.00000000000
  30
0.0
  11
 402.99999999990
  21
 362.00000000000
  31
0.0
   0
LINE
   5
2CA
 100
AcDbEntity
   8
LEVEL002
 370
30
 100
AcDbLine
   6
CONTINUOUS
  62
7
  10
 408.99999999990
  20
 407.00000000000
  30
0.0
  11
 408.99999999990
  21
 362.00000000000
  31
0.0
   0
LINE
   5
2CB
 100
AcDbEntity
   8
LEVEL002
 370
30
 100
AcDbLine
   6
CONTINUOUS
  62
7
  10
 414.99999999990
  20
 407.00000000000
  30
0.0
  11
 414.99999999990
  21
 362.00000000000
  31
0.0
   0
LINE
   5
2CC
 100
AcDbEntity
   8
LEVEL002
 370
30
 100
AcDbLine
   6
CONTINUOUS
  62
7
  10
 420.99999999990
  20
 407.00000000000
  30
0.0
  11
 420.99999999990
  21
 362.00000000000
  31
0.0
   0
LINE
   5
2CD
 100
AcDbEntity
   8
LEVEL002
 370
25
 100
AcDbLine
   6
CONTINUOUS
  62
1
  10
 102.99999999990
  20
 324.12676444911
  30
0.0
  11
 106.99999999990
  21
 324.12676444911
  31
0.0
   0
LINE
   5
2CE
 100
AcDbEntity
   8
LEVEL002
 370
25
 100
AcDbLine
   6
CONTINUOUS
  62
1
  10
 110.99999999990
  20
 324.12676444911
  30
0.0
  11
 114.99999999990
  21
 324.12676444911
  31
0.0
   0
LINE
   5
2CF
 100
AcDbEntity
   8
LEVEL002
 370
25
 100
AcDbLine
   6
CONTINUOUS
  62
1
  10
 249.04999999990
  20
 324.12676444911
  30
0.0
  11
 253.84999999990
  21
 324.12676444911
  31
0.0
   0
LINE
   5
2D0
 100
AcDbEntity
   8
LEVEL002
 370
25
 100
AcDbLine
   6
CONTINUOUS
  62
1
  10
 257.84999999990
  20
 324.12676444911
  30
0.0
  11
 262.64999999990
  21
 324.12676444911
  31
0.0
   0
LINE
   5
2D1
 100
AcDbEntity
   8
LEVEL002
 370
25
 100
AcDbLine
   6
CONTINUOUS
  62
1
  10
 396.99999999990
  20
 324.12676444911
  30
0.0
  11
 402.99999999990
  21
 324.12676444911
  31
0.0
   0
LINE
   5
2D2
 100
AcDbEntity
   8
LEVEL002
 370
25
 100
AcDbLine
   6
CONTINUOUS
  62
1
  10
 408.99999999990
  20
 324.12676444911
  30
0.0
  11
 414.99999999990
  21
 324.12676444911
  31
0.0
   0
LINE
   5
2D3
 100
AcDbEntity
   8
LEVEL002
 370
25
 100
AcDbLine
   6
CONTINUOUS
  62
1
  10
 102.99999999990
  20
 366.50000000000
  30
0.0
  11
 106.99999999990
  21
 366.50000000000
  31
0.0
   0
LINE
   5
2D4
 100
AcDbEntity
   8
LEVEL002
 370
25
 100
AcDbLine
   6
CONTINUOUS
  62
1
  10
 102.99999999990
  20
 365.50000000000
  30
0.0
  11
 106.99999999990
  21
 365.50000000000
  31
0.0
   0
LINE
   5
2D5
 100
AcDbEntity
   8
LEVEL002
 370
25
 100
AcDbLine
   6
CONTINUOUS
  62
1
  10
 110.99999999990
  20
 366.50000000000
  30
0.0
  11
 114.99999999990
  21
 366.50000000000
  31
0.0
   0
LINE
   5
2D6
 100
AcDbEntity
   8
LEVEL002
 370
25
 100
AcDbLine
   6
CONTINUOUS
  62
1
  10
 110.99999999990
  20
 365.50000000000
  30
0.0
  11
 114.99999999990
  21
 365.50000000000
  31
0.0
   0
LINE
   5
2D7
 100
AcDbEntity
   8
LEVEL002
 370
25
 100
AcDbLine
   6
CONTINUOUS
  62
1
  10
 102.99999999990
  20
 364.50000000000
  30
0.0
  11
 106.99999999990
  21
 364.50000000000
  31
0.0
   0
LINE
   5
2D8
 100
AcDbEntity
   8
LEVEL002
 370
25
 100
AcDbLine
   6
CONTINUOUS
  62
1
  10
 102.99999999990
  20
 363.50000000000
  30
0.0
  11
 106.99999999990
  21
 363.50000000000
  31
0.0
   0
LINE
   5
2D9
 100
AcDbEntity
   8
LEVEL002
 370
25
 100
AcDbLine
   6
CONTINUOUS
  62
1
  10
 110.99999999990
  20
 364.50000000000
  30
0.0
  11
 114.99999999990
  21
 364.50000000000
  31
0.0
   0
LINE
   5
2DA
 100
AcDbEntity
   8
LEVEL002
 370
25
 100
AcDbLine
   6
CONTINUOUS
  62
1
  10
 110.99999999990
  20
 363.50000000000
  30
0.0
  11
 114.99999999990
  21
 363.50000000000
  31
0.0
   0
LINE
   5
2DB
 100
AcDbEntity
   8
LEVEL002
 370
25
 100
AcDbLine
   6
CONTINUOUS
  62
1
  10
 102.99999999990
  20
 368.50000000000
  30
0.0
  11
 106.99999999990
  21
 368.50000000000
  31
0.0
   0
LINE
   5
2DC
 100
AcDbEntity
   8
LEVEL002
 370
25
 100
AcDbLine
   6
CONTINUOUS
  62
1
  10
 102.99999999990
  20
 367.50000000000
  30
0.0
  11
 106.99999999990
  21
 367.50000000000
  31
0.0
   0
LINE
   5
2DD
 100
AcDbEntity
   8
LEVEL002
 370
25
 100
AcDbLine
   6
CONTINUOUS
  62
1
  10
 110.99999999990
  20
 368.50000000000
  30
0.0
  11
 114.99999999990
  21
 368.50000000000
  31
0.0
   0
LINE
   5
2DE
 100
AcDbEntity
   8
LEVEL002
 370
25
 100
AcDbLine
   6
CONTINUOUS
  62
1
  10
 110.99999999990
  20
 367.50000000000
  30
0.0
  11
 114.99999999990
  21
 367.50000000000
  31
0.0
   0
LINE
   5
2DF
 100
AcDbEntity
   8
LEVEL002
 370
25
 100
AcDbLine
   6
CONTINUOUS
  62
1
  10
 102.99999999990
  20
 370.50000000000
  30
0.0
  11
 106.99999999990
  21
 370.50000000000
  31
0.0
   0
LINE
   5
2E0
 100
AcDbEntity
   8
LEVEL002
 370
25
 100
AcDbLine
   6
CONTINUOUS
  62
1
  10
 102.99999999990
  20
 369.50000000000
  30
0.0
  11
 106.99999999990
  21
 369.50000000000
  31
0.0
   0
LINE
   5
2E1
 100
AcDbEntity
   8
LEVEL002
 370
25
 100
AcDbLine
   6
CONTINUOUS
  62
1
  10
 110.99999999990
  20
 370.50000000000
  30
0.0
  11
 114.99999999990
  21
 370.50000000000
  31
0.0
   0
LINE
   5
2E2
 100
AcDbEntity
   8
LEVEL002
 370
25
 100
AcDbLine
   6
CONTINUOUS
  62
1
  10
 110.99999999990
  20
 369.50000000000
  30
0.0
  11
 114.99999999990
  21
 369.50000000000
  31
0.0
   0
LINE
   5
2E3
 100
AcDbEntity
   8
LEVEL002
 370
25
 100
AcDbLine
   6
CONTINUOUS
  62
1
  10
 102.99999999990
  20
 372.50000000000
  30
0.0
  11
 106.99999999990
  21
 372.50000000000
  31
0.0
   0
LINE
   5
2E4
 100
AcDbEntity
   8
LEVEL002
 370
25
 100
AcDbLine
   6
CONTINUOUS
  62
1
  10
 102.99999999990
  20
 371.50000000000
  30
0.0
  11
 106.99999999990
  21
 371.50000000000
  31
0.0
   0
LINE
   5
2E5
 100
AcDbEntity
   8
LEVEL002
 370
25
 100
AcDbLine
   6
CONTINUOUS
  62
1
  10
 110.99999999990
  20
 372.50000000000
  30
0.0
  11
 114.99999999990
  21
 372.50000000000
  31
0.0
   0
LINE
   5
2E6
 100
AcDbEntity
   8
LEVEL002
 370
25
 100
AcDbLine
   6
CONTINUOUS
  62
1
  10
 110.99999999990
  20
 371.50000000000
  30
0.0
  11
 114.99999999990
  21
 371.50000000000
  31
0.0
   0
LINE
   5
2E7
 100
AcDbEntity
   8
LEVEL002
 370
25
 100
AcDbLine
   6
CONTINUOUS
  62
1
  10
 102.99999999990
  20
 374.50000000000
  30
0.0
  11
 106.99999999990
  21
 374.50000000000
  31
0.0
   0
LINE
   5
2E8
 100
AcDbEntity
   8
LEVEL002
 370
25
 100
AcDbLine
   6
CONTINUOUS
  62
1
  10
 102.99999999990
  20
 373.50000000000
  30
0.0
  11
 106.99999999990
  21
 373.50000000000
  31
0.0
   0
LINE
   5
2E9
 100
AcDbEntity
   8
LEVEL002
 370
25
 100
AcDbLine
   6
CONTINUOUS
  62
1
  10
 110.99999999990
  20
 374.50000000000
  30
0.0
  11
 114.99999999990
  21
 374.50000000000
  31
0.0
   0
LINE
   5
2EA
 100
AcDbEntity
   8
LEVEL002
 370
25
 100
AcDbLine
   6
CONTINUOUS
  62
1
  10
 110.99999999990
  20
 373.50000000000
  30
0.0
  11
 114.99999999990
  21
 373.50000000000
  31
0.0
   0
LINE
   5
2EB
 100
AcDbEntity
   8
LEVEL002
 370
25
 100
AcDbLine
   6
CONTINUOUS
  62
1
  10
 102.99999999990
  20
 376.50000000000
  30
0.0
  11
 106.99999999990
  21
 376.50000000000
  31
0.0
   0
LINE
   5
2EC
 100
AcDbEntity
   8
LEVEL002
 370
25
 100
AcDbLine
   6
CONTINUOUS
  62
1
  10
 102.99999999990
  20
 375.50000000000
  30
0.0
  11
 106.99999999990
  21
 375.50000000000
  31
0.0
   0
LINE
   5
2ED
 100
AcDbEntity
   8
LEVEL002
 370
25
 100
AcDbLine
   6
CONTINUOUS
  62
1
  10
 110.99999999990
  20
 376.50000000000
  30
0.0
  11
 114.99999999990
  21
 376.50000000000
  31
0.0
   0
LINE
   5
2EE
 100
AcDbEntity
   8
LEVEL002
 370
25
 100
AcDbLine
   6
CONTINUOUS
  62
1
  10
 110.99999999990
  20
 375.50000000000
  30
0.0
  11
 114.99999999990
  21
 375.50000000000
  31
0.0
   0
LINE
   5
2EF
 100
AcDbEntity
   8
LEVEL002
 370
25
 100
AcDbLine
   6
CONTINUOUS
  62
1
  10
 102.99999999990
  20
 378.50000000000
  30
0.0
  11
 106.99999999990
  21
 378.50000000000
  31
0.0
   0
LINE
   5
2F0
 100
AcDbEntity
   8
LEVEL002
 370
25
 100
AcDbLine
   6
CONTINUOUS
  62
1
  10
 102.99999999990
  20
 377.50000000000
  30
0.0
  11
 106.99999999990
  21
 377.50000000000
  31
0.0
   0
LINE
   5
2F1
 100
AcDbEntity
   8
LEVEL002
 370
25
 100
AcDbLine
   6
CONTINUOUS
  62
1
  10
 110.99999999990
  20
 378.50000000000
  30
0.0
  11
 114.99999999990
  21
 378.50000000000
  31
0.0
   0
LINE
   5
2F2
 100
AcDbEntity
   8
LEVEL002
 370
25
 100
AcDbLine
   6
CONTINUOUS
  62
1
  10
 110.99999999990
  20
 377.50000000000
  30
0.0
  11
 114.99999999990
  21
 377.50000000000
  31
0.0
   0
LINE
   5
2F3
 100
AcDbEntity
   8
LEVEL002
 370
25
 100
AcDbLine
   6
CONTINUOUS
  62
1
  10
 102.99999999990
  20
 380.50000000000
  30
0.0
  11
 106.99999999990
  21
 380.50000000000
  31
0.0
   0
LINE
   5
2F4
 100
AcDbEntity
   8
LEVEL002
 370
25
 100
AcDbLine
   6
CONTINUOUS
  62
1
  10
 102.99999999990
  20
 379.50000000000
  30
0.0
  11
 106.99999999990
  21
 379.50000000000
  31
0.0
   0
LINE
   5
2F5
 100
AcDbEntity
   8
LEVEL002
 370
25
 100
AcDbLine
   6
CONTINUOUS
  62
1
  10
 110.99999999990
  20
 380.50000000000
  30
0.0
  11
 114.99999999990
  21
 380.50000000000
  31
0.0
   0
LINE
   5
2F6
 100
AcDbEntity
   8
LEVEL002
 370
25
 100
AcDbLine
   6
CONTINUOUS
  62
1
  10
 110.99999999990
  20
 379.50000000000
  30
0.0
  11
 114.99999999990
  21
 379.50000000000
  31
0.0
   0
LINE
   5
2F7
 100
AcDbEntity
   8
LEVEL002
 370
25
 100
AcDbLine
   6
CONTINUOUS
  62
1
  10
 102.99999999990
  20
 382.50000000000
  30
0.0
  11
 106.99999999990
  21
 382.50000000000
  31
0.0
   0
LINE
   5
2F8
 100
AcDbEntity
   8
LEVEL002
 370
25
 100
AcDbLine
   6
CONTINUOUS
  62
1
  10
 102.99999999990
  20
 381.50000000000
  30
0.0
  11
 106.99999999990
  21
 381.50000000000
  31
0.0
   0
LINE
   5
2F9
 100
AcDbEntity
   8
LEVEL002
 370
25
 100
AcDbLine
   6
CONTINUOUS
  62
1
  10
 110.99999999990
  20
 382.50000000000
  30
0.0
  11
 114.99999999990
  21
 382.50000000000
  31
0.0
   0
LINE
   5
2FA
 100
AcDbEntity
   8
LEVEL002
 370
25
 100
AcDbLine
   6
CONTINUOUS
  62
1
  10
 110.99999999990
  20
 381.50000000000
  30
0.0
  11
 114.99999999990
  21
 381.50000000000
  31
0.0
   0
LINE
   5
2FB
 100
AcDbEntity
   8
LEVEL002
 370
25
 100
AcDbLine
   6
CONTINUOUS
  62
1
  10
 102.99999999990
  20
 384.50000000000
  30
0.0
  11
 106.99999999990
  21
 384.50000000000
  31
0.0
   0
LINE
   5
2FC
 100
AcDbEntity
   8
LEVEL002
 370
25
 100
AcDbLine
   6
CONTINUOUS
  62
1
  10
 102.99999999990
  20
 383.50000000000
  30
0.0
  11
 106.99999999990
  21
 383.50000000000
  31
0.0
   0
LINE
   5
2FD
 100
AcDbEntity
   8
LEVEL002
 370
25
 100
AcDbLine
   6
CONTINUOUS
  62
1
  10
 110.99999999990
  20
 384.50000000000
  30
0.0
  11
 114.99999999990
  21
 384.50000000000
  31
0.0
   0
LINE
   5
2FE
 100
AcDbEntity
   8
LEVEL002
 370
25
 100
AcDbLine
   6
CONTINUOUS
  62
1
  10
 110.99999999990
  20
 383.50000000000
  30
0.0
  11
 114.99999999990
  21
 383.50000000000
  31
0.0
   0
LINE
   5
2FF
 100
AcDbEntity
   8
LEVEL002
 370
25
 100
AcDbLine
   6
CONTINUOUS
  62
1
  10
 102.99999999990
  20
 386.50000000000
  30
0.0
  11
 106.99999999990
  21
 386.50000000000
  31
0.0
   0
LINE
   5
300
 100
AcDbEntity
   8
LEVEL002
 370
25
 100
AcDbLine
   6
CONTINUOUS
  62
1
  10
 102.99999999990
  20
 385.50000000000
  30
0.0
  11
 106.99999999990
  21
 385.50000000000
  31
0.0
   0
LINE
   5
301
 100
AcDbEntity
   8
LEVEL002
 370
25
 100
AcDbLine
   6
CONTINUOUS
  62
1
  10
 110.99999999990
  20
 386.50000000000
  30
0.0
  11
 114.99999999990
  21
 386.50000000000
  31
0.0
   0
LINE
   5
302
 100
AcDbEntity
   8
LEVEL002
 370
25
 100
AcDbLine
   6
CONTINUOUS
  62
1
  10
 110.99999999990
  20
 385.50000000000
  30
0.0
  11
 114.99999999990
  21
 385.50000000000
  31
0.0
   0
LINE
   5
303
 100
AcDbEntity
   8
LEVEL002
 370
25
 100
AcDbLine
   6
CONTINUOUS
  62
1
  10
 102.99999999990
  20
 388.50000000000
  30
0.0
  11
 106.99999999990
  21
 388.50000000000
  31
0.0
   0
LINE
   5
304
 100
AcDbEntity
   8
LEVEL002
 370
25
 100
AcDbLine
   6
CONTINUOUS
  62
1
  10
 102.99999999990
  20
 387.50000000000
  30
0.0
  11
 106.99999999990
  21
 387.50000000000
  31
0.0
   0
LINE
   5
305
 100
AcDbEntity
   8
LEVEL002
 370
25
 100
AcDbLine
   6
CONTINUOUS
  62
1
  10
 110.99999999990
  20
 388.50000000000
  30
0.0
  11
 114.99999999990
  21
 388.50000000000
  31
0.0
   0
LINE
   5
306
 100
AcDbEntity
   8
LEVEL002
 370
25
 100
AcDbLine
   6
CONTINUOUS
  62
1
  10
 110.99999999990
  20
 387.50000000000
  30
0.0
  11
 114.99999999990
  21
 387.50000000000
  31
0.0
   0
LINE
   5
307
 100
AcDbEntity
   8
LEVEL002
 370
25
 100
AcDbLine
   6
CONTINUOUS
  62
1
  10
 102.99999999990
  20
 390.50000000000
  30
0.0
  11
 106.99999999990
  21
 390.50000000000
  31
0.0
   0
LINE
   5
308
 100
AcDbEntity
   8
LEVEL002
 370
25
 100
AcDbLine
   6
CONTINUOUS
  62
1
  10
 102.99999999990
  20
 389.50000000000
  30
0.0
  11
 106.99999999990
  21
 389.50000000000
  31
0.0
   0
LINE
   5
309
 100
AcDbEntity
   8
LEVEL002
 370
25
 100
AcDbLine
   6
CONTINUOUS
  62
1
  10
 110.99999999990
  20
 390.50000000000
  30
0.0
  11
 114.99999999990
  21
 390.50000000000
  31
0.0
   0
LINE
   5
30A
 100
AcDbEntity
   8
LEVEL002
 370
25
 100
AcDbLine
   6
CONTINUOUS
  62
1
  10
 110.99999999990
  20
 389.50000000000
  30
0.0
  11
 114.99999999990
  21
 389.50000000000
  31
0.0
   0
LINE
   5
30B
 100
AcDbEntity
   8
LEVEL002
 370
25
 100
AcDbLine
   6
CONTINUOUS
  62
1
  10
 102.99999999990
  20
 392.50000000000
  30
0.0
  11
 106.99999999990
  21
 392.50000000000
  31
0.0
   0
LINE
   5
30C
 100
AcDbEntity
   8
LEVEL002
 370
25
 100
AcDbLine
   6
CONTINUOUS
  62
1
  10
 102.99999999990
  20
 391.50000000000
  30
0.0
  11
 106.99999999990
  21
 391.50000000000
  31
0.0
   0
LINE
   5
30D
 100
AcDbEntity
   8
LEVEL002
 370
25
 100
AcDbLine
   6
CONTINUOUS
  62
1
  10
 110.99999999990
  20
 392.50000000000
  30
0.0
  11
 114.99999999990
  21
 392.50000000000
  31
0.0
   0
LINE
   5
30E
 100
AcDbEntity
   8
LEVEL002
 370
25
 100
AcDbLine
   6
CONTINUOUS
  62
1
  10
 110.99999999990
  20
 391.50000000000
  30
0.0
  11
 114.99999999990
  21
 391.50000000000
  31
0.0
   0
LINE
   5
30F
 100
AcDbEntity
   8
LEVEL002
 370
25
 100
AcDbLine
   6
CONTINUOUS
  62
1
  10
 102.99999999990
  20
 394.50000000000
  30
0.0
  11
 106.99999999990
  21
 394.50000000000
  31
0.0
   0
LINE
   5
310
 100
AcDbEntity
   8
LEVEL002
 370
25
 100
AcDbLine
   6
CONTINUOUS
  62
1
  10
 102.99999999990
  20
 393.50000000000
  30
0.0
  11
 106.99999999990
  21
 393.50000000000
  31
0.0
   0
LINE
   5
311
 100
AcDbEntity
   8
LEVEL002
 370
25
 100
AcDbLine
   6
CONTINUOUS
  62
1
  10
 110.99999999990
  20
 394.50000000000
  30
0.0
  11
 114.99999999990
  21
 394.50000000000
  31
0.0
   0
LINE
   5
312
 100
AcDbEntity
   8
LEVEL002
 370
25
 100
AcDbLine
   6
CONTINUOUS
  62
1
  10
 110.99999999990
  20
 393.50000000000
  30
0.0
  11
 114.99999999990
  21
 393.50000000000
  31
0.0
   0
LINE
   5
313
 100
AcDbEntity
   8
LEVEL002
 370
25
 100
AcDbLine
   6
CONTINUOUS
  62
1
  10
 102.99999999990
  20
 396.50000000000
  30
0.0
  11
 106.99999999990
  21
 396.50000000000
  31
0.0
   0
LINE
   5
314
 100
AcDbEntity
   8
LEVEL002
 370
25
 100
AcDbLine
   6
CONTINUOUS
  62
1
  10
 102.99999999990
  20
 395.50000000000
  30
0.0
  11
 106.99999999990
  21
 395.50000000000
  31
0.0
   0
LINE
   5
315
 100
AcDbEntity
   8
LEVEL002
 370
25
 100
AcDbLine
   6
CONTINUOUS
  62
1
  10
 110.99999999990
  20
 396.50000000000
  30
0.0
  11
 114.99999999990
  21
 396.50000000000
  31
0.0
   0
LINE
   5
316
 100
AcDbEntity
   8
LEVEL002
 370
25
 100
AcDbLine
   6
CONTINUOUS
  62
1
  10
 110.99999999990
  20
 395.50000000000
  30
0.0
  11
 114.99999999990
  21
 395.50000000000
  31
0.0
   0
LINE
   5
317
 100
AcDbEntity
   8
LEVEL002
 370
25
 100
AcDbLine
   6
CONTINUOUS
  62
1
  10
 102.99999999990
  20
 398.50000000000
  30
0.0
  11
 106.99999999990
  21
 398.50000000000
  31
0.0
   0
LINE
   5
318
 100
AcDbEntity
   8
LEVEL002
 370
25
 100
AcDbLine
   6
CONTINUOUS
  62
1
  10
 102.99999999990
  20
 397.50000000000
  30
0.0
  11
 106.99999999990
  21
 397.50000000000
  31
0.0
   0
LINE
   5
319
 100
AcDbEntity
   8
LEVEL002
 370
25
 100
AcDbLine
   6
CONTINUOUS
  62
1
  10
 110.99999999990
  20
 398.50000000000
  30
0.0
  11
 114.99999999990
  21
 398.50000000000
  31
0.0
   0
LINE
   5
31A
 100
AcDbEntity
   8
LEVEL002
 370
25
 100
AcDbLine
   6
CONTINUOUS
  62
1
  10
 110.99999999990
  20
 397.50000000000
  30
0.0
  11
 114.99999999990
  21
 397.50000000000
  31
0.0
   0
LINE
   5
31B
 100
AcDbEntity
   8
LEVEL002
 370
25
 100
AcDbLine
   6
CONTINUOUS
  62
1
  10
 102.99999999990
  20
 400.50000000000
  30
0.0
  11
 106.99999999990
  21
 400.50000000000
  31
0.0
   0
LINE
   5
31C
 100
AcDbEntity
   8
LEVEL002
 370
25
 100
AcDbLine
   6
CONTINUOUS
  62
1
  10
 102.99999999990
  20
 399.50000000000
  30
0.0
  11
 106.99999999990
  21
 399.50000000000
  31
0.0
   0
LINE
   5
31D
 100
AcDbEntity
   8
LEVEL002
 370
25
 100
AcDbLine
   6
CONTINUOUS
  62
1
  10
 110.99999999990
  20
 400.50000000000
  30
0.0
  11
 114.99999999990
  21
 400.50000000000
  31
0.0
   0
LINE
   5
31E
 100
AcDbEntity
   8
LEVEL002
 370
25
 100
AcDbLine
   6
CONTINUOUS
  62
1
  10
 110.99999999990
  20
 399.50000000000
  30
0.0
  11
 114.99999999990
  21
 399.50000000000
  31
0.0
   0
LINE
   5
31F
 100
AcDbEntity
   8
LEVEL002
 370
25
 100
AcDbLine
   6
CONTINUOUS
  62
1
  10
 102.99999999990
  20
 402.50000000000
  30
0.0
  11
 106.99999999990
  21
 402.50000000000
  31
0.0
   0
LINE
   5
320
 100
AcDbEntity
   8
LEVEL002
 370
25
 100
AcDbLine
   6
CONTINUOUS
  62
1
  10
 102.99999999990
  20
 401.50000000000
  30
0.0
  11
 106.99999999990
  21
 401.50000000000
  31
0.0
   0
LINE
   5
321
 100
AcDbEntity
   8
LEVEL002
 370
25
 100
AcDbLine
   6
CONTINUOUS
  62
1
  10
 110.99999999990
  20
 402.50000000000
  30
0.0
  11
 114.99999999990
  21
 402.50000000000
  31
0.0
   0
LINE
   5
322
 100
AcDbEntity
   8
LEVEL002
 370
25
 100
AcDbLine
   6
CONTINUOUS
  62
1
  10
 110.99999999990
  20
 401.50000000000
  30
0.0
  11
 114.99999999990
  21
 401.50000000000
  31
0.0
   0
LINE
   5
323
 100
AcDbEntity
   8
LEVEL002
 370
25
 100
AcDbLine
   6
CONTINUOUS
  62
1
  10
 102.99999999990
  20
 404.50000000000
  30
0.0
  11
 106.99999999990
  21
 404.50000000000
  31
0.0
   0
LINE
   5
324
 100
AcDbEntity
   8
LEVEL002
 370
25
 100
AcDbLine
   6
CONTINUOUS
  62
1
  10
 102.99999999990
  20
 403.50000000000
  30
0.0
  11
 106.99999999990
  21
 403.50000000000
  31
0.0
   0
LINE
   5
325
 100
AcDbEntity
   8
LEVEL002
 370
25
 100
AcDbLine
   6
CONTINUOUS
  62
1
  10
 110.99999999990
  20
 404.50000000000
  30
0.0
  11
 114.99999999990
  21
 404.50000000000
  31
0.0
   0
LINE
   5
326
 100
AcDbEntity
   8
LEVEL002
 370
25
 100
AcDbLine
   6
CONTINUOUS
  62
1
  10
 110.99999999990
  20
 403.50000000000
  30
0.0
  11
 114.99999999990
  21
 403.50000000000
  31
0.0
   0
LINE
   5
327
 100
AcDbEntity
   8
LEVEL002
 370
25
 100
AcDbLine
   6
CONTINUOUS
  62
1
  10
 102.99999999990
  20
 405.50000000000
  30
0.0
  11
 106.99999999990
  21
 405.50000000000
  31
0.0
   0
LINE
   5
328
 100
AcDbEntity
   8
LEVEL002
 370
25
 100
AcDbLine
   6
CONTINUOUS
  62
1
  10
 110.99999999990
  20
 405.50000000000
  30
0.0
  11
 114.99999999990
  21
 405.50000000000
  31
0.0
   0
LINE
   5
329
 100
AcDbEntity
   8
LEVEL002
 370
25
 100
AcDbLine
   6
CONTINUOUS
  62
1
  10
 102.99999999990
  20
 406.50000000000
  30
0.0
  11
 106.99999999990
  21
 406.50000000000
  31
0.0
   0
LINE
   5
32A
 100
AcDbEntity
   8
LEVEL002
 370
25
 100
AcDbLine
   6
CONTINUOUS
  62
1
  10
 110.99999999990
  20
 406.50000000000
  30
0.0
  11
 114.99999999990
  21
 406.50000000000
  31
0.0
   0
LINE
   5
32B
 100
AcDbEntity
   8
LEVEL002
 370
25
 100
AcDbLine
   6
CONTINUOUS
  62
1
  10
 249.04999999990
  20
 365.50000000000
  30
0.0
  11
 253.84999999990
  21
 365.50000000000
  31
0.0
   0
LINE
   5
32C
 100
AcDbEntity
   8
LEVEL002
 370
25
 100
AcDbLine
   6
CONTINUOUS
  62
1
  10
 249.04999999990
  20
 366.50000000000
  30
0.0
  11
 253.84999999990
  21
 366.50000000000
  31
0.0
   0
LINE
   5
32D
 100
AcDbEntity
   8
LEVEL002
 370
25
 100
AcDbLine
   6
CONTINUOUS
  62
1
  10
 257.84999999990
  20
 365.50000000000
  30
0.0
  11
 262.64999999990
  21
 365.50000000000
  31
0.0
   0
LINE
   5
32E
 100
AcDbEntity
   8
LEVEL002
 370
25
 100
AcDbLine
   6
CONTINUOUS
  62
1
  10
 257.84999999990
  20
 366.50000000000
  30
0.0
  11
 262.64999999990
  21
 366.50000000000
  31
0.0
   0
LINE
   5
32F
 100
AcDbEntity
   8
LEVEL002
 370
25
 100
AcDbLine
   6
CONTINUOUS
  62
1
  10
 249.04999999990
  20
 363.50000000000
  30
0.0
  11
 253.84999999990
  21
 363.50000000000
  31
0.0
   0
LINE
   5
330
 100
AcDbEntity
   8
LEVEL002
 370
25
 100
AcDbLine
   6
CONTINUOUS
  62
1
  10
 249.04999999990
  20
 364.50000000000
  30
0.0
  11
 253.84999999990
  21
 364.50000000000
  31
0.0
   0
LINE
   5
331
 100
AcDbEntity
   8
LEVEL002
 370
25
 100
AcDbLine
   6
CONTINUOUS
  62
1
  10
 257.84999999990
  20
 363.50000000000
  30
0.0
  11
 262.64999999990
  21
 363.50000000000
  31
0.0
   0
LINE
   5
332
 100
AcDbEntity
   8
LEVEL002
 370
25
 100
AcDbLine
   6
CONTINUOUS
  62
1
  10
 257.84999999990
  20
 364.50000000000
  30
0.0
  11
 262.64999999990
  21
 364.50000000000
  31
0.0
   0
LINE
   5
333
 100
AcDbEntity
   8
LEVEL002
 370
25
 100
AcDbLine
   6
CONTINUOUS
  62
1
  10
 249.04999999990
  20
 367.50000000000
  30
0.0
  11
 253.84999999990
  21
 367.50000000000
  31
0.0
   0
LINE
   5
334
 100
AcDbEntity
   8
LEVEL002
 370
25
 100
AcDbLine
   6
CONTINUOUS
  62
1
  10
 249.04999999990
  20
 368.50000000000
  30
0.0
  11
 253.84999999990
  21
 368.50000000000
  31
0.0
   0
LINE
   5
335
 100
AcDbEntity
   8
LEVEL002
 370
25
 100
AcDbLine
   6
CONTINUOUS
  62
1
  10
 257.84999999990
  20
 367.50000000000
  30
0.0
  11
 262.64999999990
  21
 367.50000000000
  31
0.0
   0
LINE
   5
336
 100
AcDbEntity
   8
LEVEL002
 370
25
 100
AcDbLine
   6
CONTINUOUS
  62
1
  10
 257.84999999990
  20
 368.50000000000
  30
0.0
  11
 262.64999999990
  21
 368.50000000000
  31
0.0
   0
LINE
   5
337
 100
AcDbEntity
   8
LEVEL002
 370
25
 100
AcDbLine
   6
CONTINUOUS
  62
1
  10
 249.04999999990
  20
 369.50000000000
  30
0.0
  11
 253.84999999990
  21
 369.50000000000
  31
0.0
   0
LINE
   5
338
 100
AcDbEntity
   8
LEVEL002
 370
25
 100
AcDbLine
   6
CONTINUOUS
  62
1
  10
 249.04999999990
  20
 370.50000000000
  30
0.0
  11
 253.84999999990
  21
 370.50000000000
  31
0.0
   0
LINE
   5
339
 100
AcDbEntity
   8
LEVEL002
 370
25
 100
AcDbLine
   6
CONTINUOUS
  62
1
  10
 257.84999999990
  20
 369.50000000000
  30
0.0
  11
 262.64999999990
  21
 369.50000000000
  31
0.0
   0
LINE
   5
33A
 100
AcDbEntity
   8
LEVEL002
 370
25
 100
AcDbLine
   6
CONTINUOUS
  62
1
  10
 257.84999999990
  20
 370.50000000000
  30
0.0
  11
 262.64999999990
  21
 370.50000000000
  31
0.0
   0
LINE
   5
33B
 100
AcDbEntity
   8
LEVEL002
 370
25
 100
AcDbLine
   6
CONTINUOUS
  62
1
  10
 249.04999999990
  20
 371.50000000000
  30
0.0
  11
 253.84999999990
  21
 371.50000000000
  31
0.0
   0
LINE
   5
33C
 100
AcDbEntity
   8
LEVEL002
 370
25
 100
AcDbLine
   6
CONTINUOUS
  62
1
  10
 249.04999999990
  20
 372.50000000000
  30
0.0
  11
 253.84999999990
  21
 372.50000000000
  31
0.0
   0
LINE
   5
33D
 100
AcDbEntity
   8
LEVEL002
 370
25
 100
AcDbLine
   6
CONTINUOUS
  62
1
  10
 257.84999999990
  20
 371.50000000000
  30
0.0
  11
 262.64999999990
  21
 371.50000000000
  31
0.0
   0
LINE
   5
33E
 100
AcDbEntity
   8
LEVEL002
 370
25
 100
AcDbLine
   6
CONTINUOUS
  62
1
  10
 257.84999999990
  20
 372.50000000000
  30
0.0
  11
 262.64999999990
  21
 372.50000000000
  31
0.0
   0
LINE
   5
33F
 100
AcDbEntity
   8
LEVEL002
 370
25
 100
AcDbLine
   6
CONTINUOUS
  62
1
  10
 249.04999999990
  20
 373.50000000000
  30
0.0
  11
 253.84999999990
  21
 373.50000000000
  31
0.0
   0
LINE
   5
340
 100
AcDbEntity
   8
LEVEL002
 370
25
 100
AcDbLine
   6
CONTINUOUS
  62
1
  10
 249.04999999990
  20
 374.50000000000
  30
0.0
  11
 253.84999999990
  21
 374.50000000000
  31
0.0
   0
LINE
   5
341
 100
AcDbEntity
   8
LEVEL002
 370
25
 100
AcDbLine
   6
CONTINUOUS
  62
1
  10
 257.84999999990
  20
 373.50000000000
  30
0.0
  11
 262.64999999990
  21
 373.50000000000
  31
0.0
   0
LINE
   5
342
 100
AcDbEntity
   8
LEVEL002
 370
25
 100
AcDbLine
   6
CONTINUOUS
  62
1
  10
 257.84999999990
  20
 374.50000000000
  30
0.0
  11
 262.64999999990
  21
 374.50000000000
  31
0.0
   0
LINE
   5
343
 100
AcDbEntity
   8
LEVEL002
 370
25
 100
AcDbLine
   6
CONTINUOUS
  62
1
  10
 249.04999999990
  20
 375.50000000000
  30
0.0
  11
 253.84999999990
  21
 375.50000000000
  31
0.0
   0
LINE
   5
344
 100
AcDbEntity
   8
LEVEL002
 370
25
 100
AcDbLine
   6
CONTINUOUS
  62
1
  10
 249.04999999990
  20
 376.50000000000
  30
0.0
  11
 253.84999999990
  21
 376.50000000000
  31
0.0
   0
LINE
   5
345
 100
AcDbEntity
   8
LEVEL002
 370
25
 100
AcDbLine
   6
CONTINUOUS
  62
1
  10
 257.84999999990
  20
 375.50000000000
  30
0.0
  11
 262.64999999990
  21
 375.50000000000
  31
0.0
   0
LINE
   5
346
 100
AcDbEntity
   8
LEVEL002
 370
25
 100
AcDbLine
   6
CONTINUOUS
  62
1
  10
 257.84999999990
  20
 376.50000000000
  30
0.0
  11
 262.64999999990
  21
 376.50000000000
  31
0.0
   0
LINE
   5
347
 100
AcDbEntity
   8
LEVEL002
 370
25
 100
AcDbLine
   6
CONTINUOUS
  62
1
  10
 249.04999999990
  20
 377.50000000000
  30
0.0
  11
 253.84999999990
  21
 377.50000000000
  31
0.0
   0
LINE
   5
348
 100
AcDbEntity
   8
LEVEL002
 370
25
 100
AcDbLine
   6
CONTINUOUS
  62
1
  10
 249.04999999990
  20
 378.50000000000
  30
0.0
  11
 253.84999999990
  21
 378.50000000000
  31
0.0
   0
LINE
   5
349
 100
AcDbEntity
   8
LEVEL002
 370
25
 100
AcDbLine
   6
CONTINUOUS
  62
1
  10
 257.84999999990
  20
 377.50000000000
  30
0.0
  11
 262.64999999990
  21
 377.50000000000
  31
0.0
   0
LINE
   5
34A
 100
AcDbEntity
   8
LEVEL002
 370
25
 100
AcDbLine
   6
CONTINUOUS
  62
1
  10
 257.84999999990
  20
 378.50000000000
  30
0.0
  11
 262.64999999990
  21
 378.50000000000
  31
0.0
   0
LINE
   5
34B
 100
AcDbEntity
   8
LEVEL002
 370
25
 100
AcDbLine
   6
CONTINUOUS
  62
1
  10
 249.04999999990
  20
 379.50000000000
  30
0.0
  11
 253.84999999990
  21
 379.50000000000
  31
0.0
   0
LINE
   5
34C
 100
AcDbEntity
   8
LEVEL002
 370
25
 100
AcDbLine
   6
CONTINUOUS
  62
1
  10
 249.04999999990
  20
 380.50000000000
  30
0.0
  11
 253.84999999990
  21
 380.50000000000
  31
0.0
   0
LINE
   5
34D
 100
AcDbEntity
   8
LEVEL002
 370
25
 100
AcDbLine
   6
CONTINUOUS
  62
1
  10
 257.84999999990
  20
 379.50000000000
  30
0.0
  11
 262.64999999990
  21
 379.50000000000
  31
0.0
   0
LINE
   5
34E
 100
AcDbEntity
   8
LEVEL002
 370
25
 100
AcDbLine
   6
CONTINUOUS
  62
1
  10
 257.84999999990
  20
 380.50000000000
  30
0.0
  11
 262.64999999990
  21
 380.50000000000
  31
0.0
   0
LINE
   5
34F
 100
AcDbEntity
   8
LEVEL002
 370
25
 100
AcDbLine
   6
CONTINUOUS
  62
1
  10
 249.04999999990
  20
 381.50000000000
  30
0.0
  11
 253.84999999990
  21
 381.50000000000
  31
0.0
   0
LINE
   5
350
 100
AcDbEntity
   8
LEVEL002
 370
25
 100
AcDbLine
   6
CONTINUOUS
  62
1
  10
 249.04999999990
  20
 382.50000000000
  30
0.0
  11
 253.84999999990
  21
 382.50000000000
  31
0.0
   0
LINE
   5
351
 100
AcDbEntity
   8
LEVEL002
 370
25
 100
AcDbLine
   6
CONTINUOUS
  62
1
  10
 257.84999999990
  20
 381.50000000000
  30
0.0
  11
 262.64999999990
  21
 381.50000000000
  31
0.0
   0
LINE
   5
352
 100
AcDbEntity
   8
LEVEL002
 370
25
 100
AcDbLine
   6
CONTINUOUS
  62
1
  10
 257.84999999990
  20
 382.50000000000
  30
0.0
  11
 262.64999999990
  21
 382.50000000000
  31
0.0
   0
LINE
   5
353
 100
AcDbEntity
   8
LEVEL002
 370
25
 100
AcDbLine
   6
CONTINUOUS
  62
1
  10
 249.04999999990
  20
 383.50000000000
  30
0.0
  11
 253.84999999990
  21
 383.50000000000
  31
0.0
   0
LINE
   5
354
 100
AcDbEntity
   8
LEVEL002
 370
25
 100
AcDbLine
   6
CONTINUOUS
  62
1
  10
 249.04999999990
  20
 384.50000000000
  30
0.0
  11
 253.84999999990
  21
 384.50000000000
  31
0.0
   0
LINE
   5
355
 100
AcDbEntity
   8
LEVEL002
 370
25
 100
AcDbLine
   6
CONTINUOUS
  62
1
  10
 257.84999999990
  20
 383.50000000000
  30
0.0
  11
 262.64999999990
  21
 383.50000000000
  31
0.0
   0
LINE
   5
356
 100
AcDbEntity
   8
LEVEL002
 370
25
 100
AcDbLine
   6
CONTINUOUS
  62
1
  10
 257.84999999990
  20
 384.50000000000
  30
0.0
  11
 262.64999999990
  21
 384.50000000000
  31
0.0
   0
LINE
   5
357
 100
AcDbEntity
   8
LEVEL002
 370
25
 100
AcDbLine
   6
CONTINUOUS
  62
1
  10
 249.04999999990
  20
 385.50000000000
  30
0.0
  11
 253.84999999990
  21
 385.50000000000
  31
0.0
   0
LINE
   5
358
 100
AcDbEntity
   8
LEVEL002
 370
25
 100
AcDbLine
   6
CONTINUOUS
  62
1
  10
 249.04999999990
  20
 386.50000000000
  30
0.0
  11
 253.84999999990
  21
 386.50000000000
  31
0.0
   0
LINE
   5
359
 100
AcDbEntity
   8
LEVEL002
 370
25
 100
AcDbLine
   6
CONTINUOUS
  62
1
  10
 257.84999999990
  20
 385.50000000000
  30
0.0
  11
 262.64999999990
  21
 385.50000000000
  31
0.0
   0
LINE
   5
35A
 100
AcDbEntity
   8
LEVEL002
 370
25
 100
AcDbLine
   6
CONTINUOUS
  62
1
  10
 257.84999999990
  20
 386.50000000000
  30
0.0
  11
 262.64999999990
  21
 386.50000000000
  31
0.0
   0
LINE
   5
35B
 100
AcDbEntity
   8
LEVEL002
 370
25
 100
AcDbLine
   6
CONTINUOUS
  62
1
  10
 249.04999999990
  20
 387.50000000000
  30
0.0
  11
 253.84999999990
  21
 387.50000000000
  31
0.0
   0
LINE
   5
35C
 100
AcDbEntity
   8
LEVEL002
 370
25
 100
AcDbLine
   6
CONTINUOUS
  62
1
  10
 249.04999999990
  20
 388.50000000000
  30
0.0
  11
 253.84999999990
  21
 388.50000000000
  31
0.0
   0
LINE
   5
35D
 100
AcDbEntity
   8
LEVEL002
 370
25
 100
AcDbLine
   6
CONTINUOUS
  62
1
  10
 257.84999999990
  20
 387.50000000000
  30
0.0
  11
 262.64999999990
  21
 387.50000000000
  31
0.0
   0
LINE
   5
35E
 100
AcDbEntity
   8
LEVEL002
 370
25
 100
AcDbLine
   6
CONTINUOUS
  62
1
  10
 257.84999999990
  20
 388.50000000000
  30
0.0
  11
 262.64999999990
  21
 388.50000000000
  31
0.0
   0
LINE
   5
35F
 100
AcDbEntity
   8
LEVEL002
 370
25
 100
AcDbLine
   6
CONTINUOUS
  62
1
  10
 249.04999999990
  20
 389.50000000000
  30
0.0
  11
 253.84999999990
  21
 389.50000000000
  31
0.0
   0
LINE
   5
360
 100
AcDbEntity
   8
LEVEL002
 370
25
 100
AcDbLine
   6
CONTINUOUS
  62
1
  10
 249.04999999990
  20
 390.50000000000
  30
0.0
  11
 253.84999999990
  21
 390.50000000000
  31
0.0
   0
LINE
   5
361
 100
AcDbEntity
   8
LEVEL002
 370
25
 100
AcDbLine
   6
CONTINUOUS
  62
1
  10
 257.84999999990
  20
 389.50000000000
  30
0.0
  11
 262.64999999990
  21
 389.50000000000
  31
0.0
   0
LINE
   5
362
 100
AcDbEntity
   8
LEVEL002
 370
25
 100
AcDbLine
   6
CONTINUOUS
  62
1
  10
 257.84999999990
  20
 390.50000000000
  30
0.0
  11
 262.64999999990
  21
 390.50000000000
  31
0.0
   0
LINE
   5
363
 100
AcDbEntity
   8
LEVEL002
 370
25
 100
AcDbLine
   6
CONTINUOUS
  62
1
  10
 249.04999999990
  20
 391.50000000000
  30
0.0
  11
 253.84999999990
  21
 391.50000000000
  31
0.0
   0
LINE
   5
364
 100
AcDbEntity
   8
LEVEL002
 370
25
 100
AcDbLine
   6
CONTINUOUS
  62
1
  10
 249.04999999990
  20
 392.50000000000
  30
0.0
  11
 253.84999999990
  21
 392.50000000000
  31
0.0
   0
LINE
   5
365
 100
AcDbEntity
   8
LEVEL002
 370
25
 100
AcDbLine
   6
CONTINUOUS
  62
1
  10
 257.84999999990
  20
 391.50000000000
  30
0.0
  11
 262.64999999990
  21
 391.50000000000
  31
0.0
   0
LINE
   5
366
 100
AcDbEntity
   8
LEVEL002
 370
25
 100
AcDbLine
   6
CONTINUOUS
  62
1
  10
 257.84999999990
  20
 392.50000000000
  30
0.0
  11
 262.64999999990
  21
 392.50000000000
  31
0.0
   0
LINE
   5
367
 100
AcDbEntity
   8
LEVEL002
 370
25
 100
AcDbLine
   6
CONTINUOUS
  62
1
  10
 249.04999999990
  20
 393.50000000000
  30
0.0
  11
 253.84999999990
  21
 393.50000000000
  31
0.0
   0
LINE
   5
368
 100
AcDbEntity
   8
LEVEL002
 370
25
 100
AcDbLine
   6
CONTINUOUS
  62
1
  10
 249.04999999990
  20
 394.50000000000
  30
0.0
  11
 253.84999999990
  21
 394.50000000000
  31
0.0
   0
LINE
   5
369
 100
AcDbEntity
   8
LEVEL002
 370
25
 100
AcDbLine
   6
CONTINUOUS
  62
1
  10
 257.84999999990
  20
 393.50000000000
  30
0.0
  11
 262.64999999990
  21
 393.50000000000
  31
0.0
   0
LINE
   5
36A
 100
AcDbEntity
   8
LEVEL002
 370
25
 100
AcDbLine
   6
CONTINUOUS
  62
1
  10
 257.84999999990
  20
 394.50000000000
  30
0.0
  11
 262.64999999990
  21
 394.50000000000
  31
0.0
   0
LINE
   5
36B
 100
AcDbEntity
   8
LEVEL002
 370
25
 100
AcDbLine
   6
CONTINUOUS
  62
1
  10
 249.04999999990
  20
 395.50000000000
  30
0.0
  11
 253.84999999990
  21
 395.50000000000
  31
0.0
   0
LINE
   5
36C
 100
AcDbEntity
   8
LEVEL002
 370
25
 100
AcDbLine
   6
CONTINUOUS
  62
1
  10
 249.04999999990
  20
 396.50000000000
  30
0.0
  11
 253.84999999990
  21
 396.50000000000
  31
0.0
   0
LINE
   5
36D
 100
AcDbEntity
   8
LEVEL002
 370
25
 100
AcDbLine
   6
CONTINUOUS
  62
1
  10
 257.84999999990
  20
 395.50000000000
  30
0.0
  11
 262.64999999990
  21
 395.50000000000
  31
0.0
   0
LINE
   5
36E
 100
AcDbEntity
   8
LEVEL002
 370
25
 100
AcDbLine
   6
CONTINUOUS
  62
1
  10
 257.84999999990
  20
 396.50000000000
  30
0.0
  11
 262.64999999990
  21
 396.50000000000
  31
0.0
   0
LINE
   5
36F
 100
AcDbEntity
   8
LEVEL002
 370
25
 100
AcDbLine
   6
CONTINUOUS
  62
1
  10
 249.04999999990
  20
 397.50000000000
  30
0.0
  11
 253.84999999990
  21
 397.50000000000
  31
0.0
   0
LINE
   5
370
 100
AcDbEntity
   8
LEVEL002
 370
25
 100
AcDbLine
   6
CONTINUOUS
  62
1
  10
 249.04999999990
  20
 398.50000000000
  30
0.0
  11
 253.84999999990
  21
 398.50000000000
  31
0.0
   0
LINE
   5
371
 100
AcDbEntity
   8
LEVEL002
 370
25
 100
AcDbLine
   6
CONTINUOUS
  62
1
  10
 257.84999999990
  20
 397.50000000000
  30
0.0
  11
 262.64999999990
  21
 397.50000000000
  31
0.0
   0
LINE
   5
372
 100
AcDbEntity
   8
LEVEL002
 370
25
 100
AcDbLine
   6
CONTINUOUS
  62
1
  10
 257.84999999990
  20
 398.50000000000
  30
0.0
  11
 262.64999999990
  21
 398.50000000000
  31
0.0
   0
LINE
   5
373
 100
AcDbEntity
   8
LEVEL002
 370
25
 100
AcDbLine
   6
CONTINUOUS
  62
1
  10
 249.04999999990
  20
 399.50000000000
  30
0.0
  11
 253.84999999990
  21
 399.50000000000
  31
0.0
   0
LINE
   5
374
 100
AcDbEntity
   8
LEVEL002
 370
25
 100
AcDbLine
   6
CONTINUOUS
  62
1
  10
 249.04999999990
  20
 400.50000000000
  30
0.0
  11
 253.84999999990
  21
 400.50000000000
  31
0.0
   0
LINE
   5
375
 100
AcDbEntity
   8
LEVEL002
 370
25
 100
AcDbLine
   6
CONTINUOUS
  62
1
  10
 257.84999999990
  20
 399.50000000000
  30
0.0
  11
 262.64999999990
  21
 399.50000000000
  31
0.0
   0
LINE
   5
376
 100
AcDbEntity
   8
LEVEL002
 370
25
 100
AcDbLine
   6
CONTINUOUS
  62
1
  10
 257.84999999990
  20
 400.50000000000
  30
0.0
  11
 262.64999999990
  21
 400.50000000000
  31
0.0
   0
LINE
   5
377
 100
AcDbEntity
   8
LEVEL002
 370
25
 100
AcDbLine
   6
CONTINUOUS
  62
1
  10
 249.04999999990
  20
 401.50000000000
  30
0.0
  11
 253.84999999990
  21
 401.50000000000
  31
0.0
   0
LINE
   5
378
 100
AcDbEntity
   8
LEVEL002
 370
25
 100
AcDbLine
   6
CONTINUOUS
  62
1
  10
 249.04999999990
  20
 402.50000000000
  30
0.0
  11
 253.84999999990
  21
 402.50000000000
  31
0.0
   0
LINE
   5
379
 100
AcDbEntity
   8
LEVEL002
 370
25
 100
AcDbLine
   6
CONTINUOUS
  62
1
  10
 257.84999999990
  20
 401.50000000000
  30
0.0
  11
 262.64999999990
  21
 401.50000000000
  31
0.0
   0
LINE
   5
37A
 100
AcDbEntity
   8
LEVEL002
 370
25
 100
AcDbLine
   6
CONTINUOUS
  62
1
  10
 257.84999999990
  20
 402.50000000000
  30
0.0
  11
 262.64999999990
  21
 402.50000000000
  31
0.0
   0
LINE
   5
37B
 100
AcDbEntity
   8
LEVEL002
 370
25
 100
AcDbLine
   6
CONTINUOUS
  62
1
  10
 249.04999999990
  20
 403.50000000000
  30
0.0
  11
 253.84999999990
  21
 403.50000000000
  31
0.0
   0
LINE
   5
37C
 100
AcDbEntity
   8
LEVEL002
 370
25
 100
AcDbLine
   6
CONTINUOUS
  62
1
  10
 249.04999999990
  20
 404.50000000000
  30
0.0
  11
 253.84999999990
  21
 404.50000000000
  31
0.0
   0
LINE
   5
37D
 100
AcDbEntity
   8
LEVEL002
 370
25
 100
AcDbLine
   6
CONTINUOUS
  62
1
  10
 257.84999999990
  20
 403.50000000000
  30
0.0
  11
 262.64999999990
  21
 403.50000000000
  31
0.0
   0
LINE
   5
37E
 100
AcDbEntity
   8
LEVEL002
 370
25
 100
AcDbLine
   6
CONTINUOUS
  62
1
  10
 257.84999999990
  20
 404.50000000000
  30
0.0
  11
 262.64999999990
  21
 404.50000000000
  31
0.0
   0
LINE
   5
37F
 100
AcDbEntity
   8
LEVEL002
 370
25
 100
AcDbLine
   6
CONTINUOUS
  62
1
  10
 249.04999999990
  20
 405.50000000000
  30
0.0
  11
 253.84999999990
  21
 405.50000000000
  31
0.0
   0
LINE
   5
380
 100
AcDbEntity
   8
LEVEL002
 370
25
 100
AcDbLine
   6
CONTINUOUS
  62
1
  10
 249.04999999990
  20
 406.50000000000
  30
0.0
  11
 253.84999999990
  21
 406.50000000000
  31
0.0
   0
LINE
   5
381
 100
AcDbEntity
   8
LEVEL002
 370
25
 100
AcDbLine
   6
CONTINUOUS
  62
1
  10
 257.84999999990
  20
 405.50000000000
  30
0.0
  11
 262.64999999990
  21
 405.50000000000
  31
0.0
   0
LINE
   5
382
 100
AcDbEntity
   8
LEVEL002
 370
25
 100
AcDbLine
   6
CONTINUOUS
  62
1
  10
 257.84999999990
  20
 406.50000000000
  30
0.0
  11
 262.64999999990
  21
 406.50000000000
  31
0.0
   0
LINE
   5
383
 100
AcDbEntity
   8
LEVEL002
 370
25
 100
AcDbLine
   6
CONTINUOUS
  62
1
  10
 396.99999999990
  20
 366.50000000000
  30
0.0
  11
 402.99999999990
  21
 366.50000000000
  31
0.0
   0
LINE
   5
384
 100
AcDbEntity
   8
LEVEL002
 370
25
 100
AcDbLine
   6
CONTINUOUS
  62
1
  10
 396.99999999990
  20
 365.50000000000
  30
0.0
  11
 402.99999999990
  21
 365.50000000000
  31
0.0
   0
LINE
   5
385
 100
AcDbEntity
   8
LEVEL002
 370
25
 100
AcDbLine
   6
CONTINUOUS
  62
1
  10
 408.99999999990
  20
 366.50000000000
  30
0.0
  11
 414.99999999990
  21
 366.50000000000
  31
0.0
   0
LINE
   5
386
 100
AcDbEntity
   8
LEVEL002
 370
25
 100
AcDbLine
   6
CONTINUOUS
  62
1
  10
 408.99999999990
  20
 365.50000000000
  30
0.0
  11
 414.99999999990
  21
 365.50000000000
  31
0.0
   0
LINE
   5
387
 100
AcDbEntity
   8
LEVEL002
 370
25
 100
AcDbLine
   6
CONTINUOUS
  62
1
  10
 396.99999999990
  20
 364.50000000000
  30
0.0
  11
 402.99999999990
  21
 364.50000000000
  31
0.0
   0
LINE
   5
388
 100
AcDbEntity
   8
LEVEL002
 370
25
 100
AcDbLine
   6
CONTINUOUS
  62
1
  10
 396.99999999990
  20
 363.50000000000
  30
0.0
  11
 402.99999999990
  21
 363.50000000000
  31
0.0
   0
LINE
   5
389
 100
AcDbEntity
   8
LEVEL002
 370
25
 100
AcDbLine
   6
CONTINUOUS
  62
1
  10
 408.99999999990
  20
 364.50000000000
  30
0.0
  11
 414.99999999990
  21
 364.50000000000
  31
0.0
   0
LINE
   5
38A
 100
AcDbEntity
   8
LEVEL002
 370
25
 100
AcDbLine
   6
CONTINUOUS
  62
1
  10
 408.99999999990
  20
 363.50000000000
  30
0.0
  11
 414.99999999990
  21
 363.50000000000
  31
0.0
   0
LINE
   5
38B
 100
AcDbEntity
   8
LEVEL002
 370
25
 100
AcDbLine
   6
CONTINUOUS
  62
1
  10
 396.99999999990
  20
 368.50000000000
  30
0.0
  11
 402.99999999990
  21
 368.50000000000
  31
0.0
   0
LINE
   5
38C
 100
AcDbEntity
   8
LEVEL002
 370
25
 100
AcDbLine
   6
CONTINUOUS
  62
1
  10
 396.99999999990
  20
 367.50000000000
  30
0.0
  11
 402.99999999990
  21
 367.50000000000
  31
0.0
   0
LINE
   5
38D
 100
AcDbEntity
   8
LEVEL002
 370
25
 100
AcDbLine
   6
CONTINUOUS
  62
1
  10
 408.99999999990
  20
 368.50000000000
  30
0.0
  11
 414.99999999990
  21
 368.50000000000
  31
0.0
   0
LINE
   5
38E
 100
AcDbEntity
   8
LEVEL002
 370
25
 100
AcDbLine
   6
CONTINUOUS
  62
1
  10
 408.99999999990
  20
 367.50000000000
  30
0.0
  11
 414.99999999990
  21
 367.50000000000
  31
0.0
   0
LINE
   5
38F
 100
AcDbEntity
   8
LEVEL002
 370
25
 100
AcDbLine
   6
CONTINUOUS
  62
1
  10
 396.99999999990
  20
 370.50000000000
  30
0.0
  11
 402.99999999990
  21
 370.50000000000
  31
0.0
   0
LINE
   5
390
 100
AcDbEntity
   8
LEVEL002
 370
25
 100
AcDbLine
   6
CONTINUOUS
  62
1
  10
 396.99999999990
  20
 369.50000000000
  30
0.0
  11
 402.99999999990
  21
 369.50000000000
  31
0.0
   0
LINE
   5
391
 100
AcDbEntity
   8
LEVEL002
 370
25
 100
AcDbLine
   6
CONTINUOUS
  62
1
  10
 408.99999999990
  20
 370.50000000000
  30
0.0
  11
 414.99999999990
  21
 370.50000000000
  31
0.0
   0
LINE
   5
392
 100
AcDbEntity
   8
LEVEL002
 370
25
 100
AcDbLine
   6
CONTINUOUS
  62
1
  10
 408.99999999990
  20
 369.50000000000
  30
0.0
  11
 414.99999999990
  21
 369.50000000000
  31
0.0
   0
LINE
   5
393
 100
AcDbEntity
   8
LEVEL002
 370
25
 100
AcDbLine
   6
CONTINUOUS
  62
1
  10
 396.99999999990
  20
 372.50000000000
  30
0.0
  11
 402.99999999990
  21
 372.50000000000
  31
0.0
   0
LINE
   5
394
 100
AcDbEntity
   8
LEVEL002
 370
25
 100
AcDbLine
   6
CONTINUOUS
  62
1
  10
 396.99999999990
  20
 371.50000000000
  30
0.0
  11
 402.99999999990
  21
 371.50000000000
  31
0.0
   0
LINE
   5
395
 100
AcDbEntity
   8
LEVEL002
 370
25
 100
AcDbLine
   6
CONTINUOUS
  62
1
  10
 408.99999999990
  20
 372.50000000000
  30
0.0
  11
 414.99999999990
  21
 372.50000000000
  31
0.0
   0
LINE
   5
396
 100
AcDbEntity
   8
LEVEL002
 370
25
 100
AcDbLine
   6
CONTINUOUS
  62
1
  10
 408.99999999990
  20
 371.50000000000
  30
0.0
  11
 414.99999999990
  21
 371.50000000000
  31
0.0
   0
LINE
   5
397
 100
AcDbEntity
   8
LEVEL002
 370
25
 100
AcDbLine
   6
CONTINUOUS
  62
1
  10
 396.99999999990
  20
 374.50000000000
  30
0.0
  11
 402.99999999990
  21
 374.50000000000
  31
0.0
   0
LINE
   5
398
 100
AcDbEntity
   8
LEVEL002
 370
25
 100
AcDbLine
   6
CONTINUOUS
  62
1
  10
 396.99999999990
  20
 373.50000000000
  30
0.0
  11
 402.99999999990
  21
 373.50000000000
  31
0.0
   0
LINE
   5
399
 100
AcDbEntity
   8
LEVEL002
 370
25
 100
AcDbLine
   6
CONTINUOUS
  62
1
  10
 408.99999999990
  20
 374.50000000000
  30
0.0
  11
 414.99999999990
  21
 374.50000000000
  31
0.0
   0
LINE
   5
39A
 100
AcDbEntity
   8
LEVEL002
 370
25
 100
AcDbLine
   6
CONTINUOUS
  62
1
  10
 408.99999999990
  20
 373.50000000000
  30
0.0
  11
 414.99999999990
  21
 373.50000000000
  31
0.0
   0
LINE
   5
39B
 100
AcDbEntity
   8
LEVEL002
 370
25
 100
AcDbLine
   6
CONTINUOUS
  62
1
  10
 396.99999999990
  20
 376.50000000000
  30
0.0
  11
 402.99999999990
  21
 376.50000000000
  31
0.0
   0
LINE
   5
39C
 100
AcDbEntity
   8
LEVEL002
 370
25
 100
AcDbLine
   6
CONTINUOUS
  62
1
  10
 396.99999999990
  20
 375.50000000000
  30
0.0
  11
 402.99999999990
  21
 375.50000000000
  31
0.0
   0
LINE
   5
39D
 100
AcDbEntity
   8
LEVEL002
 370
25
 100
AcDbLine
   6
CONTINUOUS
  62
1
  10
 408.99999999990
  20
 376.50000000000
  30
0.0
  11
 414.99999999990
  21
 376.50000000000
  31
0.0
   0
LINE
   5
39E
 100
AcDbEntity
   8
LEVEL002
 370
25
 100
AcDbLine
   6
CONTINUOUS
  62
1
  10
 408.99999999990
  20
 375.50000000000
  30
0.0
  11
 414.99999999990
  21
 375.50000000000
  31
0.0
   0
LINE
   5
39F
 100
AcDbEntity
   8
LEVEL002
 370
25
 100
AcDbLine
   6
CONTINUOUS
  62
1
  10
 396.99999999990
  20
 378.50000000000
  30
0.0
  11
 402.99999999990
  21
 378.50000000000
  31
0.0
   0
LINE
   5
3A0
 100
AcDbEntity
   8
LEVEL002
 370
25
 100
AcDbLine
   6
CONTINUOUS
  62
1
  10
 396.99999999990
  20
 377.50000000000
  30
0.0
  11
 402.99999999990
  21
 377.50000000000
  31
0.0
   0
LINE
   5
3A1
 100
AcDbEntity
   8
LEVEL002
 370
25
 100
AcDbLine
   6
CONTINUOUS
  62
1
  10
 408.99999999990
  20
 378.50000000000
  30
0.0
  11
 414.99999999990
  21
 378.50000000000
  31
0.0
   0
LINE
   5
3A2
 100
AcDbEntity
   8
LEVEL002
 370
25
 100
AcDbLine
   6
CONTINUOUS
  62
1
  10
 408.99999999990
  20
 377.50000000000
  30
0.0
  11
 414.99999999990
  21
 377.50000000000
  31
0.0
   0
LINE
   5
3A3
 100
AcDbEntity
   8
LEVEL002
 370
25
 100
AcDbLine
   6
CONTINUOUS
  62
1
  10
 396.99999999990
  20
 380.50000000000
  30
0.0
  11
 402.99999999990
  21
 380.50000000000
  31
0.0
   0
LINE
   5
3A4
 100
AcDbEntity
   8
LEVEL002
 370
25
 100
AcDbLine
   6
CONTINUOUS
  62
1
  10
 396.99999999990
  20
 379.50000000000
  30
0.0
  11
 402.99999999990
  21
 379.50000000000
  31
0.0
   0
LINE
   5
3A5
 100
AcDbEntity
   8
LEVEL002
 370
25
 100
AcDbLine
   6
CONTINUOUS
  62
1
  10
 408.99999999990
  20
 380.50000000000
  30
0.0
  11
 414.99999999990
  21
 380.50000000000
  31
0.0
   0
LINE
   5
3A6
 100
AcDbEntity
   8
LEVEL002
 370
25
 100
AcDbLine
   6
CONTINUOUS
  62
1
  10
 408.99999999990
  20
 379.50000000000
  30
0.0
  11
 414.99999999990
  21
 379.50000000000
  31
0.0
   0
LINE
   5
3A7
 100
AcDbEntity
   8
LEVEL002
 370
25
 100
AcDbLine
   6
CONTINUOUS
  62
1
  10
 396.99999999990
  20
 382.50000000000
  30
0.0
  11
 402.99999999990
  21
 382.50000000000
  31
0.0
   0
LINE
   5
3A8
 100
AcDbEntity
   8
LEVEL002
 370
25
 100
AcDbLine
   6
CONTINUOUS
  62
1
  10
 396.99999999990
  20
 381.50000000000
  30
0.0
  11
 402.99999999990
  21
 381.50000000000
  31
0.0
   0
LINE
   5
3A9
 100
AcDbEntity
   8
LEVEL002
 370
25
 100
AcDbLine
   6
CONTINUOUS
  62
1
  10
 408.99999999990
  20
 382.50000000000
  30
0.0
  11
 414.99999999990
  21
 382.50000000000
  31
0.0
   0
LINE
   5
3AA
 100
AcDbEntity
   8
LEVEL002
 370
25
 100
AcDbLine
   6
CONTINUOUS
  62
1
  10
 408.99999999990
  20
 381.50000000000
  30
0.0
  11
 414.99999999990
  21
 381.50000000000
  31
0.0
   0
LINE
   5
3AB
 100
AcDbEntity
   8
LEVEL002
 370
25
 100
AcDbLine
   6
CONTINUOUS
  62
1
  10
 396.99999999990
  20
 384.50000000000
  30
0.0
  11
 402.99999999990
  21
 384.50000000000
  31
0.0
   0
LINE
   5
3AC
 100
AcDbEntity
   8
LEVEL002
 370
25
 100
AcDbLine
   6
CONTINUOUS
  62
1
  10
 396.99999999990
  20
 383.50000000000
  30
0.0
  11
 402.99999999990
  21
 383.50000000000
  31
0.0
   0
LINE
   5
3AD
 100
AcDbEntity
   8
LEVEL002
 370
25
 100
AcDbLine
   6
CONTINUOUS
  62
1
  10
 408.99999999990
  20
 384.50000000000
  30
0.0
  11
 414.99999999990
  21
 384.50000000000
  31
0.0
   0
LINE
   5
3AE
 100
AcDbEntity
   8
LEVEL002
 370
25
 100
AcDbLine
   6
CONTINUOUS
  62
1
  10
 408.99999999990
  20
 383.50000000000
  30
0.0
  11
 414.99999999990
  21
 383.50000000000
  31
0.0
   0
LINE
   5
3AF
 100
AcDbEntity
   8
LEVEL002
 370
25
 100
AcDbLine
   6
CONTINUOUS
  62
1
  10
 396.99999999990
  20
 386.50000000000
  30
0.0
  11
 402.99999999990
  21
 386.50000000000
  31
0.0
   0
LINE
   5
3B0
 100
AcDbEntity
   8
LEVEL002
 370
25
 100
AcDbLine
   6
CONTINUOUS
  62
1
  10
 396.99999999990
  20
 385.50000000000
  30
0.0
  11
 402.99999999990
  21
 385.50000000000
  31
0.0
   0
LINE
   5
3B1
 100
AcDbEntity
   8
LEVEL002
 370
25
 100
AcDbLine
   6
CONTINUOUS
  62
1
  10
 408.99999999990
  20
 386.50000000000
  30
0.0
  11
 414.99999999990
  21
 386.50000000000
  31
0.0
   0
LINE
   5
3B2
 100
AcDbEntity
   8
LEVEL002
 370
25
 100
AcDbLine
   6
CONTINUOUS
  62
1
  10
 408.99999999990
  20
 385.50000000000
  30
0.0
  11
 414.99999999990
  21
 385.50000000000
  31
0.0
   0
LINE
   5
3B3
 100
AcDbEntity
   8
LEVEL002
 370
25
 100
AcDbLine
   6
CONTINUOUS
  62
1
  10
 396.99999999990
  20
 388.50000000000
  30
0.0
  11
 402.99999999990
  21
 388.50000000000
  31
0.0
   0
LINE
   5
3B4
 100
AcDbEntity
   8
LEVEL002
 370
25
 100
AcDbLine
   6
CONTINUOUS
  62
1
  10
 396.99999999990
  20
 387.50000000000
  30
0.0
  11
 402.99999999990
  21
 387.50000000000
  31
0.0
   0
LINE
   5
3B5
 100
AcDbEntity
   8
LEVEL002
 370
25
 100
AcDbLine
   6
CONTINUOUS
  62
1
  10
 408.99999999990
  20
 388.50000000000
  30
0.0
  11
 414.99999999990
  21
 388.50000000000
  31
0.0
   0
LINE
   5
3B6
 100
AcDbEntity
   8
LEVEL002
 370
25
 100
AcDbLine
   6
CONTINUOUS
  62
1
  10
 408.99999999990
  20
 387.50000000000
  30
0.0
  11
 414.99999999990
  21
 387.50000000000
  31
0.0
   0
LINE
   5
3B7
 100
AcDbEntity
   8
LEVEL002
 370
25
 100
AcDbLine
   6
CONTINUOUS
  62
1
  10
 396.99999999990
  20
 390.50000000000
  30
0.0
  11
 402.99999999990
  21
 390.50000000000
  31
0.0
   0
LINE
   5
3B8
 100
AcDbEntity
   8
LEVEL002
 370
25
 100
AcDbLine
   6
CONTINUOUS
  62
1
  10
 396.99999999990
  20
 389.50000000000
  30
0.0
  11
 402.99999999990
  21
 389.50000000000
  31
0.0
   0
LINE
   5
3B9
 100
AcDbEntity
   8
LEVEL002
 370
25
 100
AcDbLine
   6
CONTINUOUS
  62
1
  10
 408.99999999990
  20
 390.50000000000
  30
0.0
  11
 414.99999999990
  21
 390.50000000000
  31
0.0
   0
LINE
   5
3BA
 100
AcDbEntity
   8
LEVEL002
 370
25
 100
AcDbLine
   6
CONTINUOUS
  62
1
  10
 408.99999999990
  20
 389.50000000000
  30
0.0
  11
 414.99999999990
  21
 389.50000000000
  31
0.0
   0
LINE
   5
3BB
 100
AcDbEntity
   8
LEVEL002
 370
25
 100
AcDbLine
   6
CONTINUOUS
  62
1
  10
 396.99999999990
  20
 392.50000000000
  30
0.0
  11
 402.99999999990
  21
 392.50000000000
  31
0.0
   0
LINE
   5
3BC
 100
AcDbEntity
   8
LEVEL002
 370
25
 100
AcDbLine
   6
CONTINUOUS
  62
1
  10
 396.99999999990
  20
 391.50000000000
  30
0.0
  11
 402.99999999990
  21
 391.50000000000
  31
0.0
   0
LINE
   5
3BD
 100
AcDbEntity
   8
LEVEL002
 370
25
 100
AcDbLine
   6
CONTINUOUS
  62
1
  10
 408.99999999990
  20
 392.50000000000
  30
0.0
  11
 414.99999999990
  21
 392.50000000000
  31
0.0
   0
LINE
   5
3BE
 100
AcDbEntity
   8
LEVEL002
 370
25
 100
AcDbLine
   6
CONTINUOUS
  62
1
  10
 408.99999999990
  20
 391.50000000000
  30
0.0
  11
 414.99999999990
  21
 391.50000000000
  31
0.0
   0
LINE
   5
3BF
 100
AcDbEntity
   8
LEVEL002
 370
25
 100
AcDbLine
   6
CONTINUOUS
  62
1
  10
 396.99999999990
  20
 394.50000000000
  30
0.0
  11
 402.99999999990
  21
 394.50000000000
  31
0.0
   0
LINE
   5
3C0
 100
AcDbEntity
   8
LEVEL002
 370
25
 100
AcDbLine
   6
CONTINUOUS
  62
1
  10
 396.99999999990
  20
 393.50000000000
  30
0.0
  11
 402.99999999990
  21
 393.50000000000
  31
0.0
   0
LINE
   5
3C1
 100
AcDbEntity
   8
LEVEL002
 370
25
 100
AcDbLine
   6
CONTINUOUS
  62
1
  10
 408.99999999990
  20
 394.50000000000
  30
0.0
  11
 414.99999999990
  21
 394.50000000000
  31
0.0
   0
LINE
   5
3C2
 100
AcDbEntity
   8
LEVEL002
 370
25
 100
AcDbLine
   6
CONTINUOUS
  62
1
  10
 408.99999999990
  20
 393.50000000000
  30
0.0
  11
 414.99999999990
  21
 393.50000000000
  31
0.0
   0
LINE
   5
3C3
 100
AcDbEntity
   8
LEVEL002
 370
25
 100
AcDbLine
   6
CONTINUOUS
  62
1
  10
 396.99999999990
  20
 396.50000000000
  30
0.0
  11
 402.99999999990
  21
 396.50000000000
  31
0.0
   0
LINE
   5
3C4
 100
AcDbEntity
   8
LEVEL002
 370
25
 100
AcDbLine
   6
CONTINUOUS
  62
1
  10
 396.99999999990
  20
 395.50000000000
  30
0.0
  11
 402.99999999990
  21
 395.50000000000
  31
0.0
   0
LINE
   5
3C5
 100
AcDbEntity
   8
LEVEL002
 370
25
 100
AcDbLine
   6
CONTINUOUS
  62
1
  10
 408.99999999990
  20
 396.50000000000
  30
0.0
  11
 414.99999999990
  21
 396.50000000000
  31
0.0
   0
LINE
   5
3C6
 100
AcDbEntity
   8
LEVEL002
 370
25
 100
AcDbLine
   6
CONTINUOUS
  62
1
  10
 408.99999999990
  20
 395.50000000000
  30
0.0
  11
 414.99999999990
  21
 395.50000000000
  31
0.0
   0
LINE
   5
3C7
 100
AcDbEntity
   8
LEVEL002
 370
25
 100
AcDbLine
   6
CONTINUOUS
  62
1
  10
 396.99999999990
  20
 398.50000000000
  30
0.0
  11
 402.99999999990
  21
 398.50000000000
  31
0.0
   0
LINE
   5
3C8
 100
AcDbEntity
   8
LEVEL002
 370
25
 100
AcDbLine
   6
CONTINUOUS
  62
1
  10
 396.99999999990
  20
 397.50000000000
  30
0.0
  11
 402.99999999990
  21
 397.50000000000
  31
0.0
   0
LINE
   5
3C9
 100
AcDbEntity
   8
LEVEL002
 370
25
 100
AcDbLine
   6
CONTINUOUS
  62
1
  10
 408.99999999990
  20
 398.50000000000
  30
0.0
  11
 414.99999999990
  21
 398.50000000000
  31
0.0
   0
LINE
   5
3CA
 100
AcDbEntity
   8
LEVEL002
 370
25
 100
AcDbLine
   6
CONTINUOUS
  62
1
  10
 408.99999999990
  20
 397.50000000000
  30
0.0
  11
 414.99999999990
  21
 397.50000000000
  31
0.0
   0
LINE
   5
3CB
 100
AcDbEntity
   8
LEVEL002
 370
25
 100
AcDbLine
   6
CONTINUOUS
  62
1
  10
 396.99999999990
  20
 400.50000000000
  30
0.0
  11
 402.99999999990
  21
 400.50000000000
  31
0.0
   0
LINE
   5
3CC
 100
AcDbEntity
   8
LEVEL002
 370
25
 100
AcDbLine
   6
CONTINUOUS
  62
1
  10
 396.99999999990
  20
 399.50000000000
  30
0.0
  11
 402.99999999990
  21
 399.50000000000
  31
0.0
   0
LINE
   5
3CD
 100
AcDbEntity
   8
LEVEL002
 370
25
 100
AcDbLine
   6
CONTINUOUS
  62
1
  10
 408.99999999990
  20
 400.50000000000
  30
0.0
  11
 414.99999999990
  21
 400.50000000000
  31
0.0
   0
LINE
   5
3CE
 100
AcDbEntity
   8
LEVEL002
 370
25
 100
AcDbLine
   6
CONTINUOUS
  62
1
  10
 408.99999999990
  20
 399.50000000000
  30
0.0
  11
 414.99999999990
  21
 399.50000000000
  31
0.0
   0
LINE
   5
3CF
 100
AcDbEntity
   8
LEVEL002
 370
25
 100
AcDbLine
   6
CONTINUOUS
  62
1
  10
 396.99999999990
  20
 402.50000000000
  30
0.0
  11
 402.99999999990
  21
 402.50000000000
  31
0.0
   0
LINE
   5
3D0
 100
AcDbEntity
   8
LEVEL002
 370
25
 100
AcDbLine
   6
CONTINUOUS
  62
1
  10
 396.99999999990
  20
 401.50000000000
  30
0.0
  11
 402.99999999990
  21
 401.50000000000
  31
0.0
   0
LINE
   5
3D1
 100
AcDbEntity
   8
LEVEL002
 370
25
 100
AcDbLine
   6
CONTINUOUS
  62
1
  10
 408.99999999990
  20
 402.50000000000
  30
0.0
  11
 414.99999999990
  21
 402.50000000000
  31
0.0
   0
LINE
   5
3D2
 100
AcDbEntity
   8
LEVEL002
 370
25
 100
AcDbLine
   6
CONTINUOUS
  62
1
  10
 408.99999999990
  20
 401.50000000000
  30
0.0
  11
 414.99999999990
  21
 401.50000000000
  31
0.0
   0
LINE
   5
3D3
 100
AcDbEntity
   8
LEVEL002
 370
25
 100
AcDbLine
   6
CONTINUOUS
  62
1
  10
 396.99999999990
  20
 404.50000000000
  30
0.0
  11
 402.99999999990
  21
 404.50000000000
  31
0.0
   0
LINE
   5
3D4
 100
AcDbEntity
   8
LEVEL002
 370
25
 100
AcDbLine
   6
CONTINUOUS
  62
1
  10
 396.99999999990
  20
 403.50000000000
  30
0.0
  11
 402.99999999990
  21
 403.50000000000
  31
0.0
   0
LINE
   5
3D5
 100
AcDbEntity
   8
LEVEL002
 370
25
 100
AcDbLine
   6
CONTINUOUS
  62
1
  10
 408.99999999990
  20
 404.50000000000
  30
0.0
  11
 414.99999999990
  21
 404.50000000000
  31
0.0
   0
LINE
   5
3D6
 100
AcDbEntity
   8
LEVEL002
 370
25
 100
AcDbLine
   6
CONTINUOUS
  62
1
  10
 408.99999999990
  20
 403.50000000000
  30
0.0
  11
 414.99999999990
  21
 403.50000000000
  31
0.0
   0
LINE
   5
3D7
 100
AcDbEntity
   8
LEVEL002
 370
25
 100
AcDbLine
   6
CONTINUOUS
  62
1
  10
 396.99999999990
  20
 406.50000000000
  30
0.0
  11
 402.99999999990
  21
 406.50000000000
  31
0.0
   0
LINE
   5
3D8
 100
AcDbEntity
   8
LEVEL002
 370
25
 100
AcDbLine
   6
CONTINUOUS
  62
1
  10
 396.99999999990
  20
 405.50000000000
  30
0.0
  11
 402.99999999990
  21
 405.50000000000
  31
0.0
   0
LINE
   5
3D9
 100
AcDbEntity
   8
LEVEL002
 370
25
 100
AcDbLine
   6
CONTINUOUS
  62
1
  10
 408.99999999990
  20
 406.50000000000
  30
0.0
  11
 414.99999999990
  21
 406.50000000000
  31
0.0
   0
LINE
   5
3DA
 100
AcDbEntity
   8
LEVEL002
 370
25
 100
AcDbLine
   6
CONTINUOUS
  62
1
  10
 408.99999999990
  20
 405.50000000000
  30
0.0
  11
 414.99999999990
  21
 405.50000000000
  31
0.0
   0
MTEXT
   5
3DC
 100
AcDbEntity
   8
LEVEL002
 370
15
  62
8
 100
AcDbMText
  10
 103.24999999990
  20
 423.50000000000
  30
0.0
  40
 6.0000000000000
  41
0.0
  71
5
  72
1
   1
\T1.000000;ＫＧ３５０Ｐ
   7
GMM002
  44
 0.79999984000003
   0
MTEXT
   5
3DE
 100
AcDbEntity
   8
LEVEL002
 370
15
  62
8
 100
AcDbMText
  10
 247.74999999990
  20
 423.50000000000
  30
0.0
  40
 6.0000000000000
  41
0.0
  71
5
  72
1
   1
\T1.000000;ＫＧ４００Ｐ
   7
GMM002
  44
 0.79999984000003
   0
MTEXT
   5
3E0
 100
AcDbEntity
   8
LEVEL002
 370
15
  62
8
 100
AcDbMText
  10
 392.24999999990
  20
 423.50000000000
  30
0.0
  40
 6.0000000000000
  41
0.0
  71
5
  72
1
   1
\T1.000000;ＫＧ５０５Ｐ
   7
GMM002
  44
 0.79999984000003
   0
DIMENSION
   5
3E1
 100
AcDbEntity
   8
LEVEL001
 370
15
   6
CONTINUOUS
  62
8
 100
AcDbDimension
   2
*D1
  10
 125.99999999990
  20
 333.00000000000
  30
0.0
  11
 108.49999999990
  21
 333.00000000000
  31
0.0
  70
0
   3
GMM001
 100
AcDbAlignedDimension
  13
 90.999999999900
  23
 325.00000000000
  33
0.0
  14
 125.99999999990
  24
 325.00000000000
  34
0.0
 100
AcDbRotatedDimension
   0
DIMENSION
   5
3E2
 100
AcDbEntity
   8
LEVEL001
 370
15
   6
CONTINUOUS
  62
8
 100
AcDbDimension
   2
*D2
  10
 275.49999999990
  20
 333.00000000000
  30
0.0
  11
 255.49999999990
  21
 333.00000000000
  31
0.0
  70
0
   3
GMM001
 100
AcDbAlignedDimension
  13
 235.49999999990
  23
 325.00000000000
  33
0.0
  14
 275.49999999990
  24
 325.00000000000
  34
0.0
 100
AcDbRotatedDimension
   0
DIMENSION
   5
3E3
 100
AcDbEntity
   8
LEVEL001
 370
15
   6
CONTINUOUS
  62
8
 100
AcDbDimension
   2
*D3
  10
 429.99999999990
  20
 333.00000000000
  30
0.0
  11
 404.99999999990
  21
 333.00000000000
  31
0.0
  70
0
   3
GMM001
 100
AcDbAlignedDimension
  13
 379.99999999990
  23
 325.00000000000
  33
0.0
  14
 429.99999999990
  24
 325.00000000000
  34
0.0
 100
AcDbRotatedDimension
   0
DIMENSION
   5
3E4
 100
AcDbEntity
   8
LEVEL001
 370
15
   6
CONTINUOUS
  62
8
 100
AcDbDimension
   2
*D4
  10
 80.999999999900
  20
 323.00000000000
  30
0.0
  11
 80.999999999900
  21
 315.00000000000
  31
0.0
  70
0
   3
GMM001
 100
AcDbAlignedDimension
  13
 88.999999999900
  23
 307.00000000000
  33
0.0
  14
 88.999999999900
  24
 323.00000000000
  34
0.0
  50
 90.000000000000
 100
AcDbRotatedDimension
   0
DIMENSION
   5
3E5
 100
AcDbEntity
   8
LEVEL001
 370
15
   6
CONTINUOUS
  62
8
 100
AcDbDimension
   2
*D5
  10
 137.99999999990
  20
 323.00000000000
  30
0.0
  11
 137.99999999990
  21
 324.89575825165
  31
0.0
  70
128
   3
GMM002
 100
AcDbAlignedDimension
  13
 127.99999999990
  23
 320.00000000000
  33
0.0
  14
 127.99999999990
  24
 323.00000000000
  34
0.0
  50
 90.000000000000
 100
AcDbRotatedDimension
   0
DIMENSION
   5
3E6
 100
AcDbEntity
   8
LEVEL001
 370
15
   6
CONTINUOUS
  62
8
 100
AcDbDimension
   2
*D6
  10
 225.49999999990
  20
 323.00000000000
  30
0.0
  11
 225.49999999990
  21
 314.00000000000
  31
0.0
  70
0
   3
GMM001
 100
AcDbAlignedDimension
  13
 233.49999999990
  23
 305.00000000000
  33
0.0
  14
 233.49999999990
  24
 323.00000000000
  34
0.0
  50
 90.000000000000
 100
AcDbRotatedDimension
   0
DIMENSION
   5
3E7
 100
AcDbEntity
   8
LEVEL001
 370
15
   6
CONTINUOUS
  62
8
 100
AcDbDimension
   2
*D7
  10
 287.49999999990
  20
 323.00000000000
  30
0.0
  11
 287.49999999990
  21
 325.89466409242
  31
0.0
  70
128
   3
GMM003
 100
AcDbAlignedDimension
  13
 277.49999999990
  23
 320.00000000000
  33
0.0
  14
 277.49999999990
  24
 323.00000000000
  34
0.0
  50
 90.000000000000
 100
AcDbRotatedDimension
   0
DIMENSION
   5
3E8
 100
AcDbEntity
   8
LEVEL001
 370
15
   6
CONTINUOUS
  62
8
 100
AcDbDimension
   2
*D8
  10
 369.99999999990
  20
 323.00000000000
  30
0.0
  11
 369.99999999990
  21
 314.00000000000
  31
0.0
  70
0
   3
GMM001
 100
AcDbAlignedDimension
  13
 377.99999999990
  23
 305.00000000000
  33
0.0
  14
 377.99999999990
  24
 323.00000000000
  34
0.0
  50
 90.000000000000
 100
AcDbRotatedDimension
   0
DIMENSION
   5
3E9
 100
AcDbEntity
   8
LEVEL001
 370
15
   6
CONTINUOUS
  62
8
 100
AcDbDimension
   2
*D9
  10
 441.99999999990
  20
 323.00000000000
  30
0.0
  11
 441.99999999990
  21
 325.18955408717
  31
0.0
  70
128
   3
GMM004
 100
AcDbAlignedDimension
  13
 431.99999999990
  23
 320.00000000000
  33
0.0
  14
 431.99999999990
  24
 323.00000000000
  34
0.0
  50
 90.000000000000
 100
AcDbRotatedDimension
   0
DIMENSION
   5
3EA
 100
AcDbEntity
   8
LEVEL001
 370
15
   6
CONTINUOUS
  62
8
 100
AcDbDimension
   2
*D10
  10
 80.999999999900
  20
 459.50000000000
  30
0.0
  11
 80.999999999900
  21
 452.00000000000
  31
0.0
  70
0
   3
GMM001
 100
AcDbAlignedDimension
  13
 88.999999999900
  23
 444.50000000000
  33
0.0
  14
 88.999999999900
  24
 459.50000000000
  34
0.0
  50
 90.000000000000
 100
AcDbRotatedDimension
   0
DIMENSION
   5
3EB
 100
AcDbEntity
   8
LEVEL001
 370
15
   6
CONTINUOUS
  62
8
 100
AcDbDimension
   2
*D11
  10
 128.99867817020
  20
 469.50000000000
  30
0.0
  11
 109.99933908505
  21
 469.50000000000
  31
0.0
  70
0
   1
\A1;38
   3
GMM001
 100
AcDbAlignedDimension
  13
 90.999999999900
  23
 461.50000000000
  33
0.0
  14
 128.99867817020
  24
 461.50000000000
  34
0.0
 100
AcDbRotatedDimension
   0
DIMENSION
   5
3EC
 100
AcDbEntity
   8
LEVEL001
 370
15
   6
CONTINUOUS
  62
8
 100
AcDbDimension
   2
*D12
  10
 140.99867817020
  20
 459.50000000000
  30
0.0
  11
 140.99867817020
  21
 461.63813329705
  31
0.0
  70
128
   1
\A1;3
   3
GMM005
 100
AcDbAlignedDimension
  13
 130.99867817020
  23
 456.27850816350
  33
0.0
  14
 130.99867817020
  24
 459.50000000000
  34
0.0
  50
 90.000000000000
 100
AcDbRotatedDimension
   0
LEADER
   5
3ED
 100
AcDbEntity
   8
LEVEL001
 370
15
   6
CONTINUOUS
  62
8
 100
AcDbLeader
   3
GMM006
  73
0
  74
0
  75
0
  40
 6.0000000000000
  41
 36.000000000000
  76
2
  10
 112.82267799866
  20
 324.12676444911
  30
0.0
  10
 123.75188307999
  20
 340.79194917724
  30
0.0
  77
8
 340
3EE
 213
0.0
 223
-2.0000000000000
 233
0.0
   0
MTEXT
   5
3EE
 102
{ACAD_REACTORS
 330
3ED
 102
}
 100
AcDbEntity
   8
LEVEL001
 370
15
  62
8
 100
AcDbMText
  10
 123.75188307999
  20
 342.79194917724
  30
0.0
  40
 6.0000000000000
  41
0.0
  71
7
  72
1
   1
\A1;ノンスリップ部
   7
GMM002
   0
LEADER
   5
3EF
 100
AcDbEntity
   8
LEVEL001
 370
15
   6
CONTINUOUS
  62
8
 100
AcDbLeader
   3
GMM006
  73
0
  74
0
  75
0
  40
 6.0000000000000
  41
 36.000000000000
  76
2
  10
 260.42570576377
  20
 324.12676444911
  30
0.0
  10
 271.35491084510
  20
 340.79194917724
  30
0.0
  77
8
 340
3F0
 213
0.0
 223
-2.0000000000000
 233
0.0
   0
MTEXT
   5
3F0
 102
{ACAD_REACTORS
 330
3EF
 102
}
 100
AcDbEntity
   8
LEVEL001
 370
15
  62
8
 100
AcDbMText
  10
 271.35491084510
  20
 342.79194917724
  30
0.0
  40
 6.0000000000000
  41
0.0
  71
7
  72
1
   1
\A1;ノンスリップ部
   7
GMM002
   0
LEADER
   5
3F1
 100
AcDbEntity
   8
LEVEL001
 370
15
   6
CONTINUOUS
  62
8
 100
AcDbLeader
   3
GMM006
  73
0
  74
0
  75
0
  40
 6.0000000000000
  41
 36.000000000000
  76
2
  10
 411.61304272222
  20
 324.12676444911
  30
0.0
  10
 422.54224780356
  20
 340.79194917724
  30
0.0
  77
8
 340
3F2
 213
0.0
 223
-2.0000000000000
 233
0.0
   0
MTEXT
   5
3F2
 102
{ACAD_REACTORS
 330
3F1
 102
}
 100
AcDbEntity
   8
LEVEL001
 370
15
  62
8
 100
AcDbMText
  10
 422.54224780356
  20
 342.79194917724
  30
0.0
  40
 6.0000000000000
  41
0.0
  71
7
  72
1
   1
\A1;ノンスリップ部
   7
GMM002
   0
MTEXT
   5
3F4
 100
AcDbEntity
   8
LEVEL002
 370
15
  62
8
 100
AcDbMText
  10
 708.99999999990
  20
 453.50000000000
  30
0.0
  40
 8.0000000000000
  41
0.0
  71
5
  72
1
   1
\T1.000000;ステンレス①
   7
GMM002
  44
 0.79999984000003
   0
MTEXT
   5
3F6
 100
AcDbEntity
   8
LEVEL002
 370
15
  62
8
 100
AcDbMText
  10
 758.99999999990
  20
 40.166666666690
  30
0.0
  40
 5.0000000000000
  41
0.0
  71
5
  72
1
   1
\T1.000000;パルステップステンレス－１
   7
GMM002
  44
 0.79999984000003
   0
MTEXT
   5
3F8
 100
AcDbEntity
   8
LEVEL002
 370
15
  62
8
 100
AcDbMText
  10
 650.49999999990
  20
 481.50000000000
  30
0.0
  40
 9.0000000000000
  41
0.0
  71
7
  72
1
   1
\W0.888889;\T1.000000;パルステップ\W0.444444;\T1.000000;(\W0.888889;\T1.000000;ステンタイプ\W0.444444;\T1.000000;)
   7
GMM004
  44
 0.79999984000003
   0
MTEXT
   5
3FA
 100
AcDbEntity
   8
LEVEL002
 370
15
  62
8
 100
AcDbMText
  10
 650.49999999990
  20
 493.50000000000
  30
0.0
  40
 9.0000000000000
  41
0.0
  71
7
  72
1
   1
\T1.000000;　屋外用階段すべり止め
   7
GMM004
  44
 0.79999984000003
   0
LINE
   5
3FB
 100
AcDbEntity
   8
LEVEL002
 370
30
 100
AcDbLine
   6
CONTINUOUS
  62
7
  10
 92.038862886134
  20
 185.32301524362
  30
0.0
  11
 90.147111909092
  21
 184.32738567352
  31
0.0
   0
LINE
   5
3FC
 100
AcDbEntity
   8
LEVEL002
 370
30
 100
AcDbLine
   6
CONTINUOUS
  62
7
  10
 92.411451581213
  20
 184.61507621772
  30
0.0
  11
 90.519700604171
  21
 183.61944664762
  31
0.0
   0
LINE
   5
3FD
 100
AcDbEntity
   8
LEVEL002
 370
30
 100
AcDbLine
   6
CONTINUOUS
  62
7
  10
 91.945715712364
  20
 186.50000000002
  30
0.0
  11
 89.545715712364
  21
 186.50000000002
  31
0.0
   0
LINE
   5
3FE
 100
AcDbEntity
   8
LEVEL002
 370
30
 100
AcDbLine
   6
CONTINUOUS
  62
7
  10
 89.545715712364
  20
 185.70000000002
  30
0.0
  11
 91.945715712364
  21
 185.70000000002
  31
0.0
   0
ARC
   5
3FF
 100
AcDbEntity
   8
LEVEL002
 370
30
   6
CONTINUOUS
  62
7
 100
AcDbCircle
  10
 91.945715712365
  20
 185.50000000002
  30
0.0
  40
 1.0000000000000
 100
AcDbArc
  50
 297.75785661712
  51
 90.000000000031
   0
ARC
   5
400
 100
AcDbEntity
   8
LEVEL002
 370
30
   6
CONTINUOUS
  62
7
 100
AcDbCircle
  10
 90.845715712221
  20
 183.00000000002
  30
0.0
  40
 0.70000000000000
 100
AcDbArc
  50
 117.75785660678
  51
 270.00000001174
   0
ARC
   5
401
 100
AcDbEntity
   8
LEVEL002
 370
30
   6
CONTINUOUS
  62
7
 100
AcDbCircle
  10
 90.845715712520
  20
 183.00000000002
  30
0.0
  40
 1.5000000000000
 100
AcDbArc
  50
 117.75785662241
  51
 269.99999999407
   0
LINE
   5
402
 100
AcDbEntity
   8
LEVEL002
 370
30
 100
AcDbLine
   6
CONTINUOUS
  62
7
  10
 122.54571571236
  20
 182.30000000002
  30
0.0
  11
 90.845715712365
  21
 182.30000000002
  31
0.0
   0
LINE
   5
403
 100
AcDbEntity
   8
LEVEL002
 370
30
 100
AcDbLine
   6
CONTINUOUS
  62
7
  10
 90.845715712365
  20
 181.50000000002
  30
0.0
  11
 122.54571571236
  21
 181.50000000002
  31
0.0
   0
ARC
   5
404
 100
AcDbEntity
   8
LEVEL002
 370
30
   6
CONTINUOUS
  62
7
 100
AcDbCircle
  10
 91.945715711267
  20
 185.50000000002
  30
0.0
  40
 0.20000000000000
 100
AcDbArc
  50
 297.75785689539
  51
 89.999999685600
   0
ARC
   5
405
 100
AcDbEntity
   8
LEVEL002
 370
30
   6
CONTINUOUS
  62
7
 100
AcDbCircle
  10
 89.545715712364
  20
 185.50000000012
  30
0.0
  40
 1.0000000000000
 100
AcDbArc
  50
 90.000000000000
  51
 180.00000000459
   0
ARC
   5
406
 100
AcDbEntity
   8
LEVEL002
 370
30
   6
CONTINUOUS
  62
7
 100
AcDbCircle
  10
 89.545715712365
  20
 185.50000000022
  30
0.0
  40
 0.20000000000000
 100
AcDbArc
  50
 89.999999999923
  51
 180.00000006046
   0
ARC
   5
407
 100
AcDbEntity
   8
LEVEL002
 370
30
   6
CONTINUOUS
  62
7
 100
AcDbCircle
  10
 122.04571571235
  20
 183.26026074822
  30
0.0
  40
 1.5000000000000
 100
AcDbArc
  50
0.0
  51
 71.999999999268
   0
ARC
   5
408
 100
AcDbEntity
   8
LEVEL002
 370
30
   6
CONTINUOUS
  62
7
 100
AcDbCircle
  10
 122.04571571211
  20
 183.26026074832
  30
0.0
  40
 0.70000000000000
 100
AcDbArc
  50
0.0
  51
 71.999999978298
   0
LINE
   5
409
 100
AcDbEntity
   8
LEVEL002
 370
30
 100
AcDbLine
   6
CONTINUOUS
  62
7
  10
 119.45993557709
  20
 185.60000000002
  30
0.0
  11
 122.47584550307
  21
 184.69726748552
  31
0.0
   0
LINE
   5
40A
 100
AcDbEntity
   8
LEVEL002
 370
30
 100
AcDbLine
   6
CONTINUOUS
  62
7
  10
 119.24571571236
  20
 184.94069904902
  30
0.0
  11
 122.26889992570
  21
 183.92372800962
  31
0.0
   0
LINE
   5
40B
 100
AcDbEntity
   8
LEVEL002
 370
30
 100
AcDbLine
   6
CONTINUOUS
  62
7
  10
 119.24571571236
  20
 184.94069904902
  30
0.0
  11
 119.45993557709
  21
 185.60000000002
  31
0.0
   0
LINE
   5
40C
 100
AcDbEntity
   8
LEVEL002
 370
30
 100
AcDbLine
   6
CONTINUOUS
  62
7
  10
 122.74571571236
  20
 183.26026074822
  30
0.0
  11
 122.74571571237
  21
 182.50000000002
  31
0.0
   0
LINE
   5
40D
 100
AcDbEntity
   8
LEVEL002
 370
30
 100
AcDbLine
   6
CONTINUOUS
  62
7
  10
 123.54571571236
  20
 183.26026074822
  30
0.0
  11
 123.54571571236
  21
 182.50000000002
  31
0.0
   0
ARC
   5
40E
 100
AcDbEntity
   8
LEVEL002
 370
30
   6
CONTINUOUS
  62
7
 100
AcDbCircle
  10
 122.54571571237
  20
 182.49999999982
  30
0.0
  40
 0.20000000000000
 100
AcDbArc
  50
 269.99999999966
  51
 0.66587075033621E-7
   0
ARC
   5
40F
 100
AcDbEntity
   8
LEVEL002
 370
30
   6
CONTINUOUS
  62
7
 100
AcDbCircle
  10
 122.54571571236
  20
 182.50000000022
  30
0.0
  40
 1.0000000000000
 100
AcDbArc
  50
 269.99999999997
  51
0.0
   0
LINE
   5
410
 100
AcDbEntity
   8
LEVEL002
 370
30
 100
AcDbLine
   6
CONTINUOUS
  62
7
  10
 90.258982400002
  20
 168.20000000002
  30
0.0
  11
 91.045715712364
  21
 168.34581780122
  31
0.0
   0
ARC
   5
411
 100
AcDbEntity
   8
LEVEL002
 370
30
   6
CONTINUOUS
  62
7
 100
AcDbCircle
  10
 153.54571571236
  20
 183.02529549962
  30
0.0
  40
 65.000000000000
 100
AcDbArc
  50
 180.00000000001
  51
 193.18414608918
   0
ARC
   5
412
 100
AcDbEntity
   8
LEVEL002
 370
30
   6
CONTINUOUS
  62
7
 100
AcDbCircle
  10
 153.54571571237
  20
 183.02529549962
  30
0.0
  40
 64.200000000000
 100
AcDbArc
  50
 180.00000000000
  51
 193.18414608916
   0
LINE
   5
413
 100
AcDbEntity
   8
LEVEL002
 370
30
 100
AcDbLine
   6
CONTINUOUS
  62
7
  10
 88.545715712364
  20
 185.50000000002
  30
0.0
  11
 88.545715712365
  21
 183.02529549962
  31
0.0
   0
LINE
   5
414
 100
AcDbEntity
   8
LEVEL002
 370
30
 100
AcDbLine
   6
CONTINUOUS
  62
7
  10
 89.345715712365
  20
 185.50000000002
  30
0.0
  11
 89.345715712365
  21
 183.00000000002
  31
0.0
   0
ARC
   5
415
 100
AcDbEntity
   8
LEVEL002
 370
30
   6
CONTINUOUS
  62
7
 100
AcDbCircle
  10
 91.945715712395
  20
 185.50000000002
  30
0.0
  40
 1.0000000000000
 100
AcDbArc
  50
0.0
  51
 90.000000001720
   0
LINE
   5
416
 100
AcDbEntity
   8
LEVEL002
 370
30
 100
AcDbLine
   6
CONTINUOUS
  62
7
  10
 91.295715712365
  20
 182.30000000002
  30
0.0
  11
 97.945715712365
  21
 182.30000000002
  31
0.0
   0
LINE
   5
417
 100
AcDbEntity
   8
LEVEL002
 370
30
 100
AcDbLine
   6
CONTINUOUS
  62
7
  10
 103.94571571237
  20
 182.30000000002
  30
0.0
  11
 107.94571571237
  21
 182.30000000002
  31
0.0
   0
LINE
   5
418
 100
AcDbEntity
   8
LEVEL002
 370
30
 100
AcDbLine
   6
CONTINUOUS
  62
7
  10
 116.94571571237
  20
 182.30000000002
  30
0.0
  11
 121.19571571237
  21
 182.30000000002
  31
0.0
   0
LINE
   5
419
 100
AcDbEntity
   8
LEVEL002
 370
30
 100
AcDbLine
   6
CONTINUOUS
  62
7
  10
 119.45993557709
  20
 270.50000000002
  30
0.0
  11
 119.45993557709
  21
 225.50000000002
  31
0.0
   0
LINE
   5
41A
 100
AcDbEntity
   8
LEVEL002
 370
30
 100
AcDbLine
   6
CONTINUOUS
  62
7
  10
 88.545715712364
  20
 270.50000000002
  30
0.0
  11
 88.545715712364
  21
 225.50000000002
  31
0.0
   0
LINE
   5
41B
 100
AcDbEntity
   8
LEVEL002
 370
30
 100
AcDbLine
   6
CONTINUOUS
  62
7
  10
 88.545715712364
  20
 225.50000000002
  30
0.0
  11
 123.54571571236
  21
 225.50000000002
  31
0.0
   0
LINE
   5
41C
 100
AcDbEntity
   8
LEVEL002
 370
30
 100
AcDbLine
   6
CONTINUOUS
  62
7
  10
 123.54571571236
  20
 225.50000000002
  30
0.0
  11
 123.54571571236
  21
 270.50000000002
  31
0.0
   0
DIMENSION
   5
41D
 100
AcDbEntity
   8
LEVEL001
 370
15
   6
CONTINUOUS
  62
8
 100
AcDbDimension
   2
*D16
  10
 123.54571571236
  20
 196.50000000002
  30
0.0
  11
 106.04571571236
  21
 196.50000000002
  31
0.0
  70
0
   3
GMM001
 100
AcDbAlignedDimension
  13
 88.545715712364
  23
 188.50000000002
  33
0.0
  14
 123.54571571236
  24
 188.50000000002
  34
0.0
 100
AcDbRotatedDimension
   0
DIMENSION
   5
41E
 100
AcDbEntity
   8
LEVEL001
 370
15
   6
CONTINUOUS
  62
8
 100
AcDbDimension
   2
*D17
  10
 80.999999999900
  20
 186.50000000002
  30
0.0
  11
 80.999999999900
  21
 177.35000000002
  31
0.0
  70
0
   1
\A1;18
   3
GMM001
 100
AcDbAlignedDimension
  13
 86.545715712364
  23
 168.20000000002
  33
0.0
  14
 86.545715712364
  24
 186.50000000002
  34
0.0
  50
 90.000000000000
 100
AcDbRotatedDimension
   0
DIMENSION
   5
41F
 100
AcDbEntity
   8
LEVEL001
 370
15
   6
CONTINUOUS
  62
8
 100
AcDbDimension
   2
*D18
  10
 135.54571571236
  20
 185.50000000002
  30
0.0
  11
 135.54571571236
  21
 187.03953953956
  31
0.0
  70
128
   3
GMM007
 100
AcDbAlignedDimension
  13
 125.54571571236
  23
 181.50000000002
  33
0.0
  14
 125.54571571236
  24
 185.50000000002
  34
0.0
  50
 90.000000000000
 100
AcDbRotatedDimension
   0
LEADER
   5
420
 100
AcDbEntity
   8
LEVEL001
 370
15
   6
CONTINUOUS
  62
8
 100
AcDbLeader
   3
GMM006
  73
0
  74
0
  75
0
  40
 6.0000000000000
  41
 26.000000000000
  76
2
  10
 117.29369994992
  20
 186.75125125127
  30
0.0
  10
 128.53694319317
  20
 206.16266266268
  30
0.0
  77
8
 340
421
 213
0.0
 223
-2.0000000000000
 233
0.0
   0
MTEXT
   5
421
 102
{ACAD_REACTORS
 330
420
 102
}
 100
AcDbEntity
   8
LEVEL001
 370
15
  62
8
 100
AcDbMText
  10
 128.53694319317
  20
 208.16266266268
  30
0.0
  40
 6.0000000000000
  41
0.0
  71
7
  72
1
   1
\A1;インサート
   7
GMM002
   0
LEADER
   5
422
 100
AcDbEntity
   8
LEVEL001
 370
15
   6
CONTINUOUS
  62
8
 100
AcDbLeader
   3
GMM006
  73
0
  74
1
  75
0
  40
 6.0000000000000
  41
 11.000000000000
  76
2
  10
 90.279639481402
  20
 186.50000000002
  30
0.0
  10
 79.912318568543
  20
 206.16266266268
  30
0.0
  77
8
 340
423
 213
0.0
 223
-2.0000000000000
 233
0.0
   0
MTEXT
   5
423
 102
{ACAD_REACTORS
 330
422
 102
}
 100
AcDbEntity
   8
LEVEL001
 370
15
  62
8
 100
AcDbMText
  10
 68.912318568543
  20
 208.16266266268
  30
0.0
  40
 6.0000000000000
  41
0.0
  71
7
  72
1
   1
\A1;金台
   7
GMM002
   0
LINE
   5
424
 100
AcDbEntity
   8
LEVEL002
 370
25
 100
AcDbLine
   6
CONTINUOUS
  62
1
  10
 119.14571571237
  20
 184.40000000008
  30
0.0
  11
 119.14571571237
  21
 186.00000000008
  31
0.0
   0
LINE
   5
425
 100
AcDbEntity
   8
LEVEL002
 370
25
 100
AcDbLine
   6
CONTINUOUS
  62
1
  10
 119.14571571237
  20
 184.40000000008
  30
0.0
  11
 121.31859558208
  21
 183.54974265976
  31
0.0
   0
ARC
   5
426
 100
AcDbEntity
   8
LEVEL002
 370
25
   6
CONTINUOUS
  62
1
 100
AcDbCircle
  10
 121.24571571237
  20
 183.36349410382
  30
0.0
  40
 0.20000000000000
 100
AcDbArc
  50
 0.81422199845465E-11
  51
 68.629377730645
   0
LINE
   5
427
 100
AcDbEntity
   8
LEVEL002
 370
25
 100
AcDbLine
   6
CONTINUOUS
  62
1
  10
 121.44571571237
  20
 183.36349410382
  30
0.0
  11
 121.44571571237
  21
 182.50000000008
  31
0.0
   0
ARC
   5
428
 100
AcDbEntity
   8
LEVEL002
 370
25
   6
CONTINUOUS
  62
1
 100
AcDbCircle
  10
 121.24571571237
  20
 182.50000000008
  30
0.0
  40
 0.20000000000000
 100
AcDbArc
  50
 269.99999999989
  51
 0.16284439969093E-10
   0
LINE
   5
429
 100
AcDbEntity
   8
LEVEL002
 370
25
 100
AcDbLine
   6
CONTINUOUS
  62
1
  10
 121.24571571237
  20
 182.30000000008
  30
0.0
  11
 93.945715712368
  21
 182.30000000008
  31
0.0
   0
ARC
   5
42A
 100
AcDbEntity
   8
LEVEL002
 370
25
   6
CONTINUOUS
  62
1
 100
AcDbCircle
  10
 93.945715712368
  20
 183.30000000008
  30
0.0
  40
 1.0000000000000
 100
AcDbArc
  50
 180.00000000000
  51
 270.00000000000
   0
LINE
   5
42B
 100
AcDbEntity
   8
LEVEL002
 370
25
 100
AcDbLine
   6
CONTINUOUS
  62
1
  10
 92.945715712368
  20
 183.30000000008
  30
0.0
  11
 92.945715712368
  21
 186.00000000008
  31
0.0
   0
ARC
   5
42C
 100
AcDbEntity
   8
LEVEL002
 370
25
   6
CONTINUOUS
  62
1
 100
AcDbCircle
  10
 94.445715712368
  20
 186.00000000008
  30
0.0
  40
 1.5000000000000
 100
AcDbArc
  50
 90.000000000000
  51
 180.00000000000
   0
ARC
   5
42D
 100
AcDbEntity
   8
LEVEL002
 370
25
   6
CONTINUOUS
  62
1
 100
AcDbCircle
  10
 117.64571571237
  20
 186.00000000008
  30
0.0
  40
 1.5000000000000
 100
AcDbArc
  50
0.0
  51
 90.000000000009
   0
LINE
   5
42E
 100
AcDbEntity
   8
LEVEL002
 370
25
 100
AcDbLine
   6
CONTINUOUS
  62
1
  10
 94.445715712368
  20
 187.50000000008
  30
0.0
  11
 96.395715712368
  21
 187.50000000008
  31
0.0
   0
ARC
   5
42F
 100
AcDbEntity
   8
LEVEL002
 370
25
   6
CONTINUOUS
  62
1
 100
AcDbCircle
  10
 96.395715712368
  20
 187.30000000008
  30
0.0
  40
 0.20000000000000
 100
AcDbArc
  50
0.0
  51
 90.000000000012
   0
LINE
   5
430
 100
AcDbEntity
   8
LEVEL002
 370
25
 100
AcDbLine
   6
CONTINUOUS
  62
1
  10
 100.69571571237
  20
 187.50000000008
  30
0.0
  11
 103.89571571237
  21
 187.50000000008
  31
0.0
   0
ARC
   5
431
 100
AcDbEntity
   8
LEVEL002
 370
25
   6
CONTINUOUS
  62
1
 100
AcDbCircle
  10
 103.89571571237
  20
 187.30000000008
  30
0.0
  40
 0.20000000000000
 100
AcDbArc
  50
0.0
  51
 90.000000000012
   0
LINE
   5
432
 100
AcDbEntity
   8
LEVEL002
 370
25
 100
AcDbLine
   6
CONTINUOUS
  62
1
  10
 108.19571571237
  20
 187.50000000008
  30
0.0
  11
 117.64571571237
  21
 187.50000000008
  31
0.0
   0
LINE
   5
433
 100
AcDbEntity
   8
LEVEL002
 370
25
 100
AcDbLine
   6
CONTINUOUS
  62
1
  10
 96.595715712368
  20
 187.30000000008
  30
0.0
  11
 96.595715712368
  21
 186.20000000008
  31
0.0
   0
ARC
   5
434
 100
AcDbEntity
   8
LEVEL002
 370
25
   6
CONTINUOUS
  62
1
 100
AcDbCircle
  10
 96.795715712368
  20
 186.20000000008
  30
0.0
  40
 0.20000000000000
 100
AcDbArc
  50
 180.00000000005
  51
 270.00000000004
   0
LINE
   5
435
 100
AcDbEntity
   8
LEVEL002
 370
25
 100
AcDbLine
   6
CONTINUOUS
  62
1
  10
 96.795715712368
  20
 186.00000000008
  30
0.0
  11
 100.29571571237
  21
 186.00000000008
  31
0.0
   0
ARC
   5
436
 100
AcDbEntity
   8
LEVEL002
 370
25
   6
CONTINUOUS
  62
1
 100
AcDbCircle
  10
 100.29571571237
  20
 186.20000000008
  30
0.0
  40
 0.20000000000000
 100
AcDbArc
  50
 270.00000000002
  51
0.0
   0
LINE
   5
437
 100
AcDbEntity
   8
LEVEL002
 370
25
 100
AcDbLine
   6
CONTINUOUS
  62
1
  10
 100.49571571237
  20
 186.20000000008
  30
0.0
  11
 100.49571571237
  21
 187.30000000008
  31
0.0
   0
ARC
   5
438
 100
AcDbEntity
   8
LEVEL002
 370
25
   6
CONTINUOUS
  62
1
 100
AcDbCircle
  10
 100.69571571237
  20
 187.30000000008
  30
0.0
  40
 0.20000000000000
 100
AcDbArc
  50
 89.999999999858
  51
 180.00000000002
   0
LINE
   5
439
 100
AcDbEntity
   8
LEVEL002
 370
25
 100
AcDbLine
   6
CONTINUOUS
  62
1
  10
 104.09571571237
  20
 187.30000000008
  30
0.0
  11
 104.09571571237
  21
 186.20000000008
  31
0.0
   0
ARC
   5
43A
 100
AcDbEntity
   8
LEVEL002
 370
25
   6
CONTINUOUS
  62
1
 100
AcDbCircle
  10
 104.29571571237
  20
 186.20000000008
  30
0.0
  40
 0.20000000000000
 100
AcDbArc
  50
 180.00000000005
  51
 270.00000000008
   0
LINE
   5
43B
 100
AcDbEntity
   8
LEVEL002
 370
25
 100
AcDbLine
   6
CONTINUOUS
  62
1
  10
 104.29571571237
  20
 186.00000000008
  30
0.0
  11
 107.79571571237
  21
 186.00000000008
  31
0.0
   0
ARC
   5
43C
 100
AcDbEntity
   8
LEVEL002
 370
25
   6
CONTINUOUS
  62
1
 100
AcDbCircle
  10
 107.79571571237
  20
 186.20000000008
  30
0.0
  40
 0.20000000000000
 100
AcDbArc
  50
 270.00000000002
  51
0.0
   0
LINE
   5
43D
 100
AcDbEntity
   8
LEVEL002
 370
25
 100
AcDbLine
   6
CONTINUOUS
  62
1
  10
 107.99571571237
  20
 186.20000000008
  30
0.0
  11
 107.99571571237
  21
 187.30000000008
  31
0.0
   0
ARC
   5
43E
 100
AcDbEntity
   8
LEVEL002
 370
25
   6
CONTINUOUS
  62
1
 100
AcDbCircle
  10
 108.19571571237
  20
 187.30000000008
  30
0.0
  40
 0.20000000000000
 100
AcDbArc
  50
 89.999999999825
  51
 180.00000000002
   0
LINE
   5
43F
 100
AcDbEntity
   8
LEVEL002
 370
25
 100
AcDbLine
   6
CONTINUOUS
  62
1
  10
 119.14571571237
  20
 270.50000000002
  30
0.0
  11
 119.14571571237
  21
 225.50000000002
  31
0.0
   0
LINE
   5
440
 100
AcDbEntity
   8
LEVEL002
 370
25
 100
AcDbLine
   6
CONTINUOUS
  62
1
  10
 107.99571571237
  20
 270.50000000002
  30
0.0
  11
 107.99571571237
  21
 225.50000000002
  31
0.0
   0
LINE
   5
441
 100
AcDbEntity
   8
LEVEL002
 370
25
 100
AcDbLine
   6
CONTINUOUS
  62
1
  10
 104.09571571237
  20
 270.50000000002
  30
0.0
  11
 104.09571571237
  21
 225.50000000002
  31
0.0
   0
LINE
   5
442
 100
AcDbEntity
   8
LEVEL002
 370
25
 100
AcDbLine
   6
CONTINUOUS
  62
1
  10
 100.49571571237
  20
 270.50000000002
  30
0.0
  11
 100.49571571237
  21
 225.50000000002
  31
0.0
   0
LINE
   5
443
 100
AcDbEntity
   8
LEVEL002
 370
25
 100
AcDbLine
   6
CONTINUOUS
  62
1
  10
 96.595715712368
  20
 270.50000000002
  30
0.0
  11
 96.595715712368
  21
 225.50000000002
  31
0.0
   0
LINE
   5
444
 100
AcDbEntity
   8
LEVEL002
 370
25
 100
AcDbLine
   6
CONTINUOUS
  62
1
  10
 92.945715712368
  20
 270.50000000002
  30
0.0
  11
 92.945715712368
  21
 225.50000000002
  31
0.0
   0
MTEXT
   5
446
 100
AcDbEntity
   8
LEVEL002
 370
15
  62
8
 100
AcDbMText
  10
 693.79999999990
  20
 178.73437800236
  30
0.0
  40
 8.0000000000000
  41
0.0
  71
2
  72
1
   1
{\T1.000000;　※インサートのカラーバリエーション}\P{\T1.000000;　　はカタログを参照願います。}\P{\T1.000000;　※本製品は予告無しに変更する事があります。}
   7
GMM002
  44
 0.79999984000003
   0
LINE
   5
447
 100
AcDbEntity
   8
LEVEL002
 370
40
 100
AcDbLine
   6
CONTINUOUS
  62
3
  10
 608.99999999990
  20
 184.00000000002
  30
0.0
  11
 808.99999999990
  21
 184.00000000002
  31
0.0
   0
MTEXT
   5
449
 100
AcDbEntity
   8
LEVEL002
 370
15
  62
8
 100
AcDbMText
  10
 638.99999999990
  20
 415.83333333340
  30
0.0
  40
 7.0000000000000
  41
0.0
  71
1
  72
1
   1
{\W0.500000;\T1.000000;･\W1.000000;\T1.000000;金台}\P{\W0.500000;\T1.000000; \W1.000000;\T1.000000;　　ステンレス：ＳＵＳ３０４}\P{\W1.000000;\T1.000000;　　\W0.500000;\T1.000000; \W1.000000;\T1.000000;仕上げ：ＨＬ}
   7
GMM002
  44
 0.79999984000003
   0
MTEXT
   5
44B
 100
AcDbEntity
   8
LEVEL002
 370
15
  62
8
 100
AcDbMText
  10
 774.43016912150
  20
 97.333333333360
  30
0.0
  40
 6.0000000000000
  41
0.0
  71
5
  72
1
   1
\T1.000000;平成３０年　７月２８日
   7
GMM002
  44
 0.79999984000003
   0
ARC
   5
44C
 100
AcDbEntity
   8
LEVEL003
 370
30
   6
CONTINUOUS
  62
7
 100
AcDbCircle
  10
 408.19300020520
  20
 459.00000000000
  30
0.0
  40
 1.7000000000000
 100
AcDbArc
  50
 225.64374572060
  51
 270.00000000898
   0
LINE
   5
44D
 100
AcDbEntity
   8
LEVEL003
 370
30
 100
AcDbLine
   6
CONTINUOUS
  62
7
  10
 407.00450023120
  20
 457.78448866270
  30
0.0
  11
 405.97867613020
  21
 458.78751667260
  31
0.0
   0
ARC
   5
44E
 100
AcDbEntity
   8
LEVEL003
 370
30
   6
CONTINUOUS
  62
7
 100
AcDbCircle
  10
 404.23088205030
  20
 457.00000000000
  30
0.0
  40
 2.5000000000000
 100
AcDbArc
  50
 45.643745713336
  51
 89.999999998830
   0
LINE
   5
44F
 100
AcDbEntity
   8
LEVEL003
 370
30
 100
AcDbLine
   6
CONTINUOUS
  62
7
  10
 404.23088205040
  20
 459.50000000000
  30
0.0
  11
 403.76911794930
  21
 459.50000000000
  31
0.0
   0
ARC
   5
450
 100
AcDbEntity
   8
LEVEL003
 370
30
   6
CONTINUOUS
  62
7
 100
AcDbCircle
  10
 403.76911794930
  20
 457.00000000010
  30
0.0
  40
 2.5000000000000
 100
AcDbArc
  50
 90.000000001542
  51
 134.35625428799
   0
LINE
   5
451
 100
AcDbEntity
   8
LEVEL003
 370
30
 100
AcDbLine
   6
CONTINUOUS
  62
7
  10
 402.02132386950
  20
 458.78751667260
  30
0.0
  11
 400.99549976850
  21
 457.78448866270
  31
0.0
   0
ARC
   5
452
 100
AcDbEntity
   8
LEVEL003
 370
30
   6
CONTINUOUS
  62
7
 100
AcDbCircle
  10
 399.80699979400
  20
 458.99999999990
  30
0.0
  40
 1.7000000000000
 100
AcDbArc
  50
 270.00000000555
  51
 314.35625429359
   0
LINE
   5
453
 100
AcDbEntity
   8
LEVEL003
 370
30
 100
AcDbLine
   6
CONTINUOUS
  62
7
  10
 399.80699979420
  20
 457.30000000000
  30
0.0
  11
 397.69300020540
  21
 457.30000000000
  31
0.0
   0
ARC
   5
454
 100
AcDbEntity
   8
LEVEL003
 370
30
   6
CONTINUOUS
  62
7
 100
AcDbCircle
  10
 397.69300020550
  20
 459.00000000000
  30
0.0
  40
 1.7000000000000
 100
AcDbArc
  50
 225.64374571235
  51
 269.99999999743
   0
LINE
   5
455
 100
AcDbEntity
   8
LEVEL003
 370
30
 100
AcDbLine
   6
CONTINUOUS
  62
7
  10
 396.50450023120
  20
 457.78448866270
  30
0.0
  11
 395.47867613020
  21
 458.78751667260
  31
0.0
   0
ARC
   5
456
 100
AcDbEntity
   8
LEVEL003
 370
30
   6
CONTINUOUS
  62
7
 100
AcDbCircle
  10
 393.73088205030
  20
 457.00000000000
  30
0.0
  40
 2.5000000000000
 100
AcDbArc
  50
 45.643745712733
  51
 89.999999997987
   0
LINE
   5
457
 100
AcDbEntity
   8
LEVEL003
 370
30
 100
AcDbLine
   6
CONTINUOUS
  62
7
  10
 393.73088205040
  20
 459.50000000000
  30
0.0
  11
 393.26911794930
  21
 459.50000000000
  31
0.0
   0
ARC
   5
458
 100
AcDbEntity
   8
LEVEL003
 370
30
   6
CONTINUOUS
  62
7
 100
AcDbCircle
  10
 393.26911794930
  20
 457.00000000000
  30
0.0
  40
 2.5000000000000
 100
AcDbArc
  50
 90.000000000675
  51
 134.35625428676
   0
LINE
   5
459
 100
AcDbEntity
   8
LEVEL003
 370
30
 100
AcDbLine
   6
CONTINUOUS
  62
7
  10
 391.52132386950
  20
 458.78751667260
  30
0.0
  11
 390.49549976850
  21
 457.78448866270
  31
0.0
   0
ARC
   5
45A
 100
AcDbEntity
   8
LEVEL003
 370
30
   6
CONTINUOUS
  62
7
 100
AcDbCircle
  10
 389.30699979410
  20
 458.99999999990
  30
0.0
  40
 1.7000000000000
 100
AcDbArc
  50
 270.00000000420
  51
 314.35625429170
   0
LINE
   5
45B
 100
AcDbEntity
   8
LEVEL003
 370
30
 100
AcDbLine
   6
CONTINUOUS
  62
7
  10
 389.30699979420
  20
 457.30000000000
  30
0.0
  11
 387.19300020540
  21
 457.30000000000
  31
0.0
   0
ARC
   5
45C
 100
AcDbEntity
   8
LEVEL003
 370
30
   6
CONTINUOUS
  62
7
 100
AcDbCircle
  10
 387.19300020550
  20
 459.00000000000
  30
0.0
  40
 1.7000000000000
 100
AcDbArc
  50
 203.91653442141
  51
 269.99999999888
   0
ARC
   5
45D
 100
AcDbEntity
   8
LEVEL003
 370
30
   6
CONTINUOUS
  62
7
 100
AcDbCircle
  10
 383.81069330040
  20
 457.50000000000
  30
0.0
  40
 2.0000000000000
 100
AcDbArc
  50
 23.916534422313
  51
 90.000000001120
   0
LINE
   5
45E
 100
AcDbEntity
   8
LEVEL003
 370
30
 100
AcDbLine
   6
CONTINUOUS
  62
7
  10
 383.81069330040
  20
 459.50000000000
  30
0.0
  11
 382.88691855320
  21
 459.50000000000
  31
0.0
   0
ARC
   5
45F
 100
AcDbEntity
   8
LEVEL003
 370
30
   6
CONTINUOUS
  62
7
 100
AcDbCircle
  10
 382.88691855310
  20
 456.99999999990
  30
0.0
  40
 2.5000000000000
 100
AcDbArc
  50
 89.999999999562
  51
 171.15011689873
   0
ARC
   5
460
 100
AcDbEntity
   8
LEVEL003
 370
30
   6
CONTINUOUS
  62
7
 100
AcDbCircle
  10
 414.99999999980
  20
 452.00000000000
  30
0.0
  40
 35.000000000000
 100
AcDbArc
  50
 171.15011690154
  51
 192.37362511616
   0
LINE
   5
461
 100
AcDbEntity
   8
LEVEL003
 370
30
 100
AcDbLine
   6
CONTINUOUS
  62
7
  10
 380.81301417190
  20
 444.50000000000
  30
0.0
  11
 381.98513940030
  21
 444.75714285720
  31
0.0
   0
ARC
   5
462
 100
AcDbEntity
   8
LEVEL003
 370
30
   6
CONTINUOUS
  62
7
 100
AcDbCircle
  10
 414.99999999980
  20
 452.00000000000
  30
0.0
  40
 33.800000000000
 100
AcDbArc
  50
 171.15011690151
  51
 192.37362511613
   0
ARC
   5
463
 100
AcDbEntity
   8
LEVEL003
 370
30
   6
CONTINUOUS
  62
7
 100
AcDbCircle
  10
 382.88691855320
  20
 457.00000000030
  30
0.0
  40
 1.3000000000000
 100
AcDbArc
  50
 90.000000002205
  51
 171.15011691573
   0
LINE
   5
464
 100
AcDbEntity
   8
LEVEL003
 370
30
 100
AcDbLine
   6
CONTINUOUS
  62
7
  10
 382.88691855320
  20
 458.30000000000
  30
0.0
  11
 383.81069330040
  21
 458.30000000000
  31
0.0
   0
ARC
   5
465
 100
AcDbEntity
   8
LEVEL003
 370
30
   6
CONTINUOUS
  62
7
 100
AcDbCircle
  10
 383.81069330060
  20
 457.50000000000
  30
0.0
  40
 0.80000000000000
 100
AcDbArc
  50
 23.916534427918
  51
 90.000000014941
   0
ARC
   5
466
 100
AcDbEntity
   8
LEVEL003
 370
30
   6
CONTINUOUS
  62
7
 100
AcDbCircle
  10
 387.19300020540
  20
 459.00000000000
  30
0.0
  40
 2.9000000000000
 100
AcDbArc
  50
 203.91653442253
  51
 270.00000000167
   0
LINE
   5
467
 100
AcDbEntity
   8
LEVEL003
 370
30
 100
AcDbLine
   6
CONTINUOUS
  62
7
  10
 387.19300020540
  20
 456.10000000000
  30
0.0
  11
 389.30699979420
  21
 456.10000000000
  31
0.0
   0
ARC
   5
468
 100
AcDbEntity
   8
LEVEL003
 370
30
   6
CONTINUOUS
  62
7
 100
AcDbCircle
  10
 389.30699979430
  20
 459.00000000010
  30
0.0
  40
 2.9000000000000
 100
AcDbArc
  50
 269.99999999822
  51
 314.35625428335
   0
LINE
   5
469
 100
AcDbEntity
   8
LEVEL003
 370
30
 100
AcDbLine
   6
CONTINUOUS
  62
7
  10
 391.33444092680
  20
 456.92648065990
  30
0.0
  11
 392.36026502780
  21
 457.92950866970
  31
0.0
   0
ARC
   5
46A
 100
AcDbEntity
   8
LEVEL003
 370
30
   6
CONTINUOUS
  62
7
 100
AcDbCircle
  10
 393.26911794920
  20
 457.00000000000
  30
0.0
  40
 1.3000000000000
 100
AcDbArc
  50
 89.999999999141
  51
 134.35625428462
   0
LINE
   5
46B
 100
AcDbEntity
   8
LEVEL003
 370
30
 100
AcDbLine
   6
CONTINUOUS
  62
7
  10
 393.26911794930
  20
 458.30000000000
  30
0.0
  11
 393.73088205040
  21
 458.30000000000
  31
0.0
   0
ARC
   5
46C
 100
AcDbEntity
   8
LEVEL003
 370
30
   6
CONTINUOUS
  62
7
 100
AcDbCircle
  10
 393.73088204990
  20
 457.00000000000
  30
0.0
  40
 1.3000000000000
 100
AcDbArc
  50
 45.643745699835
  51
 89.999999979963
   0
LINE
   5
46D
 100
AcDbEntity
   8
LEVEL003
 370
30
 100
AcDbLine
   6
CONTINUOUS
  62
7
  10
 394.63973497190
  20
 457.92950866970
  30
0.0
  11
 395.66555907290
  21
 456.92648065990
  31
0.0
   0
ARC
   5
46E
 100
AcDbEntity
   8
LEVEL003
 370
30
   6
CONTINUOUS
  62
7
 100
AcDbCircle
  10
 397.69300020550
  20
 459.00000000000
  30
0.0
  40
 2.9000000000000
 100
AcDbArc
  50
 225.64374571323
  51
 269.99999999868
   0
LINE
   5
46F
 100
AcDbEntity
   8
LEVEL003
 370
30
 100
AcDbLine
   6
CONTINUOUS
  62
7
  10
 397.69300020540
  20
 456.10000000000
  30
0.0
  11
 399.80699979420
  21
 456.10000000000
  31
0.0
   0
ARC
   5
470
 100
AcDbEntity
   8
LEVEL003
 370
30
   6
CONTINUOUS
  62
7
 100
AcDbCircle
  10
 399.80699979420
  20
 459.00000000000
  30
0.0
  40
 2.9000000000000
 100
AcDbArc
  50
 270.00000000057
  51
 314.35625428662
   0
LINE
   5
471
 100
AcDbEntity
   8
LEVEL003
 370
30
 100
AcDbLine
   6
CONTINUOUS
  62
7
  10
 401.83444092680
  20
 456.92648065990
  30
0.0
  11
 402.86026502780
  21
 457.92950866970
  31
0.0
   0
ARC
   5
472
 100
AcDbEntity
   8
LEVEL003
 370
30
   6
CONTINUOUS
  62
7
 100
AcDbCircle
  10
 403.76911794910
  20
 456.99999999990
  30
0.0
  40
 1.3000000000000
 100
AcDbArc
  50
 89.999999995009
  51
 134.35625427884
   0
LINE
   5
473
 100
AcDbEntity
   8
LEVEL003
 370
30
 100
AcDbLine
   6
CONTINUOUS
  62
7
  10
 403.76911794930
  20
 458.30000000000
  30
0.0
  11
 404.23088205040
  21
 458.30000000000
  31
0.0
   0
ARC
   5
474
 100
AcDbEntity
   8
LEVEL003
 370
30
   6
CONTINUOUS
  62
7
 100
AcDbCircle
  10
 404.23088205030
  20
 457.00000000000
  30
0.0
  40
 1.3000000000000
 100
AcDbArc
  50
 45.643745711849
  51
 89.999999996748
   0
LINE
   5
475
 100
AcDbEntity
   8
LEVEL003
 370
30
 100
AcDbLine
   6
CONTINUOUS
  62
7
  10
 405.13973497190
  20
 457.92950866970
  30
0.0
  11
 406.16555907290
  21
 456.92648065990
  31
0.0
   0
ARC
   5
476
 100
AcDbEntity
   8
LEVEL003
 370
30
   6
CONTINUOUS
  62
7
 100
AcDbCircle
  10
 408.19300020540
  20
 459.00000000000
  30
0.0
  40
 2.9000000000000
 100
AcDbArc
  50
 225.64374571471
  51
 270.00000000076
   0
LINE
   5
477
 100
AcDbEntity
   8
LEVEL003
 370
30
 100
AcDbLine
   6
CONTINUOUS
  62
7
  10
 414.73088205040
  20
 459.50000000000
  30
0.0
  11
 414.26911794930
  21
 459.50000000000
  31
0.0
   0
ARC
   5
478
 100
AcDbEntity
   8
LEVEL003
 370
30
   6
CONTINUOUS
  62
7
 100
AcDbCircle
  10
 414.26911794940
  20
 457.00000000010
  30
0.0
  40
 2.5000000000000
 100
AcDbArc
  50
 90.000000002137
  51
 134.35625428882
   0
LINE
   5
479
 100
AcDbEntity
   8
LEVEL003
 370
30
 100
AcDbLine
   6
CONTINUOUS
  62
7
  10
 412.52132386950
  20
 458.78751667260
  30
0.0
  11
 411.49549976850
  21
 457.78448866270
  31
0.0
   0
ARC
   5
47A
 100
AcDbEntity
   8
LEVEL003
 370
30
   6
CONTINUOUS
  62
7
 100
AcDbCircle
  10
 410.30699979430
  20
 459.00000000010
  30
0.0
  40
 1.7000000000000
 100
AcDbArc
  50
 269.99999999769
  51
 314.35625428259
   0
LINE
   5
47B
 100
AcDbEntity
   8
LEVEL003
 370
30
 100
AcDbLine
   6
CONTINUOUS
  62
7
  10
 410.30699979420
  20
 457.30000000000
  30
0.0
  11
 408.19300020540
  21
 457.30000000000
  31
0.0
   0
LINE
   5
47C
 100
AcDbEntity
   8
LEVEL003
 370
30
 100
AcDbLine
   6
CONTINUOUS
  62
7
  10
 408.19300020540
  20
 456.10000000000
  30
0.0
  11
 410.30699979420
  21
 456.10000000000
  31
0.0
   0
ARC
   5
47D
 100
AcDbEntity
   8
LEVEL003
 370
30
   6
CONTINUOUS
  62
7
 100
AcDbCircle
  10
 410.30699979420
  20
 459.00000000000
  30
0.0
  40
 2.9000000000000
 100
AcDbArc
  50
 270.00000000064
  51
 314.35625428671
   0
LINE
   5
47E
 100
AcDbEntity
   8
LEVEL003
 370
30
 100
AcDbLine
   6
CONTINUOUS
  62
7
  10
 412.33444092680
  20
 456.92648065990
  30
0.0
  11
 413.36026502780
  21
 457.92950866970
  31
0.0
   0
ARC
   5
47F
 100
AcDbEntity
   8
LEVEL003
 370
30
   6
CONTINUOUS
  62
7
 100
AcDbCircle
  10
 414.26911794920
  20
 457.00000000000
  30
0.0
  40
 1.3000000000000
 100
AcDbArc
  50
 89.999999998231
  51
 134.35625428339
   0
LINE
   5
480
 100
AcDbEntity
   8
LEVEL003
 370
30
 100
AcDbLine
   6
CONTINUOUS
  62
7
  10
 414.26911794930
  20
 458.30000000000
  30
0.0
  11
 414.73088205040
  21
 458.30000000000
  31
0.0
   0
ARC
   5
481
 100
AcDbEntity
   8
LEVEL003
 370
30
   6
CONTINUOUS
  62
7
 100
AcDbCircle
  10
 429.19300020580
  20
 459.00000000000
  30
0.0
  40
 1.7000000000000
 100
AcDbArc
  50
 225.64374570442
  51
 269.99999998636
   0
LINE
   5
482
 100
AcDbEntity
   8
LEVEL003
 370
30
 100
AcDbLine
   6
CONTINUOUS
  62
7
  10
 428.00450023120
  20
 457.78448866270
  30
0.0
  11
 426.97867613020
  21
 458.78751667260
  31
0.0
   0
ARC
   5
483
 100
AcDbEntity
   8
LEVEL003
 370
30
   6
CONTINUOUS
  62
7
 100
AcDbCircle
  10
 425.23088205040
  20
 457.00000000000
  30
0.0
  40
 2.5000000000000
 100
AcDbArc
  50
 45.643745714545
  51
 90.000000000518
   0
LINE
   5
484
 100
AcDbEntity
   8
LEVEL003
 370
30
 100
AcDbLine
   6
CONTINUOUS
  62
7
  10
 425.23088205040
  20
 459.50000000000
  30
0.0
  11
 424.76911794930
  21
 459.50000000000
  31
0.0
   0
ARC
   5
485
 100
AcDbEntity
   8
LEVEL003
 370
30
   6
CONTINUOUS
  62
7
 100
AcDbCircle
  10
 424.76911794940
  20
 457.00000000010
  30
0.0
  40
 2.5000000000000
 100
AcDbArc
  50
 90.000000002772
  51
 134.35625428971
   0
LINE
   5
486
 100
AcDbEntity
   8
LEVEL003
 370
30
 100
AcDbLine
   6
CONTINUOUS
  62
7
  10
 423.02132386950
  20
 458.78751667260
  30
0.0
  11
 421.99549976850
  21
 457.78448866270
  31
0.0
   0
ARC
   5
487
 100
AcDbEntity
   8
LEVEL003
 370
30
   6
CONTINUOUS
  62
7
 100
AcDbCircle
  10
 420.80699979420
  20
 459.00000000010
  30
0.0
  40
 1.7000000000000
 100
AcDbArc
  50
 269.99999999879
  51
 314.35625428412
   0
LINE
   5
488
 100
AcDbEntity
   8
LEVEL003
 370
30
 100
AcDbLine
   6
CONTINUOUS
  62
7
  10
 420.80699979420
  20
 457.30000000000
  30
0.0
  11
 418.69300020540
  21
 457.30000000000
  31
0.0
   0
ARC
   5
489
 100
AcDbEntity
   8
LEVEL003
 370
30
   6
CONTINUOUS
  62
7
 100
AcDbCircle
  10
 418.69300020550
  20
 459.00000000000
  30
0.0
  40
 1.7000000000000
 100
AcDbArc
  50
 225.64374571261
  51
 269.99999999779
   0
LINE
   5
48A
 100
AcDbEntity
   8
LEVEL003
 370
30
 100
AcDbLine
   6
CONTINUOUS
  62
7
  10
 417.50450023120
  20
 457.78448866270
  30
0.0
  11
 416.47867613020
  21
 458.78751667260
  31
0.0
   0
ARC
   5
48B
 100
AcDbEntity
   8
LEVEL003
 370
30
   6
CONTINUOUS
  62
7
 100
AcDbCircle
  10
 414.73088205060
  20
 457.00000000000
  30
0.0
  40
 2.5000000000000
 100
AcDbArc
  50
 45.643745718307
  51
 90.000000005782
   0
ARC
   5
48C
 100
AcDbEntity
   8
LEVEL003
 370
30
   6
CONTINUOUS
  62
7
 100
AcDbCircle
  10
 414.73088205070
  20
 457.00000000000
  30
0.0
  40
 1.3000000000000
 100
AcDbArc
  50
 45.643745722955
  51
 90.000000012306
   0
LINE
   5
48D
 100
AcDbEntity
   8
LEVEL003
 370
30
 100
AcDbLine
   6
CONTINUOUS
  62
7
  10
 415.63973497190
  20
 457.92950866970
  30
0.0
  11
 416.66555907290
  21
 456.92648065990
  31
0.0
   0
ARC
   5
48E
 100
AcDbEntity
   8
LEVEL003
 370
30
   6
CONTINUOUS
  62
7
 100
AcDbCircle
  10
 418.69300020550
  20
 459.00000000000
  30
0.0
  40
 2.9000000000000
 100
AcDbArc
  50
 225.64374571305
  51
 269.99999999842
   0
LINE
   5
48F
 100
AcDbEntity
   8
LEVEL003
 370
30
 100
AcDbLine
   6
CONTINUOUS
  62
7
  10
 418.69300020540
  20
 456.10000000000
  30
0.0
  11
 420.80699979420
  21
 456.10000000000
  31
0.0
   0
ARC
   5
490
 100
AcDbEntity
   8
LEVEL003
 370
30
   6
CONTINUOUS
  62
7
 100
AcDbCircle
  10
 420.80699979420
  20
 459.00000000000
  30
0.0
  40
 2.9000000000000
 100
AcDbArc
  50
 269.99999999960
  51
 314.35625428527
   0
LINE
   5
491
 100
AcDbEntity
   8
LEVEL003
 370
30
 100
AcDbLine
   6
CONTINUOUS
  62
7
  10
 422.83444092680
  20
 456.92648065990
  30
0.0
  11
 423.86026502780
  21
 457.92950866970
  31
0.0
   0
ARC
   5
492
 100
AcDbEntity
   8
LEVEL003
 370
30
   6
CONTINUOUS
  62
7
 100
AcDbCircle
  10
 424.76911794920
  20
 457.00000000000
  30
0.0
  40
 1.3000000000000
 100
AcDbArc
  50
 89.999999997730
  51
 134.35625428265
   0
LINE
   5
493
 100
AcDbEntity
   8
LEVEL003
 370
30
 100
AcDbLine
   6
CONTINUOUS
  62
7
  10
 424.76911794930
  20
 458.30000000000
  30
0.0
  11
 425.23088205040
  21
 458.30000000000
  31
0.0
   0
ARC
   5
494
 100
AcDbEntity
   8
LEVEL003
 370
30
   6
CONTINUOUS
  62
7
 100
AcDbCircle
  10
 425.23088205050
  20
 457.00000000000
  30
0.0
  40
 1.3000000000000
 100
AcDbArc
  50
 45.643745718815
  51
 90.000000006489
   0
LINE
   5
495
 100
AcDbEntity
   8
LEVEL003
 370
30
 100
AcDbLine
   6
CONTINUOUS
  62
7
  10
 426.13973497190
  20
 457.92950866970
  30
0.0
  11
 427.16555907290
  21
 456.92648065990
  31
0.0
   0
ARC
   5
496
 100
AcDbEntity
   8
LEVEL003
 370
30
   6
CONTINUOUS
  62
7
 100
AcDbCircle
  10
 429.19300020540
  20
 459.00000000000
  30
0.0
  40
 2.9000000000000
 100
AcDbArc
  50
 225.64374571538
  51
 270.00000000169
   0
LINE
   5
497
 100
AcDbEntity
   8
LEVEL002
 370
30
 100
AcDbLine
   6
CONTINUOUS
  62
7
  10
 429.99999999990
  20
 457.30000000000
  30
0.0
  11
 429.99999999990
  21
 456.10000000000
  31
0.0
   0
LINE
   5
498
 100
AcDbEntity
   8
LEVEL003
 370
30
 100
AcDbLine
   6
CONTINUOUS
  62
7
  10
 429.99999999990
  20
 457.30000000000
  30
0.0
  11
 429.19300020540
  21
 457.30000000000
  31
0.0
   0
LINE
   5
499
 100
AcDbEntity
   8
LEVEL003
 370
30
 100
AcDbLine
   6
CONTINUOUS
  62
7
  10
 429.19300020540
  20
 456.10000000000
  30
0.0
  11
 429.99999999990
  21
 456.10000000000
  31
0.0
   0
LINE
   5
49A
 100
AcDbEntity
   8
LEVEL002
 370
30
 100
AcDbLine
   6
CONTINUOUS
  62
7
  10
 379.99999999990
  20
 543.50000000000
  30
0.0
  11
 379.99999999990
  21
 498.50000000000
  31
0.0
   0
LINE
   5
49B
 100
AcDbEntity
   8
LEVEL002
 370
30
 100
AcDbLine
   6
CONTINUOUS
  62
7
  10
 379.99999999990
  20
 498.50000000000
  30
0.0
  11
 429.99999999990
  21
 498.50000000000
  31
0.0
   0
LINE
   5
49C
 100
AcDbEntity
   8
LEVEL002
 370
30
 100
AcDbLine
   6
CONTINUOUS
  62
7
  10
 429.99999999990
  20
 498.50000000000
  30
0.0
  11
 429.99999999990
  21
 543.50000000000
  31
0.0
   0
LINE
   5
49D
 100
AcDbEntity
   8
LEVEL002
 370
30
 100
AcDbLine
   6
CONTINUOUS
  62
7
  10
 385.63896730310
  20
 543.50000000000
  30
0.0
  11
 385.63896730310
  21
 498.50000000000
  31
0.0
   0
LINE
   5
49E
 100
AcDbEntity
   8
LEVEL002
 370
30
 100
AcDbLine
   6
CONTINUOUS
  62
7
  10
 390.49549976850
  20
 543.50000000000
  30
0.0
  11
 390.49549976850
  21
 498.50000000000
  31
0.0
   0
LINE
   5
49F
 100
AcDbEntity
   8
LEVEL002
 370
30
 100
AcDbLine
   6
CONTINUOUS
  62
7
  10
 396.50450023120
  20
 543.50000000000
  30
0.0
  11
 396.50450023120
  21
 498.50000000000
  31
0.0
   0
LINE
   5
4A0
 100
AcDbEntity
   8
LEVEL002
 370
30
 100
AcDbLine
   6
CONTINUOUS
  62
7
  10
 400.99549976850
  20
 543.50000000000
  30
0.0
  11
 400.99549976850
  21
 498.50000000000
  31
0.0
   0
LINE
   5
4A1
 100
AcDbEntity
   8
LEVEL002
 370
30
 100
AcDbLine
   6
CONTINUOUS
  62
7
  10
 407.00450023120
  20
 543.50000000000
  30
0.0
  11
 407.00450023120
  21
 498.50000000000
  31
0.0
   0
LINE
   5
4A2
 100
AcDbEntity
   8
LEVEL002
 370
30
 100
AcDbLine
   6
CONTINUOUS
  62
7
  10
 411.49549976850
  20
 543.50000000000
  30
0.0
  11
 411.49549976850
  21
 498.50000000000
  31
0.0
   0
LINE
   5
4A3
 100
AcDbEntity
   8
LEVEL002
 370
30
 100
AcDbLine
   6
CONTINUOUS
  62
7
  10
 417.50450023120
  20
 543.50000000000
  30
0.0
  11
 417.50450023120
  21
 498.50000000000
  31
0.0
   0
LINE
   5
4A4
 100
AcDbEntity
   8
LEVEL002
 370
30
 100
AcDbLine
   6
CONTINUOUS
  62
7
  10
 421.99549976850
  20
 543.50000000000
  30
0.0
  11
 421.99549976850
  21
 498.50000000000
  31
0.0
   0
DIMENSION
   5
4A5
 100
AcDbEntity
   8
LEVEL001
 370
15
   6
CONTINUOUS
  62
8
 100
AcDbDimension
   2
*D21
  10
 429.99999999990
  20
 469.50000000000
  30
0.0
  11
 404.99999999990
  21
 469.50000000000
  31
0.0
  70
0
   3
GMM001
 100
AcDbAlignedDimension
  13
 379.99999999990
  23
 461.50000000000
  33
0.0
  14
 429.99999999990
  24
 461.50000000000
  34
0.0
 100
AcDbRotatedDimension
   0
DIMENSION
   5
4A6
 100
AcDbEntity
   8
LEVEL001
 370
15
   6
CONTINUOUS
  62
8
 100
AcDbDimension
   2
*D22
  10
 369.99999999990
  20
 459.50000000000
  30
0.0
  11
 369.99999999990
  21
 452.00000000000
  31
0.0
  70
0
   3
GMM001
 100
AcDbAlignedDimension
  13
 377.99999999990
  23
 444.50000000000
  33
0.0
  14
 377.99999999990
  24
 459.50000000000
  34
0.0
  50
 90.000000000000
 100
AcDbRotatedDimension
   0
DIMENSION
   5
4A7
 100
AcDbEntity
   8
LEVEL001
 370
15
   6
CONTINUOUS
  62
8
 100
AcDbDimension
   2
*D23
  10
 441.99999999990
  20
 459.50000000000
  30
0.0
  11
 441.99999999990
  21
 462.77414386106
  31
0.0
  70
128
   1
\A1;3
   3
GMM008
 100
AcDbAlignedDimension
  13
 431.99999999990
  23
 456.10000000000
  33
0.0
  14
 431.99999999990
  24
 459.50000000000
  34
0.0
  50
 90.000000000000
 100
AcDbRotatedDimension
   0
MTEXT
   5
4A9
 100
AcDbEntity
   8
LEVEL002
 370
15
  62
8
 100
AcDbMText
  10
 392.24999999990
  20
 560.00000000000
  30
0.0
  40
 6.0000000000000
  41
0.0
  71
5
  72
1
   1
\T1.000000;ＫＧ５００
   7
GMM002
  44
 0.79999984000003
   0
LINE
   5
4AA
 100
AcDbEntity
   8
LEVEL002
 370
30
 100
AcDbLine
   6
CONTINUOUS
  62
7
  10
 272.59847694910
  20
 456.27850816350
  30
0.0
  11
 273.49867817020
  21
 457.07200533510
  31
0.0
   0
LINE
   5
4AB
 100
AcDbEntity
   8
LEVEL002
 370
30
 100
AcDbLine
   6
CONTINUOUS
  62
7
  10
 273.49867817020
  20
 457.07200533510
  30
0.0
  11
 272.10497943140
  21
 458.65311910770
  31
0.0
   0
ARC
   5
4AC
 100
AcDbEntity
   8
LEVEL002
 370
30
   6
CONTINUOUS
  62
7
 100
AcDbCircle
  10
 270.22956022050
  20
 457.00000000000
  30
0.0
  40
 2.5000000000000
 100
AcDbArc
  50
 41.395094689844
  51
 89.999999996936
   0
LINE
   5
4AD
 100
AcDbEntity
   8
LEVEL002
 370
30
 100
AcDbLine
   6
CONTINUOUS
  62
7
  10
 270.22956022070
  20
 459.50000000000
  30
0.0
  11
 269.76779611960
  21
 459.50000000000
  31
0.0
   0
ARC
   5
4AE
 100
AcDbEntity
   8
LEVEL002
 370
30
   6
CONTINUOUS
  62
7
 100
AcDbCircle
  10
 269.76779611950
  20
 457.00000000000
  30
0.0
  40
 2.5000000000000
 100
AcDbArc
  50
 89.999999999325
  51
 134.35625428487
   0
LINE
   5
4AF
 100
AcDbEntity
   8
LEVEL002
 370
30
 100
AcDbLine
   6
CONTINUOUS
  62
7
  10
 268.02000203980
  20
 458.78751667260
  30
0.0
  11
 266.99417793880
  21
 457.78448866270
  31
0.0
   0
ARC
   5
4B0
 100
AcDbEntity
   8
LEVEL002
 370
30
   6
CONTINUOUS
  62
7
 100
AcDbCircle
  10
 265.80567796440
  20
 459.00000000000
  30
0.0
  40
 1.7000000000000
 100
AcDbArc
  50
 270.00000000480
  51
 314.35625428925
   0
LINE
   5
4B1
 100
AcDbEntity
   8
LEVEL002
 370
30
 100
AcDbLine
   6
CONTINUOUS
  62
7
  10
 265.80567796450
  20
 457.30000000000
  30
0.0
  11
 263.69167837570
  21
 457.30000000000
  31
0.0
   0
ARC
   5
4B2
 100
AcDbEntity
   8
LEVEL002
 370
30
   6
CONTINUOUS
  62
7
 100
AcDbCircle
  10
 263.69167837570
  20
 459.00000000010
  30
0.0
  40
 1.7000000000000
 100
AcDbArc
  50
 225.64374571696
  51
 270.00000000198
   0
LINE
   5
4B3
 100
AcDbEntity
   8
LEVEL002
 370
30
 100
AcDbLine
   6
CONTINUOUS
  62
7
  10
 262.50317840150
  20
 457.78448866270
  30
0.0
  11
 261.47735430050
  21
 458.78751667260
  31
0.0
   0
ARC
   5
4B4
 100
AcDbEntity
   8
LEVEL002
 370
30
   6
CONTINUOUS
  62
7
 100
AcDbCircle
  10
 259.72956022060
  20
 457.00000000000
  30
0.0
  40
 2.5000000000000
 100
AcDbArc
  50
 45.643745712790
  51
 89.999999998052
   0
LINE
   5
4B5
 100
AcDbEntity
   8
LEVEL002
 370
30
 100
AcDbLine
   6
CONTINUOUS
  62
7
  10
 259.72956022070
  20
 459.50000000000
  30
0.0
  11
 259.26779611960
  21
 459.50000000000
  31
0.0
   0
ARC
   5
4B6
 100
AcDbEntity
   8
LEVEL002
 370
30
   6
CONTINUOUS
  62
7
 100
AcDbCircle
  10
 259.26779611970
  20
 457.00000000020
  30
0.0
  40
 2.5000000000000
 100
AcDbArc
  50
 90.000000003035
  51
 134.35625429006
   0
LINE
   5
4B7
 100
AcDbEntity
   8
LEVEL002
 370
30
 100
AcDbLine
   6
CONTINUOUS
  62
7
  10
 257.52000203980
  20
 458.78751667260
  30
0.0
  11
 256.49417793880
  21
 457.78448866270
  31
0.0
   0
ARC
   5
4B8
 100
AcDbEntity
   8
LEVEL002
 370
30
   6
CONTINUOUS
  62
7
 100
AcDbCircle
  10
 255.30567796480
  20
 459.00000000000
  30
0.0
  40
 1.7000000000000
 100
AcDbArc
  50
 269.99999998972
  51
 314.35625427847
   0
LINE
   5
4B9
 100
AcDbEntity
   8
LEVEL002
 370
30
 100
AcDbLine
   6
CONTINUOUS
  62
7
  10
 255.30567796450
  20
 457.30000000000
  30
0.0
  11
 253.19167837570
  21
 457.30000000000
  31
0.0
   0
ARC
   5
4BA
 100
AcDbEntity
   8
LEVEL002
 370
30
   6
CONTINUOUS
  62
7
 100
AcDbCircle
  10
 253.19167837570
  20
 459.00000000000
  30
0.0
  40
 1.7000000000000
 100
AcDbArc
  50
 225.64374571523
  51
 270.00000000074
   0
LINE
   5
4BB
 100
AcDbEntity
   8
LEVEL002
 370
30
 100
AcDbLine
   6
CONTINUOUS
  62
7
  10
 252.00317840150
  20
 457.78448866270
  30
0.0
  11
 250.97735430050
  21
 458.78751667260
  31
0.0
   0
ARC
   5
4BC
 100
AcDbEntity
   8
LEVEL002
 370
30
   6
CONTINUOUS
  62
7
 100
AcDbCircle
  10
 249.22956022060
  20
 457.00000000000
  30
0.0
  40
 2.5000000000000
 100
AcDbArc
  50
 45.643745712134
  51
 89.999999997135
   0
LINE
   5
4BD
 100
AcDbEntity
   8
LEVEL002
 370
30
 100
AcDbLine
   6
CONTINUOUS
  62
7
  10
 249.22956022070
  20
 459.50000000000
  30
0.0
  11
 248.76779611960
  21
 459.50000000000
  31
0.0
   0
ARC
   5
4BE
 100
AcDbEntity
   8
LEVEL002
 370
30
   6
CONTINUOUS
  62
7
 100
AcDbCircle
  10
 248.76779611970
  20
 457.00000000010
  30
0.0
  40
 2.5000000000000
 100
AcDbArc
  50
 90.000000002377
  51
 134.35625428915
   0
LINE
   5
4BF
 100
AcDbEntity
   8
LEVEL002
 370
30
 100
AcDbLine
   6
CONTINUOUS
  62
7
  10
 247.02000203980
  20
 458.78751667260
  30
0.0
  11
 245.99417793880
  21
 457.78448866270
  31
0.0
   0
ARC
   5
4C0
 100
AcDbEntity
   8
LEVEL002
 370
30
   6
CONTINUOUS
  62
7
 100
AcDbCircle
  10
 244.80567796450
  20
 459.00000000000
  30
0.0
  40
 1.7000000000000
 100
AcDbArc
  50
 270.00000000103
  51
 314.35625428655
   0
LINE
   5
4C1
 100
AcDbEntity
   8
LEVEL002
 370
30
 100
AcDbLine
   6
CONTINUOUS
  62
7
  10
 244.80567796450
  20
 457.30000000000
  30
0.0
  11
 242.69167837570
  21
 457.30000000000
  31
0.0
   0
ARC
   5
4C2
 100
AcDbEntity
   8
LEVEL002
 370
30
   6
CONTINUOUS
  62
7
 100
AcDbCircle
  10
 242.69167837570
  20
 459.00000000010
  30
0.0
  40
 1.7000000000000
 100
AcDbArc
  50
 203.91653442451
  51
 270.00000000106
   0
ARC
   5
4C3
 100
AcDbEntity
   8
LEVEL002
 370
30
   6
CONTINUOUS
  62
7
 100
AcDbCircle
  10
 239.30937147070
  20
 457.50000000000
  30
0.0
  40
 2.0000000000000
 100
AcDbArc
  50
 23.916534422082
  51
 90.000000000561
   0
LINE
   5
4C4
 100
AcDbEntity
   8
LEVEL002
 370
30
 100
AcDbLine
   6
CONTINUOUS
  62
7
  10
 239.30937147070
  20
 459.50000000000
  30
0.0
  11
 238.38559672350
  21
 459.50000000000
  31
0.0
   0
ARC
   5
4C5
 100
AcDbEntity
   8
LEVEL002
 370
30
   6
CONTINUOUS
  62
7
 100
AcDbCircle
  10
 238.38559672350
  20
 457.00000000000
  30
0.0
  40
 2.5000000000000
 100
AcDbArc
  50
 89.999999999989
  51
 171.15011690148
   0
ARC
   5
4C6
 100
AcDbEntity
   8
LEVEL002
 370
30
   6
CONTINUOUS
  62
7
 100
AcDbCircle
  10
 270.49867817010
  20
 452.00000000000
  30
0.0
  40
 35.000000000000
 100
AcDbArc
  50
 171.15011690156
  51
 192.37362511618
   0
LINE
   5
4C7
 100
AcDbEntity
   8
LEVEL002
 370
30
 100
AcDbLine
   6
CONTINUOUS
  62
7
  10
 236.31169234220
  20
 444.50000000000
  30
0.0
  11
 237.48381757060
  21
 444.75714285720
  31
0.0
   0
ARC
   5
4C8
 100
AcDbEntity
   8
LEVEL002
 370
30
   6
CONTINUOUS
  62
7
 100
AcDbCircle
  10
 270.49867817010
  20
 452.00000000000
  30
0.0
  40
 33.800000000000
 100
AcDbArc
  50
 171.15011690155
  51
 192.37362511617
   0
ARC
   5
4C9
 100
AcDbEntity
   8
LEVEL002
 370
30
   6
CONTINUOUS
  62
7
 100
AcDbCircle
  10
 238.38559672360
  20
 457.00000000000
  30
0.0
  40
 1.3000000000000
 100
AcDbArc
  50
 90.000000005110
  51
 171.15011690236
   0
LINE
   5
4CA
 100
AcDbEntity
   8
LEVEL002
 370
30
 100
AcDbLine
   6
CONTINUOUS
  62
7
  10
 238.38559672350
  20
 458.30000000000
  30
0.0
  11
 239.30937147070
  21
 458.30000000000
  31
0.0
   0
ARC
   5
4CB
 100
AcDbEntity
   8
LEVEL002
 370
30
   6
CONTINUOUS
  62
7
 100
AcDbCircle
  10
 239.30937147060
  20
 457.50000000010
  30
0.0
  40
 0.80000000000000
 100
AcDbArc
  50
 23.916534411963
  51
 89.999999995961
   0
ARC
   5
4CC
 100
AcDbEntity
   8
LEVEL002
 370
30
   6
CONTINUOUS
  62
7
 100
AcDbCircle
  10
 242.69167837580
  20
 459.00000000000
  30
0.0
  40
 2.9000000000000
 100
AcDbArc
  50
 203.91653442116
  51
 269.99999999830
   0
LINE
   5
4CD
 100
AcDbEntity
   8
LEVEL002
 370
30
 100
AcDbLine
   6
CONTINUOUS
  62
7
  10
 242.69167837570
  20
 456.10000000000
  30
0.0
  11
 244.80567796450
  21
 456.10000000000
  31
0.0
   0
ARC
   5
4CE
 100
AcDbEntity
   8
LEVEL002
 370
30
   6
CONTINUOUS
  62
7
 100
AcDbCircle
  10
 244.80567796460
  20
 459.00000000010
  30
0.0
  40
 2.9000000000000
 100
AcDbArc
  50
 269.99999999832
  51
 314.35625428348
   0
LINE
   5
4CF
 100
AcDbEntity
   8
LEVEL002
 370
30
 100
AcDbLine
   6
CONTINUOUS
  62
7
  10
 246.83311909710
  20
 456.92648065990
  30
0.0
  11
 247.85894319810
  21
 457.92950866970
  31
0.0
   0
ARC
   5
4D0
 100
AcDbEntity
   8
LEVEL002
 370
30
   6
CONTINUOUS
  62
7
 100
AcDbCircle
  10
 248.76779612000
  20
 457.00000000000
  30
0.0
  40
 1.3000000000000
 100
AcDbArc
  50
 90.000000018280
  51
 134.35625429891
   0
LINE
   5
4D1
 100
AcDbEntity
   8
LEVEL002
 370
30
 100
AcDbLine
   6
CONTINUOUS
  62
7
  10
 248.76779611960
  20
 458.30000000000
  30
0.0
  11
 249.22956022070
  21
 458.30000000000
  31
0.0
   0
ARC
   5
4D2
 100
AcDbEntity
   8
LEVEL002
 370
30
   6
CONTINUOUS
  62
7
 100
AcDbCircle
  10
 249.22956022050
  20
 457.00000000020
  30
0.0
  40
 1.3000000000000
 100
AcDbArc
  50
 45.643745704364
  51
 89.999999992981
   0
LINE
   5
4D3
 100
AcDbEntity
   8
LEVEL002
 370
30
 100
AcDbLine
   6
CONTINUOUS
  62
7
  10
 250.13841314220
  20
 457.92950866970
  30
0.0
  11
 251.16423724320
  21
 456.92648065990
  31
0.0
   0
ARC
   5
4D4
 100
AcDbEntity
   8
LEVEL002
 370
30
   6
CONTINUOUS
  62
7
 100
AcDbCircle
  10
 253.19167837580
  20
 459.00000000000
  30
0.0
  40
 2.9000000000000
 100
AcDbArc
  50
 225.64374571407
  51
 269.99999999986
   0
LINE
   5
4D5
 100
AcDbEntity
   8
LEVEL002
 370
30
 100
AcDbLine
   6
CONTINUOUS
  62
7
  10
 253.19167837570
  20
 456.10000000000
  30
0.0
  11
 255.30567796450
  21
 456.10000000000
  31
0.0
   0
ARC
   5
4D6
 100
AcDbEntity
   8
LEVEL002
 370
30
   6
CONTINUOUS
  62
7
 100
AcDbCircle
  10
 255.30567796440
  20
 458.99999999990
  30
0.0
  40
 2.9000000000000
 100
AcDbArc
  50
 270.00000000290
  51
 314.35625428988
   0
LINE
   5
4D7
 100
AcDbEntity
   8
LEVEL002
 370
30
 100
AcDbLine
   6
CONTINUOUS
  62
7
  10
 257.33311909710
  20
 456.92648065990
  30
0.0
  11
 258.35894319810
  21
 457.92950866970
  31
0.0
   0
ARC
   5
4D8
 100
AcDbEntity
   8
LEVEL002
 370
30
   6
CONTINUOUS
  62
7
 100
AcDbCircle
  10
 259.26779611960
  20
 457.00000000000
  30
0.0
  40
 1.3000000000000
 100
AcDbArc
  50
 90.000000002044
  51
 134.35625428729
   0
LINE
   5
4D9
 100
AcDbEntity
   8
LEVEL002
 370
30
 100
AcDbLine
   6
CONTINUOUS
  62
7
  10
 259.26779611960
  20
 458.30000000000
  30
0.0
  11
 259.72956022070
  21
 458.30000000000
  31
0.0
   0
ARC
   5
4DA
 100
AcDbEntity
   8
LEVEL002
 370
30
   6
CONTINUOUS
  62
7
 100
AcDbCircle
  10
 259.72956022080
  20
 456.99999999990
  30
0.0
  40
 1.3000000000000
 100
AcDbArc
  50
 45.643745720567
  51
 90.000000004572
   0
LINE
   5
4DB
 100
AcDbEntity
   8
LEVEL002
 370
30
 100
AcDbLine
   6
CONTINUOUS
  62
7
  10
 260.63841314220
  20
 457.92950866970
  30
0.0
  11
 261.66423724320
  21
 456.92648065990
  31
0.0
   0
ARC
   5
4DC
 100
AcDbEntity
   8
LEVEL002
 370
30
   6
CONTINUOUS
  62
7
 100
AcDbCircle
  10
 263.69167837580
  20
 459.00000000000
  30
0.0
  40
 2.9000000000000
 100
AcDbArc
  50
 225.64374571402
  51
 269.99999999978
   0
LINE
   5
4DD
 100
AcDbEntity
   8
LEVEL002
 370
30
 100
AcDbLine
   6
CONTINUOUS
  62
7
  10
 263.69167837570
  20
 456.10000000000
  30
0.0
  11
 265.80567796450
  21
 456.10000000000
  31
0.0
   0
ARC
   5
4DE
 100
AcDbEntity
   8
LEVEL002
 370
30
   6
CONTINUOUS
  62
7
 100
AcDbCircle
  10
 265.80567796440
  20
 459.00000000000
  30
0.0
  40
 2.9000000000000
 100
AcDbArc
  50
 270.00000000119
  51
 314.35625428747
   0
LINE
   5
4DF
 100
AcDbEntity
   8
LEVEL002
 370
30
 100
AcDbLine
   6
CONTINUOUS
  62
7
  10
 267.83311909710
  20
 456.92648065990
  30
0.0
  11
 268.85894319810
  21
 457.92950866970
  31
0.0
   0
ARC
   5
4E0
 100
AcDbEntity
   8
LEVEL002
 370
30
   6
CONTINUOUS
  62
7
 100
AcDbCircle
  10
 269.76779611960
  20
 457.00000000000
  30
0.0
  40
 1.3000000000000
 100
AcDbArc
  50
 90.000000000942
  51
 134.35625428649
   0
LINE
   5
4E1
 100
AcDbEntity
   8
LEVEL002
 370
30
 100
AcDbLine
   6
CONTINUOUS
  62
7
  10
 269.76779611960
  20
 458.30000000000
  30
0.0
  11
 270.22956022070
  21
 458.30000000000
  31
0.0
   0
ARC
   5
4E2
 100
AcDbEntity
   8
LEVEL002
 370
30
   6
CONTINUOUS
  62
7
 100
AcDbCircle
  10
 270.22956022070
  20
 456.99999999990
  30
0.0
  40
 1.3000000000000
 100
AcDbArc
  50
 41.395094696137
  51
 90.000000002826
   0
LINE
   5
4E3
 100
AcDbEntity
   8
LEVEL002
 370
30
 100
AcDbLine
   6
CONTINUOUS
  62
7
  10
 271.20477821030
  20
 457.85962193600
  30
0.0
  11
 272.59847694910
  21
 456.27850816350
  31
0.0
   0
LINE
   5
4E4
 100
AcDbEntity
   8
LEVEL002
 370
30
 100
AcDbLine
   6
CONTINUOUS
  62
7
  10
 235.49999999990
  20
 543.50000000000
  30
0.0
  11
 235.49999999990
  21
 498.50000000000
  31
0.0
   0
LINE
   5
4E5
 100
AcDbEntity
   8
LEVEL002
 370
30
 100
AcDbLine
   6
CONTINUOUS
  62
7
  10
 235.49999999990
  20
 498.50000000000
  30
0.0
  11
 273.49867817020
  21
 498.50000000000
  31
0.0
   0
LINE
   5
4E6
 100
AcDbEntity
   8
LEVEL002
 370
30
 100
AcDbLine
   6
CONTINUOUS
  62
7
  10
 273.49867817020
  20
 498.50000000000
  30
0.0
  11
 273.49867817020
  21
 543.50000000000
  31
0.0
   0
LINE
   5
4E7
 100
AcDbEntity
   8
LEVEL002
 370
30
 100
AcDbLine
   6
CONTINUOUS
  62
7
  10
 241.13764547340
  20
 543.50000000000
  30
0.0
  11
 241.13764547340
  21
 498.50000000000
  31
0.0
   0
LINE
   5
4E8
 100
AcDbEntity
   8
LEVEL002
 370
30
 100
AcDbLine
   6
CONTINUOUS
  62
7
  10
 245.99417793880
  20
 543.50000000000
  30
0.0
  11
 245.99417793880
  21
 498.50000000000
  31
0.0
   0
LINE
   5
4E9
 100
AcDbEntity
   8
LEVEL002
 370
30
 100
AcDbLine
   6
CONTINUOUS
  62
7
  10
 252.00317840150
  20
 543.50000000000
  30
0.0
  11
 252.00317840150
  21
 498.50000000000
  31
0.0
   0
LINE
   5
4EA
 100
AcDbEntity
   8
LEVEL002
 370
30
 100
AcDbLine
   6
CONTINUOUS
  62
7
  10
 256.49417793880
  20
 543.50000000000
  30
0.0
  11
 256.49417793880
  21
 498.50000000000
  31
0.0
   0
LINE
   5
4EB
 100
AcDbEntity
   8
LEVEL002
 370
30
 100
AcDbLine
   6
CONTINUOUS
  62
7
  10
 262.50317840150
  20
 543.50000000000
  30
0.0
  11
 262.50317840150
  21
 498.50000000000
  31
0.0
   0
LINE
   5
4EC
 100
AcDbEntity
   8
LEVEL002
 370
30
 100
AcDbLine
   6
CONTINUOUS
  62
7
  10
 266.99417793880
  20
 543.50000000000
  30
0.0
  11
 266.99417793880
  21
 498.50000000000
  31
0.0
   0
DIMENSION
   5
4ED
 100
AcDbEntity
   8
LEVEL001
 370
15
   6
CONTINUOUS
  62
8
 100
AcDbDimension
   2
*D24
  10
 225.49999999990
  20
 459.50000000000
  30
0.0
  11
 225.49999999990
  21
 452.00000000000
  31
0.0
  70
0
   3
GMM001
 100
AcDbAlignedDimension
  13
 233.49999999990
  23
 444.50000000000
  33
0.0
  14
 233.49999999990
  24
 459.50000000000
  34
0.0
  50
 90.000000000000
 100
AcDbRotatedDimension
   0
DIMENSION
   5
4EE
 100
AcDbEntity
   8
LEVEL001
 370
15
   6
CONTINUOUS
  62
8
 100
AcDbDimension
   2
*D25
  10
 273.49867817020
  20
 469.50000000000
  30
0.0
  11
 254.49933908505
  21
 469.50000000000
  31
0.0
  70
0
   1
\A1;38
   3
GMM001
 100
AcDbAlignedDimension
  13
 235.49999999990
  23
 461.50000000000
  33
0.0
  14
 273.49867817020
  24
 461.50000000000
  34
0.0
 100
AcDbRotatedDimension
   0
DIMENSION
   5
4EF
 100
AcDbEntity
   8
LEVEL001
 370
15
   6
CONTINUOUS
  62
8
 100
AcDbDimension
   2
*D26
  10
 285.49867817020
  20
 459.50000000000
  30
0.0
  11
 285.49867817020
  21
 461.63813329705
  31
0.0
  70
128
   1
\A1;3
   3
GMM005
 100
AcDbAlignedDimension
  13
 275.49867817020
  23
 456.27850816350
  33
0.0
  14
 275.49867817020
  24
 459.50000000000
  34
0.0
  50
 90.000000000000
 100
AcDbRotatedDimension
   0
MTEXT
   5
4F1
 100
AcDbEntity
   8
LEVEL002
 370
15
  62
8
 100
AcDbMText
  10
 247.74999999990
  20
 560.00000000000
  30
0.0
  40
 6.0000000000000
  41
0.0
  71
5
  72
1
   1
\T1.000000;ＫＧ５０８Ｙ
   7
GMM002
  44
 0.79999984000003
   0
MTEXT
   5
4F3
 100
AcDbEntity
   8
LEVEL002
 370
15
  62
8
 100
AcDbMText
  10
 103.24999999990
  20
 560.00000000000
  30
0.0
  40
 6.0000000000000
  41
0.0
  71
5
  72
1
   1
\T1.000000;ＫＧ５０８
   7
GMM002
  44
 0.79999984000003
   0
MTEXT
   5
4F5
 100
AcDbEntity
   8
LEVEL002
 370
15
  62
8
 100
AcDbMText
  10
 774.43016912150
  20
 84.000000000020
  30
0.0
  40
 6.0000000000000
  41
0.0
  71
5
  72
1
   1
\T1.000000;令和０５年０６月１９日
   7
GMM002
  44
 0.79999984000003
   0
MTEXT
   5
4F7
 100
AcDbEntity
   8
LEVEL002
 370
15
  62
8
 100
AcDbMText
  10
 774.43016912150
  20
 70.666666666690
  30
0.0
  40
 6.0000000000000
  41
0.0
  71
5
  72
1
   1
\T1.000000;令和　　年　　月　　日
   7
GMM002
  44
 0.79999984000003
   0
MTEXT
   5
4F9
 100
AcDbEntity
   8
LEVEL002
 370
15
  62
8
 100
AcDbMText
  10
 35.999999999900
  20
 546.33333333340
  30
0.0
  40
 4.0000000000000
  41
0.0
  71
1
  72
1
   3
{\W0.500000;\T1.000000;･\W1.000000;\T1.000000;長尺シート／コンクリート}\P{\W0.500000;\T1.000000; \W1.000000;\T1.000000;石／木製用}\P\P{\W0.500000;\T1.000000;･\W1.000000;\T1.000000;定尺}\P{\W1.000000;\T1.000000;　　３６４０\W0.500000;\T1.000000;m/m}\P
   1
{\W1.000000;\T1.000000;　　４０００\W0.500000;\T1.000000;m/m}
   7
GMM002
  44
 0.79999984000003
   0
MTEXT
   5
4FB
 100
AcDbEntity
   8
LEVEL002
 370
15
  62
8
 100
AcDbMText
  10
 180.49999999990
  20
 546.33333333340
  30
0.0
  40
 4.0000000000000
  41
0.0
  71
1
  72
1
   3
{\W0.500000;\T1.000000;･\W1.000000;\T1.000000;長尺シート／コンクリート}\P{\W0.500000;\T1.000000; \W1.000000;\T1.000000;石／木製用}\P{\W0.500000;\T1.000000;･\W1.000000;\T1.000000;仕上－本体黄色塗装}\P\P{\W0.500000;\T1.000000;･\W1.000000;\T1.000000;定
   1
尺}\P{\W1.000000;\T1.000000;　　４０００\W0.500000;\T1.000000;m/m}
   7
GMM002
  44
 0.79999984000003
   0
MTEXT
   5
4FD
 100
AcDbEntity
   8
LEVEL002
 370
15
  62
8
 100
AcDbMText
  10
 324.99999999990
  20
 546.33333333340
  30
0.0
  40
 4.0000000000000
  41
0.0
  71
1
  72
1
   1
{\W0.500000;\T1.000000;･\W1.000000;\T1.000000;長尺シート／コンクリート}\P{\W0.500000;\T1.000000; \W1.000000;\T1.000000;石／木製用}\P\P{\W0.500000;\T1.000000;･\W1.000000;\T1.000000;定尺}\P{\W1.000000;\T1.000000;　　４０００\W0.500000;\T1.000000;m/m}
   7
GMM002
  44
 0.79999984000003
   0
MTEXT
   5
4FF
 100
AcDbEntity
   8
LEVEL002
 370
15
  62
8
 100
AcDbMText
  10
 35.999999999900
  20
 409.83333333340
  30
0.0
  40
 4.0000000000000
  41
0.0
  71
1
  72
1
   3
{\W0.500000;\T1.000000;･\W1.000000;\T1.000000;長尺シート／コンクリート}\P{\W0.500000;\T1.000000; \W1.000000;\T1.000000;石／木製用}\P\P{\W0.500000;\T1.000000;･\W1.000000;\T1.000000;定尺}\P{\W1.000000;\T1.000000;　　３８１５\W0.500000;\T1.000000;m/m}\P
   1
{\W1.000000;\T1.000000;　　４１１５\W0.500000;\T1.000000;m/m}
   7
GMM002
  44
 0.79999984000003
   0
MTEXT
   5
501
 100
AcDbEntity
   8
LEVEL002
 370
15
  62
8
 100
AcDbMText
  10
 180.49999999990
  20
 409.83333333340
  30
0.0
  40
 4.0000000000000
  41
0.0
  71
1
  72
1
   3
{\W0.500000;\T1.000000;･\W1.000000;\T1.000000;長尺シート／コンクリート}\P{\W0.500000;\T1.000000; \W1.000000;\T1.000000;石／木製用}\P\P{\W0.500000;\T1.000000;･\W1.000000;\T1.000000;定尺}\P{\W1.000000;\T1.000000;　　３８１５\W0.500000;\T1.000000;m/m}\P
   1
{\W1.000000;\T1.000000;　　４１１５\W0.500000;\T1.000000;m/m}
   7
GMM002
  44
 0.79999984000003
   0
MTEXT
   5
503
 100
AcDbEntity
   8
LEVEL002
 370
15
  62
8
 100
AcDbMText
  10
 324.99999999990
  20
 409.83333333340
  30
0.0
  40
 4.0000000000000
  41
0.0
  71
1
  72
1
   3
{\W0.500000;\T1.000000;･\W1.000000;\T1.000000;長尺シート／コンクリート}\P{\W0.500000;\T1.000000; \W1.000000;\T1.000000;石／木製用}\P\P{\W0.500000;\T1.000000;･\W1.000000;\T1.000000;定尺}\P{\W1.000000;\T1.000000;　　３８１５\W0.500000;\T1.000000;m/m}\P
   1
{\W1.000000;\T1.000000;　　４１１５\W0.500000;\T1.000000;m/m}
   7
GMM002
  44
 0.79999984000003
   0
MTEXT
   5
505
 100
AcDbEntity
   8
LEVEL002
 370
15
  62
8
 100
AcDbMText
  10
 35.999999999900
  20
 273.33333333342
  30
0.0
  40
 4.0000000000000
  41
0.0
  71
1
  72
1
   3
{\W0.500000;\T1.000000;･\W1.000000;\T1.000000;パンチカーペット}\P{\W1.000000;\T1.000000;　　タイルカーペット用}\P{\W0.500000;\T1.000000;･\W1.000000;\T1.000000;インサート}\P{\W1.000000;\T1.000000;　　角型\W0.500000;\T1.000000;/\W1.000000;\T1.000000;テ
   3
ープ付\W0.500000;\T1.000000;/\W1.000000;\T1.000000;外部用}\P\P{\W0.500000;\T1.000000;･\W1.000000;\T1.000000;フラットエンド－無}\P\P{\W0.500000;\T1.000000;･\W1.000000;\T1.000000;定尺}\P{\W1.000000;\T1.000000;　　３６４０\W0.500000;\T1.000000;m/m}\P{\W
   1
1.000000;\T1.000000;　　４０００\W0.500000;\T1.000000;m/m}
   7
GMM002
  44
 0.79999984000003
   0
MTEXT
   5
507
 100
AcDbEntity
   8
LEVEL002
 370
15
  62
8
 100
AcDbMText
  10
 103.24999999990
  20
 287.00000000002
  30
0.0
  40
 6.0000000000000
  41
0.0
  71
5
  72
1
   1
\T1.000000;ＫＧ５１６ＡＳＤ
   7
GMM002
  44
 0.79999984000003
   0
ENDSEC
  0
SECTION
  2
OBJECTS
  0
DICTIONARY
  5
C
100
AcDbDictionary
  3
ACAD_GROUP
350
D
  3
ACAD_MLINESTYLE
350
1B
  3
DWGPROPS
350
1C
  0
DICTIONARY
  5
D
102
{ACAD_REACTORS
330
C
102
}
100
AcDbDictionary
  0
DICTIONARY
  5
1B
102
{ACAD_REACTORS
330
C
102
}
100
AcDbDictionary
  3
STANDARD
350
1D
  0
MLINESTYLE
  5
1D
102
{ACAD_REACTORS
330
1B
102
}
100
AcDbMlineStyle
  2
STANDARD
 70
     0
  3

 62
   256
 51
90.0
 52
90.0
 71
     2
 49
0.5
 62
   256
  6
BYLAYER
 49
-0.5
 62
   256
  6
BYLAYER
   0
XRECORD
   5
1C
 102
{ACAD_REACTORS
 330
C
 102
}
 330
C
 100
AcDbXrecord
 280
1
   1
DWGPROPS COOKIE
   2
 
   3
 
   4
 
   6
 
   7
00000000.DRW
   8
 
   9

 300
 = 
 301
 = 
 302
 = 
 303
 = 
 304
 = 
 305
 = 
 306
 = 
 307
 = 
 308
 = 
 309
 = 
  40
0.0
  41
 2460114.5000000
  42
 2460114.5000000
   1

  90
10
   0
ENDSEC
   0
EOF
