   0
SECTION
   2
HEADER
   9
$ACADVER
   1
AC1015
   9
$DWGCODEPAGE
   3
ANSI_932
   9
$LIMMIN
  10
0.0
  20
0.0
   9
$LIMMAX
  10
 420.00000000000
  20
 297.00000000000
   9
$EXTMIN
  10
0.0
  20
0.0
  30
0.0
   9
$EXTMAX
  10
 420.00000000000
  20
 297.00000000000
  30
0.0
   9
$LTSCALE
  40
 8.4000000000000
   9
$HANDSEED
   5
383
   0
ENDSEC
   0
SECTION
   2
TABLES
  0
TABLE
  2
VPORT
  5
8
100
AcDbSymbolTable
 70
     1
  0
VPORT
  5
382
100
AcDbSymbolTableRecord
100
AcDbViewportTableRecord
  2
*ACTIVE
 70
     0
 10
0.0
 20
0.0
 11
1.0
 21
1.0
  12
 210.00000000000
  22
 148.50000000000
 13
0.0
 23
0.0
 14
1.0
 24
1.0
 15
0.0
 25
0.0
 16
0.0
 26
0.0
 36
1.0
 17
0.0
 27
0.0
 37
0.0
  40
 420.00000000000
  41
 1.4787878787879
 42
50.0
 43
0.0
 44
0.0
 50
0.0
 51
0.0
 71
     0
 72
   100
 73
     1
 74
     1
 75
     0
 76
     0
 77
     0
 78
     0
  0
ENDTAB
  0
TABLE
  2
LTYPE
  5
5
100
AcDbSymbolTable
 70
    25
  0
LTYPE
  5
12
100
AcDbSymbolTableRecord
100
AcDbLinetypeTableRecord
  2
BYBLOCK
 70
     0
  3

 72
    65
 73
     0
 40
0.0
  0
LTYPE
  5
13
100
AcDbSymbolTableRecord
100
AcDbLinetypeTableRecord
  2
BYLAYER
 70
     0
  3

 72
    65
 73
     0
 40
0.0
  0
LTYPE
  5
14
100
AcDbSymbolTableRecord
100
AcDbLinetypeTableRecord
  2
CONTINUOUS
 70
     0
  3
Solid line
 72
    65
 73
     0
 40
0.0
  0
LTYPE
  5
20
100
AcDbSymbolTableRecord
100
AcDbLinetypeTableRecord
  2
BORDER
 70
     0
  3
__ __ . __ __ . __ __ . __ __ . __ __ . __ __ .
 72
    65
 73
     6
 40
1.75
 49
0.5
 74
     0
 49
-0.25
 74
     0
 49
0.5
 74
     0
 49
-0.25
 74
     0
 49
0.0
 74
     0
 49
-0.25
 74
     0
  0
LTYPE
  5
21
100
AcDbSymbolTableRecord
100
AcDbLinetypeTableRecord
  2
BORDER2
 70
     0
  3
__.__.__.__.__.__.__.__.__.__.__.__.__.__.__.__
 72
    65
 73
     6
 40
0.875
 49
0.25
 74
     0
 49
-0.125
 74
     0
 49
0.25
 74
     0
 49
-0.125
 74
     0
 49
0.0
 74
     0
 49
-0.125
 74
     0
  0
LTYPE
  5
22
100
AcDbSymbolTableRecord
100
AcDbLinetypeTableRecord
  2
BORDERX2
 70
     0
  3
____  ____  .  ____  ____  .  ____  ____  .  __
 72
    65
 73
     6
 40
3.5
 49
1.0
 74
     0
 49
-0.5
 74
     0
 49
1.0
 74
     0
 49
-0.5
 74
     0
 49
0.0
 74
     0
 49
-0.5
 74
     0
  0
LTYPE
  5
23
100
AcDbSymbolTableRecord
100
AcDbLinetypeTableRecord
  2
CENTER
 70
     0
  3
____ _ ____ _ ____ _ ____ _ ____ _ ____ _ ____ 
 72
    65
 73
     4
 40
2.0
 49
1.25
 74
     0
 49
-0.25
 74
     0
 49
0.25
 74
     0
 49
-0.25
 74
     0
  0
LTYPE
  5
24
100
AcDbSymbolTableRecord
100
AcDbLinetypeTableRecord
  2
CENTER2
 70
     0
  3
___ _ ___ _ ___ _ ___ _ ___ _ ___ _ ___ _ ___ _
 72
    65
 73
     4
 40
1.125
 49
0.75
 74
     0
 49
-0.125
 74
     0
 49
0.125
 74
     0
 49
-0.125
 74
     0
  0
LTYPE
  5
25
100
AcDbSymbolTableRecord
100
AcDbLinetypeTableRecord
  2
CENTERX2
 70
     0
  3
________  __  ________  __  ________  __  _____
 72
    65
 73
     4
 40
4.0
 49
2.5
 74
     0
 49
-0.5
 74
     0
 49
0.5
 74
     0
 49
-0.5
 74
     0
  0
LTYPE
  5
26
100
AcDbSymbolTableRecord
100
AcDbLinetypeTableRecord
  2
DASHDOT
 70
     0
  3
__ . __ . __ . __ . __ . __ . __ . __ . __ . __
 72
    65
 73
     4
 40
1.0
 49
0.5
 74
     0
 49
-0.25
 74
     0
 49
0.0
 74
     0
 49
-0.25
 74
     0
  0
LTYPE
  5
27
100
AcDbSymbolTableRecord
100
AcDbLinetypeTableRecord
  2
DASHDOT2
 70
     0
  3
_._._._._._._._._._._._._._._._._._._._._._._._
 72
    65
 73
     4
 40
0.5
 49
0.25
 74
     0
 49
-0.125
 74
     0
 49
0.0
 74
     0
 49
-0.125
 74
     0
  0
LTYPE
  5
28
100
AcDbSymbolTableRecord
100
AcDbLinetypeTableRecord
  2
DASHDOTX2
 70
     0
  3
____  .  ____  .  ____  .  ____  .  ____  .  __
 72
    65
 73
     4
 40
2.0
 49
1.0
 74
     0
 49
-0.5
 74
     0
 49
0.0
 74
     0
 49
-0.5
 74
     0
  0
LTYPE
  5
29
100
AcDbSymbolTableRecord
100
AcDbLinetypeTableRecord
  2
DASHED
 70
     0
  3
__ __ __ __ __ __ __ __ __ __ __ __ __ __ __ __
 72
    65
 73
     2
 40
0.75
 49
0.5
 74
     0
 49
-0.25
 74
     0
  0
LTYPE
  5
2A
100
AcDbSymbolTableRecord
100
AcDbLinetypeTableRecord
  2
DASHED2
 70
     0
  3
_ _ _ _ _ _ _ _ _ _ _ _ _ _ _ _ _ _ _ _ _ _ _ _
 72
    65
 73
     2
 40
0.375
 49
0.25
 74
     0
 49
-0.125
 74
     0
  0
LTYPE
  5
2B
100
AcDbSymbolTableRecord
100
AcDbLinetypeTableRecord
  2
DASHEDX2
 70
     0
  3
____  ____  ____  ____  ____  ____  ____  ____ 
 72
    65
 73
     2
 40
1.5
 49
1.0
 74
     0
 49
-0.5
 74
     0
  0
LTYPE
  5
2C
100
AcDbSymbolTableRecord
100
AcDbLinetypeTableRecord
  2
DIVIDE
 70
     0
  3
____ . . ____ . . ____ . . ____ . . ____ . . __
 72
    65
 73
     6
 40
1.25
 49
0.5
 74
     0
 49
-0.25
 74
     0
 49
0.0
 74
     0
 49
-0.25
 74
     0
 49
0.0
 74
     0
 49
-0.25
 74
     0
  0
LTYPE
  5
2D
100
AcDbSymbolTableRecord
100
AcDbLinetypeTableRecord
  2
DIVIDE2
 70
     0
  3
__..__..__..__..__..__..__..__..__..__..__..__.
 72
    65
 73
     6
 40
0.625
 49
0.25
 74
     0
 49
-0.125
 74
     0
 49
0.0
 74
     0
 49
-0.125
 74
     0
 49
0.0
 74
     0
 49
-0.125
 74
     0
  0
LTYPE
  5
2E
100
AcDbSymbolTableRecord
100
AcDbLinetypeTableRecord
  2
DIVIDEX2
 70
     0
  3
________  .  .  ________  .  .  ________  .  . 
 72
    65
 73
     6
 40
2.5
 49
1.0
 74
     0
 49
-0.5
 74
     0
 49
0.0
 74
     0
 49
-0.5
 74
     0
 49
0.0
 74
     0
 49
-0.5
 74
     0
  0
LTYPE
  5
2F
100
AcDbSymbolTableRecord
100
AcDbLinetypeTableRecord
  2
DOT
 70
     0
  3
. . . . . . . . . . . . . . . . . . . . . . . .
 72
    65
 73
     2
 40
0.25
 49
0.0
 74
     0
 49
-0.25
 74
     0
  0
LTYPE
  5
30
100
AcDbSymbolTableRecord
100
AcDbLinetypeTableRecord
  2
DOT2
 70
     0
  3
...............................................
 72
    65
 73
     2
 40
0.125
 49
0.0
 74
     0
 49
-0.125
 74
     0
  0
LTYPE
  5
31
100
AcDbSymbolTableRecord
100
AcDbLinetypeTableRecord
  2
DOTX2
 70
     0
  3
.  .  .  .  .  .  .  .  .  .  .  .  .  .  .  . 
 72
    65
 73
     2
 40
0.5
 49
0.0
 74
     0
 49
-0.5
 74
     0
  0
LTYPE
  5
32
100
AcDbSymbolTableRecord
100
AcDbLinetypeTableRecord
  2
HIDDEN
 70
     0
  3
__ __ __ __ __ __ __ __ __ __ __ __ __ __ __ __
 72
    65
 73
     2
 40
0.375
 49
0.25
 74
     0
 49
-0.125
 74
     0
  0
LTYPE
  5
33
100
AcDbSymbolTableRecord
100
AcDbLinetypeTableRecord
  2
HIDDEN2
 70
     0
  3
_ _ _ _ _ _ _ _ _ _ _ _ _ _ _ _ _ _ _ _ _ _ _ _
 72
    65
 73
     2
 40
0.1875
 49
0.125
 74
     0
 49
-0.0625
 74
     0
  0
LTYPE
  5
34
100
AcDbSymbolTableRecord
100
AcDbLinetypeTableRecord
  2
HIDDENX2
 70
     0
  3
____ ____ ____ ____ ____ ____ ____ ____ ____ __
 72
    65
 73
     2
 40
0.75
 49
0.5
 74
     0
 49
-0.25
 74
     0
  0
LTYPE
  5
35
100
AcDbSymbolTableRecord
100
AcDbLinetypeTableRecord
  2
PHANTOM
 70
     0
  3
______  __  __  ______  __  __  ______  __  __ 
 72
    65
 73
     6
 40
2.5
 49
1.25
 74
     0
 49
-0.25
 74
     0
 49
0.25
 74
     0
 49
-0.25
 74
     0
 49
0.25
 74
     0
 49
-0.25
 74
     0
  0
LTYPE
  5
36
100
AcDbSymbolTableRecord
100
AcDbLinetypeTableRecord
  2
PHANTOM2
 70
     0
  3
___ _ _ ___ _ _ ___ _ _ ___ _ _ ___ _ _ ___ _ _
 72
    65
 73
     6
 40
1.25
 49
0.625
 74
     0
 49
-0.125
 74
     0
 49
0.125
 74
     0
 49
-0.125
 74
     0
 49
0.125
 74
     0
 49
-0.125
 74
     0
  0
LTYPE
  5
37
100
AcDbSymbolTableRecord
100
AcDbLinetypeTableRecord
  2
PHANTOMX2
 70
     0
  3
____________    ____    ____    ____________   
 72
    65
 73
     6
 40
5.0
 49
2.5
 74
     0
 49
-0.5
 74
     0
 49
0.5
 74
     0
 49
-0.5
 74
     0
 49
0.5
 74
     0
 49
-0.5
 74
     0
  0
ENDTAB
   0
TABLE
   2
LAYER
   5
2
 100
AcDbSymbolTable
  70
3
   0
LAYER
   5
E
 100
AcDbSymbolTableRecord
 100
AcDbLayerTableRecord
   2
0
  70
0
  62
7
   6
CONTINUOUS
 390
30
   0
LAYER
   5
39
 100
AcDbSymbolTableRecord
 100
AcDbLayerTableRecord
   2
LEVEL001
  70
0
  62
7
   6
CONTINUOUS
 390
30
   0
LAYER
   5
3A
 100
AcDbSymbolTableRecord
 100
AcDbLayerTableRecord
   2
LEVEL002
  70
0
  62
7
   6
CONTINUOUS
 390
30
   0
ENDTAB
  0
TABLE
  2
STYLE
  5
3
100
AcDbSymbolTable
  70
6
  0
STYLE
  5
F
100
AcDbSymbolTableRecord
100
AcDbTextStyleTableRecord
  2
STANDARD
 70
     0
 40
0.0
 41
1.0
 50
0.0
 71
     0
 42
0.2
  3
TXT
  4
BIGFONT
  0
STYLE
  5
38
100
AcDbSymbolTableRecord
100
AcDbTextStyleTableRecord
  2
STANDARD1
 70
     4
 40
0.0
 41
1.0
 50
0.0
 71
     0
 42
0.2
  3
TXT
  4
BIGFONT
   0
STYLE
   5
3B
 100
AcDbSymbolTableRecord
 100
AcDbTextStyleTableRecord
   2
GMM001
  70
0
  40
0.0
  41
 0.80000000000000
  50
0.0
  71
     0
  42
1.0
   3
txt.shx
   4
bigfont.shx
   0
STYLE
   5
3C
 100
AcDbSymbolTableRecord
 100
AcDbTextStyleTableRecord
   2
GMM002
  70
0
  40
0.0
  41
 1.0000000000000
  50
0.0
  71
     0
  42
1.0
   3
txt.shx
   4
bigfont.shx
   0
STYLE
   5
3D
 100
AcDbSymbolTableRecord
 100
AcDbTextStyleTableRecord
   2
GMM003
  70
0
  40
0.0
  41
 1.0714285714286
  50
0.0
  71
     0
  42
1.0
   3
txt.shx
   4
bigfont.shx
   0
STYLE
   5
3E
 100
AcDbSymbolTableRecord
 100
AcDbTextStyleTableRecord
   2
GMM004
  70
0
  40
0.0
  41
 0.88888888888889
  50
0.0
  71
     0
  42
1.0
   3
txt.shx
   4
bigfont.shx
   0
ENDTAB
  0
TABLE
  2
VIEW
  5
6
100
AcDbSymbolTable
 70
     0
  0
ENDTAB
  0
TABLE
  2
UCS
  5
7
100
AcDbSymbolTable
 70
     0
  0
ENDTAB
  0
TABLE
  2
APPID
  5
9
100
AcDbSymbolTable
 70
     1
  0
APPID
  5
10
100
AcDbSymbolTableRecord
100
AcDbRegAppTableRecord
  2
ACAD
 70
     0
  0
ENDTAB
   0
TABLE
   2
DIMSTYLE
   5
A
 100
AcDbSymbolTable
  70
16
 100
AcDbDimStyleTable
  0
DIMSTYLE
105
1D
100
AcDbSymbolTableRecord
100
AcDbDimStyleTableRecord
  2
STANDARD
 70
     0
  3

  4

  5

  6

  7

 40
1.0
 41
0.18
 42
0.0625
 43
0.38
 44
0.18
 45
0.0
 46
0.0
 47
0.0
 48
0.0
140
0.18
141
0.09
142
0.0
143
25.4
144
1.0
145
0.0
146
1.0
147
0.09
 71
     0
 72
     0
 73
     1
 74
     1
 75
     0
 76
     0
 77
     0
 78
     0
170
     0
171
     2
172
     0
173
     0
174
     0
175
     0
176
     0
177
     0
178
     0
270
     2
271
     4
272
     4
273
     2
274
     2
340
F
275
     0
280
     0
281
     0
282
     0
283
     1
284
     0
285
     0
286
     0
287
     3
288
     0
   0
DIMSTYLE
 105
3F
 100
AcDbSymbolTableRecord
 100
AcDbDimStyleTableRecord
   2
GMM001
  70
0
   3

   4

   5

   6

   7
_NONE
  40
 1.0000000000000
  41
 2.0000000000000
  42
 1.0000000000000
  43
 8.0000000000000
  44
 1.0000000000000
  45
0.0
  46
0.0
  47
0.0
  48
0.0
 140
 2.5000000000000
 141
 1.0000000000000
 142
0.0
 143
 0.39400000000000E-1
 144
 1.0000000000000
 145
0.0
 146
 1.0000000000000
 147
 0.75394912985386
  71
0
  72
0
  73
0
  74
0
  75
0
  76
0
  77
3
  78
8
 170
0
 171
2
 172
1
 173
1
 174
0
 175
0
 176
8
 177
8
 178
8
 270
2
 271
6
 272
0
 273
2
 274
2
 340
3C
 275
0
 280
0
 281
0
 282
0
 283
1
 284
0
 285
0
 286
0
 287
3
 288
1
   0
DIMSTYLE
 105
40
 100
AcDbSymbolTableRecord
 100
AcDbDimStyleTableRecord
   2
GMM002
  70
0
   3

   4

   5

   6
_DOT
   7

  40
 1.0000000000000
  41
 2.0000000000000
  42
 1.0000000000000
  43
 8.0000000000000
  44
 1.0000000000000
  45
0.0
  46
0.0
  47
0.0
  48
0.0
 140
 2.5000000000000
 141
 1.0000000000000
 142
0.0
 143
 0.39400000000000E-1
 144
 1.0000000000000
 145
0.0
 146
 1.0000000000000
 147
 1.0680946006263
  71
0
  72
0
  73
0
  74
0
  75
0
  76
0
  77
3
  78
8
 170
0
 171
2
 172
1
 173
1
 174
0
 175
0
 176
8
 177
8
 178
8
 270
2
 271
6
 272
0
 273
2
 274
2
 340
3C
 275
0
 280
0
 281
0
 282
0
 283
1
 284
0
 285
0
 286
0
 287
3
 288
1
   0
DIMSTYLE
 105
41
 100
AcDbSymbolTableRecord
 100
AcDbDimStyleTableRecord
   2
GMM003
  70
0
   3

   4

   5

   6

   7

  40
 1.0000000000000
  41
 2.0000000000000
  42
 1.0000000000000
  43
 8.0000000000000
  44
 1.0000000000000
  45
0.0
  46
0.0
  47
0.0
  48
0.0
 140
 2.5000000000000
 141
 1.0000000000000
 142
0.0
 143
 0.39400000000000E-1
 144
 1.0000000000000
 145
0.0
 146
 1.0000000000000
 147
 1.0000000000000
  71
0
  72
0
  73
0
  74
0
  75
0
  76
0
  77
3
  78
8
 170
0
 171
2
 172
1
 173
1
 174
0
 175
0
 176
8
 177
8
 178
8
 270
2
 271
6
 272
0
 273
2
 274
2
 340
3C
 275
0
 280
0
 281
0
 282
0
 283
1
 284
0
 285
0
 286
0
 287
3
 288
0
   0
DIMSTYLE
 105
42
 100
AcDbSymbolTableRecord
 100
AcDbDimStyleTableRecord
   2
GMM004
  70
0
   3

   4

   5

   6

   7
_NONE
  40
 1.0000000000000
  41
 2.0000000000000
  42
 1.0000000000000
  43
 8.0000000000000
  44
 1.0000000000000
  45
0.0
  46
0.0
  47
0.0
  48
0.0
 140
 2.5000000000000
 141
 1.0000000000000
 142
0.0
 143
 0.39400000000000E-1
 144
 1.0000000000000
 145
0.0
 146
 1.0000000000000
 147
 0.80769991500171
  71
0
  72
0
  73
0
  74
0
  75
0
  76
0
  77
3
  78
8
 170
0
 171
2
 172
1
 173
1
 174
0
 175
0
 176
8
 177
8
 178
8
 270
2
 271
6
 272
0
 273
2
 274
2
 340
3C
 275
0
 280
0
 281
0
 282
0
 283
1
 284
0
 285
0
 286
0
 287
3
 288
1
   0
DIMSTYLE
 105
43
 100
AcDbSymbolTableRecord
 100
AcDbDimStyleTableRecord
   2
GMM005
  70
0
   3

   4

   5

   6
_NONE
   7

  40
 1.0000000000000
  41
 2.0000000000000
  42
 1.0000000000000
  43
 8.0000000000000
  44
 1.0000000000000
  45
0.0
  46
0.0
  47
0.0
  48
0.0
 140
 2.5000000000000
 141
 1.0000000000000
 142
0.0
 143
 0.39400000000000E-1
 144
 1.0000000000000
 145
0.0
 146
 1.0000000000000
 147
 0.80769991500171
  71
0
  72
0
  73
0
  74
0
  75
0
  76
0
  77
3
  78
8
 170
0
 171
2
 172
1
 173
1
 174
0
 175
0
 176
8
 177
8
 178
8
 270
2
 271
6
 272
0
 273
2
 274
2
 340
3C
 275
0
 280
0
 281
0
 282
0
 283
1
 284
0
 285
0
 286
0
 287
3
 288
1
   0
DIMSTYLE
 105
44
 100
AcDbSymbolTableRecord
 100
AcDbDimStyleTableRecord
   2
GMM006
  70
0
   3

   4

   5

   6

   7
_NONE
  40
 1.0000000000000
  41
 2.0000000000000
  42
 1.0000000000000
  43
 8.0000000000000
  44
 1.0000000000000
  45
0.0
  46
0.0
  47
0.0
  48
0.0
 140
 2.5000000000000
 141
 1.0000000000000
 142
0.0
 143
 0.39400000000000E-1
 144
 1.0000000000000
 145
0.0
 146
 1.0000000000000
 147
 0.34819649857332
  71
0
  72
0
  73
0
  74
0
  75
0
  76
0
  77
3
  78
8
 170
0
 171
2
 172
1
 173
1
 174
0
 175
0
 176
8
 177
8
 178
8
 270
2
 271
6
 272
0
 273
2
 274
2
 340
3C
 275
0
 280
0
 281
0
 282
0
 283
1
 284
0
 285
0
 286
0
 287
3
 288
1
   0
DIMSTYLE
 105
45
 100
AcDbSymbolTableRecord
 100
AcDbDimStyleTableRecord
   2
GMM007
  70
0
   3

   4

   5

   6
_DOT
   7

  40
 1.0000000000000
  41
 2.0000000000000
  42
 1.0000000000000
  43
 8.0000000000000
  44
 1.0000000000000
  45
0.0
  46
0.0
  47
0.0
  48
0.0
 140
 2.5000000000000
 141
 1.0000000000000
 142
0.0
 143
 0.39400000000000E-1
 144
 1.0000000000000
 145
0.0
 146
 1.0000000000000
 147
 0.92852399619551
  71
0
  72
0
  73
0
  74
0
  75
0
  76
0
  77
3
  78
8
 170
0
 171
2
 172
1
 173
1
 174
0
 175
0
 176
8
 177
8
 178
8
 270
2
 271
6
 272
0
 273
2
 274
2
 340
3C
 275
0
 280
0
 281
0
 282
0
 283
1
 284
0
 285
0
 286
0
 287
3
 288
1
   0
DIMSTYLE
 105
46
 100
AcDbSymbolTableRecord
 100
AcDbDimStyleTableRecord
   2
GMM008
  70
0
   3

   4

   5

   6

   7

  40
 1.0000000000000
  41
 2.0000000000000
  42
 1.0000000000000
  43
 8.0000000000000
  44
 1.0000000000000
  45
0.0
  46
0.0
  47
0.0
  48
0.0
 140
 2.5000000000000
 141
 1.0000000000000
 142
0.0
 143
 0.39400000000000E-1
 144
 1.0000000000000
 145
0.0
 146
 1.0000000000000
 147
 1.0000000000000
  71
0
  72
0
  73
0
  74
0
  75
0
  76
0
  77
3
  78
8
 170
0
 171
2
 172
1
 173
1
 174
0
 175
0
 176
8
 177
8
 178
8
 270
2
 271
6
 272
0
 273
2
 274
2
 340
3C
 275
0
 280
0
 281
0
 282
0
 283
1
 284
0
 285
0
 286
0
 287
3
 288
1
   0
DIMSTYLE
 105
47
 100
AcDbSymbolTableRecord
 100
AcDbDimStyleTableRecord
   2
GMM009
  70
0
   3

   4

   5

   6

   7

  40
 1.0000000000000
  41
 2.0000000000000
  42
 1.0000000000000
  43
 8.0000000000000
  44
 1.0000000000000
  45
0.0
  46
0.0
  47
0.0
  48
0.0
 140
 2.5000000000000
 141
 1.0000000000000
 142
0.0
 143
 0.39400000000000E-1
 144
 1.0000000000000
 145
0.0
 146
 1.0000000000000
 147
 0.65970548862248
  71
0
  72
0
  73
0
  74
0
  75
0
  76
0
  77
3
  78
8
 170
0
 171
2
 172
1
 173
1
 174
0
 175
0
 176
8
 177
8
 178
8
 270
2
 271
6
 272
0
 273
2
 274
2
 340
3C
 275
0
 280
0
 281
0
 282
0
 283
1
 284
0
 285
0
 286
0
 287
3
 288
1
   0
DIMSTYLE
 105
48
 100
AcDbSymbolTableRecord
 100
AcDbDimStyleTableRecord
   2
GMM010
  70
0
   3

   4

   5

   6

   7

  40
 1.0000000000000
  41
 2.0000000000000
  42
 1.0000000000000
  43
 8.0000000000000
  44
 1.0000000000000
  45
0.0
  46
0.0
  47
0.0
  48
0.0
 140
 2.5000000000000
 141
 1.0000000000000
 142
0.0
 143
 0.39400000000000E-1
 144
 1.0000000000000
 145
0.0
 146
 1.0000000000000
 147
 0.87960731816327
  71
0
  72
0
  73
0
  74
0
  75
0
  76
0
  77
3
  78
8
 170
0
 171
2
 172
1
 173
1
 174
0
 175
0
 176
8
 177
8
 178
8
 270
2
 271
6
 272
0
 273
2
 274
2
 340
3C
 275
0
 280
0
 281
0
 282
0
 283
1
 284
0
 285
0
 286
0
 287
3
 288
1
   0
DIMSTYLE
 105
49
 100
AcDbSymbolTableRecord
 100
AcDbDimStyleTableRecord
   2
GMM011
  70
0
   3

   4

   5

   6

   7

  40
 1.0000000000000
  41
 2.0000000000000
  42
 1.0000000000000
  43
 8.0000000000000
  44
 1.0000000000000
  45
0.0
  46
0.0
  47
0.0
  48
0.0
 140
 2.5000000000000
 141
 1.0000000000000
 142
0.0
 143
 0.39400000000000E-1
 144
 1.0000000000000
 145
0.0
 146
 1.0000000000000
 147
 1.0000000000000
  71
0
  72
0
  73
0
  74
0
  75
0
  76
0
  77
3
  78
0
 170
0
 171
2
 172
1
 173
1
 174
0
 175
0
 176
8
 177
8
 178
8
 270
2
 271
0
 272
0
 273
2
 274
2
 340
3C
 275
0
 280
0
 281
0
 282
0
 283
1
 284
0
 285
0
 286
0
 287
3
 288
0
   0
DIMSTYLE
 105
4A
 100
AcDbSymbolTableRecord
 100
AcDbDimStyleTableRecord
   2
GMM012
  70
0
   3

   4

   5

   6

   7

  40
 1.0000000000000
  41
 2.0000000000000
  42
 1.0000000000000
  43
 8.0000000000000
  44
 1.0000000000000
  45
0.0
  46
0.0
  47
0.0
  48
0.0
 140
 2.5000000000000
 141
 1.0000000000000
 142
0.0
 143
 0.39400000000000E-1
 144
 1.0000000000000
 145
0.0
 146
 1.0000000000000
 147
 1.0000000000000
  71
0
  72
0
  73
0
  74
0
  75
0
  76
0
  77
3
  78
0
 170
0
 171
2
 172
1
 173
1
 174
0
 175
0
 176
8
 177
8
 178
8
 270
2
 271
1
 272
0
 273
2
 274
2
 340
3C
 275
0
 280
0
 281
0
 282
0
 283
1
 284
0
 285
0
 286
0
 287
3
 288
0
   0
DIMSTYLE
 105
4B
 100
AcDbSymbolTableRecord
 100
AcDbDimStyleTableRecord
   2
GMM013
  70
0
   3

   4

   5

   6

   7
_NONE
  40
 1.0000000000000
  41
 2.0000000000000
  42
 1.0000000000000
  43
 8.0000000000000
  44
 1.0000000000000
  45
0.0
  46
0.0
  47
0.0
  48
0.0
 140
 2.5000000000000
 141
 1.0000000000000
 142
0.0
 143
 0.39400000000000E-1
 144
 1.0000000000000
 145
0.0
 146
 1.0000000000000
 147
 0.65340577510051
  71
0
  72
0
  73
0
  74
0
  75
0
  76
0
  77
3
  78
0
 170
0
 171
2
 172
1
 173
1
 174
0
 175
0
 176
8
 177
8
 178
8
 270
2
 271
1
 272
0
 273
2
 274
2
 340
3C
 275
0
 280
0
 281
0
 282
0
 283
1
 284
0
 285
0
 286
0
 287
3
 288
1
   0
DIMSTYLE
 105
4C
 100
AcDbSymbolTableRecord
 100
AcDbDimStyleTableRecord
   2
GMM014
  70
0
   3

   4

   5

   6
_DOT
   7

  40
 1.0000000000000
  41
 2.0000000000000
  42
 1.0000000000000
  43
 8.0000000000000
  44
 1.0000000000000
  45
0.0
  46
0.0
  47
0.0
  48
0.0
 140
 2.5000000000000
 141
 1.0000000000000
 142
0.0
 143
 0.39400000000000E-1
 144
 1.0000000000000
 145
0.0
 146
 1.0000000000000
 147
 0.75657510801102
  71
0
  72
0
  73
0
  74
0
  75
0
  76
0
  77
3
  78
0
 170
0
 171
2
 172
1
 173
1
 174
0
 175
0
 176
8
 177
8
 178
8
 270
2
 271
1
 272
0
 273
2
 274
2
 340
3C
 275
0
 280
0
 281
0
 282
0
 283
1
 284
0
 285
0
 286
0
 287
3
 288
1
   0
ENDTAB
  0
TABLE
  2
BLOCK_RECORD
  5
1
100
AcDbSymbolTable
 70
     0
  0
BLOCK_RECORD
  5
18
100
AcDbSymbolTableRecord
100
AcDbBlockTableRecord
  2
*MODEL_SPACE
  0
BLOCK_RECORD
  5
15
100
AcDbSymbolTableRecord
100
AcDbBlockTableRecord
  2
*PAPER_SPACE
   0
BLOCK_RECORD
   5
4D
 100
AcDbSymbolTableRecord
 100
AcDbBlockTableRecord
   2
*D1
   0
BLOCK_RECORD
   5
4E
 100
AcDbSymbolTableRecord
 100
AcDbBlockTableRecord
   2
*D2
   0
BLOCK_RECORD
   5
4F
 100
AcDbSymbolTableRecord
 100
AcDbBlockTableRecord
   2
*D3
   0
BLOCK_RECORD
   5
50
 100
AcDbSymbolTableRecord
 100
AcDbBlockTableRecord
   2
*D4
   0
BLOCK_RECORD
   5
51
 100
AcDbSymbolTableRecord
 100
AcDbBlockTableRecord
   2
*D5
   0
BLOCK_RECORD
   5
52
 100
AcDbSymbolTableRecord
 100
AcDbBlockTableRecord
   2
*D6
   0
BLOCK_RECORD
   5
53
 100
AcDbSymbolTableRecord
 100
AcDbBlockTableRecord
   2
*D7
   0
BLOCK_RECORD
   5
54
 100
AcDbSymbolTableRecord
 100
AcDbBlockTableRecord
   2
*D8
   0
BLOCK_RECORD
   5
55
 100
AcDbSymbolTableRecord
 100
AcDbBlockTableRecord
   2
*D9
   0
BLOCK_RECORD
   5
56
 100
AcDbSymbolTableRecord
 100
AcDbBlockTableRecord
   2
*D10
   0
BLOCK_RECORD
   5
57
 100
AcDbSymbolTableRecord
 100
AcDbBlockTableRecord
   2
*D11
   0
BLOCK_RECORD
   5
58
 100
AcDbSymbolTableRecord
 100
AcDbBlockTableRecord
   2
*D12
   0
BLOCK_RECORD
   5
59
 100
AcDbSymbolTableRecord
 100
AcDbBlockTableRecord
   2
*D13
   0
BLOCK_RECORD
   5
5A
 100
AcDbSymbolTableRecord
 100
AcDbBlockTableRecord
   2
*D14
   0
BLOCK_RECORD
   5
5B
 100
AcDbSymbolTableRecord
 100
AcDbBlockTableRecord
   2
*D15
   0
BLOCK_RECORD
   5
5C
 100
AcDbSymbolTableRecord
 100
AcDbBlockTableRecord
   2
*D16
   0
BLOCK_RECORD
   5
5D
 100
AcDbSymbolTableRecord
 100
AcDbBlockTableRecord
   2
*D17
   0
BLOCK_RECORD
   5
5E
 100
AcDbSymbolTableRecord
 100
AcDbBlockTableRecord
   2
*D18
   0
BLOCK_RECORD
   5
5F
 100
AcDbSymbolTableRecord
 100
AcDbBlockTableRecord
   2
*D19
   0
BLOCK_RECORD
   5
60
 100
AcDbSymbolTableRecord
 100
AcDbBlockTableRecord
   2
*D20
   0
BLOCK_RECORD
   5
61
 100
AcDbSymbolTableRecord
 100
AcDbBlockTableRecord
   2
*D21
   0
BLOCK_RECORD
   5
62
 100
AcDbSymbolTableRecord
 100
AcDbBlockTableRecord
   2
*D22
   0
BLOCK_RECORD
   5
63
 100
AcDbSymbolTableRecord
 100
AcDbBlockTableRecord
   2
*D23
   0
BLOCK_RECORD
   5
64
 100
AcDbSymbolTableRecord
 100
AcDbBlockTableRecord
   2
*D24
   0
BLOCK_RECORD
   5
65
 100
AcDbSymbolTableRecord
 100
AcDbBlockTableRecord
   2
*D25
   0
BLOCK_RECORD
   5
66
 100
AcDbSymbolTableRecord
 100
AcDbBlockTableRecord
   2
*D26
   0
BLOCK_RECORD
   5
67
 100
AcDbSymbolTableRecord
 100
AcDbBlockTableRecord
   2
*D27
   0
BLOCK_RECORD
   5
68
 100
AcDbSymbolTableRecord
 100
AcDbBlockTableRecord
   2
*D28
   0
BLOCK_RECORD
   5
69
 100
AcDbSymbolTableRecord
 100
AcDbBlockTableRecord
   2
*D29
   0
BLOCK_RECORD
   5
6A
 100
AcDbSymbolTableRecord
 100
AcDbBlockTableRecord
   2
*D30
   0
BLOCK_RECORD
   5
6B
 100
AcDbSymbolTableRecord
 100
AcDbBlockTableRecord
   2
*D31
   0
BLOCK_RECORD
   5
6C
 100
AcDbSymbolTableRecord
 100
AcDbBlockTableRecord
   2
*D32
   0
BLOCK_RECORD
   5
6D
 100
AcDbSymbolTableRecord
 100
AcDbBlockTableRecord
   2
*D33
   0
BLOCK_RECORD
   5
6E
 100
AcDbSymbolTableRecord
 100
AcDbBlockTableRecord
   2
*D34
   0
BLOCK_RECORD
   5
6F
 100
AcDbSymbolTableRecord
 100
AcDbBlockTableRecord
   2
*D35
   0
BLOCK_RECORD
   5
70
 100
AcDbSymbolTableRecord
 100
AcDbBlockTableRecord
   2
*D36
   0
BLOCK_RECORD
   5
71
 100
AcDbSymbolTableRecord
 100
AcDbBlockTableRecord
   2
*D37
   0
BLOCK_RECORD
   5
72
 100
AcDbSymbolTableRecord
 100
AcDbBlockTableRecord
   2
_ARCHTICK
   0
BLOCK_RECORD
   5
73
 100
AcDbSymbolTableRecord
 100
AcDbBlockTableRecord
   2
_BOXBLANK
   0
BLOCK_RECORD
   5
74
 100
AcDbSymbolTableRecord
 100
AcDbBlockTableRecord
   2
_BOXFILLED
   0
BLOCK_RECORD
   5
75
 100
AcDbSymbolTableRecord
 100
AcDbBlockTableRecord
   2
_CLOSED
   0
BLOCK_RECORD
   5
76
 100
AcDbSymbolTableRecord
 100
AcDbBlockTableRecord
   2
_CLOSEDBLANK
   0
BLOCK_RECORD
   5
77
 100
AcDbSymbolTableRecord
 100
AcDbBlockTableRecord
   2
_DATUMBLANK
   0
BLOCK_RECORD
   5
78
 100
AcDbSymbolTableRecord
 100
AcDbBlockTableRecord
   2
_DATUMFILLED
   0
BLOCK_RECORD
   5
79
 100
AcDbSymbolTableRecord
 100
AcDbBlockTableRecord
   2
_DOT
   0
BLOCK_RECORD
   5
7A
 100
AcDbSymbolTableRecord
 100
AcDbBlockTableRecord
   2
_DOTBLANK
   0
BLOCK_RECORD
   5
7B
 100
AcDbSymbolTableRecord
 100
AcDbBlockTableRecord
   2
_DOTSMALL
   0
BLOCK_RECORD
   5
7C
 100
AcDbSymbolTableRecord
 100
AcDbBlockTableRecord
   2
_INTEGRAL
   0
BLOCK_RECORD
   5
7D
 100
AcDbSymbolTableRecord
 100
AcDbBlockTableRecord
   2
_NONE
   0
BLOCK_RECORD
   5
7E
 100
AcDbSymbolTableRecord
 100
AcDbBlockTableRecord
   2
_OBLIQUE
   0
BLOCK_RECORD
   5
7F
 100
AcDbSymbolTableRecord
 100
AcDbBlockTableRecord
   2
_OPEN
   0
BLOCK_RECORD
   5
80
 100
AcDbSymbolTableRecord
 100
AcDbBlockTableRecord
   2
_OPEN30
   0
BLOCK_RECORD
   5
81
 100
AcDbSymbolTableRecord
 100
AcDbBlockTableRecord
   2
_OPEN90
   0
BLOCK_RECORD
   5
82
 100
AcDbSymbolTableRecord
 100
AcDbBlockTableRecord
   2
_ORIGIN
   0
ENDTAB
   0
ENDSEC
  0
SECTION
  2
BLOCKS
  0
BLOCK
  5
19
100
AcDbEntity
  8
0
100
AcDbBlockBegin
  2
*MODEL_SPACE
 70
     0
 10
0.0
 20
0.0
 30
0.0
  3
*MODEL_SPACE
  1

  0
ENDBLK
  5
1A
100
AcDbEntity
  8
0
100
AcDbBlockEnd
  0
BLOCK
  5
16
100
AcDbEntity
 67
     1
  8
0
100
AcDbBlockBegin
  2
*PAPER_SPACE
 70
     0
 10
0.0
 20
0.0
 30
0.0
  3
*PAPER_SPACE
  1

  0
ENDBLK
  5
17
100
AcDbEntity
 67
     1
  8
0
100
AcDbBlockEnd
   0
BLOCK
   5
83
 100
AcDbEntity
   8
0
 100
AcDbBlockBegin
   2
_ARCHTICK
  70
0
  10
0.0
  20
0.0
  30
0.0
   3
_ARCHTICK
   0
POLYLINE
   5
84
 100
AcDbEntity
   8
0
 370
-2
   6
BYBLOCK
  62
0
 100
AcDb2dPolyline
  66
1
  10
0.0
  20
0.0
  30
0.0
  70
1
  40
 0.15000000000000
  41
 0.15000000000000
   0
VERTEX
   5
85
 100
AcDbEntity
   8
0
   6
BYBLOCK
  62
0
 100
AcDbVertex
 100
AcDb2dVertex
  10
-0.50000000000000
  20
-0.50000000000000
  30
0.0
  40
 0.15000000000000
  41
 0.15000000000000
   0
VERTEX
   5
86
 100
AcDbEntity
   8
0
   6
BYBLOCK
  62
0
 100
AcDbVertex
 100
AcDb2dVertex
  10
 0.50000000000000
  20
 0.50000000000000
  30
0.0
  40
 0.15000000000000
  41
 0.15000000000000
   0
SEQEND
   5
87
 100
AcDbEntity
   8
0
   6
BYBLOCK
  62
0
   0
ENDBLK
   5
88
 100
AcDbEntity
   8
0
 100
AcDbBlockEnd
   0
BLOCK
   5
89
 100
AcDbEntity
   8
0
 100
AcDbBlockBegin
   2
_OBLIQUE
  70
0
  10
0.0
  20
0.0
  30
0.0
   3
_OBLIQUE
   0
LINE
   5
8A
 100
AcDbEntity
   8
0
 370
-2
 100
AcDbLine
   6
BYBLOCK
  62
0
  10
-0.50000000000000
  20
-0.50000000000000
  30
0.0
  11
 0.50000000000000
  21
 0.50000000000000
  31
0.0
   0
ENDBLK
   5
8B
 100
AcDbEntity
   8
0
 100
AcDbBlockEnd
   0
BLOCK
   5
8C
 100
AcDbEntity
   8
0
 100
AcDbBlockBegin
   2
_BOXBLANK
  70
0
  10
0.0
  20
0.0
  30
0.0
   3
_BOXBLANK
   0
LINE
   5
8D
 100
AcDbEntity
   8
0
 370
-2
 100
AcDbLine
   6
BYBLOCK
  62
0
  10
-0.50000000000000
  20
-0.50000000000000
  30
0.0
  11
 0.50000000000000
  21
-0.50000000000000
  31
0.0
   0
LINE
   5
8E
 100
AcDbEntity
   8
0
 370
-2
 100
AcDbLine
   6
BYBLOCK
  62
0
  10
 0.50000000000000
  20
-0.50000000000000
  30
0.0
  11
 0.50000000000000
  21
 0.50000000000000
  31
0.0
   0
LINE
   5
8F
 100
AcDbEntity
   8
0
 370
-2
 100
AcDbLine
   6
BYBLOCK
  62
0
  10
 0.50000000000000
  20
 0.50000000000000
  30
0.0
  11
-0.50000000000000
  21
 0.50000000000000
  31
0.0
   0
LINE
   5
90
 100
AcDbEntity
   8
0
 370
-2
 100
AcDbLine
   6
BYBLOCK
  62
0
  10
-0.50000000000000
  20
 0.50000000000000
  30
0.0
  11
-0.50000000000000
  21
-0.50000000000000
  31
0.0
   0
LINE
   5
91
 100
AcDbEntity
   8
0
 370
-2
 100
AcDbLine
   6
BYBLOCK
  62
0
  10
-0.50000000000000
  20
0.0
  30
0.0
  11
-1.0000000000000
  21
0.0
  31
0.0
   0
ENDBLK
   5
92
 100
AcDbEntity
   8
0
 100
AcDbBlockEnd
   0
BLOCK
   5
93
 100
AcDbEntity
   8
0
 100
AcDbBlockBegin
   2
_BOXFILLED
  70
0
  10
0.0
  20
0.0
  30
0.0
   3
_BOXFILLED
   0
SOLID
   5
94
 100
AcDbEntity
   8
0
 100
AcDbTrace
   6
BYBLOCK
  62
0
  10
-0.50000000000000
  20
 0.50000000000000
  30
0.0
  11
 0.50000000000000
  21
 0.50000000000000
  31
0.0
  12
-0.50000000000000
  22
-0.50000000000000
  32
0.0
  13
 0.50000000000000
  23
-0.50000000000000
  33
0.0
   0
LINE
   5
95
 100
AcDbEntity
   8
0
 370
-2
 100
AcDbLine
   6
BYBLOCK
  62
0
  10
-0.50000000000000
  20
0.0
  30
0.0
  11
-1.0000000000000
  21
0.0
  31
0.0
   0
ENDBLK
   5
96
 100
AcDbEntity
   8
0
 100
AcDbBlockEnd
   0
BLOCK
   5
97
 100
AcDbEntity
   8
0
 100
AcDbBlockBegin
   2
_CLOSED
  70
0
  10
0.0
  20
0.0
  30
0.0
   3
_CLOSED
   0
LINE
   5
98
 100
AcDbEntity
   8
0
 370
-2
 100
AcDbLine
   6
BYBLOCK
  62
0
  10
-1.0000000000000
  20
 0.16666666666667
  30
0.0
  11
0.0
  21
0.0
  31
0.0
   0
LINE
   5
99
 100
AcDbEntity
   8
0
 370
-2
 100
AcDbLine
   6
BYBLOCK
  62
0
  10
0.0
  20
0.0
  30
0.0
  11
-1.0000000000000
  21
-0.16666666666667
  31
0.0
   0
LINE
   5
9A
 100
AcDbEntity
   8
0
 370
-2
 100
AcDbLine
   6
BYBLOCK
  62
0
  10
-1.0000000000000
  20
 0.16666666666667
  30
0.0
  11
-1.0000000000000
  21
-0.16666666666667
  31
0.0
   0
LINE
   5
9B
 100
AcDbEntity
   8
0
 370
-2
 100
AcDbLine
   6
BYBLOCK
  62
0
  10
0.0
  20
0.0
  30
0.0
  11
-1.0000000000000
  21
0.0
  31
0.0
   0
ENDBLK
   5
9C
 100
AcDbEntity
   8
0
 100
AcDbBlockEnd
   0
BLOCK
   5
9D
 100
AcDbEntity
   8
0
 100
AcDbBlockBegin
   2
_OPEN
  70
0
  10
0.0
  20
0.0
  30
0.0
   3
_OPEN
   0
LINE
   5
9E
 100
AcDbEntity
   8
0
 370
-2
 100
AcDbLine
   6
BYBLOCK
  62
0
  10
-1.0000000000000
  20
 0.16666666666667
  30
0.0
  11
0.0
  21
0.0
  31
0.0
   0
LINE
   5
9F
 100
AcDbEntity
   8
0
 370
-2
 100
AcDbLine
   6
BYBLOCK
  62
0
  10
0.0
  20
0.0
  30
0.0
  11
-1.0000000000000
  21
-0.16666666666667
  31
0.0
   0
LINE
   5
A0
 100
AcDbEntity
   8
0
 370
-2
 100
AcDbLine
   6
BYBLOCK
  62
0
  10
0.0
  20
0.0
  30
0.0
  11
-1.0000000000000
  21
0.0
  31
0.0
   0
ENDBLK
   5
A1
 100
AcDbEntity
   8
0
 100
AcDbBlockEnd
   0
BLOCK
   5
A2
 100
AcDbEntity
   8
0
 100
AcDbBlockBegin
   2
_OPEN30
  70
0
  10
0.0
  20
0.0
  30
0.0
   3
_OPEN30
   0
LINE
   5
A3
 100
AcDbEntity
   8
0
 370
-2
 100
AcDbLine
   6
BYBLOCK
  62
0
  10
-1.0000000000000
  20
 0.26794919243110
  30
0.0
  11
0.0
  21
0.0
  31
0.0
   0
LINE
   5
A4
 100
AcDbEntity
   8
0
 370
-2
 100
AcDbLine
   6
BYBLOCK
  62
0
  10
0.0
  20
0.0
  30
0.0
  11
-1.0000000000000
  21
-0.26794919243110
  31
0.0
   0
LINE
   5
A5
 100
AcDbEntity
   8
0
 370
-2
 100
AcDbLine
   6
BYBLOCK
  62
0
  10
0.0
  20
0.0
  30
0.0
  11
-1.0000000000000
  21
0.0
  31
0.0
   0
ENDBLK
   5
A6
 100
AcDbEntity
   8
0
 100
AcDbBlockEnd
   0
BLOCK
   5
A7
 100
AcDbEntity
   8
0
 100
AcDbBlockBegin
   2
_OPEN90
  70
0
  10
0.0
  20
0.0
  30
0.0
   3
_OPEN90
   0
LINE
   5
A8
 100
AcDbEntity
   8
0
 370
-2
 100
AcDbLine
   6
BYBLOCK
  62
0
  10
-0.50000000000000
  20
 0.50000000000000
  30
0.0
  11
0.0
  21
0.0
  31
0.0
   0
LINE
   5
A9
 100
AcDbEntity
   8
0
 370
-2
 100
AcDbLine
   6
BYBLOCK
  62
0
  10
0.0
  20
0.0
  30
0.0
  11
-0.50000000000000
  21
-0.50000000000000
  31
0.0
   0
LINE
   5
AA
 100
AcDbEntity
   8
0
 370
-2
 100
AcDbLine
   6
BYBLOCK
  62
0
  10
0.0
  20
0.0
  30
0.0
  11
-1.0000000000000
  21
0.0
  31
0.0
   0
ENDBLK
   5
AB
 100
AcDbEntity
   8
0
 100
AcDbBlockEnd
   0
BLOCK
   5
AC
 100
AcDbEntity
   8
0
 100
AcDbBlockBegin
   2
_CLOSEDBLANK
  70
0
  10
0.0
  20
0.0
  30
0.0
   3
_CLOSEDBLANK
   0
LINE
   5
AD
 100
AcDbEntity
   8
0
 370
-2
 100
AcDbLine
   6
BYBLOCK
  62
0
  10
-1.0000000000000
  20
 0.16666666666667
  30
0.0
  11
0.0
  21
0.0
  31
0.0
   0
LINE
   5
AE
 100
AcDbEntity
   8
0
 370
-2
 100
AcDbLine
   6
BYBLOCK
  62
0
  10
0.0
  20
0.0
  30
0.0
  11
-1.0000000000000
  21
-0.16666666666667
  31
0.0
   0
LINE
   5
AF
 100
AcDbEntity
   8
0
 370
-2
 100
AcDbLine
   6
BYBLOCK
  62
0
  10
-1.0000000000000
  20
 0.16666666666667
  30
0.0
  11
-1.0000000000000
  21
-0.16666666666667
  31
0.0
   0
ENDBLK
   5
B0
 100
AcDbEntity
   8
0
 100
AcDbBlockEnd
   0
BLOCK
   5
B1
 100
AcDbEntity
   8
0
 100
AcDbBlockBegin
   2
_DOT
  70
0
  10
0.0
  20
0.0
  30
0.0
   3
_DOT
   0
POLYLINE
   5
B2
 100
AcDbEntity
   8
0
 370
-2
   6
BYBLOCK
  62
0
 100
AcDb2dPolyline
  66
1
  10
0.0
  20
0.0
  30
0.0
  70
1
  40
 0.50000000000000
  41
 0.50000000000000
   0
VERTEX
   5
B3
 100
AcDbEntity
   8
0
   6
BYBLOCK
  62
0
 100
AcDbVertex
 100
AcDb2dVertex
  10
-0.25000000000000
  20
0.0
  30
0.0
  42
 1.0000000000000
  40
 0.50000000000000
  41
 0.50000000000000
   0
VERTEX
   5
B4
 100
AcDbEntity
   8
0
   6
BYBLOCK
  62
0
 100
AcDbVertex
 100
AcDb2dVertex
  10
 0.25000000000000
  20
0.0
  30
0.0
  42
 1.0000000000000
  40
 0.50000000000000
  41
 0.50000000000000
   0
SEQEND
   5
B5
 100
AcDbEntity
   8
0
   6
BYBLOCK
  62
0
   0
LINE
   5
B6
 100
AcDbEntity
   8
0
 370
-2
 100
AcDbLine
   6
BYBLOCK
  62
0
  10
-0.50000000000000
  20
0.0
  30
0.0
  11
-1.0000000000000
  21
0.0
  31
0.0
   0
ENDBLK
   5
B7
 100
AcDbEntity
   8
0
 100
AcDbBlockEnd
   0
BLOCK
   5
B8
 100
AcDbEntity
   8
0
 100
AcDbBlockBegin
   2
_DOTSMALL
  70
0
  10
0.0
  20
0.0
  30
0.0
   3
_DOTSMALL
   0
POLYLINE
   5
B9
 100
AcDbEntity
   8
0
 370
-2
   6
BYBLOCK
  62
0
 100
AcDb2dPolyline
  66
1
  10
0.0
  20
0.0
  30
0.0
  70
1
  40
 0.50000000000000
  41
 0.50000000000000
   0
VERTEX
   5
BA
 100
AcDbEntity
   8
0
   6
BYBLOCK
  62
0
 100
AcDbVertex
 100
AcDb2dVertex
  10
-0.62500000000000E-1
  20
0.0
  30
0.0
  42
 1.0000000000000
  40
 0.50000000000000
  41
 0.50000000000000
   0
VERTEX
   5
BB
 100
AcDbEntity
   8
0
   6
BYBLOCK
  62
0
 100
AcDbVertex
 100
AcDb2dVertex
  10
 0.62500000000000E-1
  20
0.0
  30
0.0
  42
 1.0000000000000
  40
 0.50000000000000
  41
 0.50000000000000
   0
SEQEND
   5
BC
 100
AcDbEntity
   8
0
   6
BYBLOCK
  62
0
   0
ENDBLK
   5
BD
 100
AcDbEntity
   8
0
 100
AcDbBlockEnd
   0
BLOCK
   5
BE
 100
AcDbEntity
   8
0
 100
AcDbBlockBegin
   2
_DATUMBLANK
  70
0
  10
0.0
  20
0.0
  30
0.0
   3
_DATUMBLANK
   0
LINE
   5
BF
 100
AcDbEntity
   8
0
 370
-2
 100
AcDbLine
   6
BYBLOCK
  62
0
  10
0.0
  20
 0.57735027000000
  30
0.0
  11
-1.0000000000000
  21
0.0
  31
0.0
   0
LINE
   5
C0
 100
AcDbEntity
   8
0
 370
-2
 100
AcDbLine
   6
BYBLOCK
  62
0
  10
-1.0000000000000
  20
0.0
  30
0.0
  11
0.0
  21
-0.57735027000000
  31
0.0
   0
LINE
   5
C1
 100
AcDbEntity
   8
0
 370
-2
 100
AcDbLine
   6
BYBLOCK
  62
0
  10
0.0
  20
-0.57735027000000
  30
0.0
  11
0.0
  21
 0.57735027000000
  31
0.0
   0
ENDBLK
   5
C2
 100
AcDbEntity
   8
0
 100
AcDbBlockEnd
   0
BLOCK
   5
C3
 100
AcDbEntity
   8
0
 100
AcDbBlockBegin
   2
_DATUMFILLED
  70
0
  10
0.0
  20
0.0
  30
0.0
   3
_DATUMFILLED
   0
SOLID
   5
C4
 100
AcDbEntity
   8
0
 100
AcDbTrace
   6
BYBLOCK
  62
0
  10
0.0
  20
 0.57735027000000
  30
0.0
  11
-1.0000000000000
  21
0.0
  31
0.0
  12
0.0
  22
-0.57735027000000
  32
0.0
  13
0.0
  23
-0.57735027000000
  33
0.0
   0
ENDBLK
   5
C5
 100
AcDbEntity
   8
0
 100
AcDbBlockEnd
   0
BLOCK
   5
C6
 100
AcDbEntity
   8
0
 100
AcDbBlockBegin
   2
_ORIGIN
  70
0
  10
0.0
  20
0.0
  30
0.0
   3
_ORIGIN
   0
CIRCLE
   5
C7
 100
AcDbEntity
   8
0
 370
-2
 100
AcDbCircle
   6
BYBLOCK
  62
0
  10
0.0
  20
0.0
  30
0.0
  40
 0.50000000000000
   0
LINE
   5
C8
 100
AcDbEntity
   8
0
 370
-2
 100
AcDbLine
   6
BYBLOCK
  62
0
  10
0.0
  20
0.0
  30
0.0
  11
-1.0000000000000
  21
0.0
  31
0.0
   0
ENDBLK
   5
C9
 100
AcDbEntity
   8
0
 100
AcDbBlockEnd
   0
BLOCK
   5
CA
 100
AcDbEntity
   8
0
 100
AcDbBlockBegin
   2
_NONE
  70
0
  10
0.0
  20
0.0
  30
0.0
   3
_NONE
   0
CIRCLE
   5
CB
 100
AcDbEntity
   8
0
 370
-2
 100
AcDbCircle
   6
BYBLOCK
  62
0
  10
0.0
  20
0.0
  30
0.0
  40
 0.25000000000000
   0
ENDBLK
   5
CC
 100
AcDbEntity
   8
0
 100
AcDbBlockEnd
   0
BLOCK
   5
CD
 100
AcDbEntity
   8
0
 100
AcDbBlockBegin
   2
_DOTBLANK
  70
0
  10
0.0
  20
0.0
  30
0.0
   3
_DOTBLANK
   0
CIRCLE
   5
CE
 100
AcDbEntity
   8
0
 370
-2
 100
AcDbCircle
   6
BYBLOCK
  62
0
  10
0.0
  20
0.0
  30
0.0
  40
 0.50000000000000
   0
LINE
   5
CF
 100
AcDbEntity
   8
0
 370
-2
 100
AcDbLine
   6
BYBLOCK
  62
0
  10
-0.50000000000000
  20
0.0
  30
0.0
  11
-1.0000000000000
  21
0.0
  31
0.0
   0
ENDBLK
   5
D0
 100
AcDbEntity
   8
0
 100
AcDbBlockEnd
   0
BLOCK
   5
D1
 100
AcDbEntity
   8
0
 100
AcDbBlockBegin
   2
_INTEGRAL
  70
0
  10
0.0
  20
0.0
  30
0.0
   3
_INTEGRAL
   0
ARC
   5
D2
 100
AcDbEntity
   8
0
 370
-2
   6
BYBLOCK
  62
0
 100
AcDbCircle
  10
 0.44488800000000
  20
-0.91335000000000E-1
  30
0.0
  40
 0.45416700000000
 100
AcDbArc
  50
 102.00000000000
  51
 168.00000000000
   0
ARC
   5
D3
 100
AcDbEntity
   8
0
 370
-2
   6
BYBLOCK
  62
0
 100
AcDbCircle
  10
-0.44488800000000
  20
 0.91335000000000E-1
  30
0.0
  40
 0.45416700000000
 100
AcDbArc
  50
 282.00000000000
  51
 348.00000000000
   0
ENDBLK
   5
D4
 100
AcDbEntity
   8
0
 100
AcDbBlockEnd
   0
BLOCK
   5
D5
 100
AcDbEntity
   8
0
 100
AcDbBlockBegin
   2
*D1
  70
65
  10
0.0
  20
0.0
  30
0.0
   3
*D1
   0
LINE
   5
D6
 100
AcDbEntity
   8
LEVEL001
 370
15
 100
AcDbLine
   6
CONTINUOUS
  62
8
  10
 57.252378886720
  20
 32.613174572461
  30
0.0
  11
 63.538349678273
  21
 32.613174572461
  31
0.0
   0
LINE
   5
D7
 100
AcDbEntity
   8
LEVEL001
 370
15
 100
AcDbLine
   6
CONTINUOUS
  62
8
  10
 62.538349678273
  20
 25.562779523900
  30
0.0
  11
 62.538349678273
  21
 33.863174572461
  31
0.0
   0
LINE
   5
D8
 100
AcDbEntity
   8
LEVEL001
 370
15
 100
AcDbLine
   6
CONTINUOUS
  62
8
  10
 62.538349678273
  20
 35.113174572461
  30
0.0
  11
 62.538349678273
  21
 33.863174572461
  31
0.0
   0
SOLID
   5
D9
 100
AcDbEntity
   8
LEVEL001
 100
AcDbTrace
   6
CONTINUOUS
  62
8
  10
 62.538349678273
  20
 32.613174572461
  30
0.0
  11
 62.185695716857
  21
 30.613174572461
  31
0.0
  12
 62.891003639690
  22
 30.613174572461
  32
0.0
  13
 62.891003639690
  23
 30.613174572461
  33
0.0
   0
MTEXT
   5
DA
 100
AcDbEntity
   8
LEVEL001
 370
15
  62
8
 100
AcDbMText
  10
 61.784400548420
  20
 33.562779523900
  30
0.0
  40
 2.5000000000000
  41
0.0
  71
9
  72
1
   1
\A1;2.5
   7
GMM002
  11
0.0
  21
 1.0000000000000
  31
0.0
  44
 0.79999984000003
   0
ENDBLK
   5
DB
 100
AcDbEntity
   8
0
 100
AcDbBlockEnd
   0
BLOCK
   5
DC
 100
AcDbEntity
   8
0
 100
AcDbBlockBegin
   2
*D2
  70
65
  10
0.0
  20
0.0
  30
0.0
   3
*D2
   0
LINE
   5
DD
 100
AcDbEntity
   8
LEVEL001
 370
15
 100
AcDbLine
   6
CONTINUOUS
  62
8
  10
 57.252378886720
  20
 35.113174572461
  30
0.0
  11
 63.538349678273
  21
 35.113174572461
  31
0.0
   0
LINE
   5
DE
 100
AcDbEntity
   8
LEVEL001
 370
15
 100
AcDbLine
   6
CONTINUOUS
  62
8
  10
 55.252378886720
  20
 36.613174572461
  30
0.0
  11
 63.538349678273
  21
 36.613174572461
  31
0.0
   0
LINE
   5
DF
 100
AcDbEntity
   8
LEVEL001
 370
15
 100
AcDbLine
   6
CONTINUOUS
  62
8
  10
 62.538349678273
  20
 35.113174572461
  30
0.0
  11
 62.538349678273
  21
 35.863174572461
  31
0.0
   0
LINE
   5
E0
 100
AcDbEntity
   8
LEVEL001
 370
15
 100
AcDbLine
   6
CONTINUOUS
  62
8
  10
 62.538349678273
  20
 42.657201656885
  30
0.0
  11
 62.538349678273
  21
 35.863174572461
  31
0.0
   0
INSERT
   5
E1
 100
AcDbEntity
   8
LEVEL001
   6
CONTINUOUS
  62
8
 100
AcDbBlockReference
   2
_DOT
  10
 62.538349678273
  20
 35.113174572461
  30
0.0
  41
 0.40000000000000
  42
 0.40000000000000
  43
 0.40000000000000
  50
 270.00000000000
   0
SOLID
   5
E2
 100
AcDbEntity
   8
LEVEL001
 100
AcDbTrace
   6
CONTINUOUS
  62
8
  10
 62.538349678273
  20
 36.613174572461
  30
0.0
  11
 62.891003639690
  21
 38.613174572461
  31
0.0
  12
 62.185695716857
  22
 38.613174572461
  32
0.0
  13
 62.185695716857
  23
 38.613174572461
  33
0.0
   0
MTEXT
   5
E3
 100
AcDbEntity
   8
LEVEL001
 370
15
  62
8
 100
AcDbMText
  10
 61.470255077647
  20
 37.157201656885
  30
0.0
  40
 2.5000000000000
  41
0.0
  71
7
  72
1
   1
\A1;1.5
   7
GMM002
  11
0.0
  21
 1.0000000000000
  31
0.0
   0
ENDBLK
   5
E4
 100
AcDbEntity
   8
0
 100
AcDbBlockEnd
   0
BLOCK
   5
E5
 100
AcDbEntity
   8
0
 100
AcDbBlockBegin
   2
*D3
  70
65
  10
0.0
  20
0.0
  30
0.0
   3
*D3
   0
LINE
   5
E6
 100
AcDbEntity
   8
LEVEL001
 370
15
 100
AcDbLine
   6
CONTINUOUS
  62
8
  10
 63.538349678273
  20
 32.613174572461
  30
0.0
  11
 69.499259986181
  21
 32.613174572461
  31
0.0
   0
LINE
   5
E7
 100
AcDbEntity
   8
LEVEL001
 370
15
 100
AcDbLine
   6
CONTINUOUS
  62
8
  10
 63.538349678273
  20
 36.613174572461
  30
0.0
  11
 69.499259986181
  21
 36.613174572461
  31
0.0
   0
LINE
   5
E8
 100
AcDbEntity
   8
LEVEL001
 370
15
 100
AcDbLine
   6
CONTINUOUS
  62
8
  10
 68.499259986181
  20
 30.113174572461
  30
0.0
  11
 68.499259986181
  21
 34.613174572461
  31
0.0
   0
LINE
   5
E9
 100
AcDbEntity
   8
LEVEL001
 370
15
 100
AcDbLine
   6
CONTINUOUS
  62
8
  10
 68.499259986181
  20
 39.113174572461
  30
0.0
  11
 68.499259986181
  21
 34.613174572461
  31
0.0
   0
SOLID
   5
EA
 100
AcDbEntity
   8
LEVEL001
 100
AcDbTrace
   6
CONTINUOUS
  62
8
  10
 68.499259986181
  20
 32.613174572461
  30
0.0
  11
 68.146606024764
  21
 30.613174572461
  31
0.0
  12
 68.851913947597
  22
 30.613174572461
  32
0.0
  13
 68.851913947597
  23
 30.613174572461
  33
0.0
   0
SOLID
   5
EB
 100
AcDbEntity
   8
LEVEL001
 100
AcDbTrace
   6
CONTINUOUS
  62
8
  10
 68.499259986181
  20
 36.613174572461
  30
0.0
  11
 68.851913947597
  21
 38.613174572461
  31
0.0
  12
 68.146606024764
  22
 38.613174572461
  32
0.0
  13
 68.146606024764
  23
 38.613174572461
  33
0.0
   0
MTEXT
   5
EC
 100
AcDbEntity
   8
LEVEL001
 370
15
  62
8
 100
AcDbMText
  10
 67.499259986181
  20
 34.613174572461
  30
0.0
  40
 2.5000000000000
  41
0.0
  71
8
  72
1
   1
\A1;4
   7
GMM002
  11
0.0
  21
 1.0000000000000
  31
0.0
   0
ENDBLK
   5
ED
 100
AcDbEntity
   8
0
 100
AcDbBlockEnd
   0
BLOCK
   5
EE
 100
AcDbEntity
   8
0
 100
AcDbBlockBegin
   2
*D4
  70
65
  10
0.0
  20
0.0
  30
0.0
   3
*D4
   0
LINE
   5
EF
 100
AcDbEntity
   8
LEVEL001
 370
15
 100
AcDbLine
   6
CONTINUOUS
  62
8
  10
 41.252378886720
  20
 36.113174572461
  30
0.0
  11
 41.252378886720
  21
 44.613174572461
  31
0.0
   0
LINE
   5
F0
 100
AcDbEntity
   8
LEVEL001
 370
15
 100
AcDbLine
   6
CONTINUOUS
  62
8
  10
 37.148540848412
  20
 43.613174572461
  30
0.0
  11
 42.252378886720
  21
 43.613174572461
  31
0.0
   0
LINE
   5
F1
 100
AcDbEntity
   8
LEVEL001
 370
15
 100
AcDbLine
   6
CONTINUOUS
  62
8
  10
 43.252378886720
  20
 43.613174572461
  30
0.0
  11
 42.252378886720
  21
 43.613174572461
  31
0.0
   0
SOLID
   5
F2
 100
AcDbEntity
   8
LEVEL001
 100
AcDbTrace
   6
CONTINUOUS
  62
8
  10
 41.252378886720
  20
 43.613174572461
  30
0.0
  11
 39.252378886720
  21
 43.965828533878
  31
0.0
  12
 39.252378886720
  22
 43.260520611044
  32
0.0
  13
 39.252378886720
  23
 43.260520611044
  33
0.0
   0
MTEXT
   5
F3
 100
AcDbEntity
   8
LEVEL001
 370
15
  62
8
 100
AcDbMText
  10
 39.648540848412
  20
 44.420874487462
  30
0.0
  40
 2.5000000000000
  41
0.0
  71
9
  72
1
   1
\A1;2
   7
GMM002
   0
ENDBLK
   5
F4
 100
AcDbEntity
   8
0
 100
AcDbBlockEnd
   0
BLOCK
   5
F5
 100
AcDbEntity
   8
0
 100
AcDbBlockBegin
   2
*D5
  70
65
  10
0.0
  20
0.0
  30
0.0
   3
*D5
   0
LINE
   5
F6
 100
AcDbEntity
   8
LEVEL001
 370
15
 100
AcDbLine
   6
CONTINUOUS
  62
8
  10
 43.252378886720
  20
 37.613174572461
  30
0.0
  11
 43.252378886720
  21
 44.613174572461
  31
0.0
   0
LINE
   5
F7
 100
AcDbEntity
   8
LEVEL001
 370
15
 100
AcDbLine
   6
CONTINUOUS
  62
8
  10
 43.252378886720
  20
 43.613174572461
  30
0.0
  11
 48.752378886720
  21
 43.613174572461
  31
0.0
   0
LINE
   5
F8
 100
AcDbEntity
   8
LEVEL001
 370
15
 100
AcDbLine
   6
CONTINUOUS
  62
8
  10
 54.252378886720
  20
 43.613174572461
  30
0.0
  11
 48.752378886720
  21
 43.613174572461
  31
0.0
   0
SOLID
   5
F9
 100
AcDbEntity
   8
LEVEL001
 100
AcDbTrace
   6
CONTINUOUS
  62
8
  10
 43.252378886720
  20
 43.613174572461
  30
0.0
  11
 45.252378886720
  21
 43.260520611044
  31
0.0
  12
 45.252378886720
  22
 43.965828533878
  32
0.0
  13
 45.252378886720
  23
 43.965828533878
  33
0.0
   0
SOLID
   5
FA
 100
AcDbEntity
   8
LEVEL001
 100
AcDbTrace
   6
CONTINUOUS
  62
8
  10
 54.252378886720
  20
 43.613174572461
  30
0.0
  11
 52.252378886720
  21
 43.965828533878
  31
0.0
  12
 52.252378886720
  22
 43.260520611044
  32
0.0
  13
 52.252378886720
  23
 43.260520611044
  33
0.0
   0
MTEXT
   5
FB
 100
AcDbEntity
   8
LEVEL001
 370
15
  62
8
 100
AcDbMText
  10
 48.752378886720
  20
 44.613174572461
  30
0.0
  40
 2.5000000000000
  41
0.0
  71
8
  72
1
   1
\A1;11
   7
GMM002
   0
ENDBLK
   5
FC
 100
AcDbEntity
   8
0
 100
AcDbBlockEnd
   0
BLOCK
   5
FD
 100
AcDbEntity
   8
0
 100
AcDbBlockBegin
   2
*D6
  70
65
  10
0.0
  20
0.0
  30
0.0
   3
*D6
   0
LINE
   5
FE
 100
AcDbEntity
   8
LEVEL001
 370
15
 100
AcDbLine
   6
CONTINUOUS
  62
8
  10
 54.252378886720
  20
 37.613174572461
  30
0.0
  11
 54.252378886720
  21
 44.613174572461
  31
0.0
   0
LINE
   5
FF
 100
AcDbEntity
   8
LEVEL001
 370
15
 100
AcDbLine
   6
CONTINUOUS
  62
8
  10
 56.252378886720
  20
 36.113174572461
  30
0.0
  11
 56.252378886720
  21
 44.613174572461
  31
0.0
   0
LINE
   5
100
 100
AcDbEntity
   8
LEVEL001
 370
15
 100
AcDbLine
   6
CONTINUOUS
  62
8
  10
 54.252378886720
  20
 43.613174572461
  30
0.0
  11
 55.252378886720
  21
 43.613174572461
  31
0.0
   0
LINE
   5
101
 100
AcDbEntity
   8
LEVEL001
 370
15
 100
AcDbLine
   6
CONTINUOUS
  62
8
  10
 60.835086271845
  20
 43.613174572461
  30
0.0
  11
 55.252378886720
  21
 43.613174572461
  31
0.0
   0
SOLID
   5
102
 100
AcDbEntity
   8
LEVEL001
 100
AcDbTrace
   6
CONTINUOUS
  62
8
  10
 56.252378886720
  20
 43.613174572461
  30
0.0
  11
 58.252378886720
  21
 43.260520611044
  31
0.0
  12
 58.252378886720
  22
 43.965828533878
  32
0.0
  13
 58.252378886720
  23
 43.965828533878
  33
0.0
   0
MTEXT
   5
103
 100
AcDbEntity
   8
LEVEL001
 370
15
  62
8
 100
AcDbMText
  10
 58.335086271845
  20
 44.420874487462
  30
0.0
  40
 2.5000000000000
  41
0.0
  71
7
  72
1
   1
\A1;2
   7
GMM002
   0
ENDBLK
   5
104
 100
AcDbEntity
   8
0
 100
AcDbBlockEnd
   0
BLOCK
   5
105
 100
AcDbEntity
   8
0
 100
AcDbBlockBegin
   2
*D7
  70
65
  10
0.0
  20
0.0
  30
0.0
   3
*D7
   0
LINE
   5
106
 100
AcDbEntity
   8
LEVEL001
 370
15
 100
AcDbLine
   6
CONTINUOUS
  62
8
  10
 41.252378886720
  20
 31.613174572461
  30
0.0
  11
 41.252378886720
  21
 23.343052801913
  31
0.0
   0
LINE
   5
107
 100
AcDbEntity
   8
LEVEL001
 370
15
 100
AcDbLine
   6
CONTINUOUS
  62
8
  10
 56.252378886720
  20
 31.613174572461
  30
0.0
  11
 56.252378886720
  21
 23.343052801913
  31
0.0
   0
LINE
   5
108
 100
AcDbEntity
   8
LEVEL001
 370
15
 100
AcDbLine
   6
CONTINUOUS
  62
8
  10
 41.252378886720
  20
 24.343052801913
  30
0.0
  11
 48.752378886720
  21
 24.343052801913
  31
0.0
   0
LINE
   5
109
 100
AcDbEntity
   8
LEVEL001
 370
15
 100
AcDbLine
   6
CONTINUOUS
  62
8
  10
 56.252378886720
  20
 24.343052801913
  30
0.0
  11
 48.752378886720
  21
 24.343052801913
  31
0.0
   0
SOLID
   5
10A
 100
AcDbEntity
   8
LEVEL001
 100
AcDbTrace
   6
CONTINUOUS
  62
8
  10
 41.252378886720
  20
 24.343052801913
  30
0.0
  11
 43.252378886720
  21
 23.990398840496
  31
0.0
  12
 43.252378886720
  22
 24.695706763330
  32
0.0
  13
 43.252378886720
  23
 24.695706763330
  33
0.0
   0
SOLID
   5
10B
 100
AcDbEntity
   8
LEVEL001
 100
AcDbTrace
   6
CONTINUOUS
  62
8
  10
 56.252378886720
  20
 24.343052801913
  30
0.0
  11
 54.252378886720
  21
 24.695706763330
  31
0.0
  12
 54.252378886720
  22
 23.990398840496
  32
0.0
  13
 54.252378886720
  23
 23.990398840496
  33
0.0
   0
MTEXT
   5
10C
 100
AcDbEntity
   8
LEVEL001
 370
15
  62
8
 100
AcDbMText
  10
 48.752378886720
  20
 25.343052801913
  30
0.0
  40
 2.5000000000000
  41
0.0
  71
8
  72
1
   1
\A1;15
   7
GMM002
   0
ENDBLK
   5
10D
 100
AcDbEntity
   8
0
 100
AcDbBlockEnd
   0
BLOCK
   5
10E
 100
AcDbEntity
   8
0
 100
AcDbBlockBegin
   2
*D8
  70
65
  10
0.0
  20
0.0
  30
0.0
   3
*D8
   0
LINE
   5
10F
 100
AcDbEntity
   8
LEVEL001
 370
15
 100
AcDbLine
   6
CONTINUOUS
  62
8
  10
 116.37499999995
  20
 29.613174572461
  30
0.0
  11
 116.37499999995
  21
 23.343052801913
  31
0.0
   0
LINE
   5
110
 100
AcDbEntity
   8
LEVEL001
 370
15
 100
AcDbLine
   6
CONTINUOUS
  62
8
  10
 131.37499999995
  20
 29.613174572461
  30
0.0
  11
 131.37499999995
  21
 23.343052801913
  31
0.0
   0
LINE
   5
111
 100
AcDbEntity
   8
LEVEL001
 370
15
 100
AcDbLine
   6
CONTINUOUS
  62
8
  10
 116.37499999995
  20
 24.343052801913
  30
0.0
  11
 123.87499999995
  21
 24.343052801913
  31
0.0
   0
LINE
   5
112
 100
AcDbEntity
   8
LEVEL001
 370
15
 100
AcDbLine
   6
CONTINUOUS
  62
8
  10
 131.37499999995
  20
 24.343052801913
  30
0.0
  11
 123.87499999995
  21
 24.343052801913
  31
0.0
   0
SOLID
   5
113
 100
AcDbEntity
   8
LEVEL001
 100
AcDbTrace
   6
CONTINUOUS
  62
8
  10
 116.37499999995
  20
 24.343052801913
  30
0.0
  11
 118.37499999995
  21
 23.990398840496
  31
0.0
  12
 118.37499999995
  22
 24.695706763330
  32
0.0
  13
 118.37499999995
  23
 24.695706763330
  33
0.0
   0
SOLID
   5
114
 100
AcDbEntity
   8
LEVEL001
 100
AcDbTrace
   6
CONTINUOUS
  62
8
  10
 131.37499999995
  20
 24.343052801913
  30
0.0
  11
 129.37499999995
  21
 24.695706763330
  31
0.0
  12
 129.37499999995
  22
 23.990398840496
  32
0.0
  13
 129.37499999995
  23
 23.990398840496
  33
0.0
   0
MTEXT
   5
115
 100
AcDbEntity
   8
LEVEL001
 370
15
  62
8
 100
AcDbMText
  10
 123.87499999995
  20
 25.343052801913
  30
0.0
  40
 2.5000000000000
  41
0.0
  71
8
  72
1
   1
\A1;15
   7
GMM002
   0
ENDBLK
   5
116
 100
AcDbEntity
   8
0
 100
AcDbBlockEnd
   0
BLOCK
   5
117
 100
AcDbEntity
   8
0
 100
AcDbBlockBegin
   2
*D9
  70
65
  10
0.0
  20
0.0
  30
0.0
   3
*D9
   0
LINE
   5
118
 100
AcDbEntity
   8
LEVEL001
 370
15
 100
AcDbLine
   6
CONTINUOUS
  62
8
  10
 132.37499999995
  20
 30.613174572461
  30
0.0
  11
 138.66097079150
  21
 30.613174572461
  31
0.0
   0
LINE
   5
119
 100
AcDbEntity
   8
LEVEL001
 370
15
 100
AcDbLine
   6
CONTINUOUS
  62
8
  10
 137.66097079150
  20
 23.562779523900
  30
0.0
  11
 137.66097079150
  21
 32.863174572461
  31
0.0
   0
LINE
   5
11A
 100
AcDbEntity
   8
LEVEL001
 370
15
 100
AcDbLine
   6
CONTINUOUS
  62
8
  10
 137.66097079150
  20
 35.113174572461
  30
0.0
  11
 137.66097079150
  21
 32.863174572461
  31
0.0
   0
SOLID
   5
11B
 100
AcDbEntity
   8
LEVEL001
 100
AcDbTrace
   6
CONTINUOUS
  62
8
  10
 137.66097079150
  20
 30.613174572461
  30
0.0
  11
 137.30831683009
  21
 28.613174572461
  31
0.0
  12
 138.01362475292
  22
 28.613174572461
  32
0.0
  13
 138.01362475292
  23
 28.613174572461
  33
0.0
   0
MTEXT
   5
11C
 100
AcDbEntity
   8
LEVEL001
 370
15
  62
8
 100
AcDbMText
  10
 136.90702166165
  20
 29.062779523900
  30
0.0
  40
 2.5000000000000
  41
0.0
  71
9
  72
1
   1
\A1;4.5
   7
GMM002
  11
0.0
  21
 1.0000000000000
  31
0.0
   0
ENDBLK
   5
11D
 100
AcDbEntity
   8
0
 100
AcDbBlockEnd
   0
BLOCK
   5
11E
 100
AcDbEntity
   8
0
 100
AcDbBlockBegin
   2
*D10
  70
65
  10
0.0
  20
0.0
  30
0.0
   3
*D10
   0
LINE
   5
11F
 100
AcDbEntity
   8
LEVEL001
 370
15
 100
AcDbLine
   6
CONTINUOUS
  62
8
  10
 132.37499999995
  20
 35.113174572461
  30
0.0
  11
 138.66097079150
  21
 35.113174572461
  31
0.0
   0
LINE
   5
120
 100
AcDbEntity
   8
LEVEL001
 370
15
 100
AcDbLine
   6
CONTINUOUS
  62
8
  10
 130.37499999995
  20
 37.113174572461
  30
0.0
  11
 138.66097079150
  21
 37.113174572461
  31
0.0
   0
LINE
   5
121
 100
AcDbEntity
   8
LEVEL001
 370
15
 100
AcDbLine
   6
CONTINUOUS
  62
8
  10
 137.66097079150
  20
 35.113174572461
  30
0.0
  11
 137.66097079150
  21
 36.113174572461
  31
0.0
   0
LINE
   5
122
 100
AcDbEntity
   8
LEVEL001
 370
15
 100
AcDbLine
   6
CONTINUOUS
  62
8
  10
 137.66097079150
  20
 40.157201656885
  30
0.0
  11
 137.66097079150
  21
 36.113174572461
  31
0.0
   0
INSERT
   5
123
 100
AcDbEntity
   8
LEVEL001
   6
CONTINUOUS
  62
8
 100
AcDbBlockReference
   2
_DOT
  10
 137.66097079150
  20
 35.113174572461
  30
0.0
  41
 0.40000000000000
  42
 0.40000000000000
  43
 0.40000000000000
  50
 270.00000000000
   0
SOLID
   5
124
 100
AcDbEntity
   8
LEVEL001
 100
AcDbTrace
   6
CONTINUOUS
  62
8
  10
 137.66097079150
  20
 37.113174572461
  30
0.0
  11
 138.01362475292
  21
 39.113174572461
  31
0.0
  12
 137.30831683009
  22
 39.113174572461
  32
0.0
  13
 137.30831683009
  23
 39.113174572461
  33
0.0
   0
MTEXT
   5
125
 100
AcDbEntity
   8
LEVEL001
 370
15
  62
8
 100
AcDbMText
  10
 136.59287619088
  20
 37.657201656885
  30
0.0
  40
 2.5000000000000
  41
0.0
  71
7
  72
1
   1
\A1;2
   7
GMM002
  11
0.0
  21
 1.0000000000000
  31
0.0
   0
ENDBLK
   5
126
 100
AcDbEntity
   8
0
 100
AcDbBlockEnd
   0
BLOCK
   5
127
 100
AcDbEntity
   8
0
 100
AcDbBlockBegin
   2
*D11
  70
65
  10
0.0
  20
0.0
  30
0.0
   3
*D11
   0
LINE
   5
128
 100
AcDbEntity
   8
LEVEL001
 370
15
 100
AcDbLine
   6
CONTINUOUS
  62
8
  10
 138.66097079150
  20
 30.613174572461
  30
0.0
  11
 144.62188109941
  21
 30.613174572461
  31
0.0
   0
LINE
   5
129
 100
AcDbEntity
   8
LEVEL001
 370
15
 100
AcDbLine
   6
CONTINUOUS
  62
8
  10
 138.66097079150
  20
 37.113174572461
  30
0.0
  11
 144.62188109941
  21
 37.113174572461
  31
0.0
   0
LINE
   5
12A
 100
AcDbEntity
   8
LEVEL001
 370
15
 100
AcDbLine
   6
CONTINUOUS
  62
8
  10
 143.62188109941
  20
 28.113174572461
  30
0.0
  11
 143.62188109941
  21
 33.863174572461
  31
0.0
   0
LINE
   5
12B
 100
AcDbEntity
   8
LEVEL001
 370
15
 100
AcDbLine
   6
CONTINUOUS
  62
8
  10
 143.62188109941
  20
 39.613174572461
  30
0.0
  11
 143.62188109941
  21
 33.863174572461
  31
0.0
   0
SOLID
   5
12C
 100
AcDbEntity
   8
LEVEL001
 100
AcDbTrace
   6
CONTINUOUS
  62
8
  10
 143.62188109941
  20
 30.613174572461
  30
0.0
  11
 143.26922713799
  21
 28.613174572461
  31
0.0
  12
 143.97453506083
  22
 28.613174572461
  32
0.0
  13
 143.97453506083
  23
 28.613174572461
  33
0.0
   0
SOLID
   5
12D
 100
AcDbEntity
   8
LEVEL001
 100
AcDbTrace
   6
CONTINUOUS
  62
8
  10
 143.62188109941
  20
 37.113174572461
  30
0.0
  11
 143.97453506083
  21
 39.113174572461
  31
0.0
  12
 143.26922713799
  22
 39.113174572461
  32
0.0
  13
 143.26922713799
  23
 39.113174572461
  33
0.0
   0
MTEXT
   5
12E
 100
AcDbEntity
   8
LEVEL001
 370
15
  62
8
 100
AcDbMText
  10
 142.62188109941
  20
 33.863174572461
  30
0.0
  40
 2.5000000000000
  41
0.0
  71
8
  72
1
   1
\A1;6.5
   7
GMM002
  11
0.0
  21
 1.0000000000000
  31
0.0
   0
ENDBLK
   5
12F
 100
AcDbEntity
   8
0
 100
AcDbBlockEnd
   0
BLOCK
   5
130
 100
AcDbEntity
   8
0
 100
AcDbBlockBegin
   2
*D12
  70
65
  10
0.0
  20
0.0
  30
0.0
   3
*D12
   0
LINE
   5
131
 100
AcDbEntity
   8
LEVEL001
 370
15
 100
AcDbLine
   6
CONTINUOUS
  62
8
  10
 116.37499999995
  20
 36.113174572461
  30
0.0
  11
 116.37499999995
  21
 44.613174572461
  31
0.0
   0
LINE
   5
132
 100
AcDbEntity
   8
LEVEL001
 370
15
 100
AcDbLine
   6
CONTINUOUS
  62
8
  10
 112.27116196164
  20
 43.613174572461
  30
0.0
  11
 117.37499999995
  21
 43.613174572461
  31
0.0
   0
LINE
   5
133
 100
AcDbEntity
   8
LEVEL001
 370
15
 100
AcDbLine
   6
CONTINUOUS
  62
8
  10
 118.37499999995
  20
 43.613174572461
  30
0.0
  11
 117.37499999995
  21
 43.613174572461
  31
0.0
   0
SOLID
   5
134
 100
AcDbEntity
   8
LEVEL001
 100
AcDbTrace
   6
CONTINUOUS
  62
8
  10
 116.37499999995
  20
 43.613174572461
  30
0.0
  11
 114.37499999995
  21
 43.965828533878
  31
0.0
  12
 114.37499999995
  22
 43.260520611044
  32
0.0
  13
 114.37499999995
  23
 43.260520611044
  33
0.0
   0
MTEXT
   5
135
 100
AcDbEntity
   8
LEVEL001
 370
15
  62
8
 100
AcDbMText
  10
 114.77116196164
  20
 44.420874487462
  30
0.0
  40
 2.5000000000000
  41
0.0
  71
9
  72
1
   1
\A1;2
   7
GMM002
   0
ENDBLK
   5
136
 100
AcDbEntity
   8
0
 100
AcDbBlockEnd
   0
BLOCK
   5
137
 100
AcDbEntity
   8
0
 100
AcDbBlockBegin
   2
*D13
  70
65
  10
0.0
  20
0.0
  30
0.0
   3
*D13
   0
LINE
   5
138
 100
AcDbEntity
   8
LEVEL001
 370
15
 100
AcDbLine
   6
CONTINUOUS
  62
8
  10
 118.37499999995
  20
 37.613174572461
  30
0.0
  11
 118.37499999995
  21
 44.613174572461
  31
0.0
   0
LINE
   5
139
 100
AcDbEntity
   8
LEVEL001
 370
15
 100
AcDbLine
   6
CONTINUOUS
  62
8
  10
 118.37499999995
  20
 43.613174572461
  30
0.0
  11
 123.87499999995
  21
 43.613174572461
  31
0.0
   0
LINE
   5
13A
 100
AcDbEntity
   8
LEVEL001
 370
15
 100
AcDbLine
   6
CONTINUOUS
  62
8
  10
 129.37499999995
  20
 43.613174572461
  30
0.0
  11
 123.87499999995
  21
 43.613174572461
  31
0.0
   0
SOLID
   5
13B
 100
AcDbEntity
   8
LEVEL001
 100
AcDbTrace
   6
CONTINUOUS
  62
8
  10
 118.37499999995
  20
 43.613174572461
  30
0.0
  11
 120.37499999995
  21
 43.260520611044
  31
0.0
  12
 120.37499999995
  22
 43.965828533878
  32
0.0
  13
 120.37499999995
  23
 43.965828533878
  33
0.0
   0
SOLID
   5
13C
 100
AcDbEntity
   8
LEVEL001
 100
AcDbTrace
   6
CONTINUOUS
  62
8
  10
 129.37499999995
  20
 43.613174572461
  30
0.0
  11
 127.37499999995
  21
 43.965828533878
  31
0.0
  12
 127.37499999995
  22
 43.260520611044
  32
0.0
  13
 127.37499999995
  23
 43.260520611044
  33
0.0
   0
MTEXT
   5
13D
 100
AcDbEntity
   8
LEVEL001
 370
15
  62
8
 100
AcDbMText
  10
 123.87499999995
  20
 44.613174572461
  30
0.0
  40
 2.5000000000000
  41
0.0
  71
8
  72
1
   1
\A1;11
   7
GMM002
   0
ENDBLK
   5
13E
 100
AcDbEntity
   8
0
 100
AcDbBlockEnd
   0
BLOCK
   5
13F
 100
AcDbEntity
   8
0
 100
AcDbBlockBegin
   2
*D14
  70
65
  10
0.0
  20
0.0
  30
0.0
   3
*D14
   0
LINE
   5
140
 100
AcDbEntity
   8
LEVEL001
 370
15
 100
AcDbLine
   6
CONTINUOUS
  62
8
  10
 129.37499999995
  20
 37.613174572461
  30
0.0
  11
 129.37499999995
  21
 44.613174572461
  31
0.0
   0
LINE
   5
141
 100
AcDbEntity
   8
LEVEL001
 370
15
 100
AcDbLine
   6
CONTINUOUS
  62
8
  10
 131.37499999995
  20
 36.113174572461
  30
0.0
  11
 131.37499999995
  21
 44.613174572461
  31
0.0
   0
LINE
   5
142
 100
AcDbEntity
   8
LEVEL001
 370
15
 100
AcDbLine
   6
CONTINUOUS
  62
8
  10
 129.37499999995
  20
 43.613174572461
  30
0.0
  11
 130.37499999995
  21
 43.613174572461
  31
0.0
   0
LINE
   5
143
 100
AcDbEntity
   8
LEVEL001
 370
15
 100
AcDbLine
   6
CONTINUOUS
  62
8
  10
 135.95770738507
  20
 43.613174572461
  30
0.0
  11
 130.37499999995
  21
 43.613174572461
  31
0.0
   0
SOLID
   5
144
 100
AcDbEntity
   8
LEVEL001
 100
AcDbTrace
   6
CONTINUOUS
  62
8
  10
 131.37499999995
  20
 43.613174572461
  30
0.0
  11
 133.37499999995
  21
 43.260520611044
  31
0.0
  12
 133.37499999995
  22
 43.965828533878
  32
0.0
  13
 133.37499999995
  23
 43.965828533878
  33
0.0
   0
MTEXT
   5
145
 100
AcDbEntity
   8
LEVEL001
 370
15
  62
8
 100
AcDbMText
  10
 133.45770738507
  20
 44.420874487462
  30
0.0
  40
 2.5000000000000
  41
0.0
  71
7
  72
1
   1
\A1;2
   7
GMM002
   0
ENDBLK
   5
146
 100
AcDbEntity
   8
0
 100
AcDbBlockEnd
   0
BLOCK
   5
147
 100
AcDbEntity
   8
0
 100
AcDbBlockBegin
   2
*D15
  70
65
  10
0.0
  20
0.0
  30
0.0
   3
*D15
   0
LINE
   5
148
 100
AcDbEntity
   8
LEVEL001
 370
15
 100
AcDbLine
   6
CONTINUOUS
  62
8
  10
 201.16049764625
  20
 33.138664120515
  30
0.0
  11
 201.16049764625
  21
 26.908911901580
  31
0.0
   0
LINE
   5
149
 100
AcDbEntity
   8
LEVEL001
 370
15
 100
AcDbLine
   6
CONTINUOUS
  62
8
  10
 204.16049764625
  20
 33.138664120515
  30
0.0
  11
 204.16049764625
  21
 26.908911901580
  31
0.0
   0
LINE
   5
14A
 100
AcDbEntity
   8
LEVEL001
 370
15
 100
AcDbLine
   6
CONTINUOUS
  62
8
  10
 198.66049764625
  20
 27.908911901580
  30
0.0
  11
 202.66049764625
  21
 27.908911901580
  31
0.0
   0
LINE
   5
14B
 100
AcDbEntity
   8
LEVEL001
 370
15
 100
AcDbLine
   6
CONTINUOUS
  62
8
  10
 206.66049764625
  20
 27.908911901580
  30
0.0
  11
 202.66049764625
  21
 27.908911901580
  31
0.0
   0
SOLID
   5
14C
 100
AcDbEntity
   8
LEVEL001
 100
AcDbTrace
   6
CONTINUOUS
  62
8
  10
 201.16049764625
  20
 27.908911901580
  30
0.0
  11
 199.16049764625
  21
 28.261565862997
  31
0.0
  12
 199.16049764625
  22
 27.556257940163
  32
0.0
  13
 199.16049764625
  23
 27.556257940163
  33
0.0
   0
SOLID
   5
14D
 100
AcDbEntity
   8
LEVEL001
 100
AcDbTrace
   6
CONTINUOUS
  62
8
  10
 204.16049764625
  20
 27.908911901580
  30
0.0
  11
 206.16049764625
  21
 27.556257940163
  31
0.0
  12
 206.16049764625
  22
 28.261565862997
  32
0.0
  13
 206.16049764625
  23
 28.261565862997
  33
0.0
   0
MTEXT
   5
14E
 100
AcDbEntity
   8
LEVEL001
 370
15
  62
8
 100
AcDbMText
  10
 202.66049764625
  20
 28.908911901580
  30
0.0
  40
 2.5000000000000
  41
0.0
  71
8
  72
1
   1
\A1;3
   7
GMM002
   0
ENDBLK
   5
14F
 100
AcDbEntity
   8
0
 100
AcDbBlockEnd
   0
BLOCK
   5
150
 100
AcDbEntity
   8
0
 100
AcDbBlockBegin
   2
*D16
  70
65
  10
0.0
  20
0.0
  30
0.0
   3
*D16
   0
LINE
   5
151
 100
AcDbEntity
   8
LEVEL001
 370
15
 100
AcDbLine
   6
CONTINUOUS
  62
8
  10
 184.16049764625
  20
 33.138664120515
  30
0.0
  11
 184.16049764625
  21
 20.838880736240
  31
0.0
   0
LINE
   5
152
 100
AcDbEntity
   8
LEVEL001
 370
15
 100
AcDbLine
   6
CONTINUOUS
  62
8
  10
 204.16049764625
  20
 26.908911901580
  30
0.0
  11
 204.16049764625
  21
 20.838880736240
  31
0.0
   0
LINE
   5
153
 100
AcDbEntity
   8
LEVEL001
 370
15
 100
AcDbLine
   6
CONTINUOUS
  62
8
  10
 184.16049764625
  20
 21.838880736240
  30
0.0
  11
 194.16049764625
  21
 21.838880736240
  31
0.0
   0
LINE
   5
154
 100
AcDbEntity
   8
LEVEL001
 370
15
 100
AcDbLine
   6
CONTINUOUS
  62
8
  10
 204.16049764625
  20
 21.838880736240
  30
0.0
  11
 194.16049764625
  21
 21.838880736240
  31
0.0
   0
SOLID
   5
155
 100
AcDbEntity
   8
LEVEL001
 100
AcDbTrace
   6
CONTINUOUS
  62
8
  10
 184.16049764625
  20
 21.838880736240
  30
0.0
  11
 186.16049764625
  21
 21.486226774823
  31
0.0
  12
 186.16049764625
  22
 22.191534697657
  32
0.0
  13
 186.16049764625
  23
 22.191534697657
  33
0.0
   0
SOLID
   5
156
 100
AcDbEntity
   8
LEVEL001
 100
AcDbTrace
   6
CONTINUOUS
  62
8
  10
 204.16049764625
  20
 21.838880736240
  30
0.0
  11
 202.16049764625
  21
 22.191534697657
  31
0.0
  12
 202.16049764625
  22
 21.486226774823
  32
0.0
  13
 202.16049764625
  23
 21.486226774823
  33
0.0
   0
MTEXT
   5
157
 100
AcDbEntity
   8
LEVEL001
 370
15
  62
8
 100
AcDbMText
  10
 194.16049764625
  20
 22.838880736240
  30
0.0
  40
 2.5000000000000
  41
0.0
  71
8
  72
1
   1
\A1;20
   7
GMM002
   0
ENDBLK
   5
158
 100
AcDbEntity
   8
0
 100
AcDbBlockEnd
   0
BLOCK
   5
159
 100
AcDbEntity
   8
0
 100
AcDbBlockBegin
   2
*D17
  70
65
  10
0.0
  20
0.0
  30
0.0
   3
*D17
   0
LINE
   5
15A
 100
AcDbEntity
   8
LEVEL001
 370
15
 100
AcDbLine
   6
CONTINUOUS
  62
8
  10
 183.16049764625
  20
 34.138664120515
  30
0.0
  11
 178.94816806575
  21
 34.138664120515
  31
0.0
   0
LINE
   5
15B
 100
AcDbEntity
   8
LEVEL001
 370
15
 100
AcDbLine
   6
CONTINUOUS
  62
8
  10
 179.94816806575
  20
 26.668710193915
  30
0.0
  11
 179.94816806575
  21
 35.388664120515
  31
0.0
   0
LINE
   5
15C
 100
AcDbEntity
   8
LEVEL001
 370
15
 100
AcDbLine
   6
CONTINUOUS
  62
8
  10
 179.94816806575
  20
 36.638664120515
  30
0.0
  11
 179.94816806575
  21
 35.388664120515
  31
0.0
   0
SOLID
   5
15D
 100
AcDbEntity
   8
LEVEL001
 100
AcDbTrace
   6
CONTINUOUS
  62
8
  10
 179.94816806575
  20
 34.138664120515
  30
0.0
  11
 179.59551410433
  21
 32.138664120515
  31
0.0
  12
 180.30082202716
  22
 32.138664120515
  32
0.0
  13
 180.30082202716
  23
 32.138664120515
  33
0.0
   0
MTEXT
   5
15E
 100
AcDbEntity
   8
LEVEL001
 370
15
  62
8
 100
AcDbMText
  10
 179.59997156717
  20
 32.168710193915
  30
0.0
  40
 2.5000000000000
  41
0.0
  71
9
  72
1
   1
\A1;2.5
   7
GMM002
  11
0.0
  21
 1.0000000000000
  31
0.0
   0
ENDBLK
   5
15F
 100
AcDbEntity
   8
0
 100
AcDbBlockEnd
   0
BLOCK
   5
160
 100
AcDbEntity
   8
0
 100
AcDbBlockBegin
   2
*D18
  70
65
  10
0.0
  20
0.0
  30
0.0
   3
*D18
   0
LINE
   5
161
 100
AcDbEntity
   8
LEVEL001
 370
15
 100
AcDbLine
   6
CONTINUOUS
  62
8
  10
 183.16049764625
  20
 36.638664120515
  30
0.0
  11
 178.94816806575
  21
 36.638664120515
  31
0.0
   0
LINE
   5
162
 100
AcDbEntity
   8
LEVEL001
 370
15
 100
AcDbLine
   6
CONTINUOUS
  62
8
  10
 191.16049764625
  20
 41.138664120515
  30
0.0
  11
 178.94816806575
  21
 41.138664120515
  31
0.0
   0
LINE
   5
163
 100
AcDbEntity
   8
LEVEL001
 370
15
 100
AcDbLine
   6
CONTINUOUS
  62
8
  10
 179.94816806575
  20
 36.638664120515
  30
0.0
  11
 179.94816806575
  21
 38.888664120515
  31
0.0
   0
LINE
   5
164
 100
AcDbEntity
   8
LEVEL001
 370
15
 100
AcDbLine
   6
CONTINUOUS
  62
8
  10
 179.94816806575
  20
 48.230670650638
  30
0.0
  11
 179.94816806575
  21
 38.888664120515
  31
0.0
   0
INSERT
   5
165
 100
AcDbEntity
   8
LEVEL001
   6
CONTINUOUS
  62
8
 100
AcDbBlockReference
   2
_DOT
  10
 179.94816806575
  20
 36.638664120515
  30
0.0
  41
 0.40000000000000
  42
 0.40000000000000
  43
 0.40000000000000
  50
 270.00000000000
   0
SOLID
   5
166
 100
AcDbEntity
   8
LEVEL001
 100
AcDbTrace
   6
CONTINUOUS
  62
8
  10
 179.94816806575
  20
 41.138664120515
  30
0.0
  11
 180.30082202716
  21
 43.138664120515
  31
0.0
  12
 179.59551410433
  22
 43.138664120515
  32
0.0
  13
 179.59551410433
  23
 43.138664120515
  33
0.0
   0
MTEXT
   5
167
 100
AcDbEntity
   8
LEVEL001
 370
15
  62
8
 100
AcDbMText
  10
 179.01964406955
  20
 42.730670650638
  30
0.0
  40
 2.5000000000000
  41
0.0
  71
7
  72
1
   1
\A1;4.5
   7
GMM002
  11
0.0
  21
 1.0000000000000
  31
0.0
   0
ENDBLK
   5
168
 100
AcDbEntity
   8
0
 100
AcDbBlockEnd
   0
BLOCK
   5
169
 100
AcDbEntity
   8
0
 100
AcDbBlockBegin
   2
*D19
  70
65
  10
0.0
  20
0.0
  30
0.0
   3
*D19
   0
LINE
   5
16A
 100
AcDbEntity
   8
LEVEL001
 370
15
 100
AcDbLine
   6
CONTINUOUS
  62
8
  10
 205.16049764625
  20
 34.138664120515
  30
0.0
  11
 210.54487044448
  21
 34.138664120515
  31
0.0
   0
LINE
   5
16B
 100
AcDbEntity
   8
LEVEL001
 370
15
 100
AcDbLine
   6
CONTINUOUS
  62
8
  10
 205.16049764625
  20
 41.138664120515
  30
0.0
  11
 210.54487044448
  21
 41.138664120515
  31
0.0
   0
LINE
   5
16C
 100
AcDbEntity
   8
LEVEL001
 370
15
 100
AcDbLine
   6
CONTINUOUS
  62
8
  10
 209.54487044448
  20
 34.138664120515
  30
0.0
  11
 209.54487044448
  21
 37.638664120515
  31
0.0
   0
LINE
   5
16D
 100
AcDbEntity
   8
LEVEL001
 370
15
 100
AcDbLine
   6
CONTINUOUS
  62
8
  10
 209.54487044448
  20
 41.138664120515
  30
0.0
  11
 209.54487044448
  21
 37.638664120515
  31
0.0
   0
SOLID
   5
16E
 100
AcDbEntity
   8
LEVEL001
 100
AcDbTrace
   6
CONTINUOUS
  62
8
  10
 209.54487044448
  20
 34.138664120515
  30
0.0
  11
 209.89752440590
  21
 36.138664120515
  31
0.0
  12
 209.19221648306
  22
 36.138664120515
  32
0.0
  13
 209.19221648306
  23
 36.138664120515
  33
0.0
   0
SOLID
   5
16F
 100
AcDbEntity
   8
LEVEL001
 100
AcDbTrace
   6
CONTINUOUS
  62
8
  10
 209.54487044448
  20
 41.138664120515
  30
0.0
  11
 209.19221648306
  21
 39.138664120515
  31
0.0
  12
 209.89752440590
  22
 39.138664120515
  32
0.0
  13
 209.89752440590
  23
 39.138664120515
  33
0.0
   0
MTEXT
   5
170
 100
AcDbEntity
   8
LEVEL001
 370
15
  62
8
 100
AcDbMText
  10
 208.54487044448
  20
 37.638664120515
  30
0.0
  40
 2.5000000000000
  41
0.0
  71
8
  72
1
   1
\A1;7
   7
GMM002
  11
0.0
  21
 1.0000000000000
  31
0.0
   0
ENDBLK
   5
171
 100
AcDbEntity
   8
0
 100
AcDbBlockEnd
   0
BLOCK
   5
172
 100
AcDbEntity
   8
0
 100
AcDbBlockBegin
   2
*D20
  70
65
  10
0.0
  20
0.0
  30
0.0
   3
*D20
   0
LINE
   5
173
 100
AcDbEntity
   8
LEVEL001
 370
15
 100
AcDbLine
   6
CONTINUOUS
  62
8
  10
 192.16049764625
  20
 42.138664120515
  30
0.0
  11
 192.16049764625
  21
 47.535483647143
  31
0.0
   0
LINE
   5
174
 100
AcDbEntity
   8
LEVEL001
 370
15
 100
AcDbLine
   6
CONTINUOUS
  62
8
  10
 204.16049764625
  20
 42.138664120515
  30
0.0
  11
 204.16049764625
  21
 47.535483647143
  31
0.0
   0
LINE
   5
175
 100
AcDbEntity
   8
LEVEL001
 370
15
 100
AcDbLine
   6
CONTINUOUS
  62
8
  10
 192.16049764625
  20
 46.535483647143
  30
0.0
  11
 198.16049764625
  21
 46.535483647143
  31
0.0
   0
LINE
   5
176
 100
AcDbEntity
   8
LEVEL001
 370
15
 100
AcDbLine
   6
CONTINUOUS
  62
8
  10
 204.16049764625
  20
 46.535483647143
  30
0.0
  11
 198.16049764625
  21
 46.535483647143
  31
0.0
   0
SOLID
   5
177
 100
AcDbEntity
   8
LEVEL001
 100
AcDbTrace
   6
CONTINUOUS
  62
8
  10
 192.16049764625
  20
 46.535483647143
  30
0.0
  11
 194.16049764625
  21
 46.182829685726
  31
0.0
  12
 194.16049764625
  22
 46.888137608559
  32
0.0
  13
 194.16049764625
  23
 46.888137608559
  33
0.0
   0
SOLID
   5
178
 100
AcDbEntity
   8
LEVEL001
 100
AcDbTrace
   6
CONTINUOUS
  62
8
  10
 204.16049764625
  20
 46.535483647143
  30
0.0
  11
 202.16049764625
  21
 46.888137608559
  31
0.0
  12
 202.16049764625
  22
 46.182829685726
  32
0.0
  13
 202.16049764625
  23
 46.182829685726
  33
0.0
   0
MTEXT
   5
179
 100
AcDbEntity
   8
LEVEL001
 370
15
  62
8
 100
AcDbMText
  10
 198.16049764625
  20
 47.535483647143
  30
0.0
  40
 2.5000000000000
  41
0.0
  71
8
  72
1
   1
\A1;12
   7
GMM002
   0
ENDBLK
   5
17A
 100
AcDbEntity
   8
0
 100
AcDbBlockEnd
   0
BLOCK
   5
17B
 100
AcDbEntity
   8
0
 100
AcDbBlockBegin
   2
*D21
  70
65
  10
0.0
  20
0.0
  30
0.0
   3
*D21
   0
LINE
   5
17C
 100
AcDbEntity
   8
LEVEL001
 370
15
 100
AcDbLine
   6
CONTINUOUS
  62
8
  10
 60.124999999828
  20
 107.87500000006
  30
0.0
  11
 66.774117067367
  21
 107.87500000006
  31
0.0
   0
LINE
   5
17D
 100
AcDbEntity
   8
LEVEL001
 370
15
 100
AcDbLine
   6
CONTINUOUS
  62
8
  10
 60.124999999828
  20
 110.87500000006
  30
0.0
  11
 66.774117067367
  21
 110.87500000006
  31
0.0
   0
LINE
   5
17E
 100
AcDbEntity
   8
LEVEL001
 370
15
 100
AcDbLine
   6
CONTINUOUS
  62
8
  10
 65.774117067367
  20
 104.91290710649
  30
0.0
  11
 65.774117067367
  21
 109.37500000006
  31
0.0
   0
LINE
   5
17F
 100
AcDbEntity
   8
LEVEL001
 370
15
 100
AcDbLine
   6
CONTINUOUS
  62
8
  10
 65.774117067367
  20
 113.37500000006
  30
0.0
  11
 65.774117067367
  21
 109.37500000006
  31
0.0
   0
SOLID
   5
180
 100
AcDbEntity
   8
LEVEL001
 100
AcDbTrace
   6
CONTINUOUS
  62
8
  10
 65.774117067367
  20
 107.87500000006
  30
0.0
  11
 65.421463105950
  21
 105.87500000006
  31
0.0
  12
 66.126771028784
  22
 105.87500000006
  32
0.0
  13
 66.126771028784
  23
 105.87500000006
  33
0.0
   0
SOLID
   5
181
 100
AcDbEntity
   8
LEVEL001
 100
AcDbTrace
   6
CONTINUOUS
  62
8
  10
 65.774117067367
  20
 110.87500000006
  30
0.0
  11
 66.126771028784
  21
 112.87500000006
  31
0.0
  12
 65.421463105950
  22
 112.87500000006
  32
0.0
  13
 65.421463105950
  23
 112.87500000006
  33
0.0
   0
MTEXT
   5
182
 100
AcDbEntity
   8
LEVEL001
 370
15
  62
8
 100
AcDbMText
  10
 64.774117067367
  20
 107.41290710649
  30
0.0
  40
 2.5000000000000
  41
0.0
  71
9
  72
1
   1
\A1;3
   7
GMM002
  11
0.0
  21
 1.0000000000000
  31
0.0
   0
ENDBLK
   5
183
 100
AcDbEntity
   8
0
 100
AcDbBlockEnd
   0
BLOCK
   5
184
 100
AcDbEntity
   8
0
 100
AcDbBlockBegin
   2
*D22
  70
65
  10
0.0
  20
0.0
  30
0.0
   3
*D22
   0
LINE
   5
185
 100
AcDbEntity
   8
LEVEL001
 370
15
 100
AcDbLine
   6
CONTINUOUS
  62
8
  10
 44.124999999828
  20
 106.87500000006
  30
0.0
  11
 44.124999999828
  21
 96.804833107029
  31
0.0
   0
LINE
   5
186
 100
AcDbEntity
   8
LEVEL001
 370
15
 100
AcDbLine
   6
CONTINUOUS
  62
8
  10
 59.124999999828
  20
 106.87500000006
  30
0.0
  11
 59.124999999828
  21
 96.804833107029
  31
0.0
   0
LINE
   5
187
 100
AcDbEntity
   8
LEVEL001
 370
15
 100
AcDbLine
   6
CONTINUOUS
  62
8
  10
 44.124999999828
  20
 97.804833107029
  30
0.0
  11
 51.624999999828
  21
 97.804833107029
  31
0.0
   0
LINE
   5
188
 100
AcDbEntity
   8
LEVEL001
 370
15
 100
AcDbLine
   6
CONTINUOUS
  62
8
  10
 59.124999999828
  20
 97.804833107029
  30
0.0
  11
 51.624999999828
  21
 97.804833107029
  31
0.0
   0
SOLID
   5
189
 100
AcDbEntity
   8
LEVEL001
 100
AcDbTrace
   6
CONTINUOUS
  62
8
  10
 44.124999999828
  20
 97.804833107029
  30
0.0
  11
 46.124999999828
  21
 97.452179145612
  31
0.0
  12
 46.124999999828
  22
 98.157487068446
  32
0.0
  13
 46.124999999828
  23
 98.157487068446
  33
0.0
   0
SOLID
   5
18A
 100
AcDbEntity
   8
LEVEL001
 100
AcDbTrace
   6
CONTINUOUS
  62
8
  10
 59.124999999828
  20
 97.804833107029
  30
0.0
  11
 57.124999999828
  21
 98.157487068446
  31
0.0
  12
 57.124999999828
  22
 97.452179145612
  32
0.0
  13
 57.124999999828
  23
 97.452179145612
  33
0.0
   0
MTEXT
   5
18B
 100
AcDbEntity
   8
LEVEL001
 370
15
  62
8
 100
AcDbMText
  10
 51.624999999828
  20
 98.804833107029
  30
0.0
  40
 2.5000000000000
  41
0.0
  71
8
  72
1
   1
\A1;15
   7
GMM002
   0
ENDBLK
   5
18C
 100
AcDbEntity
   8
0
 100
AcDbBlockEnd
   0
BLOCK
   5
18D
 100
AcDbEntity
   8
0
 100
AcDbBlockBegin
   2
*D23
  70
65
  10
0.0
  20
0.0
  30
0.0
   3
*D23
   0
LINE
   5
18E
 100
AcDbEntity
   8
LEVEL001
 370
15
 100
AcDbLine
   6
CONTINUOUS
  62
8
  10
 134.87499999988
  20
 107.87500000006
  30
0.0
  11
 141.52411706742
  21
 107.87500000006
  31
0.0
   0
LINE
   5
18F
 100
AcDbEntity
   8
LEVEL001
 370
15
 100
AcDbLine
   6
CONTINUOUS
  62
8
  10
 134.87499999988
  20
 110.87500000006
  30
0.0
  11
 141.52411706742
  21
 110.87500000006
  31
0.0
   0
LINE
   5
190
 100
AcDbEntity
   8
LEVEL001
 370
15
 100
AcDbLine
   6
CONTINUOUS
  62
8
  10
 140.52411706742
  20
 104.91290710649
  30
0.0
  11
 140.52411706742
  21
 109.37500000006
  31
0.0
   0
LINE
   5
191
 100
AcDbEntity
   8
LEVEL001
 370
15
 100
AcDbLine
   6
CONTINUOUS
  62
8
  10
 140.52411706742
  20
 113.37500000006
  30
0.0
  11
 140.52411706742
  21
 109.37500000006
  31
0.0
   0
SOLID
   5
192
 100
AcDbEntity
   8
LEVEL001
 100
AcDbTrace
   6
CONTINUOUS
  62
8
  10
 140.52411706742
  20
 107.87500000006
  30
0.0
  11
 140.17146310601
  21
 105.87500000006
  31
0.0
  12
 140.87677102884
  22
 105.87500000006
  32
0.0
  13
 140.87677102884
  23
 105.87500000006
  33
0.0
   0
SOLID
   5
193
 100
AcDbEntity
   8
LEVEL001
 100
AcDbTrace
   6
CONTINUOUS
  62
8
  10
 140.52411706742
  20
 110.87500000006
  30
0.0
  11
 140.87677102884
  21
 112.87500000006
  31
0.0
  12
 140.17146310601
  22
 112.87500000006
  32
0.0
  13
 140.17146310601
  23
 112.87500000006
  33
0.0
   0
MTEXT
   5
194
 100
AcDbEntity
   8
LEVEL001
 370
15
  62
8
 100
AcDbMText
  10
 139.52411706742
  20
 107.41290710649
  30
0.0
  40
 2.5000000000000
  41
0.0
  71
9
  72
1
   1
\A1;3
   7
GMM002
  11
0.0
  21
 1.0000000000000
  31
0.0
   0
ENDBLK
   5
195
 100
AcDbEntity
   8
0
 100
AcDbBlockEnd
   0
BLOCK
   5
196
 100
AcDbEntity
   8
0
 100
AcDbBlockBegin
   2
*D24
  70
65
  10
0.0
  20
0.0
  30
0.0
   3
*D24
   0
LINE
   5
197
 100
AcDbEntity
   8
LEVEL001
 370
15
 100
AcDbLine
   6
CONTINUOUS
  62
8
  10
 113.87499999988
  20
 106.87500000006
  30
0.0
  11
 113.87499999988
  21
 96.804833107029
  31
0.0
   0
LINE
   5
198
 100
AcDbEntity
   8
LEVEL001
 370
15
 100
AcDbLine
   6
CONTINUOUS
  62
8
  10
 133.87499999988
  20
 106.87500000006
  30
0.0
  11
 133.87499999988
  21
 96.804833107029
  31
0.0
   0
LINE
   5
199
 100
AcDbEntity
   8
LEVEL001
 370
15
 100
AcDbLine
   6
CONTINUOUS
  62
8
  10
 113.87499999988
  20
 97.804833107029
  30
0.0
  11
 123.87499999988
  21
 97.804833107029
  31
0.0
   0
LINE
   5
19A
 100
AcDbEntity
   8
LEVEL001
 370
15
 100
AcDbLine
   6
CONTINUOUS
  62
8
  10
 133.87499999988
  20
 97.804833107029
  30
0.0
  11
 123.87499999988
  21
 97.804833107029
  31
0.0
   0
SOLID
   5
19B
 100
AcDbEntity
   8
LEVEL001
 100
AcDbTrace
   6
CONTINUOUS
  62
8
  10
 113.87499999988
  20
 97.804833107029
  30
0.0
  11
 115.87499999988
  21
 97.452179145612
  31
0.0
  12
 115.87499999988
  22
 98.157487068446
  32
0.0
  13
 115.87499999988
  23
 98.157487068446
  33
0.0
   0
SOLID
   5
19C
 100
AcDbEntity
   8
LEVEL001
 100
AcDbTrace
   6
CONTINUOUS
  62
8
  10
 133.87499999988
  20
 97.804833107029
  30
0.0
  11
 131.87499999988
  21
 98.157487068446
  31
0.0
  12
 131.87499999988
  22
 97.452179145612
  32
0.0
  13
 131.87499999988
  23
 97.452179145612
  33
0.0
   0
MTEXT
   5
19D
 100
AcDbEntity
   8
LEVEL001
 370
15
  62
8
 100
AcDbMText
  10
 123.87499999988
  20
 98.804833107029
  30
0.0
  40
 2.5000000000000
  41
0.0
  71
8
  72
1
   1
\A1;20
   7
GMM002
   0
ENDBLK
   5
19E
 100
AcDbEntity
   8
0
 100
AcDbBlockEnd
   0
BLOCK
   5
19F
 100
AcDbEntity
   8
0
 100
AcDbBlockBegin
   2
*D25
  70
65
  10
0.0
  20
0.0
  30
0.0
   3
*D25
   0
LINE
   5
1A0
 100
AcDbEntity
   8
LEVEL001
 370
15
 100
AcDbLine
   6
CONTINUOUS
  62
8
  10
 183.62499999988
  20
 106.87500000006
  30
0.0
  11
 183.62499999988
  21
 96.804833107029
  31
0.0
   0
LINE
   5
1A1
 100
AcDbEntity
   8
LEVEL001
 370
15
 100
AcDbLine
   6
CONTINUOUS
  62
8
  10
 208.62499999988
  20
 106.87500000006
  30
0.0
  11
 208.62499999988
  21
 96.804833107029
  31
0.0
   0
LINE
   5
1A2
 100
AcDbEntity
   8
LEVEL001
 370
15
 100
AcDbLine
   6
CONTINUOUS
  62
8
  10
 183.62499999988
  20
 97.804833107029
  30
0.0
  11
 196.12499999988
  21
 97.804833107029
  31
0.0
   0
LINE
   5
1A3
 100
AcDbEntity
   8
LEVEL001
 370
15
 100
AcDbLine
   6
CONTINUOUS
  62
8
  10
 208.62499999988
  20
 97.804833107029
  30
0.0
  11
 196.12499999988
  21
 97.804833107029
  31
0.0
   0
SOLID
   5
1A4
 100
AcDbEntity
   8
LEVEL001
 100
AcDbTrace
   6
CONTINUOUS
  62
8
  10
 183.62499999988
  20
 97.804833107029
  30
0.0
  11
 185.62499999988
  21
 97.452179145612
  31
0.0
  12
 185.62499999988
  22
 98.157487068446
  32
0.0
  13
 185.62499999988
  23
 98.157487068446
  33
0.0
   0
SOLID
   5
1A5
 100
AcDbEntity
   8
LEVEL001
 100
AcDbTrace
   6
CONTINUOUS
  62
8
  10
 208.62499999988
  20
 97.804833107029
  30
0.0
  11
 206.62499999988
  21
 98.157487068446
  31
0.0
  12
 206.62499999988
  22
 97.452179145612
  32
0.0
  13
 206.62499999988
  23
 97.452179145612
  33
0.0
   0
MTEXT
   5
1A6
 100
AcDbEntity
   8
LEVEL001
 370
15
  62
8
 100
AcDbMText
  10
 196.12499999988
  20
 98.804833107029
  30
0.0
  40
 2.5000000000000
  41
0.0
  71
8
  72
1
   1
\A1;25
   7
GMM002
   0
ENDBLK
   5
1A7
 100
AcDbEntity
   8
0
 100
AcDbBlockEnd
   0
BLOCK
   5
1A8
 100
AcDbEntity
   8
0
 100
AcDbBlockBegin
   2
*D26
  70
65
  10
0.0
  20
0.0
  30
0.0
   3
*D26
   0
LINE
   5
1A9
 100
AcDbEntity
   8
LEVEL001
 370
15
 100
AcDbLine
   6
CONTINUOUS
  62
8
  10
 209.62499999988
  20
 107.87500000006
  30
0.0
  11
 216.27411706742
  21
 107.87500000006
  31
0.0
   0
LINE
   5
1AA
 100
AcDbEntity
   8
LEVEL001
 370
15
 100
AcDbLine
   6
CONTINUOUS
  62
8
  10
 209.62499999988
  20
 110.87500000006
  30
0.0
  11
 216.27411706742
  21
 110.87500000006
  31
0.0
   0
LINE
   5
1AB
 100
AcDbEntity
   8
LEVEL001
 370
15
 100
AcDbLine
   6
CONTINUOUS
  62
8
  10
 215.27411706742
  20
 104.91290710649
  30
0.0
  11
 215.27411706742
  21
 109.37500000006
  31
0.0
   0
LINE
   5
1AC
 100
AcDbEntity
   8
LEVEL001
 370
15
 100
AcDbLine
   6
CONTINUOUS
  62
8
  10
 215.27411706742
  20
 113.37500000006
  30
0.0
  11
 215.27411706742
  21
 109.37500000006
  31
0.0
   0
SOLID
   5
1AD
 100
AcDbEntity
   8
LEVEL001
 100
AcDbTrace
   6
CONTINUOUS
  62
8
  10
 215.27411706742
  20
 107.87500000006
  30
0.0
  11
 214.92146310601
  21
 105.87500000006
  31
0.0
  12
 215.62677102884
  22
 105.87500000006
  32
0.0
  13
 215.62677102884
  23
 105.87500000006
  33
0.0
   0
SOLID
   5
1AE
 100
AcDbEntity
   8
LEVEL001
 100
AcDbTrace
   6
CONTINUOUS
  62
8
  10
 215.27411706742
  20
 110.87500000006
  30
0.0
  11
 215.62677102884
  21
 112.87500000006
  31
0.0
  12
 214.92146310601
  22
 112.87500000006
  32
0.0
  13
 214.92146310601
  23
 112.87500000006
  33
0.0
   0
MTEXT
   5
1AF
 100
AcDbEntity
   8
LEVEL001
 370
15
  62
8
 100
AcDbMText
  10
 214.27411706742
  20
 107.41290710649
  30
0.0
  40
 2.5000000000000
  41
0.0
  71
9
  72
1
   1
\A1;3
   7
GMM002
  11
0.0
  21
 1.0000000000000
  31
0.0
   0
ENDBLK
   5
1B0
 100
AcDbEntity
   8
0
 100
AcDbBlockEnd
   0
BLOCK
   5
1B1
 100
AcDbEntity
   8
0
 100
AcDbBlockBegin
   2
*D27
  70
65
  10
0.0
  20
0.0
  30
0.0
   3
*D27
   0
LINE
   5
1B2
 100
AcDbEntity
   8
LEVEL001
 370
15
 100
AcDbLine
   6
CONTINUOUS
  62
8
  10
 253.37499999988
  20
 106.87500000006
  30
0.0
  11
 253.37499999988
  21
 96.804833107029
  31
0.0
   0
LINE
   5
1B3
 100
AcDbEntity
   8
LEVEL001
 370
15
 100
AcDbLine
   6
CONTINUOUS
  62
8
  10
 283.37499999988
  20
 106.87500000006
  30
0.0
  11
 283.37499999988
  21
 96.804833107029
  31
0.0
   0
LINE
   5
1B4
 100
AcDbEntity
   8
LEVEL001
 370
15
 100
AcDbLine
   6
CONTINUOUS
  62
8
  10
 253.37499999988
  20
 97.804833107029
  30
0.0
  11
 268.37499999988
  21
 97.804833107029
  31
0.0
   0
LINE
   5
1B5
 100
AcDbEntity
   8
LEVEL001
 370
15
 100
AcDbLine
   6
CONTINUOUS
  62
8
  10
 283.37499999988
  20
 97.804833107029
  30
0.0
  11
 268.37499999988
  21
 97.804833107029
  31
0.0
   0
SOLID
   5
1B6
 100
AcDbEntity
   8
LEVEL001
 100
AcDbTrace
   6
CONTINUOUS
  62
8
  10
 253.37499999988
  20
 97.804833107029
  30
0.0
  11
 255.37499999988
  21
 97.452179145612
  31
0.0
  12
 255.37499999988
  22
 98.157487068446
  32
0.0
  13
 255.37499999988
  23
 98.157487068446
  33
0.0
   0
SOLID
   5
1B7
 100
AcDbEntity
   8
LEVEL001
 100
AcDbTrace
   6
CONTINUOUS
  62
8
  10
 283.37499999988
  20
 97.804833107029
  30
0.0
  11
 281.37499999988
  21
 98.157487068446
  31
0.0
  12
 281.37499999988
  22
 97.452179145612
  32
0.0
  13
 281.37499999988
  23
 97.452179145612
  33
0.0
   0
MTEXT
   5
1B8
 100
AcDbEntity
   8
LEVEL001
 370
15
  62
8
 100
AcDbMText
  10
 268.37499999988
  20
 98.804833107029
  30
0.0
  40
 2.5000000000000
  41
0.0
  71
8
  72
1
   1
\A1;30
   7
GMM002
   0
ENDBLK
   5
1B9
 100
AcDbEntity
   8
0
 100
AcDbBlockEnd
   0
BLOCK
   5
1BA
 100
AcDbEntity
   8
0
 100
AcDbBlockBegin
   2
*D28
  70
65
  10
0.0
  20
0.0
  30
0.0
   3
*D28
   0
LINE
   5
1BB
 100
AcDbEntity
   8
LEVEL001
 370
15
 100
AcDbLine
   6
CONTINUOUS
  62
8
  10
 284.37499999988
  20
 107.87500000006
  30
0.0
  11
 291.02411706742
  21
 107.87500000006
  31
0.0
   0
LINE
   5
1BC
 100
AcDbEntity
   8
LEVEL001
 370
15
 100
AcDbLine
   6
CONTINUOUS
  62
8
  10
 284.37499999988
  20
 110.87500000006
  30
0.0
  11
 291.02411706742
  21
 110.87500000006
  31
0.0
   0
LINE
   5
1BD
 100
AcDbEntity
   8
LEVEL001
 370
15
 100
AcDbLine
   6
CONTINUOUS
  62
8
  10
 290.02411706742
  20
 104.91290710649
  30
0.0
  11
 290.02411706742
  21
 109.37500000006
  31
0.0
   0
LINE
   5
1BE
 100
AcDbEntity
   8
LEVEL001
 370
15
 100
AcDbLine
   6
CONTINUOUS
  62
8
  10
 290.02411706742
  20
 113.37500000006
  30
0.0
  11
 290.02411706742
  21
 109.37500000006
  31
0.0
   0
SOLID
   5
1BF
 100
AcDbEntity
   8
LEVEL001
 100
AcDbTrace
   6
CONTINUOUS
  62
8
  10
 290.02411706742
  20
 107.87500000006
  30
0.0
  11
 289.67146310601
  21
 105.87500000006
  31
0.0
  12
 290.37677102884
  22
 105.87500000006
  32
0.0
  13
 290.37677102884
  23
 105.87500000006
  33
0.0
   0
SOLID
   5
1C0
 100
AcDbEntity
   8
LEVEL001
 100
AcDbTrace
   6
CONTINUOUS
  62
8
  10
 290.02411706742
  20
 110.87500000006
  30
0.0
  11
 290.37677102884
  21
 112.87500000006
  31
0.0
  12
 289.67146310601
  22
 112.87500000006
  32
0.0
  13
 289.67146310601
  23
 112.87500000006
  33
0.0
   0
MTEXT
   5
1C1
 100
AcDbEntity
   8
LEVEL001
 370
15
  62
8
 100
AcDbMText
  10
 289.02411706742
  20
 107.41290710649
  30
0.0
  40
 2.5000000000000
  41
0.0
  71
9
  72
1
   1
\A1;3
   7
GMM002
  11
0.0
  21
 1.0000000000000
  31
0.0
   0
ENDBLK
   5
1C2
 100
AcDbEntity
   8
0
 100
AcDbBlockEnd
   0
BLOCK
   5
1C3
 100
AcDbEntity
   8
0
 100
AcDbBlockBegin
   2
*D29
  70
65
  10
0.0
  20
0.0
  30
0.0
   3
*D29
   0
LINE
   5
1C4
 100
AcDbEntity
   8
LEVEL001
 370
15
 100
AcDbLine
   6
CONTINUOUS
  62
8
  10
 41.624999999950
  20
 165.87095673332
  30
0.0
  11
 41.624999999950
  21
 157.87095673332
  31
0.0
   0
LINE
   5
1C5
 100
AcDbEntity
   8
LEVEL001
 370
15
 100
AcDbLine
   6
CONTINUOUS
  62
8
  10
 61.624999999950
  20
 165.87095673332
  30
0.0
  11
 61.624999999950
  21
 157.87095673332
  31
0.0
   0
LINE
   5
1C6
 100
AcDbEntity
   8
LEVEL001
 370
15
 100
AcDbLine
   6
CONTINUOUS
  62
8
  10
 41.624999999950
  20
 158.87095673332
  30
0.0
  11
 51.624999999950
  21
 158.87095673332
  31
0.0
   0
LINE
   5
1C7
 100
AcDbEntity
   8
LEVEL001
 370
15
 100
AcDbLine
   6
CONTINUOUS
  62
8
  10
 61.624999999950
  20
 158.87095673332
  30
0.0
  11
 51.624999999950
  21
 158.87095673332
  31
0.0
   0
SOLID
   5
1C8
 100
AcDbEntity
   8
LEVEL001
 100
AcDbTrace
   6
CONTINUOUS
  62
8
  10
 41.624999999950
  20
 158.87095673332
  30
0.0
  11
 43.624999999950
  21
 158.51830277190
  31
0.0
  12
 43.624999999950
  22
 159.22361069474
  32
0.0
  13
 43.624999999950
  23
 159.22361069474
  33
0.0
   0
SOLID
   5
1C9
 100
AcDbEntity
   8
LEVEL001
 100
AcDbTrace
   6
CONTINUOUS
  62
8
  10
 61.624999999950
  20
 158.87095673332
  30
0.0
  11
 59.624999999950
  21
 159.22361069474
  31
0.0
  12
 59.624999999950
  22
 158.51830277190
  32
0.0
  13
 59.624999999950
  23
 158.51830277190
  33
0.0
   0
MTEXT
   5
1CA
 100
AcDbEntity
   8
LEVEL001
 370
15
  62
8
 100
AcDbMText
  10
 51.624999999950
  20
 159.87095673332
  30
0.0
  40
 2.5000000000000
  41
0.0
  71
8
  72
1
   1
\A1;20
   7
GMM002
   0
ENDBLK
   5
1CB
 100
AcDbEntity
   8
0
 100
AcDbBlockEnd
   0
BLOCK
   5
1CC
 100
AcDbEntity
   8
0
 100
AcDbBlockBegin
   2
*D30
  70
65
  10
0.0
  20
0.0
  30
0.0
   3
*D30
   0
LINE
   5
1CD
 100
AcDbEntity
   8
LEVEL001
 370
15
 100
AcDbLine
   6
CONTINUOUS
  62
8
  10
 40.624999999950
  20
 166.87095673332
  30
0.0
  11
 36.056492897299
  21
 166.87095673332
  31
0.0
   0
LINE
   5
1CE
 100
AcDbEntity
   8
LEVEL001
 370
15
 100
AcDbLine
   6
CONTINUOUS
  62
8
  10
 40.624999999950
  20
 171.37095673332
  30
0.0
  11
 36.056492897299
  21
 171.37095673332
  31
0.0
   0
LINE
   5
1CF
 100
AcDbEntity
   8
LEVEL001
 370
15
 100
AcDbLine
   6
CONTINUOUS
  62
8
  10
 37.056492897299
  20
 164.37095673332
  30
0.0
  11
 37.056492897299
  21
 169.12095673332
  31
0.0
   0
LINE
   5
1D0
 100
AcDbEntity
   8
LEVEL001
 370
15
 100
AcDbLine
   6
CONTINUOUS
  62
8
  10
 37.056492897299
  20
 173.87095673332
  30
0.0
  11
 37.056492897299
  21
 169.12095673332
  31
0.0
   0
SOLID
   5
1D1
 100
AcDbEntity
   8
LEVEL001
 100
AcDbTrace
   6
CONTINUOUS
  62
8
  10
 37.056492897299
  20
 166.87095673332
  30
0.0
  11
 36.703838935883
  21
 164.87095673332
  31
0.0
  12
 37.409146858716
  22
 164.87095673332
  32
0.0
  13
 37.409146858716
  23
 164.87095673332
  33
0.0
   0
SOLID
   5
1D2
 100
AcDbEntity
   8
LEVEL001
 100
AcDbTrace
   6
CONTINUOUS
  62
8
  10
 37.056492897299
  20
 171.37095673332
  30
0.0
  11
 37.409146858716
  21
 173.37095673332
  31
0.0
  12
 36.703838935883
  22
 173.37095673332
  32
0.0
  13
 36.703838935883
  23
 173.37095673332
  33
0.0
   0
MTEXT
   5
1D3
 100
AcDbEntity
   8
LEVEL001
 370
15
  62
8
 100
AcDbMText
  10
 36.056492897299
  20
 169.12095673332
  30
0.0
  40
 2.5000000000000
  41
0.0
  71
8
  72
1
   1
\A1;4.5
   7
GMM002
  11
0.0
  21
 1.0000000000000
  31
0.0
   0
ENDBLK
   5
1D4
 100
AcDbEntity
   8
0
 100
AcDbBlockEnd
   0
BLOCK
   5
1D5
 100
AcDbEntity
   8
0
 100
AcDbBlockBegin
   2
*D31
  70
65
  10
0.0
  20
0.0
  30
0.0
   3
*D31
   0
LINE
   5
1D6
 100
AcDbEntity
   8
LEVEL001
 370
15
 100
AcDbLine
   6
CONTINUOUS
  62
8
  10
 62.624999999950
  20
 166.87095673332
  30
0.0
  11
 67.439565930230
  21
 166.87095673332
  31
0.0
   0
LINE
   5
1D7
 100
AcDbEntity
   8
LEVEL001
 370
15
 100
AcDbLine
   6
CONTINUOUS
  62
8
  10
 62.624999999950
  20
 167.87095673332
  30
0.0
  11
 67.439565930230
  21
 167.87095673332
  31
0.0
   0
LINE
   5
1D8
 100
AcDbEntity
   8
LEVEL001
 370
15
 100
AcDbLine
   6
CONTINUOUS
  62
8
  10
 66.439565930230
  20
 162.22425137757
  30
0.0
  11
 66.439565930230
  21
 167.37095673332
  31
0.0
   0
LINE
   5
1D9
 100
AcDbEntity
   8
LEVEL001
 370
15
 100
AcDbLine
   6
CONTINUOUS
  62
8
  10
 66.439565930230
  20
 170.37095673332
  30
0.0
  11
 66.439565930230
  21
 167.37095673332
  31
0.0
   0
SOLID
   5
1DA
 100
AcDbEntity
   8
LEVEL001
 100
AcDbTrace
   6
CONTINUOUS
  62
8
  10
 66.439565930230
  20
 166.87095673332
  30
0.0
  11
 66.086911968813
  21
 164.87095673332
  31
0.0
  12
 66.792219891647
  22
 164.87095673332
  32
0.0
  13
 66.792219891647
  23
 164.87095673332
  33
0.0
   0
SOLID
   5
1DB
 100
AcDbEntity
   8
LEVEL001
 100
AcDbTrace
   6
CONTINUOUS
  62
8
  10
 66.439565930230
  20
 167.87095673332
  30
0.0
  11
 66.792219891647
  21
 169.87095673332
  31
0.0
  12
 66.086911968813
  22
 169.87095673332
  32
0.0
  13
 66.086911968813
  23
 169.87095673332
  33
0.0
   0
MTEXT
   5
1DC
 100
AcDbEntity
   8
LEVEL001
 370
15
  62
8
 100
AcDbMText
  10
 65.779860441607
  20
 164.72425137757
  30
0.0
  40
 2.5000000000000
  41
0.0
  71
9
  72
1
   1
\A1;1
   7
GMM002
  11
0.0
  21
 1.0000000000000
  31
0.0
   0
ENDBLK
   5
1DD
 100
AcDbEntity
   8
0
 100
AcDbBlockEnd
   0
BLOCK
   5
1DE
 100
AcDbEntity
   8
0
 100
AcDbBlockBegin
   2
*D32
  70
65
  10
0.0
  20
0.0
  30
0.0
   3
*D32
   0
LINE
   5
1DF
 100
AcDbEntity
   8
LEVEL001
 370
15
 100
AcDbLine
   6
CONTINUOUS
  62
8
  10
 41.624999999950
  20
 172.37095673332
  30
0.0
  11
 41.624999999950
  21
 176.35142529140
  31
0.0
   0
LINE
   5
1E0
 100
AcDbEntity
   8
LEVEL001
 370
15
 100
AcDbLine
   6
CONTINUOUS
  62
8
  10
 44.624999999950
  20
 172.37095673332
  30
0.0
  11
 44.624999999950
  21
 176.35142529140
  31
0.0
   0
LINE
   5
1E1
 100
AcDbEntity
   8
LEVEL001
 370
15
 100
AcDbLine
   6
CONTINUOUS
  62
8
  10
 39.124999999950
  20
 175.35142529140
  30
0.0
  11
 43.124999999950
  21
 175.35142529140
  31
0.0
   0
LINE
   5
1E2
 100
AcDbEntity
   8
LEVEL001
 370
15
 100
AcDbLine
   6
CONTINUOUS
  62
8
  10
 47.124999999950
  20
 175.35142529140
  30
0.0
  11
 43.124999999950
  21
 175.35142529140
  31
0.0
   0
SOLID
   5
1E3
 100
AcDbEntity
   8
LEVEL001
 100
AcDbTrace
   6
CONTINUOUS
  62
8
  10
 41.624999999950
  20
 175.35142529140
  30
0.0
  11
 39.624999999950
  21
 175.70407925282
  31
0.0
  12
 39.624999999950
  22
 174.99877132998
  32
0.0
  13
 39.624999999950
  23
 174.99877132998
  33
0.0
   0
SOLID
   5
1E4
 100
AcDbEntity
   8
LEVEL001
 100
AcDbTrace
   6
CONTINUOUS
  62
8
  10
 44.624999999950
  20
 175.35142529140
  30
0.0
  11
 46.624999999950
  21
 174.99877132998
  31
0.0
  12
 46.624999999950
  22
 175.70407925282
  32
0.0
  13
 46.624999999950
  23
 175.70407925282
  33
0.0
   0
MTEXT
   5
1E5
 100
AcDbEntity
   8
LEVEL001
 370
15
  62
8
 100
AcDbMText
  10
 43.124999999950
  20
 176.35142529140
  30
0.0
  40
 2.5000000000000
  41
0.0
  71
8
  72
1
   1
\A1;3
   7
GMM002
   0
ENDBLK
   5
1E6
 100
AcDbEntity
   8
0
 100
AcDbBlockEnd
   0
BLOCK
   5
1E7
 100
AcDbEntity
   8
0
 100
AcDbBlockBegin
   2
*D33
  70
65
  10
0.0
  20
0.0
  30
0.0
   3
*D33
   0
LINE
   5
1E8
 100
AcDbEntity
   8
LEVEL001
 370
15
 100
AcDbLine
   6
CONTINUOUS
  62
8
  10
 45.624999999950
  20
 168.07095673332
  30
0.0
  11
 52.951157742878
  21
 168.07095673332
  31
0.0
   0
LINE
   5
1E9
 100
AcDbEntity
   8
LEVEL001
 370
15
 100
AcDbLine
   6
CONTINUOUS
  62
8
  10
 45.624999999950
  20
 171.37095673332
  30
0.0
  11
 52.951157742878
  21
 171.37095673332
  31
0.0
   0
LINE
   5
1EA
 100
AcDbEntity
   8
LEVEL001
 370
15
 100
AcDbLine
   6
CONTINUOUS
  62
8
  10
 51.951157742878
  20
 165.57095673332
  30
0.0
  11
 51.951157742878
  21
 169.72095673332
  31
0.0
   0
LINE
   5
1EB
 100
AcDbEntity
   8
LEVEL001
 370
15
 100
AcDbLine
   6
CONTINUOUS
  62
8
  10
 51.951157742878
  20
 178.48627725889
  30
0.0
  11
 51.951157742878
  21
 169.72095673332
  31
0.0
   0
SOLID
   5
1EC
 100
AcDbEntity
   8
LEVEL001
 100
AcDbTrace
   6
CONTINUOUS
  62
8
  10
 51.951157742878
  20
 168.07095673332
  30
0.0
  11
 51.598503781461
  21
 166.07095673332
  31
0.0
  12
 52.303811704295
  22
 166.07095673332
  32
0.0
  13
 52.303811704295
  23
 166.07095673332
  33
0.0
   0
SOLID
   5
1ED
 100
AcDbEntity
   8
LEVEL001
 100
AcDbTrace
   6
CONTINUOUS
  62
8
  10
 51.951157742878
  20
 171.37095673332
  30
0.0
  11
 52.303811704295
  21
 173.37095673332
  31
0.0
  12
 51.598503781461
  22
 173.37095673332
  32
0.0
  13
 51.598503781461
  23
 173.37095673332
  33
0.0
   0
MTEXT
   5
1EE
 100
AcDbEntity
   8
LEVEL001
 370
15
  62
8
 100
AcDbMText
  10
 51.071550424715
  20
 172.98627725889
  30
0.0
  40
 2.5000000000000
  41
0.0
  71
7
  72
1
   1
\A1;3.3
   7
GMM002
  11
0.0
  21
 1.0000000000000
  31
0.0
   0
ENDBLK
   5
1EF
 100
AcDbEntity
   8
0
 100
AcDbBlockEnd
   0
BLOCK
   5
1F0
 100
AcDbEntity
   8
0
 100
AcDbBlockBegin
   2
*D34
  70
65
  10
0.0
  20
0.0
  30
0.0
   3
*D34
   0
LINE
   5
1F1
 100
AcDbEntity
   8
LEVEL001
 370
15
 100
AcDbLine
   6
CONTINUOUS
  62
8
  10
 32.447971696498
  20
 232.67902113878
  30
0.0
  11
 32.447971696498
  21
 250.48346710863
  31
0.0
   0
LINE
   5
1F2
 100
AcDbEntity
   8
LEVEL001
 370
15
 100
AcDbLine
   6
CONTINUOUS
  62
8
  10
 67.659571696498
  20
 234.47066568171
  30
0.0
  11
 67.659571696498
  21
 250.48346710863
  31
0.0
   0
LINE
   5
1F3
 100
AcDbEntity
   8
LEVEL001
 370
15
 100
AcDbLine
   6
CONTINUOUS
  62
8
  10
 32.447971696498
  20
 249.48346710863
  30
0.0
  11
 50.053771696498
  21
 249.48346710863
  31
0.0
   0
LINE
   5
1F4
 100
AcDbEntity
   8
LEVEL001
 370
15
 100
AcDbLine
   6
CONTINUOUS
  62
8
  10
 67.659571696498
  20
 249.48346710863
  30
0.0
  11
 50.053771696498
  21
 249.48346710863
  31
0.0
   0
SOLID
   5
1F5
 100
AcDbEntity
   8
LEVEL001
 100
AcDbTrace
   6
CONTINUOUS
  62
8
  10
 32.447971696498
  20
 249.48346710863
  30
0.0
  11
 34.447971696498
  21
 249.13081314721
  31
0.0
  12
 34.447971696498
  22
 249.83612107005
  32
0.0
  13
 34.447971696498
  23
 249.83612107005
  33
0.0
   0
SOLID
   5
1F6
 100
AcDbEntity
   8
LEVEL001
 100
AcDbTrace
   6
CONTINUOUS
  62
8
  10
 67.659571696498
  20
 249.48346710863
  30
0.0
  11
 65.659571696498
  21
 249.83612107005
  31
0.0
  12
 65.659571696498
  22
 249.13081314721
  32
0.0
  13
 65.659571696498
  23
 249.13081314721
  33
0.0
   0
MTEXT
   5
1F7
 100
AcDbEntity
   8
LEVEL001
 370
15
  62
8
 100
AcDbMText
  10
 50.053771696498
  20
 250.48346710863
  30
0.0
  40
 2.5000000000000
  41
0.0
  71
8
  72
1
   1
\A1;35
   7
GMM002
   0
ENDBLK
   5
1F8
 100
AcDbEntity
   8
0
 100
AcDbBlockEnd
   0
BLOCK
   5
1F9
 100
AcDbEntity
   8
0
 100
AcDbBlockBegin
   2
*D35
  70
65
  10
0.0
  20
0.0
  30
0.0
   3
*D35
   0
LINE
   5
1FA
 100
AcDbEntity
   8
LEVEL001
 370
15
 100
AcDbLine
   6
CONTINUOUS
  62
8
  10
 32.207971696498
  20
 229.77546568171
  30
0.0
  11
 26.049368699393
  21
 229.77546568171
  31
0.0
   0
LINE
   5
1FB
 100
AcDbEntity
   8
LEVEL001
 370
15
 100
AcDbLine
   6
CONTINUOUS
  62
8
  10
 41.594271696498
  20
 234.57317897569
  30
0.0
  11
 26.049368699393
  21
 234.57317897569
  31
0.0
   0
LINE
   5
1FC
 100
AcDbEntity
   8
LEVEL001
 370
15
 100
AcDbLine
   6
CONTINUOUS
  62
8
  10
 27.049368699393
  20
 227.27546568171
  30
0.0
  11
 27.049368699393
  21
 232.17432232870
  31
0.0
   0
LINE
   5
1FD
 100
AcDbEntity
   8
LEVEL001
 370
15
 100
AcDbLine
   6
CONTINUOUS
  62
8
  10
 27.049368699393
  20
 237.07317897569
  30
0.0
  11
 27.049368699393
  21
 232.17432232870
  31
0.0
   0
SOLID
   5
1FE
 100
AcDbEntity
   8
LEVEL001
 100
AcDbTrace
   6
CONTINUOUS
  62
8
  10
 27.049368699393
  20
 229.77546568171
  30
0.0
  11
 26.696714737976
  21
 227.77546568171
  31
0.0
  12
 27.402022660810
  22
 227.77546568171
  32
0.0
  13
 27.402022660810
  23
 227.77546568171
  33
0.0
   0
SOLID
   5
1FF
 100
AcDbEntity
   8
LEVEL001
 100
AcDbTrace
   6
CONTINUOUS
  62
8
  10
 27.049368699393
  20
 234.57317897569
  30
0.0
  11
 27.402022660810
  21
 236.57317897569
  31
0.0
  12
 26.696714737976
  22
 236.57317897569
  32
0.0
  13
 26.696714737976
  23
 236.57317897569
  33
0.0
   0
MTEXT
   5
200
 100
AcDbEntity
   8
LEVEL001
 370
15
  62
8
 100
AcDbMText
  10
 26.049368699393
  20
 232.17432232870
  30
0.0
  40
 2.5000000000000
  41
0.0
  71
8
  72
1
   1
\A1;4.8
   7
GMM002
  11
0.0
  21
 1.0000000000000
  31
0.0
   0
ENDBLK
   5
201
 100
AcDbEntity
   8
0
 100
AcDbBlockEnd
   0
BLOCK
   5
202
 100
AcDbEntity
   8
0
 100
AcDbBlockBegin
   2
*D36
  70
65
  10
0.0
  20
0.0
  30
0.0
   3
*D36
   0
LINE
   5
203
 100
AcDbEntity
   8
LEVEL001
 370
15
 100
AcDbLine
   6
CONTINUOUS
  62
8
  10
 34.207971696498
  20
 229.77546568171
  30
0.0
  11
 75.945731503140
  21
 229.77546568171
  31
0.0
   0
LINE
   5
204
 100
AcDbEntity
   8
LEVEL001
 370
15
 100
AcDbLine
   6
CONTINUOUS
  62
8
  10
 74.945731503140
  20
 223.78033414861
  30
0.0
  11
 74.945731503140
  21
 231.37296568171
  31
0.0
   0
LINE
   5
205
 100
AcDbEntity
   8
LEVEL001
 370
15
 100
AcDbLine
   6
CONTINUOUS
  62
8
  10
 74.945731503140
  20
 232.97046568171
  30
0.0
  11
 74.945731503140
  21
 231.37296568171
  31
0.0
   0
SOLID
   5
206
 100
AcDbEntity
   8
LEVEL001
 100
AcDbTrace
   6
CONTINUOUS
  62
8
  10
 74.945731503140
  20
 229.77546568171
  30
0.0
  11
 74.593077541723
  21
 227.77546568171
  31
0.0
  12
 75.298385464557
  22
 227.77546568171
  32
0.0
  13
 75.298385464557
  23
 227.77546568171
  33
0.0
   0
MTEXT
   5
207
 100
AcDbEntity
   8
LEVEL001
 370
15
  62
8
 100
AcDbMText
  10
 74.292325728039
  20
 229.28033414861
  30
0.0
  40
 2.5000000000000
  41
0.0
  71
9
  72
1
   1
\A1;3.2
   7
GMM002
  11
0.0
  21
 1.0000000000000
  31
0.0
   0
ENDBLK
   5
208
 100
AcDbEntity
   8
0
 100
AcDbBlockEnd
   0
BLOCK
   5
209
 100
AcDbEntity
   8
0
 100
AcDbBlockBegin
   2
*D37
  70
65
  10
0.0
  20
0.0
  30
0.0
   3
*D37
   0
LINE
   5
20A
 100
AcDbEntity
   8
LEVEL001
 370
15
 100
AcDbLine
   6
CONTINUOUS
  62
8
  10
 68.068071696498
  20
 232.97046568171
  30
0.0
  11
 75.945731503140
  21
 232.97046568171
  31
0.0
   0
LINE
   5
20B
 100
AcDbEntity
   8
LEVEL001
 370
15
 100
AcDbLine
   6
CONTINUOUS
  62
8
  10
 67.053771696498
  20
 234.57346568171
  30
0.0
  11
 75.945731503140
  21
 234.57346568171
  31
0.0
   0
LINE
   5
20C
 100
AcDbEntity
   8
LEVEL001
 370
15
 100
AcDbLine
   6
CONTINUOUS
  62
8
  10
 74.945731503140
  20
 232.97046568171
  30
0.0
  11
 74.945731503140
  21
 233.77196568171
  31
0.0
   0
LINE
   5
20D
 100
AcDbEntity
   8
LEVEL001
 370
15
 100
AcDbLine
   6
CONTINUOUS
  62
8
  10
 74.945731503140
  20
 240.60940145806
  30
0.0
  11
 74.945731503140
  21
 233.77196568171
  31
0.0
   0
INSERT
   5
20E
 100
AcDbEntity
   8
LEVEL001
   6
CONTINUOUS
  62
8
 100
AcDbBlockReference
   2
_DOT
  10
 74.945731503140
  20
 232.97046568171
  30
0.0
  41
 0.40000000000000
  42
 0.40000000000000
  43
 0.40000000000000
  50
 270.00000000000
   0
SOLID
   5
20F
 100
AcDbEntity
   8
LEVEL001
 100
AcDbTrace
   6
CONTINUOUS
  62
8
  10
 74.945731503140
  20
 234.57346568171
  30
0.0
  11
 75.298385464557
  21
 236.57346568171
  31
0.0
  12
 74.593077541723
  22
 236.57346568171
  32
0.0
  13
 74.593077541723
  23
 236.57346568171
  33
0.0
   0
MTEXT
   5
210
 100
AcDbEntity
   8
LEVEL001
 370
15
  62
8
 100
AcDbMText
  10
 74.189156395129
  20
 235.10940145806
  30
0.0
  40
 2.5000000000000
  41
0.0
  71
7
  72
1
   1
\A1;1.6
   7
GMM002
  11
0.0
  21
 1.0000000000000
  31
0.0
   0
ENDBLK
   5
211
 100
AcDbEntity
   8
0
 100
AcDbBlockEnd
   0
ENDSEC
   0
SECTION
   2
ENTITIES
   0
LINE
   5
212
 100
AcDbEntity
   8
LEVEL002
 370
30
 100
AcDbLine
   6
CONTINUOUS
  62
7
  10
 344.15000000000
  20
 272.07500000000
  30
0.0
  11
 336.95000000000
  21
 272.07500000000
  31
0.0
   0
LINE
   5
213
 100
AcDbEntity
   8
LEVEL002
 370
30
 100
AcDbLine
   6
CONTINUOUS
  62
7
  10
 336.95000000000
  20
 272.07500000000
  30
0.0
  11
 336.95000000000
  21
 261.27500000000
  31
0.0
   0
LINE
   5
214
 100
AcDbEntity
   8
LEVEL002
 370
30
 100
AcDbLine
   6
CONTINUOUS
  62
7
  10
 336.95000000000
  20
 261.27500000000
  30
0.0
  11
 340.55000000000
  21
 261.27500000000
  31
0.0
   0
LINE
   5
215
 100
AcDbEntity
   8
LEVEL002
 370
30
 100
AcDbLine
   6
CONTINUOUS
  62
7
  10
 340.55000000000
  20
 261.27500000000
  30
0.0
  11
 340.55000000000
  21
 263.07500000000
  31
0.0
   0
LINE
   5
216
 100
AcDbEntity
   8
LEVEL002
 370
30
 100
AcDbLine
   6
CONTINUOUS
  62
7
  10
 340.55000000000
  20
 263.07500000000
  30
0.0
  11
 344.15000000000
  21
 263.07500000000
  31
0.0
   0
ARC
   5
217
 100
AcDbEntity
   8
LEVEL002
 370
30
   6
CONTINUOUS
  62
7
 100
AcDbCircle
  10
 344.15000000000
  20
 267.57500000000
  30
0.0
  40
 4.5000000000000
 100
AcDbArc
  50
 270.00000000000
  51
 90.000000000000
   0
LINE
   5
218
 100
AcDbEntity
   8
LEVEL002
 370
30
 100
AcDbLine
   6
CONTINUOUS
  62
7
  10
 340.55000000000
  20
 266.67500000000
  30
0.0
  11
 344.15000000000
  21
 266.67500000000
  31
0.0
   0
ARC
   5
219
 100
AcDbEntity
   8
LEVEL002
 370
30
   6
CONTINUOUS
  62
7
 100
AcDbCircle
  10
 344.15000000000
  20
 267.57500000000
  30
0.0
  40
 0.90000000000000
 100
AcDbArc
  50
 270.00000000000
  51
 90.000000000000
   0
LINE
   5
21A
 100
AcDbEntity
   8
LEVEL002
 370
30
 100
AcDbLine
   6
CONTINUOUS
  62
7
  10
 344.15000000000
  20
 268.47500000000
  30
0.0
  11
 340.55000000000
  21
 268.47500000000
  31
0.0
   0
LINE
   5
21B
 100
AcDbEntity
   8
LEVEL002
 370
30
 100
AcDbLine
   6
CONTINUOUS
  62
7
  10
 340.55000000000
  20
 268.47500000000
  30
0.0
  11
 340.55000000000
  21
 266.67500000000
  31
0.0
   0
LINE
   5
21C
 100
AcDbEntity
   8
LEVEL002
 370
30
 100
AcDbLine
   6
CONTINUOUS
  62
7
  10
 345.95000000000
  20
 261.27500000000
  30
0.0
  11
 353.15000000000
  21
 272.07500000000
  31
0.0
   0
LINE
   5
21D
 100
AcDbEntity
   8
LEVEL002
 370
30
 100
AcDbLine
   6
CONTINUOUS
  62
7
  10
 353.15000000000
  20
 272.07500000000
  30
0.0
  11
 362.15000000000
  21
 272.07500000000
  31
0.0
   0
LINE
   5
21E
 100
AcDbEntity
   8
LEVEL002
 370
30
 100
AcDbLine
   6
CONTINUOUS
  62
7
  10
 362.15000000000
  20
 272.07500000000
  30
0.0
  11
 362.15000000000
  21
 264.87500000000
  31
0.0
   0
LINE
   5
21F
 100
AcDbEntity
   8
LEVEL002
 370
30
 100
AcDbLine
   6
CONTINUOUS
  62
7
  10
 362.15000000000
  20
 264.87500000000
  30
0.0
  11
 367.55000000000
  21
 264.87500000000
  31
0.0
   0
LINE
   5
220
 100
AcDbEntity
   8
LEVEL002
 370
30
 100
AcDbLine
   6
CONTINUOUS
  62
7
  10
 367.55000000000
  20
 264.87500000000
  30
0.0
  11
 367.55000000000
  21
 268.47500000000
  31
0.0
   0
LINE
   5
221
 100
AcDbEntity
   8
LEVEL002
 370
30
 100
AcDbLine
   6
CONTINUOUS
  62
7
  10
 367.55000000000
  20
 268.47500000000
  30
0.0
  11
 363.95000000000
  21
 268.47500000000
  31
0.0
   0
LINE
   5
222
 100
AcDbEntity
   8
LEVEL002
 370
30
 100
AcDbLine
   6
CONTINUOUS
  62
7
  10
 363.95000000000
  20
 268.47500000000
  30
0.0
  11
 363.95000000000
  21
 272.07500000000
  31
0.0
   0
LINE
   5
223
 100
AcDbEntity
   8
LEVEL002
 370
30
 100
AcDbLine
   6
CONTINUOUS
  62
7
  10
 363.95000000000
  20
 272.07500000000
  30
0.0
  11
 385.55000000000
  21
 272.07500000000
  31
0.0
   0
LINE
   5
224
 100
AcDbEntity
   8
LEVEL002
 370
30
 100
AcDbLine
   6
CONTINUOUS
  62
7
  10
 385.55000000000
  20
 272.07500000000
  30
0.0
  11
 385.55000000000
  21
 268.47500000000
  31
0.0
   0
LINE
   5
225
 100
AcDbEntity
   8
LEVEL002
 370
30
 100
AcDbLine
   6
CONTINUOUS
  62
7
  10
 385.55000000000
  20
 268.47500000000
  30
0.0
  11
 378.35000000000
  21
 268.47500000000
  31
0.0
   0
LINE
   5
226
 100
AcDbEntity
   8
LEVEL002
 370
30
 100
AcDbLine
   6
CONTINUOUS
  62
7
  10
 378.35000000000
  20
 268.47500000000
  30
0.0
  11
 378.35000000000
  21
 267.57500000000
  31
0.0
   0
LINE
   5
227
 100
AcDbEntity
   8
LEVEL002
 370
30
 100
AcDbLine
   6
CONTINUOUS
  62
7
  10
 378.35000000000
  20
 267.57500000000
  30
0.0
  11
 384.65000000000
  21
 267.57500000000
  31
0.0
   0
LINE
   5
228
 100
AcDbEntity
   8
LEVEL002
 370
30
 100
AcDbLine
   6
CONTINUOUS
  62
7
  10
 384.65000000000
  20
 267.57500000000
  30
0.0
  11
 384.65000000000
  21
 265.77500000000
  31
0.0
   0
LINE
   5
229
 100
AcDbEntity
   8
LEVEL002
 370
30
 100
AcDbLine
   6
CONTINUOUS
  62
7
  10
 384.65000000000
  20
 265.77500000000
  30
0.0
  11
 378.35000000000
  21
 265.77500000000
  31
0.0
   0
LINE
   5
22A
 100
AcDbEntity
   8
LEVEL002
 370
30
 100
AcDbLine
   6
CONTINUOUS
  62
7
  10
 378.35000000000
  20
 265.77500000000
  30
0.0
  11
 378.35000000000
  21
 264.87500000000
  31
0.0
   0
LINE
   5
22B
 100
AcDbEntity
   8
LEVEL002
 370
30
 100
AcDbLine
   6
CONTINUOUS
  62
7
  10
 378.35000000000
  20
 264.87500000000
  30
0.0
  11
 385.55000000000
  21
 264.87500000000
  31
0.0
   0
LINE
   5
22C
 100
AcDbEntity
   8
LEVEL002
 370
30
 100
AcDbLine
   6
CONTINUOUS
  62
7
  10
 385.55000000000
  20
 264.87500000000
  30
0.0
  11
 385.55000000000
  21
 261.27500000000
  31
0.0
   0
LINE
   5
22D
 100
AcDbEntity
   8
LEVEL002
 370
30
 100
AcDbLine
   6
CONTINUOUS
  62
7
  10
 385.55000000000
  20
 261.27500000000
  30
0.0
  11
 374.75000000000
  21
 261.27500000000
  31
0.0
   0
LINE
   5
22E
 100
AcDbEntity
   8
LEVEL002
 370
30
 100
AcDbLine
   6
CONTINUOUS
  62
7
  10
 374.75000000000
  20
 261.27500000000
  30
0.0
  11
 374.75000000000
  21
 268.47500000000
  31
0.0
   0
LINE
   5
22F
 100
AcDbEntity
   8
LEVEL002
 370
30
 100
AcDbLine
   6
CONTINUOUS
  62
7
  10
 374.75000000000
  20
 268.47500000000
  30
0.0
  11
 371.15000000000
  21
 268.47500000000
  31
0.0
   0
LINE
   5
230
 100
AcDbEntity
   8
LEVEL002
 370
30
 100
AcDbLine
   6
CONTINUOUS
  62
7
  10
 371.15000000000
  20
 268.47500000000
  30
0.0
  11
 371.15000000000
  21
 261.27500000000
  31
0.0
   0
LINE
   5
231
 100
AcDbEntity
   8
LEVEL002
 370
30
 100
AcDbLine
   6
CONTINUOUS
  62
7
  10
 371.15000000000
  20
 261.27500000000
  30
0.0
  11
 358.55000000000
  21
 261.27500000000
  31
0.0
   0
LINE
   5
232
 100
AcDbEntity
   8
LEVEL002
 370
30
 100
AcDbLine
   6
CONTINUOUS
  62
7
  10
 358.55000000000
  20
 261.27500000000
  30
0.0
  11
 358.55000000000
  21
 272.07500000000
  31
0.0
   0
LINE
   5
233
 100
AcDbEntity
   8
LEVEL002
 370
30
 100
AcDbLine
   6
CONTINUOUS
  62
7
  10
 358.55000000000
  20
 272.07500000000
  30
0.0
  11
 351.35000000000
  21
 261.27500000000
  31
0.0
   0
LINE
   5
234
 100
AcDbEntity
   8
LEVEL002
 370
30
 100
AcDbLine
   6
CONTINUOUS
  62
7
  10
 351.35000000000
  20
 261.27500000000
  30
0.0
  11
 345.95000000000
  21
 261.27500000000
  31
0.0
   0
LINE
   5
235
 100
AcDbEntity
   8
LEVEL002
 370
30
 100
AcDbLine
   6
CONTINUOUS
  62
7
  10
 357.35000000000
  20
 268.11166923470
  30
0.0
  11
 352.79222051020
  21
 261.27500000000
  31
0.0
   0
LINE
   5
236
 100
AcDbEntity
   8
LEVEL002
 370
30
 100
AcDbLine
   6
CONTINUOUS
  62
7
  10
 352.79222051020
  20
 261.27500000000
  30
0.0
  11
 357.35000000000
  21
 261.27500000000
  31
0.0
   0
LINE
   5
237
 100
AcDbEntity
   8
LEVEL002
 370
30
 100
AcDbLine
   6
CONTINUOUS
  62
7
  10
 357.35000000000
  20
 261.27500000000
  30
0.0
  11
 357.35000000000
  21
 268.11166923470
  31
0.0
   0
ARC
   5
238
 100
AcDbEntity
   8
LEVEL002
 370
30
   6
CONTINUOUS
  62
7
 100
AcDbCircle
  10
 390.95000000000
  20
 266.67500000000
  30
0.0
  40
 5.4000000000000
 100
AcDbArc
  50
 90.000000000000
  51
 270.00000000000
   0
ARC
   5
239
 100
AcDbEntity
   8
LEVEL002
 370
30
   6
CONTINUOUS
  62
7
 100
AcDbCircle
  10
 390.95000000000
  20
 266.67500000000
  30
0.0
  40
 1.8000000000000
 100
AcDbArc
  50
 90.000000000000
  51
 270.00000000000
   0
LINE
   5
23A
 100
AcDbEntity
   8
LEVEL002
 370
30
 100
AcDbLine
   6
CONTINUOUS
  62
7
  10
 390.95000000000
  20
 272.07500000000
  30
0.0
  11
 396.35000000000
  21
 272.07500000000
  31
0.0
   0
LINE
   5
23B
 100
AcDbEntity
   8
LEVEL002
 370
30
 100
AcDbLine
   6
CONTINUOUS
  62
7
  10
 396.35000000000
  20
 272.07500000000
  30
0.0
  11
 396.35000000000
  21
 268.47500000000
  31
0.0
   0
LINE
   5
23C
 100
AcDbEntity
   8
LEVEL002
 370
30
 100
AcDbLine
   6
CONTINUOUS
  62
7
  10
 396.35000000000
  20
 268.47500000000
  30
0.0
  11
 390.95000000000
  21
 268.47500000000
  31
0.0
   0
LINE
   5
23D
 100
AcDbEntity
   8
LEVEL002
 370
30
 100
AcDbLine
   6
CONTINUOUS
  62
7
  10
 336.95000000000
  20
 272.07500000000
  30
0.0
  11
 336.95000000000
  21
 261.27500000000
  31
0.0
   0
LINE
   5
23E
 100
AcDbEntity
   8
LEVEL002
 370
30
 100
AcDbLine
   6
CONTINUOUS
  62
7
  10
 336.95000000000
  20
 261.27500000000
  30
0.0
  11
 340.55000000000
  21
 261.27500000000
  31
0.0
   0
LINE
   5
23F
 100
AcDbEntity
   8
LEVEL002
 370
30
 100
AcDbLine
   6
CONTINUOUS
  62
7
  10
 340.55000000000
  20
 261.27500000000
  30
0.0
  11
 340.55000000000
  21
 263.07500000000
  31
0.0
   0
LINE
   5
240
 100
AcDbEntity
   8
LEVEL002
 370
30
 100
AcDbLine
   6
CONTINUOUS
  62
7
  10
 340.55000000000
  20
 263.07500000000
  30
0.0
  11
 344.15000000000
  21
 263.07500000000
  31
0.0
   0
ARC
   5
241
 100
AcDbEntity
   8
LEVEL002
 370
30
   6
CONTINUOUS
  62
7
 100
AcDbCircle
  10
 344.15000000000
  20
 267.57500000000
  30
0.0
  40
 4.5000000000000
 100
AcDbArc
  50
 270.00000000000
  51
 90.000000000000
   0
LINE
   5
242
 100
AcDbEntity
   8
LEVEL002
 370
30
 100
AcDbLine
   6
CONTINUOUS
  62
7
  10
 344.15000000000
  20
 272.07500000000
  30
0.0
  11
 336.95000000000
  21
 272.07500000000
  31
0.0
   0
LINE
   5
243
 100
AcDbEntity
   8
LEVEL002
 370
30
 100
AcDbLine
   6
CONTINUOUS
  62
7
  10
 340.55000000000
  20
 268.47500000000
  30
0.0
  11
 340.55000000000
  21
 266.67500000000
  31
0.0
   0
LINE
   5
244
 100
AcDbEntity
   8
LEVEL002
 370
30
 100
AcDbLine
   6
CONTINUOUS
  62
7
  10
 340.55000000000
  20
 266.67500000000
  30
0.0
  11
 344.15000000000
  21
 266.67500000000
  31
0.0
   0
ARC
   5
245
 100
AcDbEntity
   8
LEVEL002
 370
30
   6
CONTINUOUS
  62
7
 100
AcDbCircle
  10
 344.15000000000
  20
 267.57500000000
  30
0.0
  40
 0.90000000000000
 100
AcDbArc
  50
 270.00000000000
  51
 90.000000000000
   0
LINE
   5
246
 100
AcDbEntity
   8
LEVEL002
 370
30
 100
AcDbLine
   6
CONTINUOUS
  62
7
  10
 344.15000000000
  20
 268.47500000000
  30
0.0
  11
 340.55000000000
  21
 268.47500000000
  31
0.0
   0
LINE
   5
247
 100
AcDbEntity
   8
LEVEL002
 370
30
 100
AcDbLine
   6
CONTINUOUS
  62
7
  10
 353.15000000000
  20
 272.07500000000
  30
0.0
  11
 345.95000000000
  21
 261.27500000000
  31
0.0
   0
LINE
   5
248
 100
AcDbEntity
   8
LEVEL002
 370
30
 100
AcDbLine
   6
CONTINUOUS
  62
7
  10
 345.95000000000
  20
 261.27500000000
  30
0.0
  11
 351.35000000000
  21
 261.27500000000
  31
0.0
   0
LINE
   5
249
 100
AcDbEntity
   8
LEVEL002
 370
30
 100
AcDbLine
   6
CONTINUOUS
  62
7
  10
 351.35000000000
  20
 261.27500000000
  30
0.0
  11
 358.55000000000
  21
 272.07500000000
  31
0.0
   0
LINE
   5
24A
 100
AcDbEntity
   8
LEVEL002
 370
30
 100
AcDbLine
   6
CONTINUOUS
  62
7
  10
 358.55000000000
  20
 272.07500000000
  30
0.0
  11
 353.15000000000
  21
 272.07500000000
  31
0.0
   0
LINE
   5
24B
 100
AcDbEntity
   8
LEVEL002
 370
30
 100
AcDbLine
   6
CONTINUOUS
  62
7
  10
 357.35000000000
  20
 261.27500000000
  30
0.0
  11
 357.35000000000
  21
 268.11166923470
  31
0.0
   0
LINE
   5
24C
 100
AcDbEntity
   8
LEVEL002
 370
30
 100
AcDbLine
   6
CONTINUOUS
  62
7
  10
 357.35000000000
  20
 268.11166923470
  30
0.0
  11
 352.79222051020
  21
 261.27500000000
  31
0.0
   0
LINE
   5
24D
 100
AcDbEntity
   8
LEVEL002
 370
30
 100
AcDbLine
   6
CONTINUOUS
  62
7
  10
 352.79222051020
  20
 261.27500000000
  30
0.0
  11
 357.35000000000
  21
 261.27500000000
  31
0.0
   0
LINE
   5
24E
 100
AcDbEntity
   8
LEVEL002
 370
30
 100
AcDbLine
   6
CONTINUOUS
  62
7
  10
 358.55000000000
  20
 261.27500000000
  30
0.0
  11
 371.15000000000
  21
 261.27500000000
  31
0.0
   0
LINE
   5
24F
 100
AcDbEntity
   8
LEVEL002
 370
30
 100
AcDbLine
   6
CONTINUOUS
  62
7
  10
 371.15000000000
  20
 261.27500000000
  30
0.0
  11
 371.15000000000
  21
 268.47500000000
  31
0.0
   0
LINE
   5
250
 100
AcDbEntity
   8
LEVEL002
 370
30
 100
AcDbLine
   6
CONTINUOUS
  62
7
  10
 371.15000000000
  20
 268.47500000000
  30
0.0
  11
 374.75000000000
  21
 268.47500000000
  31
0.0
   0
LINE
   5
251
 100
AcDbEntity
   8
LEVEL002
 370
30
 100
AcDbLine
   6
CONTINUOUS
  62
7
  10
 374.75000000000
  20
 268.47500000000
  30
0.0
  11
 374.75000000000
  21
 261.27500000000
  31
0.0
   0
LINE
   5
252
 100
AcDbEntity
   8
LEVEL002
 370
30
 100
AcDbLine
   6
CONTINUOUS
  62
7
  10
 374.75000000000
  20
 261.27500000000
  30
0.0
  11
 385.55000000000
  21
 261.27500000000
  31
0.0
   0
LINE
   5
253
 100
AcDbEntity
   8
LEVEL002
 370
30
 100
AcDbLine
   6
CONTINUOUS
  62
7
  10
 385.55000000000
  20
 261.27500000000
  30
0.0
  11
 385.55000000000
  21
 264.87500000000
  31
0.0
   0
LINE
   5
254
 100
AcDbEntity
   8
LEVEL002
 370
30
 100
AcDbLine
   6
CONTINUOUS
  62
7
  10
 385.55000000000
  20
 264.87500000000
  30
0.0
  11
 378.35000000000
  21
 264.87500000000
  31
0.0
   0
LINE
   5
255
 100
AcDbEntity
   8
LEVEL002
 370
30
 100
AcDbLine
   6
CONTINUOUS
  62
7
  10
 378.35000000000
  20
 264.87500000000
  30
0.0
  11
 378.35000000000
  21
 265.77500000000
  31
0.0
   0
LINE
   5
256
 100
AcDbEntity
   8
LEVEL002
 370
30
 100
AcDbLine
   6
CONTINUOUS
  62
7
  10
 378.35000000000
  20
 265.77500000000
  30
0.0
  11
 384.65000000000
  21
 265.77500000000
  31
0.0
   0
LINE
   5
257
 100
AcDbEntity
   8
LEVEL002
 370
30
 100
AcDbLine
   6
CONTINUOUS
  62
7
  10
 384.65000000000
  20
 265.77500000000
  30
0.0
  11
 384.65000000000
  21
 267.57500000000
  31
0.0
   0
LINE
   5
258
 100
AcDbEntity
   8
LEVEL002
 370
30
 100
AcDbLine
   6
CONTINUOUS
  62
7
  10
 384.65000000000
  20
 267.57500000000
  30
0.0
  11
 378.35000000000
  21
 267.57500000000
  31
0.0
   0
LINE
   5
259
 100
AcDbEntity
   8
LEVEL002
 370
30
 100
AcDbLine
   6
CONTINUOUS
  62
7
  10
 378.35000000000
  20
 267.57500000000
  30
0.0
  11
 378.35000000000
  21
 268.47500000000
  31
0.0
   0
LINE
   5
25A
 100
AcDbEntity
   8
LEVEL002
 370
30
 100
AcDbLine
   6
CONTINUOUS
  62
7
  10
 378.35000000000
  20
 268.47500000000
  30
0.0
  11
 385.55000000000
  21
 268.47500000000
  31
0.0
   0
LINE
   5
25B
 100
AcDbEntity
   8
LEVEL002
 370
30
 100
AcDbLine
   6
CONTINUOUS
  62
7
  10
 385.55000000000
  20
 268.47500000000
  30
0.0
  11
 385.55000000000
  21
 272.07500000000
  31
0.0
   0
LINE
   5
25C
 100
AcDbEntity
   8
LEVEL002
 370
30
 100
AcDbLine
   6
CONTINUOUS
  62
7
  10
 385.55000000000
  20
 272.07500000000
  30
0.0
  11
 363.95000000000
  21
 272.07500000000
  31
0.0
   0
LINE
   5
25D
 100
AcDbEntity
   8
LEVEL002
 370
30
 100
AcDbLine
   6
CONTINUOUS
  62
7
  10
 363.95000000000
  20
 272.07500000000
  30
0.0
  11
 363.95000000000
  21
 268.47500000000
  31
0.0
   0
LINE
   5
25E
 100
AcDbEntity
   8
LEVEL002
 370
30
 100
AcDbLine
   6
CONTINUOUS
  62
7
  10
 363.95000000000
  20
 268.47500000000
  30
0.0
  11
 367.55000000000
  21
 268.47500000000
  31
0.0
   0
LINE
   5
25F
 100
AcDbEntity
   8
LEVEL002
 370
30
 100
AcDbLine
   6
CONTINUOUS
  62
7
  10
 367.55000000000
  20
 268.47500000000
  30
0.0
  11
 367.55000000000
  21
 264.87500000000
  31
0.0
   0
LINE
   5
260
 100
AcDbEntity
   8
LEVEL002
 370
30
 100
AcDbLine
   6
CONTINUOUS
  62
7
  10
 367.55000000000
  20
 264.87500000000
  30
0.0
  11
 362.15000000000
  21
 264.87500000000
  31
0.0
   0
LINE
   5
261
 100
AcDbEntity
   8
LEVEL002
 370
30
 100
AcDbLine
   6
CONTINUOUS
  62
7
  10
 362.15000000000
  20
 264.87500000000
  30
0.0
  11
 362.15000000000
  21
 272.07500000000
  31
0.0
   0
LINE
   5
262
 100
AcDbEntity
   8
LEVEL002
 370
30
 100
AcDbLine
   6
CONTINUOUS
  62
7
  10
 362.15000000000
  20
 272.07500000000
  30
0.0
  11
 358.55000000000
  21
 272.07500000000
  31
0.0
   0
LINE
   5
263
 100
AcDbEntity
   8
LEVEL002
 370
30
 100
AcDbLine
   6
CONTINUOUS
  62
7
  10
 358.55000000000
  20
 272.07500000000
  30
0.0
  11
 358.55000000000
  21
 261.27500000000
  31
0.0
   0
LINE
   5
264
 100
AcDbEntity
   8
LEVEL002
 370
30
 100
AcDbLine
   6
CONTINUOUS
  62
7
  10
 390.95000000000
  20
 261.27500000000
  30
0.0
  11
 396.35000000000
  21
 261.27500000000
  31
0.0
   0
LINE
   5
265
 100
AcDbEntity
   8
LEVEL002
 370
30
 100
AcDbLine
   6
CONTINUOUS
  62
7
  10
 396.35000000000
  20
 261.27500000000
  30
0.0
  11
 396.35000000000
  21
 264.87500000000
  31
0.0
   0
LINE
   5
266
 100
AcDbEntity
   8
LEVEL002
 370
30
 100
AcDbLine
   6
CONTINUOUS
  62
7
  10
 396.35000000000
  20
 264.87500000000
  30
0.0
  11
 390.95000000000
  21
 264.87500000000
  31
0.0
   0
ARC
   5
267
 100
AcDbEntity
   8
LEVEL002
 370
30
   6
CONTINUOUS
  62
7
 100
AcDbCircle
  10
 390.95000000000
  20
 266.67500000000
  30
0.0
  40
 1.8000000000000
 100
AcDbArc
  50
 90.000000000000
  51
 270.00000000000
   0
LINE
   5
268
 100
AcDbEntity
   8
LEVEL002
 370
30
 100
AcDbLine
   6
CONTINUOUS
  62
7
  10
 390.95000000000
  20
 268.47500000000
  30
0.0
  11
 396.35000000000
  21
 268.47500000000
  31
0.0
   0
LINE
   5
269
 100
AcDbEntity
   8
LEVEL002
 370
30
 100
AcDbLine
   6
CONTINUOUS
  62
7
  10
 396.35000000000
  20
 268.47500000000
  30
0.0
  11
 396.35000000000
  21
 272.07500000000
  31
0.0
   0
LINE
   5
26A
 100
AcDbEntity
   8
LEVEL002
 370
30
 100
AcDbLine
   6
CONTINUOUS
  62
7
  10
 396.35000000000
  20
 272.07500000000
  30
0.0
  11
 390.95000000000
  21
 272.07500000000
  31
0.0
   0
ARC
   5
26B
 100
AcDbEntity
   8
LEVEL002
 370
30
   6
CONTINUOUS
  62
7
 100
AcDbCircle
  10
 390.95000000000
  20
 266.67500000000
  30
0.0
  40
 5.4000000000000
 100
AcDbArc
  50
 90.000000000000
  51
 270.00000000000
   0
MTEXT
   5
26D
 100
AcDbEntity
   8
LEVEL002
 370
30
  62
7
 100
AcDbMText
  10
 336.95000000000
  20
 273.87500000000
  30
0.0
  40
 3.7500000000000
  41
0.0
  71
7
  72
1
   1
\T1.000000;ケージーパルテック株式会社
   7
GMM001
  44
 0.79999984000003
   0
LINE
   5
26E
 100
AcDbEntity
   8
LEVEL002
 370
30
 100
AcDbLine
   6
CONTINUOUS
  62
7
  10
 333.35000000000
  20
 263.67500000000
  30
0.0
  11
 328.85000000000
  21
 270.87500000000
  31
0.0
   0
LINE
   5
26F
 100
AcDbEntity
   8
LEVEL002
 370
30
 100
AcDbLine
   6
CONTINUOUS
  62
7
  10
 328.85000000000
  20
 270.87500000000
  30
0.0
  11
 333.35000000000
  21
 270.87500000000
  31
0.0
   0
LINE
   5
270
 100
AcDbEntity
   8
LEVEL002
 370
30
 100
AcDbLine
   6
CONTINUOUS
  62
7
  10
 333.35000000000
  20
 270.87500000000
  30
0.0
  11
 333.35000000000
  21
 263.67500000000
  31
0.0
   0
LINE
   5
271
 100
AcDbEntity
   8
LEVEL002
 370
30
 100
AcDbLine
   6
CONTINUOUS
  62
7
  10
 328.85000000000
  20
 270.87500000000
  30
0.0
  11
 333.35000000000
  21
 263.67500000000
  31
0.0
   0
LINE
   5
272
 100
AcDbEntity
   8
LEVEL002
 370
30
 100
AcDbLine
   6
CONTINUOUS
  62
7
  10
 333.35000000000
  20
 263.67500000000
  30
0.0
  11
 333.35000000000
  21
 270.87500000000
  31
0.0
   0
LINE
   5
273
 100
AcDbEntity
   8
LEVEL002
 370
30
 100
AcDbLine
   6
CONTINUOUS
  62
7
  10
 333.35000000000
  20
 270.87500000000
  30
0.0
  11
 328.85000000000
  21
 270.87500000000
  31
0.0
   0
LINE
   5
274
 100
AcDbEntity
   8
LEVEL002
 370
30
 100
AcDbLine
   6
CONTINUOUS
  62
7
  10
 319.05000000000
  20
 280.47500000000
  30
0.0
  11
 312.65000000000
  21
 270.87500000000
  31
0.0
   0
LINE
   5
275
 100
AcDbEntity
   8
LEVEL002
 370
30
 100
AcDbLine
   6
CONTINUOUS
  62
7
  10
 312.65000000000
  20
 270.87500000000
  30
0.0
  11
 319.05000000000
  21
 261.27500000000
  31
0.0
   0
LINE
   5
276
 100
AcDbEntity
   8
LEVEL002
 370
30
 100
AcDbLine
   6
CONTINUOUS
  62
7
  10
 324.45000000000
  20
 261.27500000000
  30
0.0
  11
 318.05000000000
  21
 270.87500000000
  31
0.0
   0
LINE
   5
277
 100
AcDbEntity
   8
LEVEL002
 370
30
 100
AcDbLine
   6
CONTINUOUS
  62
7
  10
 318.05000000000
  20
 270.87500000000
  30
0.0
  11
 324.45000000000
  21
 280.47500000000
  31
0.0
   0
LINE
   5
278
 100
AcDbEntity
   8
LEVEL002
 370
30
 100
AcDbLine
   6
CONTINUOUS
  62
7
  10
 327.15000000000
  20
 280.47500000000
  30
0.0
  11
 320.75000000000
  21
 270.87500000000
  31
0.0
   0
LINE
   5
279
 100
AcDbEntity
   8
LEVEL002
 370
30
 100
AcDbLine
   6
CONTINUOUS
  62
7
  10
 320.75000000000
  20
 270.87500000000
  30
0.0
  11
 327.15000000000
  21
 261.27500000000
  31
0.0
   0
LINE
   5
27A
 100
AcDbEntity
   8
LEVEL002
 370
30
 100
AcDbLine
   6
CONTINUOUS
  62
7
  10
 332.55000000000
  20
 261.27500000000
  30
0.0
  11
 326.15000000000
  21
 270.87500000000
  31
0.0
   0
LINE
   5
27B
 100
AcDbEntity
   8
LEVEL002
 370
30
 100
AcDbLine
   6
CONTINUOUS
  62
7
  10
 326.15000000000
  20
 270.87500000000
  30
0.0
  11
 332.55000000000
  21
 280.47500000000
  31
0.0
   0
LINE
   5
27C
 100
AcDbEntity
   8
LEVEL002
 370
30
 100
AcDbLine
   6
CONTINUOUS
  62
7
  10
 319.05000000000
  20
 261.27500000000
  30
0.0
  11
 312.65000000000
  21
 270.87500000000
  31
0.0
   0
LINE
   5
27D
 100
AcDbEntity
   8
LEVEL002
 370
30
 100
AcDbLine
   6
CONTINUOUS
  62
7
  10
 312.65000000000
  20
 270.87500000000
  30
0.0
  11
 319.05000000000
  21
 280.47500000000
  31
0.0
   0
LINE
   5
27E
 100
AcDbEntity
   8
LEVEL002
 370
30
 100
AcDbLine
   6
CONTINUOUS
  62
7
  10
 319.05000000000
  20
 280.47500000000
  30
0.0
  11
 324.45000000000
  21
 280.47500000000
  31
0.0
   0
LINE
   5
27F
 100
AcDbEntity
   8
LEVEL002
 370
30
 100
AcDbLine
   6
CONTINUOUS
  62
7
  10
 324.45000000000
  20
 280.47500000000
  30
0.0
  11
 318.05000000000
  21
 270.87500000000
  31
0.0
   0
LINE
   5
280
 100
AcDbEntity
   8
LEVEL002
 370
30
 100
AcDbLine
   6
CONTINUOUS
  62
7
  10
 318.05000000000
  20
 270.87500000000
  30
0.0
  11
 324.45000000000
  21
 261.27500000000
  31
0.0
   0
LINE
   5
281
 100
AcDbEntity
   8
LEVEL002
 370
30
 100
AcDbLine
   6
CONTINUOUS
  62
7
  10
 324.45000000000
  20
 261.27500000000
  30
0.0
  11
 319.05000000000
  21
 261.27500000000
  31
0.0
   0
LINE
   5
282
 100
AcDbEntity
   8
LEVEL002
 370
30
 100
AcDbLine
   6
CONTINUOUS
  62
7
  10
 327.15000000000
  20
 261.27500000000
  30
0.0
  11
 320.75000000000
  21
 270.87500000000
  31
0.0
   0
LINE
   5
283
 100
AcDbEntity
   8
LEVEL002
 370
30
 100
AcDbLine
   6
CONTINUOUS
  62
7
  10
 320.75000000000
  20
 270.87500000000
  30
0.0
  11
 327.15000000000
  21
 280.47500000000
  31
0.0
   0
LINE
   5
284
 100
AcDbEntity
   8
LEVEL002
 370
30
 100
AcDbLine
   6
CONTINUOUS
  62
7
  10
 327.15000000000
  20
 280.47500000000
  30
0.0
  11
 332.55000000000
  21
 280.47500000000
  31
0.0
   0
LINE
   5
285
 100
AcDbEntity
   8
LEVEL002
 370
30
 100
AcDbLine
   6
CONTINUOUS
  62
7
  10
 332.55000000000
  20
 280.47500000000
  30
0.0
  11
 326.15000000000
  21
 270.87500000000
  31
0.0
   0
LINE
   5
286
 100
AcDbEntity
   8
LEVEL002
 370
30
 100
AcDbLine
   6
CONTINUOUS
  62
7
  10
 326.15000000000
  20
 270.87500000000
  30
0.0
  11
 332.55000000000
  21
 261.27500000000
  31
0.0
   0
LINE
   5
287
 100
AcDbEntity
   8
LEVEL002
 370
30
 100
AcDbLine
   6
CONTINUOUS
  62
7
  10
 332.55000000000
  20
 261.27500000000
  30
0.0
  11
 327.15000000000
  21
 261.27500000000
  31
0.0
   0
LINE
   5
288
 100
AcDbEntity
   8
LEVEL001
 370
30
 100
AcDbLine
   6
DOT
  62
7
  10
0.0
  20
0.0
  30
0.0
  11
 420.00000000000
  21
0.0
  31
0.0
   0
LINE
   5
289
 100
AcDbEntity
   8
LEVEL001
 370
30
 100
AcDbLine
   6
DOT
  62
7
  10
 420.00000000000
  20
0.0
  30
0.0
  11
 420.00000000000
  21
 297.00000000000
  31
0.0
   0
LINE
   5
28A
 100
AcDbEntity
   8
LEVEL001
 370
30
 100
AcDbLine
   6
DOT
  62
7
  10
 420.00000000000
  20
 297.00000000000
  30
0.0
  11
0.0
  21
 297.00000000000
  31
0.0
   0
LINE
   5
28B
 100
AcDbEntity
   8
LEVEL001
 370
30
 100
AcDbLine
   6
DOT
  62
7
  10
0.0
  20
 297.00000000000
  30
0.0
  11
0.0
  21
0.0
  31
0.0
   0
LINE
   5
28C
 100
AcDbEntity
   8
LEVEL002
 370
40
 100
AcDbLine
   6
CONTINUOUS
  62
3
  10
 15.499999999950
  20
 216.75000000000
  30
0.0
  11
 304.49999999995
  21
 216.75000000000
  31
0.0
   0
LINE
   5
28D
 100
AcDbEntity
   8
LEVEL002
 370
40
 100
AcDbLine
   6
CONTINUOUS
  62
3
  10
 15.499999999950
  20
 275.00000000000
  30
0.0
  11
 304.49999999995
  21
 275.00000000000
  31
0.0
   0
LINE
   5
28E
 100
AcDbEntity
   8
LEVEL002
 370
40
 100
AcDbLine
   6
CONTINUOUS
  62
3
  10
 15.499999999950
  20
 206.75000000000
  30
0.0
  11
 304.49999999995
  21
 206.75000000000
  31
0.0
   0
LINE
   5
28F
 100
AcDbEntity
   8
LEVEL002
 370
40
 100
AcDbLine
   6
CONTINUOUS
  62
3
  10
 304.49999999995
  20
 256.75000000000
  30
0.0
  11
 404.49999999995
  21
 256.75000000000
  31
0.0
   0
LINE
   5
290
 100
AcDbEntity
   8
LEVEL002
 370
40
 100
AcDbLine
   6
CONTINUOUS
  62
3
  10
 304.49999999995
  20
 236.75000000000
  30
0.0
  11
 404.49999999995
  21
 236.75000000000
  31
0.0
   0
LINE
   5
291
 100
AcDbEntity
   8
LEVEL002
 370
40
 100
AcDbLine
   6
CONTINUOUS
  62
3
  10
 304.49999999995
  20
 216.75000000000
  30
0.0
  11
 404.49999999995
  21
 216.75000000000
  31
0.0
   0
LINE
   5
292
 100
AcDbEntity
   8
LEVEL002
 370
40
 100
AcDbLine
   6
CONTINUOUS
  62
3
  10
 232.24999999995
  20
 285.00000000000
  30
0.0
  11
 232.24999999995
  21
 12.000000000010
  31
0.0
   0
LINE
   5
293
 100
AcDbEntity
   8
LEVEL002
 370
40
 100
AcDbLine
   6
CONTINUOUS
  62
3
  10
 159.99999999995
  20
 285.00000000000
  30
0.0
  11
 159.99999999995
  21
 12.000000000010
  31
0.0
   0
LINE
   5
294
 100
AcDbEntity
   8
LEVEL002
 370
40
 100
AcDbLine
   6
CONTINUOUS
  62
3
  10
 87.749999999950
  20
 285.00000000000
  30
0.0
  11
 87.749999999950
  21
 12.000000000010
  31
0.0
   0
LINE
   5
295
 100
AcDbEntity
   8
LEVEL002
 370
40
 100
AcDbLine
   6
CONTINUOUS
  62
3
  10
 15.499999999950
  20
 148.50000000001
  30
0.0
  11
 304.49999999995
  21
 148.50000000001
  31
0.0
   0
LINE
   5
296
 100
AcDbEntity
   8
LEVEL002
 370
40
 100
AcDbLine
   6
CONTINUOUS
  62
3
  10
 15.499999999950
  20
 138.50000000001
  30
0.0
  11
 304.49999999995
  21
 138.50000000001
  31
0.0
   0
LINE
   5
297
 100
AcDbEntity
   8
LEVEL002
 370
40
 100
AcDbLine
   6
CONTINUOUS
  62
3
  10
 15.499999999950
  20
 80.250000000010
  30
0.0
  11
 304.49999999995
  21
 80.250000000010
  31
0.0
   0
LINE
   5
298
 100
AcDbEntity
   8
LEVEL002
 370
40
 100
AcDbLine
   6
CONTINUOUS
  62
3
  10
 15.499999999950
  20
 70.250000000010
  30
0.0
  11
 304.49999999995
  21
 70.250000000010
  31
0.0
   0
LINE
   5
299
 100
AcDbEntity
   8
LEVEL002
 370
40
 100
AcDbLine
   6
CONTINUOUS
  62
3
  10
 304.49999999995
  20
 72.000000000010
  30
0.0
  11
 404.49999999995
  21
 72.000000000010
  31
0.0
   0
LINE
   5
29A
 100
AcDbEntity
   8
LEVEL002
 370
40
 100
AcDbLine
   6
CONTINUOUS
  62
3
  10
 304.49999999995
  20
 52.000000000010
  30
0.0
  11
 404.49999999995
  21
 52.000000000010
  31
0.0
   0
LINE
   5
29B
 100
AcDbEntity
   8
LEVEL002
 370
40
 100
AcDbLine
   6
CONTINUOUS
  62
3
  10
 304.49999999995
  20
 32.000000000010
  30
0.0
  11
 404.49999999995
  21
 32.000000000010
  31
0.0
   0
LINE
   5
29C
 100
AcDbEntity
   8
LEVEL002
 370
40
 100
AcDbLine
   6
CONTINUOUS
  62
3
  10
 354.49999999995
  20
 52.000000000010
  30
0.0
  11
 354.49999999995
  21
 12.000000000010
  31
0.0
   0
LINE
   5
29D
 100
AcDbEntity
   8
LEVEL002
 370
40
 100
AcDbLine
   6
CONTINUOUS
  62
3
  10
 354.49999999995
  20
 38.666666666680
  30
0.0
  11
 404.49999999995
  21
 38.666666666680
  31
0.0
   0
LINE
   5
29E
 100
AcDbEntity
   8
LEVEL002
 370
40
 100
AcDbLine
   6
CONTINUOUS
  62
3
  10
 354.49999999995
  20
 45.333333333345
  30
0.0
  11
 404.49999999995
  21
 45.333333333345
  31
0.0
   0
LINE
   5
29F
 100
AcDbEntity
   8
LEVEL002
 370
50
 100
AcDbLine
   6
CONTINUOUS
  62
4
  10
 404.49999999995
  20
 285.00000000000
  30
0.0
  11
 15.499999999950
  21
 285.00000000000
  31
0.0
   0
LINE
   5
2A0
 100
AcDbEntity
   8
LEVEL002
 370
50
 100
AcDbLine
   6
CONTINUOUS
  62
4
  10
 304.49999999995
  20
 285.00000000000
  30
0.0
  11
 304.49999999995
  21
 12.000000000010
  31
0.0
   0
LINE
   5
2A1
 100
AcDbEntity
   8
LEVEL002
 370
50
 100
AcDbLine
   6
CONTINUOUS
  62
4
  10
 404.49999999995
  20
 12.000000000010
  30
0.0
  11
 404.49999999995
  21
 285.00000000000
  31
0.0
   0
LINE
   5
2A2
 100
AcDbEntity
   8
LEVEL002
 370
50
 100
AcDbLine
   6
CONTINUOUS
  62
4
  10
 15.499999999950
  20
 285.00000000000
  30
0.0
  11
 15.499999999950
  21
 12.000000000010
  31
0.0
   0
LINE
   5
2A3
 100
AcDbEntity
   8
LEVEL002
 370
50
 100
AcDbLine
   6
CONTINUOUS
  62
4
  10
 15.499999999950
  20
 12.000000000010
  30
0.0
  11
 404.49999999995
  21
 12.000000000010
  31
0.0
   0
HATCH
   5
2A4
 100
AcDbEntity
   8
LEVEL001
  62
1
 100
AcDbHatch
  10
0.0
  20
0.0
  30
0.0
 210
0.0
 220
0.0
 230
 1.0000000000000
   2
SOLID
  70
1
  71
1
  91
7
  92
1
  93
6
  72
1
  10
 324.45000000000
  20
 280.47500000000
  11
 318.05000000000
  21
 270.87500000000
  72
1
  10
 318.05000000000
  20
 270.87500000000
  11
 324.45000000000
  21
 261.27500000000
  72
1
  10
 324.45000000000
  20
 261.27500000000
  11
 319.05000000000
  21
 261.27500000000
  72
1
  10
 319.05000000000
  20
 261.27500000000
  11
 312.65000000000
  21
 270.87500000000
  72
1
  10
 312.65000000000
  20
 270.87500000000
  11
 319.05000000000
  21
 280.47500000000
  72
1
  10
 319.05000000000
  20
 280.47500000000
  11
 324.45000000000
  21
 280.47500000000
  97
1
 330

  92
16
  93
6
  72
1
  10
 327.15000000000
  20
 280.47500000000
  11
 332.55000000000
  21
 280.47500000000
  72
1
  10
 332.55000000000
  20
 280.47500000000
  11
 326.15000000000
  21
 270.87500000000
  72
1
  10
 326.15000000000
  20
 270.87500000000
  11
 332.55000000000
  21
 261.27500000000
  72
1
  10
 332.55000000000
  20
 261.27500000000
  11
 327.15000000000
  21
 261.27500000000
  72
1
  10
 327.15000000000
  20
 261.27500000000
  11
 320.75000000000
  21
 270.87500000000
  72
1
  10
 320.75000000000
  20
 270.87500000000
  11
 327.15000000000
  21
 280.47500000000
  97
1
 330

  92
16
  93
3
  72
1
  10
 333.35000000000
  20
 270.87500000000
  11
 328.85000000000
  21
 270.87500000000
  72
1
  10
 328.85000000000
  20
 270.87500000000
  11
 333.35000000000
  21
 263.67500000000
  72
1
  10
 333.35000000000
  20
 263.67500000000
  11
 333.35000000000
  21
 270.87500000000
  97
1
 330

  92
16
  93
6
  72
1
  10
 336.95000000000
  20
 272.07500000000
  11
 344.15000000000
  21
 272.07500000000
  72
2
  10
 344.15000000000
  20
 267.57500000000
  40
 4.5000000000000
  50
 270.00000000000
  51
 90.000000000000
  73
0
  72
1
  10
 344.15000000000
  20
 263.07500000000
  11
 340.55000000000
  21
 263.07500000000
  72
1
  10
 340.55000000000
  20
 263.07500000000
  11
 340.55000000000
  21
 261.27500000000
  72
1
  10
 340.55000000000
  20
 261.27500000000
  11
 336.95000000000
  21
 261.27500000000
  72
1
  10
 336.95000000000
  20
 261.27500000000
  11
 336.95000000000
  21
 272.07500000000
  97
1
 330

  92
16
  93
4
  72
1
  10
 344.15000000000
  20
 268.47500000000
  11
 340.55000000000
  21
 268.47500000000
  72
1
  10
 340.55000000000
  20
 268.47500000000
  11
 340.55000000000
  21
 266.67500000000
  72
1
  10
 340.55000000000
  20
 266.67500000000
  11
 344.15000000000
  21
 266.67500000000
  72
2
  10
 344.15000000000
  20
 267.57500000000
  40
 0.90000000000000
  50
 270.00000000000
  51
 90.000000000000
  73
1
  97
1
 330

  92
16
  93
4
  72
1
  10
 345.95000000000
  20
 261.27500000000
  11
 353.15000000000
  21
 272.07500000000
  72
1
  10
 353.15000000000
  20
 272.07500000000
  11
 358.55000000000
  21
 272.07500000000
  72
1
  10
 358.55000000000
  20
 272.07500000000
  11
 351.35000000000
  21
 261.27500000000
  72
1
  10
 351.35000000000
  20
 261.27500000000
  11
 345.95000000000
  21
 261.27500000000
  97
1
 330

  92
16
  93
3
  72
1
  10
 357.35000000000
  20
 268.11166923470
  11
 352.79222051020
  21
 261.27500000000
  72
1
  10
 352.79222051020
  20
 261.27500000000
  11
 357.35000000000
  21
 261.27500000000
  72
1
  10
 357.35000000000
  20
 261.27500000000
  11
 357.35000000000
  21
 268.11166923470
  97
1
 330

  75
0
  76
1
  98
1
  10
0.0
  20
0.0
   0
HATCH
   5
2A5
 100
AcDbEntity
   8
LEVEL001
  62
1
 100
AcDbHatch
  10
0.0
  20
0.0
  30
0.0
 210
0.0
 220
0.0
 230
 1.0000000000000
   2
SOLID
  70
1
  71
1
  91
1
  92
1
  93
22
  72
1
  10
 358.55000000000
  20
 272.07500000000
  11
 362.15000000000
  21
 272.07500000000
  72
1
  10
 362.15000000000
  20
 272.07500000000
  11
 362.15000000000
  21
 264.87500000000
  72
1
  10
 362.15000000000
  20
 264.87500000000
  11
 367.55000000000
  21
 264.87500000000
  72
1
  10
 367.55000000000
  20
 264.87500000000
  11
 367.55000000000
  21
 268.47500000000
  72
1
  10
 367.55000000000
  20
 268.47500000000
  11
 363.95000000000
  21
 268.47500000000
  72
1
  10
 363.95000000000
  20
 268.47500000000
  11
 363.95000000000
  21
 272.07500000000
  72
1
  10
 363.95000000000
  20
 272.07500000000
  11
 385.55000000000
  21
 272.07500000000
  72
1
  10
 385.55000000000
  20
 272.07500000000
  11
 385.55000000000
  21
 268.47500000000
  72
1
  10
 385.55000000000
  20
 268.47500000000
  11
 378.35000000000
  21
 268.47500000000
  72
1
  10
 378.35000000000
  20
 268.47500000000
  11
 378.35000000000
  21
 267.57500000000
  72
1
  10
 378.35000000000
  20
 267.57500000000
  11
 384.65000000000
  21
 267.57500000000
  72
1
  10
 384.65000000000
  20
 267.57500000000
  11
 384.65000000000
  21
 265.77500000000
  72
1
  10
 384.65000000000
  20
 265.77500000000
  11
 378.35000000000
  21
 265.77500000000
  72
1
  10
 378.35000000000
  20
 265.77500000000
  11
 378.35000000000
  21
 264.87500000000
  72
1
  10
 378.35000000000
  20
 264.87500000000
  11
 385.55000000000
  21
 264.87500000000
  72
1
  10
 385.55000000000
  20
 264.87500000000
  11
 385.55000000000
  21
 261.27500000000
  72
1
  10
 385.55000000000
  20
 261.27500000000
  11
 374.75000000000
  21
 261.27500000000
  72
1
  10
 374.75000000000
  20
 261.27500000000
  11
 374.75000000000
  21
 268.47500000000
  72
1
  10
 374.75000000000
  20
 268.47500000000
  11
 371.15000000000
  21
 268.47500000000
  72
1
  10
 371.15000000000
  20
 268.47500000000
  11
 371.15000000000
  21
 261.27500000000
  72
1
  10
 371.15000000000
  20
 261.27500000000
  11
 358.55000000000
  21
 261.27500000000
  72
1
  10
 358.55000000000
  20
 261.27500000000
  11
 358.55000000000
  21
 272.07500000000
  97
1
 330

  75
0
  76
1
  98
1
  10
0.0
  20
0.0
   0
HATCH
   5
2A6
 100
AcDbEntity
   8
LEVEL001
  62
1
 100
AcDbHatch
  10
0.0
  20
0.0
  30
0.0
 210
0.0
 220
0.0
 230
 1.0000000000000
   2
SOLID
  70
1
  71
1
  91
1
  92
1
  93
8
  72
1
  10
 396.35000000000
  20
 272.07500000000
  11
 390.95000000000
  21
 272.07500000000
  72
2
  10
 390.95000000000
  20
 266.67500000000
  40
 5.4000000000000
  50
 90.000000000000
  51
 270.00000000000
  73
1
  72
1
  10
 390.95000000000
  20
 261.27500000000
  11
 396.35000000000
  21
 261.27500000000
  72
1
  10
 396.35000000000
  20
 261.27500000000
  11
 396.35000000000
  21
 264.87500000000
  72
1
  10
 396.35000000000
  20
 264.87500000000
  11
 390.95000000000
  21
 264.87500000000
  72
2
  10
 390.95000000000
  20
 266.67500000000
  40
 1.8000000000000
  50
 90.000000000000
  51
 270.00000000000
  73
0
  72
1
  10
 390.95000000000
  20
 268.47500000000
  11
 396.35000000000
  21
 268.47500000000
  72
1
  10
 396.35000000000
  20
 268.47500000000
  11
 396.35000000000
  21
 272.07500000000
  97
1
 330

  75
0
  76
1
  98
1
  10
0.0
  20
0.0
   0
MTEXT
   5
2A8
 100
AcDbEntity
   8
LEVEL002
 370
15
  62
8
 100
AcDbMText
  10
 310.79999999995
  20
 28.250000000010
  30
0.0
  40
 3.0000000000000
  41
0.0
  71
5
  72
1
   1
\T1.000000;サイズ：
   7
GMM002
  44
 0.79999984000003
   0
MTEXT
   5
2AA
 100
AcDbEntity
   8
LEVEL002
 370
15
  62
8
 100
AcDbMText
  10
 309.29999999995
  20
 48.250000000010
  30
0.0
  40
 3.0000000000000
  41
0.0
  71
5
  72
1
   1
\T1.000000;縮尺：
   7
GMM002
  44
 0.79999984000003
   0
MTEXT
   5
2AC
 100
AcDbEntity
   8
LEVEL002
 370
15
  62
8
 100
AcDbMText
  10
 312.29999999995
  20
 68.250000000010
  30
0.0
  40
 3.0000000000000
  41
0.0
  71
5
  72
1
   1
\T1.000000;図面名称：
   7
GMM002
  44
 0.79999984000003
   0
MTEXT
   5
2AE
 100
AcDbEntity
   8
LEVEL002
 370
15
  62
8
 100
AcDbMText
  10
 363.79999999995
  20
 28.250000000010
  30
0.0
  40
 3.0000000000000
  41
0.0
  71
5
  72
1
   1
\T1.000000;ファイル名：
   7
GMM002
  44
 0.79999984000003
   0
MTEXT
   5
2B0
 100
AcDbEntity
   8
LEVEL002
 370
15
  62
8
 100
AcDbMText
  10
 362.29999999995
  20
 48.666666666680
  30
0.0
  40
 2.8000000000000
  41
0.0
  71
5
  72
1
   1
\T1.000000;作成日付：
   7
GMM003
  44
 0.79999984000003
   0
MTEXT
   5
2B2
 100
AcDbEntity
   8
LEVEL002
 370
15
  62
8
 100
AcDbMText
  10
 362.29999999995
  20
 42.000000000010
  30
0.0
  40
 2.8000000000000
  41
0.0
  71
5
  72
1
   1
\T1.000000;変更日付：
   7
GMM003
  44
 0.79999984000003
   0
MTEXT
   5
2B4
 100
AcDbEntity
   8
LEVEL002
 370
15
  62
8
 100
AcDbMText
  10
 329.49999999995
  20
 18.250000000010
  30
0.0
  40
 3.7500000000000
  41
0.0
  71
5
  72
1
   1
\T1.000000;Ａ３
   7
GMM002
  44
 0.79999984000003
   0
MTEXT
   5
2B6
 100
AcDbEntity
   8
LEVEL002
 370
15
  62
8
 100
AcDbMText
  10
 309.29999999995
  20
 213.00000000000
  30
0.0
  40
 3.0000000000000
  41
0.0
  71
5
  72
1
   1
\T1.000000;仕様：
   7
GMM002
  44
 0.79999984000003
   0
MTEXT
   5
2B8
 100
AcDbEntity
   8
LEVEL002
 370
15
  62
8
 100
AcDbMText
  10
 309.29999999995
  20
 233.00000000000
  30
0.0
  40
 3.0000000000000
  41
0.0
  71
5
  72
1
   1
\T1.000000;形式：
   7
GMM002
  44
 0.79999984000003
   0
MTEXT
   5
2BA
 100
AcDbEntity
   8
LEVEL002
 370
15
  62
8
 100
AcDbMText
  10
 310.79999999995
  20
 253.00000000000
  30
0.0
  40
 3.0000000000000
  41
0.0
  71
5
  72
1
   1
\T1.000000;商品名：
   7
GMM002
  44
 0.79999984000003
   0
MTEXT
   5
2BC
 100
AcDbEntity
   8
LEVEL002
 370
15
  62
8
 100
AcDbMText
  10
 346.89999999995
  20
 76.870803459012
  30
0.0
  40
 4.0000000000000
  41
0.0
  71
5
  72
1
   1
\T1.000000;　※本製品は予告無しに変更する事があります。
   7
GMM002
  44
 0.79999984000003
   0
MTEXT
   5
2BE
 100
AcDbEntity
   8
LEVEL002
 370
15
  62
8
 100
AcDbMText
  10
 354.49999999995
  20
 58.250000000010
  30
0.0
  40
 3.7500000000000
  41
0.0
  71
5
  72
1
   1
\T1.000000;断面図
   7
GMM002
  44
 0.79999984000003
   0
MTEXT
   5
2C0
 100
AcDbEntity
   8
LEVEL002
 370
15
  62
8
 100
AcDbMText
  10
 329.49999999995
  20
 38.250000000010
  30
0.0
  40
 3.7500000000000
  41
0.0
  71
5
  72
1
   1
\T1.000000;Ｓ＝１：１
   7
GMM002
  44
 0.79999984000003
   0
MTEXT
   5
2C2
 100
AcDbEntity
   8
LEVEL002
 370
15
  62
8
 100
AcDbMText
  10
 322.49999999995
  20
 244.50000000000
  30
0.0
  40
 4.5000000000000
  41
0.0
  71
7
  72
1
   1
\W0.888889;\T1.000000;　フロアー金具\W0.444444;\T1.000000;(\W0.888889;\T1.000000;真鍮タイプ\W0.444444;\T1.000000;)
   7
GMM004
  44
 0.79999984000003
   0
MTEXT
   5
2C4
 100
AcDbEntity
   8
LEVEL002
 370
15
  62
8
 100
AcDbMText
  10
 379.49999999995
  20
 20.083333333345
  30
0.0
  40
 2.5000000000000
  41
0.0
  71
5
  72
1
   1
\T1.000000;フロアー金具真鍮－１
   7
GMM002
  44
 0.79999984000003
   0
MTEXT
   5
2C6
 100
AcDbEntity
   8
LEVEL002
 370
15
  62
8
 100
AcDbMText
  10
 387.21508456075
  20
 42.000000000010
  30
0.0
  40
 3.0000000000000
  41
0.0
  71
5
  72
1
   1
\T1.000000;令和　　年　　月　　日
   7
GMM002
  44
 0.79999984000003
   0
MTEXT
   5
2C8
 100
AcDbEntity
   8
LEVEL002
 370
15
  62
8
 100
AcDbMText
  10
 387.21508456075
  20
 35.333333333345
  30
0.0
  40
 3.0000000000000
  41
0.0
  71
5
  72
1
   1
\T1.000000;令和　　年　　月　　日
   7
GMM002
  44
 0.79999984000003
   0
MTEXT
   5
2CA
 100
AcDbEntity
   8
LEVEL002
 370
15
  62
8
 100
AcDbMText
  10
 387.21508456075
  20
 48.666666666680
  30
0.0
  40
 3.0000000000000
  41
0.0
  71
5
  72
1
   1
\T1.000000;令和０５年０３月３０日
   7
GMM002
  44
 0.79999984000003
   0
MTEXT
   5
2CC
 100
AcDbEntity
   8
LEVEL002
 370
15
  62
8
 100
AcDbMText
  10
 319.49999999995
  20
 207.91666666670
  30
0.0
  40
 3.5000000000000
  41
0.0
  71
1
  72
1
   1
{\W0.500000;\T1.000000;･\W1.000000;\T1.000000;材質：真鍮}\P\P{\W0.500000;\T1.000000; \W1.000000;\T1.000000;仕上げ：磨き}
   7
GMM002
  44
 0.79999984000003
   0
MTEXT
   5
2CE
 100
AcDbEntity
   8
LEVEL001
 370
15
  62
8
 100
AcDbMText
  10
 15.799999999950
  20
 75.250000000010
  30
0.0
  40
 3.0000000000000
  41
0.0
  71
4
  72
1
   1
\W0.500000;\T1.000000; \W1.000000;\T1.000000;両切目地
   7
GMM002
  44
 0.79999984000003
   0
MTEXT
   5
2D0
 100
AcDbEntity
   8
LEVEL002
 370
15
  62
8
 100
AcDbMText
  10
 51.624999999950
  20
 75.250000000010
  30
0.0
  40
 3.0000000000000
  41
0.0
  71
5
  72
1
   1
\T1.000000;ＦＭＢ１
   7
GMM002
  44
 0.79999984000003
   0
MTEXT
   5
2D2
 100
AcDbEntity
   8
LEVEL001
 370
15
  62
8
 100
AcDbMText
  10
 79.949999999950
  20
 75.250000000010
  30
0.0
  40
 3.0000000000000
  41
0.0
  71
5
  72
1
   1
\W0.500000;\T1.000000;(\W1.000000;\T1.000000;廃盤予定\W0.500000;\T1.000000;)
   7
GMM002
  44
 0.79999984000003
   0
MTEXT
   5
2D4
 100
AcDbEntity
   8
LEVEL001
 370
15
  62
8
 100
AcDbMText
  10
 88.049999999950
  20
 75.250000000010
  30
0.0
  40
 3.0000000000000
  41
0.0
  71
4
  72
1
   1
\W0.500000;\T1.000000; \W1.000000;\T1.000000;両切目地
   7
GMM002
  44
 0.79999984000003
   0
MTEXT
   5
2D6
 100
AcDbEntity
   8
LEVEL001
 370
15
  62
8
 100
AcDbMText
  10
 152.19999999995
  20
 75.250000000010
  30
0.0
  40
 3.0000000000000
  41
0.0
  71
5
  72
1
   1
\W0.500000;\T1.000000;(\W1.000000;\T1.000000;廃盤予定\W0.500000;\T1.000000;)
   7
GMM002
  44
 0.79999984000003
   0
MTEXT
   5
2D8
 100
AcDbEntity
   8
LEVEL002
 370
15
  62
8
 100
AcDbMText
  10
 123.87499999995
  20
 75.250000000010
  30
0.0
  40
 3.0000000000000
  41
0.0
  71
5
  72
1
   1
\T1.000000;ＦＭＢ２
   7
GMM002
  44
 0.79999984000003
   0
MTEXT
   5
2DA
 100
AcDbEntity
   8
LEVEL001
 370
15
  62
8
 100
AcDbMText
  10
 224.44999999995
  20
 75.250000000010
  30
0.0
  40
 3.0000000000000
  41
0.0
  71
5
  72
1
   1
\W0.500000;\T1.000000;(\W1.000000;\T1.000000;廃盤予定\W0.500000;\T1.000000;)
   7
GMM002
  44
 0.79999984000003
   0
MTEXT
   5
2DC
 100
AcDbEntity
   8
LEVEL002
 370
15
  62
8
 100
AcDbMText
  10
 196.12499999995
  20
 75.250000000010
  30
0.0
  40
 3.0000000000000
  41
0.0
  71
5
  72
1
   1
\T1.000000;ＦＭＢ３
   7
GMM002
  44
 0.79999984000003
   0
MTEXT
   5
2DE
 100
AcDbEntity
   8
LEVEL001
 370
15
  62
8
 100
AcDbMText
  10
 160.29999999995
  20
 75.250000000010
  30
0.0
  40
 3.0000000000000
  41
0.0
  71
4
  72
1
   1
\W0.500000;\T1.000000; \W1.000000;\T1.000000;角切目地
   7
GMM002
  44
 0.79999984000003
   0
MTEXT
   5
2E0
 100
AcDbEntity
   8
LEVEL002
 370
15
  62
8
 100
AcDbMText
  10
 162.49999999995
  20
 68.416666666710
  30
0.0
  40
 2.0000000000000
  41
0.0
  71
1
  72
1
   3
{\W0.500000;\T1.000000;･\W1.000000;\T1.000000;定尺：４０００\W0.500000;\T1.000000;m/m}\P{\W0.500000;\T1.000000;･\W1.000000;\T1.000000;材質：真鍮}\P{\W0.500000;\T1.000000;･\W1.000000;\T1.000000;仕上：磨き（穴なし・穴付）\W0.500000;\T1.000000; \W1.0000
   1
00;\T1.000000;穴サイズ：下穴%%c４皿%%c８}\P\P{\W0.500000;\T1.000000;･\W1.000000;\T1.000000;長尺シート用}
   7
GMM002
  44
 0.79999984000003
   0
MTEXT
   5
2E2
 100
AcDbEntity
   8
LEVEL002
 370
15
  62
8
 100
AcDbMText
  10
 90.249999999950
  20
 68.416666666710
  30
0.0
  40
 2.0000000000000
  41
0.0
  71
1
  72
1
   3
{\W0.500000;\T1.000000;･\W1.000000;\T1.000000;定尺：４０００\W0.500000;\T1.000000;m/m}\P{\W0.500000;\T1.000000;･\W1.000000;\T1.000000;材質：真鍮}\P{\W0.500000;\T1.000000;･\W1.000000;\T1.000000;仕上：磨き（穴なし・穴付）\W0.500000;\T1.000000; \W1.0000
   1
00;\T1.000000;穴サイズ：下穴%%c４皿%%c８}\P\P{\W0.500000;\T1.000000;･\W1.000000;\T1.000000;長尺シート用}
   7
GMM002
  44
 0.79999984000003
   0
MTEXT
   5
2E4
 100
AcDbEntity
   8
LEVEL002
 370
15
  62
8
 100
AcDbMText
  10
 17.999999999950
  20
 68.416666666710
  30
0.0
  40
 2.0000000000000
  41
0.0
  71
1
  72
1
   3
{\W0.500000;\T1.000000;･\W1.000000;\T1.000000;定尺：４０００\W0.500000;\T1.000000;m/m}\P{\W0.500000;\T1.000000;･\W1.000000;\T1.000000;材質：真鍮}\P{\W0.500000;\T1.000000;･\W1.000000;\T1.000000;仕上：磨き（穴なし・穴付）\W0.500000;\T1.000000; \W1.0000
   1
00;\T1.000000;穴サイズ：下穴%%c４皿%%c８}\P\P{\W0.500000;\T1.000000;･\W1.000000;\T1.000000;長尺シート用}
   7
GMM002
  44
 0.79999984000003
   0
ARC
   5
2E5
 100
AcDbEntity
   8
LEVEL001
 370
30
   6
CONTINUOUS
  62
7
 100
AcDbCircle
  10
 41.752378886720
  20
 33.113174572461
  30
0.0
  40
 0.50000000000000
 100
AcDbArc
  50
 180.00000000000
  51
 270.00000000000
   0
POINT
   5
2E6
 100
AcDbEntity
   8
LEVEL001
 100
AcDbPoint
  62
7
  10
 41.252378886720
  20
 32.613174572461
  30
0.0
   0
ARC
   5
2E7
 100
AcDbEntity
   8
LEVEL001
 370
30
   6
CONTINUOUS
  62
7
 100
AcDbCircle
  10
 55.752378886720
  20
 33.113174572461
  30
0.0
  40
 0.50000000000000
 100
AcDbArc
  50
 270.00000000000
  51
0.0
   0
POINT
   5
2E8
 100
AcDbEntity
   8
LEVEL001
 100
AcDbPoint
  62
7
  10
 56.252378886720
  20
 32.613174572461
  30
0.0
   0
LINE
   5
2E9
 100
AcDbEntity
   8
LEVEL001
 370
30
 100
AcDbLine
   6
CONTINUOUS
  62
7
  10
 55.752378886720
  20
 32.613174572461
  30
0.0
  11
 41.752378886720
  21
 32.613174572461
  31
0.0
   0
LINE
   5
2EA
 100
AcDbEntity
   8
LEVEL001
 370
30
 100
AcDbLine
   6
CONTINUOUS
  62
7
  10
 41.252378886720
  20
 33.113174572461
  30
0.0
  11
 41.252378886720
  21
 34.863174572461
  31
0.0
   0
ARC
   5
2EB
 100
AcDbEntity
   8
LEVEL001
 370
30
   6
CONTINUOUS
  62
7
 100
AcDbCircle
  10
 41.752378886720
  20
 34.863174572461
  30
0.0
  40
 0.50000000000000
 100
AcDbArc
  50
 126.86989764585
  51
 179.99999999999
   0
POINT
   5
2EC
 100
AcDbEntity
   8
LEVEL001
 100
AcDbPoint
  62
7
  10
 41.252378886720
  20
 35.113174572461
  30
0.0
   0
LINE
   5
2ED
 100
AcDbEntity
   8
LEVEL001
 370
30
 100
AcDbLine
   6
CONTINUOUS
  62
7
  10
 56.252378886720
  20
 34.863174572461
  30
0.0
  11
 56.252378886720
  21
 33.113174572461
  31
0.0
   0
LINE
   5
2EE
 100
AcDbEntity
   8
LEVEL001
 370
30
 100
AcDbLine
   6
CONTINUOUS
  62
7
  10
 43.119045553387
  20
 36.513174572461
  30
0.0
  11
 41.452378886720
  21
 35.263174572461
  31
0.0
   0
ARC
   5
2EF
 100
AcDbEntity
   8
LEVEL001
 370
30
   6
CONTINUOUS
  62
7
 100
AcDbCircle
  10
 43.419045553387
  20
 36.113174572461
  30
0.0
  40
 0.50000000000000
 100
AcDbArc
  50
 90.000000000000
  51
 126.86989764585
   0
POINT
   5
2F0
 100
AcDbEntity
   8
LEVEL001
 100
AcDbPoint
  62
7
  10
 43.252378886720
  20
 36.613174572461
  30
0.0
   0
LINE
   5
2F1
 100
AcDbEntity
   8
LEVEL001
 370
30
 100
AcDbLine
   6
CONTINUOUS
  62
7
  10
 54.085712220054
  20
 36.613174572461
  30
0.0
  11
 43.419045553387
  21
 36.613174572461
  31
0.0
   0
ARC
   5
2F2
 100
AcDbEntity
   8
LEVEL001
 370
30
   6
CONTINUOUS
  62
7
 100
AcDbCircle
  10
 54.085712220054
  20
 36.113174572461
  30
0.0
  40
 0.50000000000000
 100
AcDbArc
  50
 53.130102354130
  51
 90.000000000000
   0
POINT
   5
2F3
 100
AcDbEntity
   8
LEVEL001
 100
AcDbPoint
  62
7
  10
 54.252378886720
  20
 36.613174572461
  30
0.0
   0
LINE
   5
2F4
 100
AcDbEntity
   8
LEVEL001
 370
30
 100
AcDbLine
   6
CONTINUOUS
  62
7
  10
 56.052378886720
  20
 35.263174572461
  30
0.0
  11
 54.385712220054
  21
 36.513174572461
  31
0.0
   0
ARC
   5
2F5
 100
AcDbEntity
   8
LEVEL001
 370
30
   6
CONTINUOUS
  62
7
 100
AcDbCircle
  10
 55.752378886720
  20
 34.863174572461
  30
0.0
  40
 0.50000000000000
 100
AcDbArc
  50
0.0
  51
 53.130102354130
   0
POINT
   5
2F6
 100
AcDbEntity
   8
LEVEL001
 100
AcDbPoint
  62
7
  10
 56.252378886720
  20
 35.113174572461
  30
0.0
   0
DIMENSION
   5
2F7
 100
AcDbEntity
   8
LEVEL001
 370
15
   6
CONTINUOUS
  62
8
 100
AcDbDimension
   2
*D1
  10
 62.538349678273
  20
 35.113174572461
  30
0.0
  11
 62.538349678273
  21
 31.062779523900
  31
0.0
  70
128
   3
GMM001
 100
AcDbAlignedDimension
  13
 56.252378886720
  23
 32.613174572461
  33
0.0
  14
 56.252378886720
  24
 35.113174572461
  34
0.0
  50
 90.000000000000
 100
AcDbRotatedDimension
   0
DIMENSION
   5
2F8
 100
AcDbEntity
   8
LEVEL001
 370
15
   6
CONTINUOUS
  62
8
 100
AcDbDimension
   2
*D2
  10
 62.538349678273
  20
 36.613174572461
  30
0.0
  11
 62.538349678273
  21
 37.157201656885
  31
0.0
  70
128
   3
GMM002
 100
AcDbAlignedDimension
  13
 56.252378886720
  23
 35.113174572461
  33
0.0
  14
 54.252378886720
  24
 36.613174572461
  34
0.0
  50
 90.000000000000
 100
AcDbRotatedDimension
   0
DIMENSION
   5
2F9
 100
AcDbEntity
   8
LEVEL001
 370
15
   6
CONTINUOUS
  62
8
 100
AcDbDimension
   2
*D3
  10
 68.499259986181
  20
 36.613174572461
  30
0.0
  11
 68.499259986181
  21
 34.613174572461
  31
0.0
  70
0
   3
GMM003
 100
AcDbAlignedDimension
  13
 62.538349678273
  23
 32.613174572461
  33
0.0
  14
 62.538349678273
  24
 36.613174572461
  34
0.0
  50
 90.000000000000
 100
AcDbRotatedDimension
   0
DIMENSION
   5
2FA
 100
AcDbEntity
   8
LEVEL001
 370
15
   6
CONTINUOUS
  62
8
 100
AcDbDimension
   2
*D4
  10
 43.252378886720
  20
 43.613174572461
  30
0.0
  11
 39.648540848412
  21
 43.613174572461
  31
0.0
  70
128
   3
GMM004
 100
AcDbAlignedDimension
  13
 41.252378886720
  23
 35.113174572461
  33
0.0
  14
 43.252378886720
  24
 36.613174572461
  34
0.0
 100
AcDbRotatedDimension
   0
DIMENSION
   5
2FB
 100
AcDbEntity
   8
LEVEL001
 370
15
   6
CONTINUOUS
  62
8
 100
AcDbDimension
   2
*D5
  10
 54.252378886720
  20
 43.613174572461
  30
0.0
  11
 48.752378886720
  21
 43.613174572461
  31
0.0
  70
0
   3
GMM003
 100
AcDbAlignedDimension
  13
 43.252378886720
  23
 36.613174572461
  33
0.0
  14
 54.252378886720
  24
 36.613174572461
  34
0.0
 100
AcDbRotatedDimension
   0
DIMENSION
   5
2FC
 100
AcDbEntity
   8
LEVEL001
 370
15
   6
CONTINUOUS
  62
8
 100
AcDbDimension
   2
*D6
  10
 56.252378886720
  20
 43.613174572461
  30
0.0
  11
 58.335086271845
  21
 43.613174572461
  31
0.0
  70
128
   3
GMM005
 100
AcDbAlignedDimension
  13
 54.252378886720
  23
 36.613174572461
  33
0.0
  14
 56.252378886720
  24
 35.113174572461
  34
0.0
 100
AcDbRotatedDimension
   0
DIMENSION
   5
2FD
 100
AcDbEntity
   8
LEVEL001
 370
15
   6
CONTINUOUS
  62
8
 100
AcDbDimension
   2
*D7
  10
 56.252378886720
  20
 24.343052801913
  30
0.0
  11
 48.752378886720
  21
 24.343052801913
  31
0.0
  70
0
   3
GMM003
 100
AcDbAlignedDimension
  13
 41.252378886720
  23
 32.613174572461
  33
0.0
  14
 56.252378886720
  24
 32.613174572461
  34
0.0
 100
AcDbRotatedDimension
   0
LINE
   5
2FE
 100
AcDbEntity
   8
LEVEL001
 370
15
 100
AcDbLine
   6
DASHDOT
  62
8
  10
 48.752378886720
  20
 30.239121264321
  30
0.0
  11
 48.752378886720
  21
 38.711902729605
  31
0.0
   0
POINT
   5
2FF
 100
AcDbEntity
   8
LEVEL001
 100
AcDbPoint
  62
7
  10
 116.37499999995
  20
 35.113174572461
  30
0.0
   0
POINT
   5
300
 100
AcDbEntity
   8
LEVEL001
 100
AcDbPoint
  62
7
  10
 131.37499999995
  20
 35.113174572461
  30
0.0
   0
DIMENSION
   5
301
 100
AcDbEntity
   8
LEVEL001
 370
15
   6
CONTINUOUS
  62
8
 100
AcDbDimension
   2
*D8
  10
 131.37499999995
  20
 24.343052801913
  30
0.0
  11
 123.87499999995
  21
 24.343052801913
  31
0.0
  70
0
   3
GMM003
 100
AcDbAlignedDimension
  13
 116.37499999995
  23
 30.613174572461
  33
0.0
  14
 131.37499999995
  24
 30.613174572461
  34
0.0
 100
AcDbRotatedDimension
   0
ARC
   5
302
 100
AcDbEntity
   8
LEVEL001
 370
30
   6
CONTINUOUS
  62
7
 100
AcDbCircle
  10
 116.87499999995
  20
 31.113174572461
  30
0.0
  40
 0.50000000000000
 100
AcDbArc
  50
 180.00000000000
  51
 270.00000000000
   0
POINT
   5
303
 100
AcDbEntity
   8
LEVEL001
 100
AcDbPoint
  62
7
  10
 116.37499999995
  20
 30.613174572461
  30
0.0
   0
LINE
   5
304
 100
AcDbEntity
   8
LEVEL001
 370
30
 100
AcDbLine
   6
CONTINUOUS
  62
7
  10
 130.87499999995
  20
 30.613174572461
  30
0.0
  11
 116.87499999995
  21
 30.613174572461
  31
0.0
   0
ARC
   5
305
 100
AcDbEntity
   8
LEVEL001
 370
30
   6
CONTINUOUS
  62
7
 100
AcDbCircle
  10
 130.87499999995
  20
 31.113174572461
  30
0.0
  40
 0.50000000000000
 100
AcDbArc
  50
 270.00000000000
  51
0.0
   0
POINT
   5
306
 100
AcDbEntity
   8
LEVEL001
 100
AcDbPoint
  62
7
  10
 131.37499999995
  20
 30.613174572461
  30
0.0
   0
LINE
   5
307
 100
AcDbEntity
   8
LEVEL001
 370
15
 100
AcDbLine
   6
DASHDOT
  62
8
  10
 123.87499999995
  20
 29.838175862029
  30
0.0
  11
 123.87499999995
  21
 37.557385212605
  31
0.0
   0
DIMENSION
   5
308
 100
AcDbEntity
   8
LEVEL001
 370
15
   6
CONTINUOUS
  62
8
 100
AcDbDimension
   2
*D9
  10
 137.66097079150
  20
 35.113174572461
  30
0.0
  11
 137.66097079150
  21
 29.062779523900
  31
0.0
  70
128
   3
GMM001
 100
AcDbAlignedDimension
  13
 131.37499999995
  23
 30.613174572461
  33
0.0
  14
 131.37499999995
  24
 35.113174572461
  34
0.0
  50
 90.000000000000
 100
AcDbRotatedDimension
   0
DIMENSION
   5
309
 100
AcDbEntity
   8
LEVEL001
 370
15
   6
CONTINUOUS
  62
8
 100
AcDbDimension
   2
*D10
  10
 137.66097079150
  20
 37.113174572461
  30
0.0
  11
 137.66097079150
  21
 37.657201656885
  31
0.0
  70
128
   3
GMM002
 100
AcDbAlignedDimension
  13
 131.37499999995
  23
 35.113174572461
  33
0.0
  14
 129.37499999995
  24
 37.113174572461
  34
0.0
  50
 90.000000000000
 100
AcDbRotatedDimension
   0
DIMENSION
   5
30A
 100
AcDbEntity
   8
LEVEL001
 370
15
   6
CONTINUOUS
  62
8
 100
AcDbDimension
   2
*D11
  10
 143.62188109941
  20
 37.113174572461
  30
0.0
  11
 143.62188109941
  21
 33.863174572461
  31
0.0
  70
0
   3
GMM003
 100
AcDbAlignedDimension
  13
 137.66097079150
  23
 30.613174572461
  33
0.0
  14
 137.66097079150
  24
 37.113174572461
  34
0.0
  50
 90.000000000000
 100
AcDbRotatedDimension
   0
ARC
   5
30B
 100
AcDbEntity
   8
LEVEL001
 370
30
   6
CONTINUOUS
  62
7
 100
AcDbCircle
  10
 116.87499999995
  20
 34.906067791274
  30
0.0
  40
 0.50000000000000
 100
AcDbArc
  50
 135.00000000005
  51
 179.99999999996
   0
POINT
   5
30C
 100
AcDbEntity
   8
LEVEL001
 100
AcDbPoint
  62
7
  10
 116.37499999995
  20
 35.113174572461
  30
0.0
   0
LINE
   5
30D
 100
AcDbEntity
   8
LEVEL001
 370
30
 100
AcDbLine
   6
CONTINUOUS
  62
7
  10
 116.37499999995
  20
 31.113174572461
  30
0.0
  11
 116.37499999995
  21
 34.906067791274
  31
0.0
   0
LINE
   5
30E
 100
AcDbEntity
   8
LEVEL001
 370
30
 100
AcDbLine
   6
CONTINUOUS
  62
7
  10
 116.52144660936
  20
 35.259621181867
  30
0.0
  11
 118.22855339054
  21
 36.966727963054
  31
0.0
   0
ARC
   5
30F
 100
AcDbEntity
   8
LEVEL001
 370
30
   6
CONTINUOUS
  62
7
 100
AcDbCircle
  10
 118.58210678114
  20
 36.613174572461
  30
0.0
  40
 0.50000000000000
 100
AcDbArc
  50
 90.000000000000
  51
 134.99999999999
   0
POINT
   5
310
 100
AcDbEntity
   8
LEVEL001
 100
AcDbPoint
  62
7
  10
 118.37499999995
  20
 37.113174572461
  30
0.0
   0
LINE
   5
311
 100
AcDbEntity
   8
LEVEL001
 370
30
 100
AcDbLine
   6
CONTINUOUS
  62
7
  10
 129.16789321876
  20
 37.113174572461
  30
0.0
  11
 118.58210678114
  21
 37.113174572461
  31
0.0
   0
ARC
   5
312
 100
AcDbEntity
   8
LEVEL001
 370
30
   6
CONTINUOUS
  62
7
 100
AcDbCircle
  10
 129.16789321876
  20
 36.613174572461
  30
0.0
  40
 0.50000000000000
 100
AcDbArc
  50
 44.999999999985
  51
 90.000000000000
   0
POINT
   5
313
 100
AcDbEntity
   8
LEVEL001
 100
AcDbPoint
  62
7
  10
 129.37499999995
  20
 37.113174572461
  30
0.0
   0
LINE
   5
314
 100
AcDbEntity
   8
LEVEL001
 370
30
 100
AcDbLine
   6
CONTINUOUS
  62
7
  10
 129.52144660936
  20
 36.966727963054
  30
0.0
  11
 131.22855339054
  21
 35.259621181867
  31
0.0
   0
ARC
   5
315
 100
AcDbEntity
   8
LEVEL001
 370
30
   6
CONTINUOUS
  62
7
 100
AcDbCircle
  10
 130.87499999995
  20
 34.906067791274
  30
0.0
  40
 0.50000000000000
 100
AcDbArc
  50
0.0
  51
 44.999999999990
   0
POINT
   5
316
 100
AcDbEntity
   8
LEVEL001
 100
AcDbPoint
  62
7
  10
 131.37499999995
  20
 35.113174572461
  30
0.0
   0
LINE
   5
317
 100
AcDbEntity
   8
LEVEL001
 370
30
 100
AcDbLine
   6
CONTINUOUS
  62
7
  10
 131.37499999995
  20
 34.906067791274
  30
0.0
  11
 131.37499999995
  21
 31.113174572461
  31
0.0
   0
DIMENSION
   5
318
 100
AcDbEntity
   8
LEVEL001
 370
15
   6
CONTINUOUS
  62
8
 100
AcDbDimension
   2
*D12
  10
 118.37499999995
  20
 43.613174572461
  30
0.0
  11
 114.77116196164
  21
 43.613174572461
  31
0.0
  70
128
   3
GMM004
 100
AcDbAlignedDimension
  13
 116.37499999995
  23
 35.113174572461
  33
0.0
  14
 118.37499999995
  24
 36.613174572461
  34
0.0
 100
AcDbRotatedDimension
   0
DIMENSION
   5
319
 100
AcDbEntity
   8
LEVEL001
 370
15
   6
CONTINUOUS
  62
8
 100
AcDbDimension
   2
*D13
  10
 129.37499999995
  20
 43.613174572461
  30
0.0
  11
 123.87499999995
  21
 43.613174572461
  31
0.0
  70
0
   3
GMM003
 100
AcDbAlignedDimension
  13
 118.37499999995
  23
 36.613174572461
  33
0.0
  14
 129.37499999995
  24
 36.613174572461
  34
0.0
 100
AcDbRotatedDimension
   0
DIMENSION
   5
31A
 100
AcDbEntity
   8
LEVEL001
 370
15
   6
CONTINUOUS
  62
8
 100
AcDbDimension
   2
*D14
  10
 131.37499999995
  20
 43.613174572461
  30
0.0
  11
 133.45770738507
  21
 43.613174572461
  31
0.0
  70
128
   3
GMM005
 100
AcDbAlignedDimension
  13
 129.37499999995
  23
 36.613174572461
  33
0.0
  14
 131.37499999995
  24
 35.113174572461
  34
0.0
 100
AcDbRotatedDimension
   0
DIMENSION
   5
31B
 100
AcDbEntity
   8
LEVEL001
 370
15
   6
CONTINUOUS
  62
8
 100
AcDbDimension
   2
*D15
  10
 204.16049764625
  20
 27.908911901580
  30
0.0
  11
 202.66049764625
  21
 27.908911901580
  31
0.0
  70
0
   3
GMM003
 100
AcDbAlignedDimension
  13
 201.16049764625
  23
 34.138664120515
  33
0.0
  14
 204.16049764625
  24
 34.138664120515
  34
0.0
 100
AcDbRotatedDimension
   0
DIMENSION
   5
31C
 100
AcDbEntity
   8
LEVEL001
 370
15
   6
CONTINUOUS
  62
8
 100
AcDbDimension
   2
*D16
  10
 204.16049764625
  20
 21.838880736240
  30
0.0
  11
 194.16049764625
  21
 21.838880736240
  31
0.0
  70
0
   3
GMM003
 100
AcDbAlignedDimension
  13
 184.16049764625
  23
 34.138664120515
  33
0.0
  14
 204.16049764625
  24
 27.908911901580
  34
0.0
 100
AcDbRotatedDimension
   0
DIMENSION
   5
31D
 100
AcDbEntity
   8
LEVEL001
 370
15
   6
CONTINUOUS
  62
8
 100
AcDbDimension
   2
*D17
  10
 179.94816806575
  20
 36.638664120515
  30
0.0
  11
 179.94816806575
  21
 32.168710193915
  31
0.0
  70
128
   3
GMM006
 100
AcDbAlignedDimension
  13
 184.16049764625
  23
 34.138664120515
  33
0.0
  14
 184.16049764625
  24
 36.638664120515
  34
0.0
  50
 90.000000000000
 100
AcDbRotatedDimension
   0
DIMENSION
   5
31E
 100
AcDbEntity
   8
LEVEL001
 370
15
   6
CONTINUOUS
  62
8
 100
AcDbDimension
   2
*D18
  10
 179.94816806575
  20
 41.138664120515
  30
0.0
  11
 179.94816806575
  21
 42.730670650638
  31
0.0
  70
128
   3
GMM007
 100
AcDbAlignedDimension
  13
 184.16049764625
  23
 36.638664120515
  33
0.0
  14
 192.16049764625
  24
 41.138664120515
  34
0.0
  50
 90.000000000000
 100
AcDbRotatedDimension
   0
DIMENSION
   5
31F
 100
AcDbEntity
   8
LEVEL001
 370
15
   6
CONTINUOUS
  62
8
 100
AcDbDimension
   2
*D19
  10
 209.54487044448
  20
 41.138664120515
  30
0.0
  11
 209.54487044448
  21
 37.638664120515
  31
0.0
  70
0
   3
GMM003
 100
AcDbAlignedDimension
  13
 204.16049764625
  23
 34.138664120515
  33
0.0
  14
 204.16049764625
  24
 41.138664120515
  34
0.0
  50
 90.000000000000
 100
AcDbRotatedDimension
   0
DIMENSION
   5
320
 100
AcDbEntity
   8
LEVEL001
 370
15
   6
CONTINUOUS
  62
8
 100
AcDbDimension
   2
*D20
  10
 204.16049764625
  20
 46.535483647143
  30
0.0
  11
 198.16049764625
  21
 46.535483647143
  31
0.0
  70
0
   3
GMM003
 100
AcDbAlignedDimension
  13
 192.16049764625
  23
 41.138664120515
  33
0.0
  14
 204.16049764625
  24
 41.138664120515
  34
0.0
 100
AcDbRotatedDimension
   0
LINE
   5
321
 100
AcDbEntity
   8
LEVEL001
 370
15
 100
AcDbLine
   6
DASHDOT
  62
8
  10
 51.624999999828
  20
 103.87796036964
  30
0.0
  11
 51.624999999828
  21
 114.87203963048
  31
0.0
   0
LINE
   5
322
 100
AcDbEntity
   8
LEVEL001
 370
15
 100
AcDbLine
   6
DASHDOT
  62
8
  10
 42.508465283532
  20
 109.37500000006
  30
0.0
  11
 60.741534716125
  21
 109.37500000006
  31
0.0
   0
LWPOLYLINE
   5
323
 100
AcDbEntity
   8
LEVEL001
 370
30
   6
CONTINUOUS
  62
7
 100
AcDbPolyline
  90
4
  70
1
  10
 44.124999999828
  20
 107.87500000006
  10
 59.124999999828
  20
 107.87500000006
  10
 59.124999999828
  20
 110.87500000006
  10
 44.124999999828
  20
 110.87500000006
   0
DIMENSION
   5
324
 100
AcDbEntity
   8
LEVEL001
 370
15
   6
CONTINUOUS
  62
8
 100
AcDbDimension
   2
*D21
  10
 65.774117067367
  20
 110.87500000006
  30
0.0
  11
 65.774117067367
  21
 107.41290710649
  31
0.0
  70
128
   3
GMM008
 100
AcDbAlignedDimension
  13
 59.124999999828
  23
 107.87500000006
  33
0.0
  14
 59.124999999828
  24
 110.87500000006
  34
0.0
  50
 90.000000000000
 100
AcDbRotatedDimension
   0
DIMENSION
   5
325
 100
AcDbEntity
   8
LEVEL001
 370
15
   6
CONTINUOUS
  62
8
 100
AcDbDimension
   2
*D22
  10
 59.124999999828
  20
 97.804833107029
  30
0.0
  11
 51.624999999828
  21
 97.804833107029
  31
0.0
  70
0
   3
GMM003
 100
AcDbAlignedDimension
  13
 44.124999999828
  23
 107.87500000006
  33
0.0
  14
 59.124999999828
  24
 107.87500000006
  34
0.0
 100
AcDbRotatedDimension
   0
MTEXT
   5
327
 100
AcDbEntity
   8
LEVEL002
 370
15
  62
8
 100
AcDbMText
  10
 17.999999999950
  20
 136.66666666671
  30
0.0
  40
 2.0000000000000
  41
0.0
  71
1
  72
1
   3
{\W0.500000;\T1.000000;･\W1.000000;\T1.000000;定尺：４０００\W0.500000;\T1.000000;m/m}\P{\W0.500000;\T1.000000;･\W1.000000;\T1.000000;材質：真鍮}\P{\W0.500000;\T1.000000;･\W1.000000;\T1.000000;仕上：磨き}\P{\W1.000000;\T1.000000;　　　（穴なし・穴付
   1
）\W0.500000;\T1.000000; \W1.000000;\T1.000000;穴サイズ：下穴%%c４皿%%c８}\P\P{\W0.500000;\T1.000000;･\W1.000000;\T1.000000;長尺シート用}
   7
GMM002
  44
 0.79999984000003
   0
LINE
   5
328
 100
AcDbEntity
   8
LEVEL001
 370
15
 100
AcDbLine
   6
DASHDOT
  62
8
  10
 123.87499999988
  20
 103.87796036964
  30
0.0
  11
 123.87499999988
  21
 114.87203963048
  31
0.0
   0
LWPOLYLINE
   5
329
 100
AcDbEntity
   8
LEVEL001
 370
30
   6
CONTINUOUS
  62
7
 100
AcDbPolyline
  90
4
  70
1
  10
 113.87499999988
  20
 107.87500000006
  10
 133.87499999988
  20
 107.87500000006
  10
 133.87499999988
  20
 110.87500000006
  10
 113.87499999988
  20
 110.87500000006
   0
LINE
   5
32A
 100
AcDbEntity
   8
LEVEL001
 370
15
 100
AcDbLine
   6
DASHDOT
  62
8
  10
 112.43662448527
  20
 109.37500000006
  30
0.0
  11
 134.79857739364
  21
 109.37500000006
  31
0.0
   0
DIMENSION
   5
32B
 100
AcDbEntity
   8
LEVEL001
 370
15
   6
CONTINUOUS
  62
8
 100
AcDbDimension
   2
*D23
  10
 140.52411706742
  20
 110.87500000006
  30
0.0
  11
 140.52411706742
  21
 107.41290710649
  31
0.0
  70
128
   3
GMM008
 100
AcDbAlignedDimension
  13
 133.87499999988
  23
 107.87500000006
  33
0.0
  14
 133.87499999988
  24
 110.87500000006
  34
0.0
  50
 90.000000000000
 100
AcDbRotatedDimension
   0
DIMENSION
   5
32C
 100
AcDbEntity
   8
LEVEL001
 370
15
   6
CONTINUOUS
  62
8
 100
AcDbDimension
   2
*D24
  10
 133.87499999988
  20
 97.804833107029
  30
0.0
  11
 123.87499999988
  21
 97.804833107029
  31
0.0
  70
0
   3
GMM003
 100
AcDbAlignedDimension
  13
 113.87499999988
  23
 107.87500000006
  33
0.0
  14
 133.87499999988
  24
 107.87500000006
  34
0.0
 100
AcDbRotatedDimension
   0
MTEXT
   5
32E
 100
AcDbEntity
   8
LEVEL002
 370
15
  62
8
 100
AcDbMText
  10
 90.249999999950
  20
 136.66666666671
  30
0.0
  40
 2.0000000000000
  41
0.0
  71
1
  72
1
   3
{\W0.500000;\T1.000000;･\W1.000000;\T1.000000;定尺：４０００\W0.500000;\T1.000000;m/m}\P{\W0.500000;\T1.000000;･\W1.000000;\T1.000000;材質：真鍮}\P{\W0.500000;\T1.000000;･\W1.000000;\T1.000000;仕上：磨き}\P{\W1.000000;\T1.000000;　　　（穴なし・穴付
   1
）\W0.500000;\T1.000000; \W1.000000;\T1.000000;穴サイズ：下穴%%c４皿%%c８}\P\P{\W0.500000;\T1.000000;･\W1.000000;\T1.000000;長尺シート用}
   7
GMM002
  44
 0.79999984000003
   0
LINE
   5
32F
 100
AcDbEntity
   8
LEVEL001
 370
15
 100
AcDbLine
   6
DASHDOT
  62
8
  10
 196.12499999988
  20
 103.87796036964
  30
0.0
  11
 196.12499999988
  21
 114.87203963048
  31
0.0
   0
LWPOLYLINE
   5
330
 100
AcDbEntity
   8
LEVEL001
 370
30
   6
CONTINUOUS
  62
7
 100
AcDbPolyline
  90
4
  70
1
  10
 183.62499999988
  20
 107.87500000006
  10
 208.62499999988
  20
 107.87500000006
  10
 208.62499999988
  20
 110.87500000006
  10
 183.62499999988
  20
 110.87500000006
   0
DIMENSION
   5
331
 100
AcDbEntity
   8
LEVEL001
 370
15
   6
CONTINUOUS
  62
8
 100
AcDbDimension
   2
*D25
  10
 208.62499999988
  20
 97.804833107029
  30
0.0
  11
 196.12499999988
  21
 97.804833107029
  31
0.0
  70
0
   3
GMM003
 100
AcDbAlignedDimension
  13
 183.62499999988
  23
 107.87500000006
  33
0.0
  14
 208.62499999988
  24
 107.87500000006
  34
0.0
 100
AcDbRotatedDimension
   0
LINE
   5
332
 100
AcDbEntity
   8
LEVEL001
 370
15
 100
AcDbLine
   6
DASHDOT
  62
8
  10
 181.72772770134
  20
 109.37500000006
  30
0.0
  11
 210.20246358467
  21
 109.37500000006
  31
0.0
   0
DIMENSION
   5
333
 100
AcDbEntity
   8
LEVEL001
 370
15
   6
CONTINUOUS
  62
8
 100
AcDbDimension
   2
*D26
  10
 215.27411706742
  20
 110.87500000006
  30
0.0
  11
 215.27411706742
  21
 107.41290710649
  31
0.0
  70
128
   3
GMM008
 100
AcDbAlignedDimension
  13
 208.62499999988
  23
 107.87500000006
  33
0.0
  14
 208.62499999988
  24
 110.87500000006
  34
0.0
  50
 90.000000000000
 100
AcDbRotatedDimension
   0
MTEXT
   5
335
 100
AcDbEntity
   8
LEVEL002
 370
15
  62
8
 100
AcDbMText
  10
 162.49999999995
  20
 136.66666666671
  30
0.0
  40
 2.0000000000000
  41
0.0
  71
1
  72
1
   3
{\W0.500000;\T1.000000;･\W1.000000;\T1.000000;定尺：４０００\W0.500000;\T1.000000;m/m}\P{\W0.500000;\T1.000000;･\W1.000000;\T1.000000;材質：真鍮}\P{\W0.500000;\T1.000000;･\W1.000000;\T1.000000;仕上：磨き}\P{\W1.000000;\T1.000000;　　　（穴なし・穴付
   1
）\W0.500000;\T1.000000; \W1.000000;\T1.000000;穴サイズ：下穴%%c４皿%%c８}\P\P{\W0.500000;\T1.000000;･\W1.000000;\T1.000000;長尺シート用}
   7
GMM002
  44
 0.79999984000003
   0
LINE
   5
336
 100
AcDbEntity
   8
LEVEL001
 370
15
 100
AcDbLine
   6
DASHDOT
  62
8
  10
 268.37499999988
  20
 103.87796036964
  30
0.0
  11
 268.37499999988
  21
 114.87203963048
  31
0.0
   0
LWPOLYLINE
   5
337
 100
AcDbEntity
   8
LEVEL001
 370
30
   6
CONTINUOUS
  62
7
 100
AcDbPolyline
  90
4
  70
1
  10
 253.37499999988
  20
 107.87500000006
  10
 283.37499999988
  20
 107.87500000006
  10
 283.37499999988
  20
 110.87500000006
  10
 253.37499999988
  20
 110.87500000006
   0
LINE
   5
338
 100
AcDbEntity
   8
LEVEL001
 370
15
 100
AcDbLine
   6
DASHDOT
  62
8
  10
 251.41229422500
  20
 109.37500000006
  30
0.0
  11
 285.30342008613
  21
 109.37500000006
  31
0.0
   0
DIMENSION
   5
339
 100
AcDbEntity
   8
LEVEL001
 370
15
   6
CONTINUOUS
  62
8
 100
AcDbDimension
   2
*D27
  10
 283.37499999988
  20
 97.804833107029
  30
0.0
  11
 268.37499999988
  21
 97.804833107029
  31
0.0
  70
0
   3
GMM003
 100
AcDbAlignedDimension
  13
 253.37499999988
  23
 107.87500000006
  33
0.0
  14
 283.37499999988
  24
 107.87500000006
  34
0.0
 100
AcDbRotatedDimension
   0
DIMENSION
   5
33A
 100
AcDbEntity
   8
LEVEL001
 370
15
   6
CONTINUOUS
  62
8
 100
AcDbDimension
   2
*D28
  10
 290.02411706742
  20
 110.87500000006
  30
0.0
  11
 290.02411706742
  21
 107.41290710649
  31
0.0
  70
128
   3
GMM008
 100
AcDbAlignedDimension
  13
 283.37499999988
  23
 107.87500000006
  33
0.0
  14
 283.37499999988
  24
 110.87500000006
  34
0.0
  50
 90.000000000000
 100
AcDbRotatedDimension
   0
MTEXT
   5
33C
 100
AcDbEntity
   8
LEVEL002
 370
15
  62
8
 100
AcDbMText
  10
 234.74999999995
  20
 136.66666666671
  30
0.0
  40
 2.0000000000000
  41
0.0
  71
1
  72
1
   3
{\W0.500000;\T1.000000;･\W1.000000;\T1.000000;定尺：４０００\W0.500000;\T1.000000;m/m}\P{\W0.500000;\T1.000000;･\W1.000000;\T1.000000;材質：真鍮}\P{\W0.500000;\T1.000000;･\W1.000000;\T1.000000;仕上：磨き}\P{\W1.000000;\T1.000000;　　　（穴なし・穴付
   1
）\W0.500000;\T1.000000; \W1.000000;\T1.000000;穴サイズ：下穴%%c４皿%%c８}\P\P{\W0.500000;\T1.000000;･\W1.000000;\T1.000000;長尺シート用}
   7
GMM002
  44
 0.79999984000003
   0
MTEXT
   5
33E
 100
AcDbEntity
   8
LEVEL001
 370
15
  62
8
 100
AcDbMText
  10
 15.799999999950
  20
 143.50000000001
  30
0.0
  40
 3.0000000000000
  41
0.0
  71
4
  72
1
   1
\W0.500000;\T1.000000; \W1.000000;\T1.000000;床見切
   7
GMM002
  44
 0.79999984000003
   0
MTEXT
   5
340
 100
AcDbEntity
   8
LEVEL001
 370
15
  62
8
 100
AcDbMText
  10
 88.049999999950
  20
 143.50000000001
  30
0.0
  40
 3.0000000000000
  41
0.0
  71
4
  72
1
   1
\W0.500000;\T1.000000; \W1.000000;\T1.000000;床見切
   7
GMM002
  44
 0.79999984000003
   0
MTEXT
   5
342
 100
AcDbEntity
   8
LEVEL001
 370
15
  62
8
 100
AcDbMText
  10
 160.29999999995
  20
 143.50000000001
  30
0.0
  40
 3.0000000000000
  41
0.0
  71
4
  72
1
   1
\W0.500000;\T1.000000; \W1.000000;\T1.000000;床見切
   7
GMM002
  44
 0.79999984000003
   0
MTEXT
   5
344
 100
AcDbEntity
   8
LEVEL001
 370
15
  62
8
 100
AcDbMText
  10
 232.54999999995
  20
 143.50000000001
  30
0.0
  40
 3.0000000000000
  41
0.0
  71
4
  72
1
   1
\W0.500000;\T1.000000; \W1.000000;\T1.000000;床見切
   7
GMM002
  44
 0.79999984000003
   0
MTEXT
   5
346
 100
AcDbEntity
   8
LEVEL002
 370
15
  62
8
 100
AcDbMText
  10
 51.624999999950
  20
 143.50000000001
  30
0.0
  40
 3.0000000000000
  41
0.0
  71
5
  72
1
   1
\T1.000000;Ｂ３１５
   7
GMM002
  44
 0.79999984000003
   0
MTEXT
   5
348
 100
AcDbEntity
   8
LEVEL002
 370
15
  62
8
 100
AcDbMText
  10
 123.87499999995
  20
 143.50000000001
  30
0.0
  40
 3.0000000000000
  41
0.0
  71
5
  72
1
   1
\T1.000000;Ｂ３２０
   7
GMM002
  44
 0.79999984000003
   0
MTEXT
   5
34A
 100
AcDbEntity
   8
LEVEL002
 370
15
  62
8
 100
AcDbMText
  10
 196.12499999995
  20
 143.50000000001
  30
0.0
  40
 3.0000000000000
  41
0.0
  71
5
  72
1
   1
\T1.000000;Ｂ３２５
   7
GMM002
  44
 0.79999984000003
   0
MTEXT
   5
34C
 100
AcDbEntity
   8
LEVEL002
 370
15
  62
8
 100
AcDbMText
  10
 268.37499999995
  20
 143.50000000001
  30
0.0
  40
 3.0000000000000
  41
0.0
  71
5
  72
1
   1
\T1.000000;Ｂ３３０
   7
GMM002
  44
 0.79999984000003
   0
MTEXT
   5
34E
 100
AcDbEntity
   8
LEVEL002
 370
15
  62
8
 100
AcDbMText
  10
 51.624999999950
  20
 211.75000000000
  30
0.0
  40
 3.0000000000000
  41
0.0
  71
5
  72
1
   1
\T1.000000;ＢＭ２１
   7
GMM002
  44
 0.79999984000003
   0
MTEXT
   5
350
 100
AcDbEntity
   8
LEVEL001
 370
15
  62
8
 100
AcDbMText
  10
 15.799999999950
  20
 211.75000000000
  30
0.0
  40
 3.0000000000000
  41
0.0
  71
4
  72
1
   1
\W0.500000;\T1.000000; \W1.000000;\T1.000000;床見切
   7
GMM002
  44
 0.79999984000003
   0
MTEXT
   5
352
 100
AcDbEntity
   8
LEVEL001
 370
15
  62
8
 100
AcDbMText
  10
 79.949999999950
  20
 211.75000000000
  30
0.0
  40
 3.0000000000000
  41
0.0
  71
5
  72
1
   1
\W0.500000;\T1.000000;(\W1.000000;\T1.000000;廃盤予定\W0.500000;\T1.000000;)
   7
GMM002
  44
 0.79999984000003
   0
ARC
   5
353
 100
AcDbEntity
   8
LEVEL001
 370
30
   6
CONTINUOUS
  62
7
 100
AcDbCircle
  10
 59.365620043246
  20
 164.89733006871
  30
0.0
  40
 3.0000000000000
 100
AcDbArc
  50
 41.138051087524
  51
 89.325963102017
   0
LWPOLYLINE
   5
354
 100
AcDbEntity
   8
LEVEL001
 370
30
   6
CONTINUOUS
  62
7
 100
AcDbPolyline
  90
3
  70
0
  10
 56.374999999950
  20
 167.93272143920
  10
 56.624999999950
  20
 167.72976642238
  10
 56.874999999950
  20
 167.92683908626
   0
LINE
   5
355
 100
AcDbEntity
   8
LEVEL001
 370
30
 100
AcDbLine
   6
CONTINUOUS
  62
7
  10
 56.874999999950
  20
 167.92683908626
  30
0.0
  11
 59.400911718647
  21
 167.89712247781
  31
0.0
   0
LINE
   5
356
 100
AcDbEntity
   8
LEVEL001
 370
30
 100
AcDbLine
   6
CONTINUOUS
  62
7
  10
 44.624999999950
  20
 168.07095673332
  30
0.0
  11
 56.374999999950
  21
 167.93272143920
  31
0.0
   0
LINE
   5
357
 100
AcDbEntity
   8
LEVEL001
 370
15
 100
AcDbLine
   6
DASHDOT
  62
8
  10
 56.624999999950
  20
 166.79877498641
  30
0.0
  11
 56.624999999950
  21
 168.66075785835
  31
0.0
   0
LINE
   5
358
 100
AcDbEntity
   8
LEVEL001
 370
30
 100
AcDbLine
   6
CONTINUOUS
  62
7
  10
 42.624999999950
  20
 166.87095673332
  30
0.0
  11
 42.725767075341
  21
 168.49571702226
  31
0.0
   0
LINE
   5
359
 100
AcDbEntity
   8
LEVEL001
 370
30
 100
AcDbLine
   6
CONTINUOUS
  62
7
  10
 43.624999999950
  20
 166.87095673332
  30
0.0
  11
 43.524232924559
  21
 168.49571702226
  31
0.0
   0
ARC
   5
35A
 100
AcDbEntity
   8
LEVEL001
 370
30
   6
CONTINUOUS
  62
7
 100
AcDbCircle
  10
 43.124999999950
  20
 168.47095673332
  30
0.0
  40
 0.40000000000000
 100
AcDbArc
  50
 3.5489190033700
  51
 176.45108099663
   0
LINE
   5
35B
 100
AcDbEntity
   8
LEVEL001
 370
30
 100
AcDbLine
   6
CONTINUOUS
  62
7
  10
 61.624999999950
  20
 166.87095673332
  30
0.0
  11
 43.624999999950
  21
 166.87095673332
  31
0.0
   0
LWPOLYLINE
   5
35C
 100
AcDbEntity
   8
LEVEL001
 370
30
   6
CONTINUOUS
  62
7
 100
AcDbPolyline
  90
5
  70
0
  10
 42.624999999950
  20
 166.87095673332
  10
 41.624999999950
  20
 166.87095673332
  10
 41.624999999950
  20
 171.37095673332
  10
 44.624999999950
  20
 171.37095673332
  10
 44.624999999950
  20
 168.07095673332
   0
DIMENSION
   5
35D
 100
AcDbEntity
   8
LEVEL001
 370
15
   6
CONTINUOUS
  62
8
 100
AcDbDimension
   2
*D29
  10
 61.624999999950
  20
 158.87095673332
  30
0.0
  11
 51.624999999950
  21
 158.87095673332
  31
0.0
  70
0
   3
GMM003
 100
AcDbAlignedDimension
  13
 41.624999999950
  23
 166.87095673332
  33
0.0
  14
 61.624999999950
  24
 166.87095673332
  34
0.0
 100
AcDbRotatedDimension
   0
DIMENSION
   5
35E
 100
AcDbEntity
   8
LEVEL001
 370
15
   6
CONTINUOUS
  62
8
 100
AcDbDimension
   2
*D30
  10
 37.056492897299
  20
 171.37095673332
  30
0.0
  11
 37.056492897299
  21
 169.12095673332
  31
0.0
  70
0
   3
GMM003
 100
AcDbAlignedDimension
  13
 41.624999999950
  23
 166.87095673332
  33
0.0
  14
 41.624999999950
  24
 171.37095673332
  34
0.0
  50
 90.000000000000
 100
AcDbRotatedDimension
   0
DIMENSION
   5
35F
 100
AcDbEntity
   8
LEVEL001
 370
15
   6
CONTINUOUS
  62
8
 100
AcDbDimension
   2
*D31
  10
 66.439565930230
  20
 167.87095673332
  30
0.0
  11
 66.439565930230
  21
 164.72425137757
  31
0.0
  70
128
   3
GMM009
 100
AcDbAlignedDimension
  13
 61.624999999950
  23
 166.87095673332
  33
0.0
  14
 61.624999999950
  24
 167.87095673332
  34
0.0
  50
 90.000000000000
 100
AcDbRotatedDimension
   0
DIMENSION
   5
360
 100
AcDbEntity
   8
LEVEL001
 370
15
   6
CONTINUOUS
  62
8
 100
AcDbDimension
   2
*D32
  10
 44.624999999950
  20
 175.35142529140
  30
0.0
  11
 43.124999999950
  21
 175.35142529140
  31
0.0
  70
0
   3
GMM003
 100
AcDbAlignedDimension
  13
 41.624999999950
  23
 171.37095673332
  33
0.0
  14
 44.624999999950
  24
 171.37095673332
  34
0.0
 100
AcDbRotatedDimension
   0
DIMENSION
   5
361
 100
AcDbEntity
   8
LEVEL001
 370
15
   6
CONTINUOUS
  62
8
 100
AcDbDimension
   2
*D33
  10
 51.951157742878
  20
 171.37095673332
  30
0.0
  11
 51.951157742878
  21
 172.98627725889
  31
0.0
  70
128
   3
GMM010
 100
AcDbAlignedDimension
  13
 44.624999999950
  23
 168.07095673332
  33
0.0
  14
 44.624999999950
  24
 171.37095673332
  34
0.0
  50
 90.000000000000
 100
AcDbRotatedDimension
   0
MTEXT
   5
363
 100
AcDbEntity
   8
LEVEL002
 370
15
  62
8
 100
AcDbMText
  10
 17.999999999950
  20
 204.91666666670
  30
0.0
  40
 2.0000000000000
  41
0.0
  71
1
  72
1
   3
{\W0.500000;\T1.000000;･\W1.000000;\T1.000000;定尺：４０００\W0.500000;\T1.000000;m/m}\P{\W0.500000;\T1.000000;･\W1.000000;\T1.000000;材質：真鍮}\P{\W0.500000;\T1.000000;･\W1.000000;\T1.000000;仕上：磨き}\P{\W1.000000;\T1.000000;　　　（穴付）バカ穴%
   1
%c５＋%%c２\W0.500000;\T1.000000;.\W1.000000;\T1.000000;３}\P\P{\W0.500000;\T1.000000;･\W1.000000;\T1.000000;長尺シート用}
   7
GMM002
  44
 0.79999984000003
   0
LINE
   5
364
 100
AcDbEntity
   8
LEVEL002
 370
30
 100
AcDbLine
   6
CONTINUOUS
  62
7
  10
 67.703671696498
  20
 229.77546568171
  30
0.0
  11
 57.693571696498
  21
 229.77546568171
  31
0.0
   0
ARC
   5
365
 100
AcDbEntity
   8
LEVEL002
 370
30
   6
CONTINUOUS
  62
7
 100
AcDbCircle
  10
 33.086590592891
  20
 230.27220161785
  30
0.0
  40
 0.51164254526891
 100
AcDbArc
  50
 197.06396350811
  51
 283.72358772287
   0
ARC
   5
366
 100
AcDbEntity
   8
LEVEL002
 370
30
   6
CONTINUOUS
  62
7
 100
AcDbCircle
  10
 33.724066000989
  20
 230.46229985514
  30
0.0
  40
 1.1768491915639
 100
AcDbArc
  50
 164.67339607183
  51
 196.80444168331
   0
ARC
   5
367
 100
AcDbEntity
   8
LEVEL002
 370
30
   6
CONTINUOUS
  62
7
 100
AcDbCircle
  10
 33.589827537947
  20
 230.46016088666
  30
0.0
  40
 1.0486226670405
 100
AcDbArc
  50
 131.40649991887
  51
 162.62153726045
   0
ARC
   5
368
 100
AcDbEntity
   8
LEVEL002
 370
30
   6
CONTINUOUS
  62
7
 100
AcDbCircle
  10
 34.070572160989
  20
 229.94069444869
  30
0.0
  40
 1.7562865490451
 100
AcDbArc
  50
 107.55730185963
  51
 131.96117802352
   0
ARC
   5
369
 100
AcDbEntity
   8
LEVEL002
 370
30
   6
CONTINUOUS
  62
7
 100
AcDbCircle
  10
 34.390257936832
  20
 229.21931400788
  30
0.0
  40
 2.5419937284514
 100
AcDbArc
  50
 105.64198104212
  51
 109.52274828033
   0
LINE
   5
36A
 100
AcDbEntity
   8
LEVEL002
 370
30
 100
AcDbLine
   6
CONTINUOUS
  62
7
  10
 33.704871696498
  20
 231.66716568171
  30
0.0
  11
 42.594271696498
  21
 234.57316568171
  31
0.0
   0
LINE
   5
36B
 100
AcDbEntity
   8
LEVEL002
 370
30
 100
AcDbLine
   6
CONTINUOUS
  62
7
  10
 42.594271696498
  20
 234.57316568171
  30
0.0
  11
 66.053771696498
  21
 234.57346568171
  31
0.0
   0
ARC
   5
36C
 100
AcDbEntity
   8
LEVEL002
 370
30
   6
CONTINUOUS
  62
7
 100
AcDbCircle
  10
 66.104653212123
  20
 232.18420576984
  30
0.0
  40
 2.3898016350862
 100
AcDbArc
  50
 68.812664428368
  51
 91.219982595495
   0
ARC
   5
36D
 100
AcDbEntity
   8
LEVEL002
 370
30
   6
CONTINUOUS
  62
7
 100
AcDbCircle
  10
 66.556818376503
  20
 233.46444013279
  30
0.0
  40
 1.0335030607559
 100
AcDbArc
  50
 34.975135317087
  51
 66.533550597911
   0
ARC
   5
36E
 100
AcDbEntity
   8
LEVEL002
 370
30
   6
CONTINUOUS
  62
7
 100
AcDbCircle
  10
 66.569639203610
  20
 233.52284842204
  30
0.0
  40
 0.99034571378728
 100
AcDbArc
  50
 0.29605690446838
  51
 32.630765745827
   0
ARC
   5
36F
 100
AcDbEntity
   8
LEVEL002
 370
30
   6
CONTINUOUS
  62
7
 100
AcDbCircle
  10
 66.207308723320
  20
 233.47333777123
  30
0.0
  40
 1.3537656102927
 100
AcDbArc
  50
 359.88690837594
  51
 2.3126594031041
   0
ARC
   5
370
 100
AcDbEntity
   8
LEVEL002
 370
30
   6
CONTINUOUS
  62
7
 100
AcDbCircle
  10
 67.044640119093
  20
 233.48661179858
  30
0.0
  40
 0.51667770687790
 100
AcDbArc
  50
 272.59928208727
  51
 358.23141140099
   0
LINE
   5
371
 100
AcDbEntity
   8
LEVEL002
 370
30
 100
AcDbLine
   6
CONTINUOUS
  62
7
  10
 67.068071696498
  20
 232.97046568171
  30
0.0
  11
 42.935871696498
  21
 232.96356568171
  31
0.0
   0
LINE
   5
372
 100
AcDbEntity
   8
LEVEL002
 370
30
 100
AcDbLine
   6
CONTINUOUS
  62
7
  10
 42.935871696498
  20
 232.96356568171
  30
0.0
  11
 33.207971696498
  21
 229.77516568171
  31
0.0
   0
DIMENSION
   5
373
 100
AcDbEntity
   8
LEVEL001
 370
15
   6
CONTINUOUS
  62
8
 100
AcDbDimension
   2
*D34
  10
 67.659571696498
  20
 249.48346710863
  30
0.0
  11
 50.053771696498
  21
 249.48346710863
  31
0.0
  70
0
   3
GMM011
 100
AcDbAlignedDimension
  13
 32.447971696498
  23
 231.67902113878
  33
0.0
  14
 67.659571696498
  24
 233.47066568171
  34
0.0
 100
AcDbRotatedDimension
   0
DIMENSION
   5
374
 100
AcDbEntity
   8
LEVEL001
 370
15
   6
CONTINUOUS
  62
8
 100
AcDbDimension
   2
*D35
  10
 27.049368699393
  20
 234.57317897569
  30
0.0
  11
 27.049368699393
  21
 232.17432232870
  31
0.0
  70
0
   3
GMM012
 100
AcDbAlignedDimension
  13
 33.207971696498
  23
 229.77546568171
  33
0.0
  14
 42.594271696498
  24
 234.57317897569
  34
0.0
  50
 90.000000000000
 100
AcDbRotatedDimension
   0
DIMENSION
   5
375
 100
AcDbEntity
   8
LEVEL001
 370
15
   6
CONTINUOUS
  62
8
 100
AcDbDimension
   2
*D36
  10
 74.945731503140
  20
 232.97046568171
  30
0.0
  11
 74.945731503140
  21
 229.28033414861
  31
0.0
  70
128
   3
GMM013
 100
AcDbAlignedDimension
  13
 33.207971696498
  23
 229.77546568171
  33
0.0
  14
 67.068071696498
  24
 232.97046568171
  34
0.0
  50
 90.000000000000
 100
AcDbRotatedDimension
   0
DIMENSION
   5
376
 100
AcDbEntity
   8
LEVEL001
 370
15
   6
CONTINUOUS
  62
8
 100
AcDbDimension
   2
*D37
  10
 74.945731503140
  20
 234.57346568171
  30
0.0
  11
 74.945731503140
  21
 235.10940145806
  31
0.0
  70
128
   3
GMM014
 100
AcDbAlignedDimension
  13
 67.068071696498
  23
 232.97046568171
  33
0.0
  14
 66.053771696498
  24
 234.57346568171
  34
0.0
  50
 90.000000000000
 100
AcDbRotatedDimension
   0
MTEXT
   5
378
 100
AcDbEntity
   8
LEVEL002
 370
15
  62
8
 100
AcDbMText
  10
 17.999999999950
  20
 273.16666666670
  30
0.0
  40
 2.0000000000000
  41
0.0
  71
1
  72
1
   3
{\W0.500000;\T1.000000;･\W1.000000;\T1.000000;定尺：３６４０\W0.500000;\T1.000000;m/m}\P{\W0.500000;\T1.000000;･\W1.000000;\T1.000000;材質：真鍮}\P{\W0.500000;\T1.000000;･\W1.000000;\T1.000000;仕上：磨き}\P{\W1.000000;\T1.000000;　　　（穴なし・穴付
   1
）\W0.500000;\T1.000000; \W1.000000;\T1.000000;穴サイズ：下穴%%c５／皿%%c７}\P\P{\W0.500000;\T1.000000;･\W1.000000;\T1.000000;長尺シート／コンクリート}\P{\W0.500000;\T1.000000; \W1.000000;\T1.000000;石／木製用}
   7
GMM002
  44
 0.79999984000003
   0
MTEXT
   5
37A
 100
AcDbEntity
   8
LEVEL001
 370
15
  62
8
 100
AcDbMText
  10
 15.799999999950
  20
 280.00000000000
  30
0.0
  40
 3.0000000000000
  41
0.0
  71
4
  72
1
   1
\W0.500000;\T1.000000; \W1.000000;\T1.000000;床押え
   7
GMM002
  44
 0.79999984000003
   0
MTEXT
   5
37C
 100
AcDbEntity
   8
LEVEL001
 370
15
  62
8
 100
AcDbMText
  10
 79.949999999950
  20
 280.00000000000
  30
0.0
  40
 3.0000000000000
  41
0.0
  71
5
  72
1
   1
\W0.500000;\T1.000000;(\W1.000000;\T1.000000;取寄せ\W0.500000;\T1.000000;)
   7
GMM002
  44
 0.79999984000003
   0
MTEXT
   5
37E
 100
AcDbEntity
   8
LEVEL002
 370
15
  62
8
 100
AcDbMText
  10
 354.49999999995
  20
 226.75000000000
  30
0.0
  40
 4.0000000000000
  41
0.0
  71
2
  72
1
   1
{\T1.000000;　　　　　　　真鍮①}\P{\T1.000000;（床押え・床見切・両切目地・角切目地）}
   7
GMM002
  44
 0.79999984000003
   0
LWPOLYLINE
   5
37F
 100
AcDbEntity
   8
LEVEL001
 370
30
   6
CONTINUOUS
  62
7
 100
AcDbPolyline
  90
10
  70
1
  10
 184.16049764625
  20
 34.138664120515
  10
 184.16049764625
  20
 36.638664120515
  10
 192.16049764625
  20
 41.138664120515
  10
 204.16049764625
  20
 41.138664120515
  10
 204.16049764625
  20
 34.138664120515
  10
 201.16049764625
  20
 34.138664120515
  10
 201.16049764625
  20
 38.138664120515
  10
 192.94635089648
  20
 38.138664120515
  10
 187.16049764625
  20
 34.884121667262
  10
 187.16049764625
  20
 34.138664120515
   0
MTEXT
   5
381
 100
AcDbEntity
   8
LEVEL002
 370
15
  62
8
 100
AcDbMText
  10
 51.624999999950
  20
 280.00000000000
  30
0.0
  40
 3.0000000000000
  41
0.0
  71
5
  72
1
   1
\T1.000000;Ｂ３５
   7
GMM002
  44
 0.79999984000003
   0
ENDSEC
  0
SECTION
  2
OBJECTS
  0
DICTIONARY
  5
C
100
AcDbDictionary
  3
ACAD_GROUP
350
D
  3
ACAD_MLINESTYLE
350
1B
  3
DWGPROPS
350
1C
  0
DICTIONARY
  5
D
102
{ACAD_REACTORS
330
C
102
}
100
AcDbDictionary
  0
DICTIONARY
  5
1B
102
{ACAD_REACTORS
330
C
102
}
100
AcDbDictionary
  3
STANDARD
350
1D
  0
MLINESTYLE
  5
1D
102
{ACAD_REACTORS
330
1B
102
}
100
AcDbMlineStyle
  2
STANDARD
 70
     0
  3

 62
   256
 51
90.0
 52
90.0
 71
     2
 49
0.5
 62
   256
  6
BYLAYER
 49
-0.5
 62
   256
  6
BYLAYER
   0
XRECORD
   5
1C
 102
{ACAD_REACTORS
 330
C
 102
}
 330
C
 100
AcDbXrecord
 280
1
   1
DWGPROPS COOKIE
   2
 
   3
 
   4
 
   6
 
   7
00000000.DRW
   8
 
   9

 300
 = 
 301
 = 
 302
 = 
 303
 = 
 304
 = 
 305
 = 
 306
 = 
 307
 = 
 308
 = 
 309
 = 
  40
0.0
  41
 2460114.5000000
  42
 2460114.5000000
   1

  90
10
   0
ENDSEC
   0
EOF
