   0
SECTION
   2
HEADER
   9
$ACADVER
   1
AC1015
   9
$DWGCODEPAGE
   3
ANSI_932
   9
$LIMMIN
  10
0.0
  20
0.0
   9
$LIMMAX
  10
 1680.0000000000
  20
 1188.0000000000
   9
$EXTMIN
  10
0.0
  20
0.0
  30
0.0
   9
$EXTMAX
  10
 1680.0000000000
  20
 1188.0000000000
  30
0.0
   9
$LTSCALE
  40
 33.600000000000
   9
$HANDSEED
   5
47E
   0
ENDSEC
   0
SECTION
   2
TABLES
  0
TABLE
  2
VPORT
  5
8
100
AcDbSymbolTable
 70
     1
  0
VPORT
  5
47D
100
AcDbSymbolTableRecord
100
AcDbViewportTableRecord
  2
*ACTIVE
 70
     0
 10
0.0
 20
0.0
 11
1.0
 21
1.0
  12
 840.00000000000
  22
 594.00000000000
 13
0.0
 23
0.0
 14
1.0
 24
1.0
 15
0.0
 25
0.0
 16
0.0
 26
0.0
 36
1.0
 17
0.0
 27
0.0
 37
0.0
  40
 1680.0000000000
  41
 1.4787878787879
 42
50.0
 43
0.0
 44
0.0
 50
0.0
 51
0.0
 71
     0
 72
   100
 73
     1
 74
     1
 75
     0
 76
     0
 77
     0
 78
     0
  0
ENDTAB
  0
TABLE
  2
LTYPE
  5
5
100
AcDbSymbolTable
 70
    25
  0
LTYPE
  5
12
100
AcDbSymbolTableRecord
100
AcDbLinetypeTableRecord
  2
BYBLOCK
 70
     0
  3

 72
    65
 73
     0
 40
0.0
  0
LTYPE
  5
13
100
AcDbSymbolTableRecord
100
AcDbLinetypeTableRecord
  2
BYLAYER
 70
     0
  3

 72
    65
 73
     0
 40
0.0
  0
LTYPE
  5
14
100
AcDbSymbolTableRecord
100
AcDbLinetypeTableRecord
  2
CONTINUOUS
 70
     0
  3
Solid line
 72
    65
 73
     0
 40
0.0
  0
LTYPE
  5
20
100
AcDbSymbolTableRecord
100
AcDbLinetypeTableRecord
  2
BORDER
 70
     0
  3
__ __ . __ __ . __ __ . __ __ . __ __ . __ __ .
 72
    65
 73
     6
 40
1.75
 49
0.5
 74
     0
 49
-0.25
 74
     0
 49
0.5
 74
     0
 49
-0.25
 74
     0
 49
0.0
 74
     0
 49
-0.25
 74
     0
  0
LTYPE
  5
21
100
AcDbSymbolTableRecord
100
AcDbLinetypeTableRecord
  2
BORDER2
 70
     0
  3
__.__.__.__.__.__.__.__.__.__.__.__.__.__.__.__
 72
    65
 73
     6
 40
0.875
 49
0.25
 74
     0
 49
-0.125
 74
     0
 49
0.25
 74
     0
 49
-0.125
 74
     0
 49
0.0
 74
     0
 49
-0.125
 74
     0
  0
LTYPE
  5
22
100
AcDbSymbolTableRecord
100
AcDbLinetypeTableRecord
  2
BORDERX2
 70
     0
  3
____  ____  .  ____  ____  .  ____  ____  .  __
 72
    65
 73
     6
 40
3.5
 49
1.0
 74
     0
 49
-0.5
 74
     0
 49
1.0
 74
     0
 49
-0.5
 74
     0
 49
0.0
 74
     0
 49
-0.5
 74
     0
  0
LTYPE
  5
23
100
AcDbSymbolTableRecord
100
AcDbLinetypeTableRecord
  2
CENTER
 70
     0
  3
____ _ ____ _ ____ _ ____ _ ____ _ ____ _ ____ 
 72
    65
 73
     4
 40
2.0
 49
1.25
 74
     0
 49
-0.25
 74
     0
 49
0.25
 74
     0
 49
-0.25
 74
     0
  0
LTYPE
  5
24
100
AcDbSymbolTableRecord
100
AcDbLinetypeTableRecord
  2
CENTER2
 70
     0
  3
___ _ ___ _ ___ _ ___ _ ___ _ ___ _ ___ _ ___ _
 72
    65
 73
     4
 40
1.125
 49
0.75
 74
     0
 49
-0.125
 74
     0
 49
0.125
 74
     0
 49
-0.125
 74
     0
  0
LTYPE
  5
25
100
AcDbSymbolTableRecord
100
AcDbLinetypeTableRecord
  2
CENTERX2
 70
     0
  3
________  __  ________  __  ________  __  _____
 72
    65
 73
     4
 40
4.0
 49
2.5
 74
     0
 49
-0.5
 74
     0
 49
0.5
 74
     0
 49
-0.5
 74
     0
  0
LTYPE
  5
26
100
AcDbSymbolTableRecord
100
AcDbLinetypeTableRecord
  2
DASHDOT
 70
     0
  3
__ . __ . __ . __ . __ . __ . __ . __ . __ . __
 72
    65
 73
     4
 40
1.0
 49
0.5
 74
     0
 49
-0.25
 74
     0
 49
0.0
 74
     0
 49
-0.25
 74
     0
  0
LTYPE
  5
27
100
AcDbSymbolTableRecord
100
AcDbLinetypeTableRecord
  2
DASHDOT2
 70
     0
  3
_._._._._._._._._._._._._._._._._._._._._._._._
 72
    65
 73
     4
 40
0.5
 49
0.25
 74
     0
 49
-0.125
 74
     0
 49
0.0
 74
     0
 49
-0.125
 74
     0
  0
LTYPE
  5
28
100
AcDbSymbolTableRecord
100
AcDbLinetypeTableRecord
  2
DASHDOTX2
 70
     0
  3
____  .  ____  .  ____  .  ____  .  ____  .  __
 72
    65
 73
     4
 40
2.0
 49
1.0
 74
     0
 49
-0.5
 74
     0
 49
0.0
 74
     0
 49
-0.5
 74
     0
  0
LTYPE
  5
29
100
AcDbSymbolTableRecord
100
AcDbLinetypeTableRecord
  2
DASHED
 70
     0
  3
__ __ __ __ __ __ __ __ __ __ __ __ __ __ __ __
 72
    65
 73
     2
 40
0.75
 49
0.5
 74
     0
 49
-0.25
 74
     0
  0
LTYPE
  5
2A
100
AcDbSymbolTableRecord
100
AcDbLinetypeTableRecord
  2
DASHED2
 70
     0
  3
_ _ _ _ _ _ _ _ _ _ _ _ _ _ _ _ _ _ _ _ _ _ _ _
 72
    65
 73
     2
 40
0.375
 49
0.25
 74
     0
 49
-0.125
 74
     0
  0
LTYPE
  5
2B
100
AcDbSymbolTableRecord
100
AcDbLinetypeTableRecord
  2
DASHEDX2
 70
     0
  3
____  ____  ____  ____  ____  ____  ____  ____ 
 72
    65
 73
     2
 40
1.5
 49
1.0
 74
     0
 49
-0.5
 74
     0
  0
LTYPE
  5
2C
100
AcDbSymbolTableRecord
100
AcDbLinetypeTableRecord
  2
DIVIDE
 70
     0
  3
____ . . ____ . . ____ . . ____ . . ____ . . __
 72
    65
 73
     6
 40
1.25
 49
0.5
 74
     0
 49
-0.25
 74
     0
 49
0.0
 74
     0
 49
-0.25
 74
     0
 49
0.0
 74
     0
 49
-0.25
 74
     0
  0
LTYPE
  5
2D
100
AcDbSymbolTableRecord
100
AcDbLinetypeTableRecord
  2
DIVIDE2
 70
     0
  3
__..__..__..__..__..__..__..__..__..__..__..__.
 72
    65
 73
     6
 40
0.625
 49
0.25
 74
     0
 49
-0.125
 74
     0
 49
0.0
 74
     0
 49
-0.125
 74
     0
 49
0.0
 74
     0
 49
-0.125
 74
     0
  0
LTYPE
  5
2E
100
AcDbSymbolTableRecord
100
AcDbLinetypeTableRecord
  2
DIVIDEX2
 70
     0
  3
________  .  .  ________  .  .  ________  .  . 
 72
    65
 73
     6
 40
2.5
 49
1.0
 74
     0
 49
-0.5
 74
     0
 49
0.0
 74
     0
 49
-0.5
 74
     0
 49
0.0
 74
     0
 49
-0.5
 74
     0
  0
LTYPE
  5
2F
100
AcDbSymbolTableRecord
100
AcDbLinetypeTableRecord
  2
DOT
 70
     0
  3
. . . . . . . . . . . . . . . . . . . . . . . .
 72
    65
 73
     2
 40
0.25
 49
0.0
 74
     0
 49
-0.25
 74
     0
  0
LTYPE
  5
30
100
AcDbSymbolTableRecord
100
AcDbLinetypeTableRecord
  2
DOT2
 70
     0
  3
...............................................
 72
    65
 73
     2
 40
0.125
 49
0.0
 74
     0
 49
-0.125
 74
     0
  0
LTYPE
  5
31
100
AcDbSymbolTableRecord
100
AcDbLinetypeTableRecord
  2
DOTX2
 70
     0
  3
.  .  .  .  .  .  .  .  .  .  .  .  .  .  .  . 
 72
    65
 73
     2
 40
0.5
 49
0.0
 74
     0
 49
-0.5
 74
     0
  0
LTYPE
  5
32
100
AcDbSymbolTableRecord
100
AcDbLinetypeTableRecord
  2
HIDDEN
 70
     0
  3
__ __ __ __ __ __ __ __ __ __ __ __ __ __ __ __
 72
    65
 73
     2
 40
0.375
 49
0.25
 74
     0
 49
-0.125
 74
     0
  0
LTYPE
  5
33
100
AcDbSymbolTableRecord
100
AcDbLinetypeTableRecord
  2
HIDDEN2
 70
     0
  3
_ _ _ _ _ _ _ _ _ _ _ _ _ _ _ _ _ _ _ _ _ _ _ _
 72
    65
 73
     2
 40
0.1875
 49
0.125
 74
     0
 49
-0.0625
 74
     0
  0
LTYPE
  5
34
100
AcDbSymbolTableRecord
100
AcDbLinetypeTableRecord
  2
HIDDENX2
 70
     0
  3
____ ____ ____ ____ ____ ____ ____ ____ ____ __
 72
    65
 73
     2
 40
0.75
 49
0.5
 74
     0
 49
-0.25
 74
     0
  0
LTYPE
  5
35
100
AcDbSymbolTableRecord
100
AcDbLinetypeTableRecord
  2
PHANTOM
 70
     0
  3
______  __  __  ______  __  __  ______  __  __ 
 72
    65
 73
     6
 40
2.5
 49
1.25
 74
     0
 49
-0.25
 74
     0
 49
0.25
 74
     0
 49
-0.25
 74
     0
 49
0.25
 74
     0
 49
-0.25
 74
     0
  0
LTYPE
  5
36
100
AcDbSymbolTableRecord
100
AcDbLinetypeTableRecord
  2
PHANTOM2
 70
     0
  3
___ _ _ ___ _ _ ___ _ _ ___ _ _ ___ _ _ ___ _ _
 72
    65
 73
     6
 40
1.25
 49
0.625
 74
     0
 49
-0.125
 74
     0
 49
0.125
 74
     0
 49
-0.125
 74
     0
 49
0.125
 74
     0
 49
-0.125
 74
     0
  0
LTYPE
  5
37
100
AcDbSymbolTableRecord
100
AcDbLinetypeTableRecord
  2
PHANTOMX2
 70
     0
  3
____________    ____    ____    ____________   
 72
    65
 73
     6
 40
5.0
 49
2.5
 74
     0
 49
-0.5
 74
     0
 49
0.5
 74
     0
 49
-0.5
 74
     0
 49
0.5
 74
     0
 49
-0.5
 74
     0
  0
ENDTAB
   0
TABLE
   2
LAYER
   5
2
 100
AcDbSymbolTable
  70
4
   0
LAYER
   5
E
 100
AcDbSymbolTableRecord
 100
AcDbLayerTableRecord
   2
0
  70
0
  62
7
   6
CONTINUOUS
 390
30
   0
LAYER
   5
39
 100
AcDbSymbolTableRecord
 100
AcDbLayerTableRecord
   2
LEVEL001
  70
0
  62
7
   6
CONTINUOUS
 390
30
   0
LAYER
   5
3A
 100
AcDbSymbolTableRecord
 100
AcDbLayerTableRecord
   2
LEVEL002
  70
0
  62
7
   6
CONTINUOUS
 390
30
   0
LAYER
   5
3B
 100
AcDbSymbolTableRecord
 100
AcDbLayerTableRecord
   2
LEVEL003
  70
0
  62
7
   6
CONTINUOUS
 390
30
   0
ENDTAB
  0
TABLE
  2
STYLE
  5
3
100
AcDbSymbolTable
  70
6
  0
STYLE
  5
F
100
AcDbSymbolTableRecord
100
AcDbTextStyleTableRecord
  2
STANDARD
 70
     0
 40
0.0
 41
1.0
 50
0.0
 71
     0
 42
0.2
  3
TXT
  4
BIGFONT
  0
STYLE
  5
38
100
AcDbSymbolTableRecord
100
AcDbTextStyleTableRecord
  2
STANDARD1
 70
     4
 40
0.0
 41
1.0
 50
0.0
 71
     0
 42
0.2
  3
TXT
  4
BIGFONT
   0
STYLE
   5
3C
 100
AcDbSymbolTableRecord
 100
AcDbTextStyleTableRecord
   2
GMM001
  70
0
  40
0.0
  41
 0.80000000000000
  50
0.0
  71
     0
  42
1.0
   3
txt.shx
   4
bigfont.shx
   0
STYLE
   5
3D
 100
AcDbSymbolTableRecord
 100
AcDbTextStyleTableRecord
   2
GMM002
  70
0
  40
0.0
  41
 1.0000000000000
  50
0.0
  71
     0
  42
1.0
   3
txt.shx
   4
bigfont.shx
   0
STYLE
   5
3E
 100
AcDbSymbolTableRecord
 100
AcDbTextStyleTableRecord
   2
GMM003
  70
0
  40
0.0
  41
 1.0714285714286
  50
0.0
  71
     0
  42
1.0
   3
txt.shx
   4
bigfont.shx
   0
STYLE
   5
3F
 100
AcDbSymbolTableRecord
 100
AcDbTextStyleTableRecord
   2
GMM004
  70
0
  40
0.0
  41
 0.88888888888889
  50
0.0
  71
     0
  42
1.0
   3
txt.shx
   4
bigfont.shx
   0
ENDTAB
  0
TABLE
  2
VIEW
  5
6
100
AcDbSymbolTable
 70
     0
  0
ENDTAB
  0
TABLE
  2
UCS
  5
7
100
AcDbSymbolTable
 70
     0
  0
ENDTAB
  0
TABLE
  2
APPID
  5
9
100
AcDbSymbolTable
 70
     1
  0
APPID
  5
10
100
AcDbSymbolTableRecord
100
AcDbRegAppTableRecord
  2
ACAD
 70
     0
  0
ENDTAB
   0
TABLE
   2
DIMSTYLE
   5
A
 100
AcDbSymbolTable
  70
4
 100
AcDbDimStyleTable
  0
DIMSTYLE
105
1D
100
AcDbSymbolTableRecord
100
AcDbDimStyleTableRecord
  2
STANDARD
 70
     0
  3

  4

  5

  6

  7

 40
1.0
 41
0.18
 42
0.0625
 43
0.38
 44
0.18
 45
0.0
 46
0.0
 47
0.0
 48
0.0
140
0.18
141
0.09
142
0.0
143
25.4
144
1.0
145
0.0
146
1.0
147
0.09
 71
     0
 72
     0
 73
     1
 74
     1
 75
     0
 76
     0
 77
     0
 78
     0
170
     0
171
     2
172
     0
173
     0
174
     0
175
     0
176
     0
177
     0
178
     0
270
     2
271
     4
272
     4
273
     2
274
     2
340
F
275
     0
280
     0
281
     0
282
     0
283
     1
284
     0
285
     0
286
     0
287
     3
288
     0
   0
DIMSTYLE
 105
40
 100
AcDbSymbolTableRecord
 100
AcDbDimStyleTableRecord
   2
GMM001
  70
0
   3

   4

   5

   6

   7

  40
 1.0000000000000
  41
 8.0000000000000
  42
 4.0000000000000
  43
 32.000000000000
  44
 4.0000000000000
  45
0.0
  46
0.0
  47
0.0
  48
0.0
 140
 10.000000000000
 141
 4.0000000000000
 142
0.0
 143
 0.39400000000000E-1
 144
 1.0000000000000
 145
0.0
 146
 1.0000000000000
 147
 4.0000000000000
  71
0
  72
0
  73
0
  74
0
  75
0
  76
0
  77
3
  78
8
 170
0
 171
2
 172
1
 173
1
 174
0
 175
0
 176
8
 177
8
 178
8
 270
2
 271
6
 272
0
 273
2
 274
2
 340
3D
 275
0
 280
0
 281
0
 282
0
 283
1
 284
0
 285
0
 286
0
 287
3
 288
0
   0
DIMSTYLE
 105
41
 100
AcDbSymbolTableRecord
 100
AcDbDimStyleTableRecord
   2
GMM002
  70
0
   3

   4

   5

   6

   7

  40
 1.0000000000000
  41
 8.0000000000000
  42
 4.0000000000000
  43
 32.000000000000
  44
 4.0000000000000
  45
0.0
  46
0.0
  47
0.0
  48
0.0
 140
 10.000000000000
 141
 4.0000000000000
 142
0.0
 143
 0.39400000000000E-1
 144
 1.0000000000000
 145
0.0
 146
 1.0000000000000
 147
0.0
  71
0
  72
0
  73
0
  74
0
  75
0
  76
0
  77
1
  78
8
 170
0
 171
2
 172
1
 173
1
 174
0
 175
0
 176
8
 177
8
 178
8
 270
2
 271
6
 272
0
 273
2
 274
2
 340
3D
 275
0
 280
0
 281
0
 282
0
 283
1
 284
0
 285
0
 286
0
 287
3
 288
0
   0
ENDTAB
  0
TABLE
  2
BLOCK_RECORD
  5
1
100
AcDbSymbolTable
 70
     0
  0
BLOCK_RECORD
  5
18
100
AcDbSymbolTableRecord
100
AcDbBlockTableRecord
  2
*MODEL_SPACE
  0
BLOCK_RECORD
  5
15
100
AcDbSymbolTableRecord
100
AcDbBlockTableRecord
  2
*PAPER_SPACE
   0
BLOCK_RECORD
   5
42
 100
AcDbSymbolTableRecord
 100
AcDbBlockTableRecord
   2
*D1
   0
BLOCK_RECORD
   5
43
 100
AcDbSymbolTableRecord
 100
AcDbBlockTableRecord
   2
*D2
   0
BLOCK_RECORD
   5
44
 100
AcDbSymbolTableRecord
 100
AcDbBlockTableRecord
   2
*D3
   0
BLOCK_RECORD
   5
45
 100
AcDbSymbolTableRecord
 100
AcDbBlockTableRecord
   2
*D4
   0
BLOCK_RECORD
   5
46
 100
AcDbSymbolTableRecord
 100
AcDbBlockTableRecord
   2
*D5
   0
BLOCK_RECORD
   5
47
 100
AcDbSymbolTableRecord
 100
AcDbBlockTableRecord
   2
*D6
   0
BLOCK_RECORD
   5
48
 100
AcDbSymbolTableRecord
 100
AcDbBlockTableRecord
   2
*D7
   0
BLOCK_RECORD
   5
49
 100
AcDbSymbolTableRecord
 100
AcDbBlockTableRecord
   2
*D8
   0
BLOCK_RECORD
   5
4A
 100
AcDbSymbolTableRecord
 100
AcDbBlockTableRecord
   2
*D9
   0
BLOCK_RECORD
   5
4B
 100
AcDbSymbolTableRecord
 100
AcDbBlockTableRecord
   2
*D10
   0
BLOCK_RECORD
   5
4C
 100
AcDbSymbolTableRecord
 100
AcDbBlockTableRecord
   2
*D11
   0
BLOCK_RECORD
   5
4D
 100
AcDbSymbolTableRecord
 100
AcDbBlockTableRecord
   2
*D12
   0
BLOCK_RECORD
   5
4E
 100
AcDbSymbolTableRecord
 100
AcDbBlockTableRecord
   2
*D13
   0
BLOCK_RECORD
   5
4F
 100
AcDbSymbolTableRecord
 100
AcDbBlockTableRecord
   2
*D14
   0
BLOCK_RECORD
   5
50
 100
AcDbSymbolTableRecord
 100
AcDbBlockTableRecord
   2
*D15
   0
BLOCK_RECORD
   5
51
 100
AcDbSymbolTableRecord
 100
AcDbBlockTableRecord
   2
*D16
   0
BLOCK_RECORD
   5
52
 100
AcDbSymbolTableRecord
 100
AcDbBlockTableRecord
   2
*D19
   0
BLOCK_RECORD
   5
53
 100
AcDbSymbolTableRecord
 100
AcDbBlockTableRecord
   2
*D20
   0
BLOCK_RECORD
   5
54
 100
AcDbSymbolTableRecord
 100
AcDbBlockTableRecord
   2
*D21
   0
BLOCK_RECORD
   5
55
 100
AcDbSymbolTableRecord
 100
AcDbBlockTableRecord
   2
*D22
   0
BLOCK_RECORD
   5
56
 100
AcDbSymbolTableRecord
 100
AcDbBlockTableRecord
   2
*D23
   0
BLOCK_RECORD
   5
57
 100
AcDbSymbolTableRecord
 100
AcDbBlockTableRecord
   2
*D24
   0
BLOCK_RECORD
   5
58
 100
AcDbSymbolTableRecord
 100
AcDbBlockTableRecord
   2
*D25
   0
BLOCK_RECORD
   5
59
 100
AcDbSymbolTableRecord
 100
AcDbBlockTableRecord
   2
*D26
   0
BLOCK_RECORD
   5
5A
 100
AcDbSymbolTableRecord
 100
AcDbBlockTableRecord
   2
*D27
   0
BLOCK_RECORD
   5
5B
 100
AcDbSymbolTableRecord
 100
AcDbBlockTableRecord
   2
*D28
   0
BLOCK_RECORD
   5
5C
 100
AcDbSymbolTableRecord
 100
AcDbBlockTableRecord
   2
*D29
   0
BLOCK_RECORD
   5
5D
 100
AcDbSymbolTableRecord
 100
AcDbBlockTableRecord
   2
*D30
   0
BLOCK_RECORD
   5
5E
 100
AcDbSymbolTableRecord
 100
AcDbBlockTableRecord
   2
*D31
   0
BLOCK_RECORD
   5
5F
 100
AcDbSymbolTableRecord
 100
AcDbBlockTableRecord
   2
*D32
   0
BLOCK_RECORD
   5
60
 100
AcDbSymbolTableRecord
 100
AcDbBlockTableRecord
   2
*D33
   0
BLOCK_RECORD
   5
61
 100
AcDbSymbolTableRecord
 100
AcDbBlockTableRecord
   2
*D34
   0
BLOCK_RECORD
   5
62
 100
AcDbSymbolTableRecord
 100
AcDbBlockTableRecord
   2
_ARCHTICK
   0
BLOCK_RECORD
   5
63
 100
AcDbSymbolTableRecord
 100
AcDbBlockTableRecord
   2
_BOXBLANK
   0
BLOCK_RECORD
   5
64
 100
AcDbSymbolTableRecord
 100
AcDbBlockTableRecord
   2
_BOXFILLED
   0
BLOCK_RECORD
   5
65
 100
AcDbSymbolTableRecord
 100
AcDbBlockTableRecord
   2
_CLOSED
   0
BLOCK_RECORD
   5
66
 100
AcDbSymbolTableRecord
 100
AcDbBlockTableRecord
   2
_CLOSEDBLANK
   0
BLOCK_RECORD
   5
67
 100
AcDbSymbolTableRecord
 100
AcDbBlockTableRecord
   2
_DATUMBLANK
   0
BLOCK_RECORD
   5
68
 100
AcDbSymbolTableRecord
 100
AcDbBlockTableRecord
   2
_DATUMFILLED
   0
BLOCK_RECORD
   5
69
 100
AcDbSymbolTableRecord
 100
AcDbBlockTableRecord
   2
_DOT
   0
BLOCK_RECORD
   5
6A
 100
AcDbSymbolTableRecord
 100
AcDbBlockTableRecord
   2
_DOTBLANK
   0
BLOCK_RECORD
   5
6B
 100
AcDbSymbolTableRecord
 100
AcDbBlockTableRecord
   2
_DOTSMALL
   0
BLOCK_RECORD
   5
6C
 100
AcDbSymbolTableRecord
 100
AcDbBlockTableRecord
   2
_INTEGRAL
   0
BLOCK_RECORD
   5
6D
 100
AcDbSymbolTableRecord
 100
AcDbBlockTableRecord
   2
_NONE
   0
BLOCK_RECORD
   5
6E
 100
AcDbSymbolTableRecord
 100
AcDbBlockTableRecord
   2
_OBLIQUE
   0
BLOCK_RECORD
   5
6F
 100
AcDbSymbolTableRecord
 100
AcDbBlockTableRecord
   2
_OPEN
   0
BLOCK_RECORD
   5
70
 100
AcDbSymbolTableRecord
 100
AcDbBlockTableRecord
   2
_OPEN30
   0
BLOCK_RECORD
   5
71
 100
AcDbSymbolTableRecord
 100
AcDbBlockTableRecord
   2
_OPEN90
   0
BLOCK_RECORD
   5
72
 100
AcDbSymbolTableRecord
 100
AcDbBlockTableRecord
   2
_ORIGIN
   0
ENDTAB
   0
ENDSEC
  0
SECTION
  2
BLOCKS
  0
BLOCK
  5
19
100
AcDbEntity
  8
0
100
AcDbBlockBegin
  2
*MODEL_SPACE
 70
     0
 10
0.0
 20
0.0
 30
0.0
  3
*MODEL_SPACE
  1

  0
ENDBLK
  5
1A
100
AcDbEntity
  8
0
100
AcDbBlockEnd
  0
BLOCK
  5
16
100
AcDbEntity
 67
     1
  8
0
100
AcDbBlockBegin
  2
*PAPER_SPACE
 70
     0
 10
0.0
 20
0.0
 30
0.0
  3
*PAPER_SPACE
  1

  0
ENDBLK
  5
17
100
AcDbEntity
 67
     1
  8
0
100
AcDbBlockEnd
   0
BLOCK
   5
73
 100
AcDbEntity
   8
0
 100
AcDbBlockBegin
   2
_ARCHTICK
  70
0
  10
0.0
  20
0.0
  30
0.0
   3
_ARCHTICK
   0
POLYLINE
   5
74
 100
AcDbEntity
   8
0
 370
-2
   6
BYBLOCK
  62
0
 100
AcDb2dPolyline
  66
1
  10
0.0
  20
0.0
  30
0.0
  70
1
  40
 0.15000000000000
  41
 0.15000000000000
   0
VERTEX
   5
75
 100
AcDbEntity
   8
0
   6
BYBLOCK
  62
0
 100
AcDbVertex
 100
AcDb2dVertex
  10
-0.50000000000000
  20
-0.50000000000000
  30
0.0
  40
 0.15000000000000
  41
 0.15000000000000
   0
VERTEX
   5
76
 100
AcDbEntity
   8
0
   6
BYBLOCK
  62
0
 100
AcDbVertex
 100
AcDb2dVertex
  10
 0.50000000000000
  20
 0.50000000000000
  30
0.0
  40
 0.15000000000000
  41
 0.15000000000000
   0
SEQEND
   5
77
 100
AcDbEntity
   8
0
   6
BYBLOCK
  62
0
   0
ENDBLK
   5
78
 100
AcDbEntity
   8
0
 100
AcDbBlockEnd
   0
BLOCK
   5
79
 100
AcDbEntity
   8
0
 100
AcDbBlockBegin
   2
_OBLIQUE
  70
0
  10
0.0
  20
0.0
  30
0.0
   3
_OBLIQUE
   0
LINE
   5
7A
 100
AcDbEntity
   8
0
 370
-2
 100
AcDbLine
   6
BYBLOCK
  62
0
  10
-0.50000000000000
  20
-0.50000000000000
  30
0.0
  11
 0.50000000000000
  21
 0.50000000000000
  31
0.0
   0
ENDBLK
   5
7B
 100
AcDbEntity
   8
0
 100
AcDbBlockEnd
   0
BLOCK
   5
7C
 100
AcDbEntity
   8
0
 100
AcDbBlockBegin
   2
_BOXBLANK
  70
0
  10
0.0
  20
0.0
  30
0.0
   3
_BOXBLANK
   0
LINE
   5
7D
 100
AcDbEntity
   8
0
 370
-2
 100
AcDbLine
   6
BYBLOCK
  62
0
  10
-0.50000000000000
  20
-0.50000000000000
  30
0.0
  11
 0.50000000000000
  21
-0.50000000000000
  31
0.0
   0
LINE
   5
7E
 100
AcDbEntity
   8
0
 370
-2
 100
AcDbLine
   6
BYBLOCK
  62
0
  10
 0.50000000000000
  20
-0.50000000000000
  30
0.0
  11
 0.50000000000000
  21
 0.50000000000000
  31
0.0
   0
LINE
   5
7F
 100
AcDbEntity
   8
0
 370
-2
 100
AcDbLine
   6
BYBLOCK
  62
0
  10
 0.50000000000000
  20
 0.50000000000000
  30
0.0
  11
-0.50000000000000
  21
 0.50000000000000
  31
0.0
   0
LINE
   5
80
 100
AcDbEntity
   8
0
 370
-2
 100
AcDbLine
   6
BYBLOCK
  62
0
  10
-0.50000000000000
  20
 0.50000000000000
  30
0.0
  11
-0.50000000000000
  21
-0.50000000000000
  31
0.0
   0
LINE
   5
81
 100
AcDbEntity
   8
0
 370
-2
 100
AcDbLine
   6
BYBLOCK
  62
0
  10
-0.50000000000000
  20
0.0
  30
0.0
  11
-1.0000000000000
  21
0.0
  31
0.0
   0
ENDBLK
   5
82
 100
AcDbEntity
   8
0
 100
AcDbBlockEnd
   0
BLOCK
   5
83
 100
AcDbEntity
   8
0
 100
AcDbBlockBegin
   2
_BOXFILLED
  70
0
  10
0.0
  20
0.0
  30
0.0
   3
_BOXFILLED
   0
SOLID
   5
84
 100
AcDbEntity
   8
0
 100
AcDbTrace
   6
BYBLOCK
  62
0
  10
-0.50000000000000
  20
 0.50000000000000
  30
0.0
  11
 0.50000000000000
  21
 0.50000000000000
  31
0.0
  12
-0.50000000000000
  22
-0.50000000000000
  32
0.0
  13
 0.50000000000000
  23
-0.50000000000000
  33
0.0
   0
LINE
   5
85
 100
AcDbEntity
   8
0
 370
-2
 100
AcDbLine
   6
BYBLOCK
  62
0
  10
-0.50000000000000
  20
0.0
  30
0.0
  11
-1.0000000000000
  21
0.0
  31
0.0
   0
ENDBLK
   5
86
 100
AcDbEntity
   8
0
 100
AcDbBlockEnd
   0
BLOCK
   5
87
 100
AcDbEntity
   8
0
 100
AcDbBlockBegin
   2
_CLOSED
  70
0
  10
0.0
  20
0.0
  30
0.0
   3
_CLOSED
   0
LINE
   5
88
 100
AcDbEntity
   8
0
 370
-2
 100
AcDbLine
   6
BYBLOCK
  62
0
  10
-1.0000000000000
  20
 0.16666666666667
  30
0.0
  11
0.0
  21
0.0
  31
0.0
   0
LINE
   5
89
 100
AcDbEntity
   8
0
 370
-2
 100
AcDbLine
   6
BYBLOCK
  62
0
  10
0.0
  20
0.0
  30
0.0
  11
-1.0000000000000
  21
-0.16666666666667
  31
0.0
   0
LINE
   5
8A
 100
AcDbEntity
   8
0
 370
-2
 100
AcDbLine
   6
BYBLOCK
  62
0
  10
-1.0000000000000
  20
 0.16666666666667
  30
0.0
  11
-1.0000000000000
  21
-0.16666666666667
  31
0.0
   0
LINE
   5
8B
 100
AcDbEntity
   8
0
 370
-2
 100
AcDbLine
   6
BYBLOCK
  62
0
  10
0.0
  20
0.0
  30
0.0
  11
-1.0000000000000
  21
0.0
  31
0.0
   0
ENDBLK
   5
8C
 100
AcDbEntity
   8
0
 100
AcDbBlockEnd
   0
BLOCK
   5
8D
 100
AcDbEntity
   8
0
 100
AcDbBlockBegin
   2
_OPEN
  70
0
  10
0.0
  20
0.0
  30
0.0
   3
_OPEN
   0
LINE
   5
8E
 100
AcDbEntity
   8
0
 370
-2
 100
AcDbLine
   6
BYBLOCK
  62
0
  10
-1.0000000000000
  20
 0.16666666666667
  30
0.0
  11
0.0
  21
0.0
  31
0.0
   0
LINE
   5
8F
 100
AcDbEntity
   8
0
 370
-2
 100
AcDbLine
   6
BYBLOCK
  62
0
  10
0.0
  20
0.0
  30
0.0
  11
-1.0000000000000
  21
-0.16666666666667
  31
0.0
   0
LINE
   5
90
 100
AcDbEntity
   8
0
 370
-2
 100
AcDbLine
   6
BYBLOCK
  62
0
  10
0.0
  20
0.0
  30
0.0
  11
-1.0000000000000
  21
0.0
  31
0.0
   0
ENDBLK
   5
91
 100
AcDbEntity
   8
0
 100
AcDbBlockEnd
   0
BLOCK
   5
92
 100
AcDbEntity
   8
0
 100
AcDbBlockBegin
   2
_OPEN30
  70
0
  10
0.0
  20
0.0
  30
0.0
   3
_OPEN30
   0
LINE
   5
93
 100
AcDbEntity
   8
0
 370
-2
 100
AcDbLine
   6
BYBLOCK
  62
0
  10
-1.0000000000000
  20
 0.26794919243110
  30
0.0
  11
0.0
  21
0.0
  31
0.0
   0
LINE
   5
94
 100
AcDbEntity
   8
0
 370
-2
 100
AcDbLine
   6
BYBLOCK
  62
0
  10
0.0
  20
0.0
  30
0.0
  11
-1.0000000000000
  21
-0.26794919243110
  31
0.0
   0
LINE
   5
95
 100
AcDbEntity
   8
0
 370
-2
 100
AcDbLine
   6
BYBLOCK
  62
0
  10
0.0
  20
0.0
  30
0.0
  11
-1.0000000000000
  21
0.0
  31
0.0
   0
ENDBLK
   5
96
 100
AcDbEntity
   8
0
 100
AcDbBlockEnd
   0
BLOCK
   5
97
 100
AcDbEntity
   8
0
 100
AcDbBlockBegin
   2
_OPEN90
  70
0
  10
0.0
  20
0.0
  30
0.0
   3
_OPEN90
   0
LINE
   5
98
 100
AcDbEntity
   8
0
 370
-2
 100
AcDbLine
   6
BYBLOCK
  62
0
  10
-0.50000000000000
  20
 0.50000000000000
  30
0.0
  11
0.0
  21
0.0
  31
0.0
   0
LINE
   5
99
 100
AcDbEntity
   8
0
 370
-2
 100
AcDbLine
   6
BYBLOCK
  62
0
  10
0.0
  20
0.0
  30
0.0
  11
-0.50000000000000
  21
-0.50000000000000
  31
0.0
   0
LINE
   5
9A
 100
AcDbEntity
   8
0
 370
-2
 100
AcDbLine
   6
BYBLOCK
  62
0
  10
0.0
  20
0.0
  30
0.0
  11
-1.0000000000000
  21
0.0
  31
0.0
   0
ENDBLK
   5
9B
 100
AcDbEntity
   8
0
 100
AcDbBlockEnd
   0
BLOCK
   5
9C
 100
AcDbEntity
   8
0
 100
AcDbBlockBegin
   2
_CLOSEDBLANK
  70
0
  10
0.0
  20
0.0
  30
0.0
   3
_CLOSEDBLANK
   0
LINE
   5
9D
 100
AcDbEntity
   8
0
 370
-2
 100
AcDbLine
   6
BYBLOCK
  62
0
  10
-1.0000000000000
  20
 0.16666666666667
  30
0.0
  11
0.0
  21
0.0
  31
0.0
   0
LINE
   5
9E
 100
AcDbEntity
   8
0
 370
-2
 100
AcDbLine
   6
BYBLOCK
  62
0
  10
0.0
  20
0.0
  30
0.0
  11
-1.0000000000000
  21
-0.16666666666667
  31
0.0
   0
LINE
   5
9F
 100
AcDbEntity
   8
0
 370
-2
 100
AcDbLine
   6
BYBLOCK
  62
0
  10
-1.0000000000000
  20
 0.16666666666667
  30
0.0
  11
-1.0000000000000
  21
-0.16666666666667
  31
0.0
   0
ENDBLK
   5
A0
 100
AcDbEntity
   8
0
 100
AcDbBlockEnd
   0
BLOCK
   5
A1
 100
AcDbEntity
   8
0
 100
AcDbBlockBegin
   2
_DOT
  70
0
  10
0.0
  20
0.0
  30
0.0
   3
_DOT
   0
POLYLINE
   5
A2
 100
AcDbEntity
   8
0
 370
-2
   6
BYBLOCK
  62
0
 100
AcDb2dPolyline
  66
1
  10
0.0
  20
0.0
  30
0.0
  70
1
  40
 0.50000000000000
  41
 0.50000000000000
   0
VERTEX
   5
A3
 100
AcDbEntity
   8
0
   6
BYBLOCK
  62
0
 100
AcDbVertex
 100
AcDb2dVertex
  10
-0.25000000000000
  20
0.0
  30
0.0
  42
 1.0000000000000
  40
 0.50000000000000
  41
 0.50000000000000
   0
VERTEX
   5
A4
 100
AcDbEntity
   8
0
   6
BYBLOCK
  62
0
 100
AcDbVertex
 100
AcDb2dVertex
  10
 0.25000000000000
  20
0.0
  30
0.0
  42
 1.0000000000000
  40
 0.50000000000000
  41
 0.50000000000000
   0
SEQEND
   5
A5
 100
AcDbEntity
   8
0
   6
BYBLOCK
  62
0
   0
LINE
   5
A6
 100
AcDbEntity
   8
0
 370
-2
 100
AcDbLine
   6
BYBLOCK
  62
0
  10
-0.50000000000000
  20
0.0
  30
0.0
  11
-1.0000000000000
  21
0.0
  31
0.0
   0
ENDBLK
   5
A7
 100
AcDbEntity
   8
0
 100
AcDbBlockEnd
   0
BLOCK
   5
A8
 100
AcDbEntity
   8
0
 100
AcDbBlockBegin
   2
_DOTSMALL
  70
0
  10
0.0
  20
0.0
  30
0.0
   3
_DOTSMALL
   0
POLYLINE
   5
A9
 100
AcDbEntity
   8
0
 370
-2
   6
BYBLOCK
  62
0
 100
AcDb2dPolyline
  66
1
  10
0.0
  20
0.0
  30
0.0
  70
1
  40
 0.50000000000000
  41
 0.50000000000000
   0
VERTEX
   5
AA
 100
AcDbEntity
   8
0
   6
BYBLOCK
  62
0
 100
AcDbVertex
 100
AcDb2dVertex
  10
-0.62500000000000E-1
  20
0.0
  30
0.0
  42
 1.0000000000000
  40
 0.50000000000000
  41
 0.50000000000000
   0
VERTEX
   5
AB
 100
AcDbEntity
   8
0
   6
BYBLOCK
  62
0
 100
AcDbVertex
 100
AcDb2dVertex
  10
 0.62500000000000E-1
  20
0.0
  30
0.0
  42
 1.0000000000000
  40
 0.50000000000000
  41
 0.50000000000000
   0
SEQEND
   5
AC
 100
AcDbEntity
   8
0
   6
BYBLOCK
  62
0
   0
ENDBLK
   5
AD
 100
AcDbEntity
   8
0
 100
AcDbBlockEnd
   0
BLOCK
   5
AE
 100
AcDbEntity
   8
0
 100
AcDbBlockBegin
   2
_DATUMBLANK
  70
0
  10
0.0
  20
0.0
  30
0.0
   3
_DATUMBLANK
   0
LINE
   5
AF
 100
AcDbEntity
   8
0
 370
-2
 100
AcDbLine
   6
BYBLOCK
  62
0
  10
0.0
  20
 0.57735027000000
  30
0.0
  11
-1.0000000000000
  21
0.0
  31
0.0
   0
LINE
   5
B0
 100
AcDbEntity
   8
0
 370
-2
 100
AcDbLine
   6
BYBLOCK
  62
0
  10
-1.0000000000000
  20
0.0
  30
0.0
  11
0.0
  21
-0.57735027000000
  31
0.0
   0
LINE
   5
B1
 100
AcDbEntity
   8
0
 370
-2
 100
AcDbLine
   6
BYBLOCK
  62
0
  10
0.0
  20
-0.57735027000000
  30
0.0
  11
0.0
  21
 0.57735027000000
  31
0.0
   0
ENDBLK
   5
B2
 100
AcDbEntity
   8
0
 100
AcDbBlockEnd
   0
BLOCK
   5
B3
 100
AcDbEntity
   8
0
 100
AcDbBlockBegin
   2
_DATUMFILLED
  70
0
  10
0.0
  20
0.0
  30
0.0
   3
_DATUMFILLED
   0
SOLID
   5
B4
 100
AcDbEntity
   8
0
 100
AcDbTrace
   6
BYBLOCK
  62
0
  10
0.0
  20
 0.57735027000000
  30
0.0
  11
-1.0000000000000
  21
0.0
  31
0.0
  12
0.0
  22
-0.57735027000000
  32
0.0
  13
0.0
  23
-0.57735027000000
  33
0.0
   0
ENDBLK
   5
B5
 100
AcDbEntity
   8
0
 100
AcDbBlockEnd
   0
BLOCK
   5
B6
 100
AcDbEntity
   8
0
 100
AcDbBlockBegin
   2
_ORIGIN
  70
0
  10
0.0
  20
0.0
  30
0.0
   3
_ORIGIN
   0
CIRCLE
   5
B7
 100
AcDbEntity
   8
0
 370
-2
 100
AcDbCircle
   6
BYBLOCK
  62
0
  10
0.0
  20
0.0
  30
0.0
  40
 0.50000000000000
   0
LINE
   5
B8
 100
AcDbEntity
   8
0
 370
-2
 100
AcDbLine
   6
BYBLOCK
  62
0
  10
0.0
  20
0.0
  30
0.0
  11
-1.0000000000000
  21
0.0
  31
0.0
   0
ENDBLK
   5
B9
 100
AcDbEntity
   8
0
 100
AcDbBlockEnd
   0
BLOCK
   5
BA
 100
AcDbEntity
   8
0
 100
AcDbBlockBegin
   2
_NONE
  70
0
  10
0.0
  20
0.0
  30
0.0
   3
_NONE
   0
CIRCLE
   5
BB
 100
AcDbEntity
   8
0
 370
-2
 100
AcDbCircle
   6
BYBLOCK
  62
0
  10
0.0
  20
0.0
  30
0.0
  40
 0.25000000000000
   0
ENDBLK
   5
BC
 100
AcDbEntity
   8
0
 100
AcDbBlockEnd
   0
BLOCK
   5
BD
 100
AcDbEntity
   8
0
 100
AcDbBlockBegin
   2
_DOTBLANK
  70
0
  10
0.0
  20
0.0
  30
0.0
   3
_DOTBLANK
   0
CIRCLE
   5
BE
 100
AcDbEntity
   8
0
 370
-2
 100
AcDbCircle
   6
BYBLOCK
  62
0
  10
0.0
  20
0.0
  30
0.0
  40
 0.50000000000000
   0
LINE
   5
BF
 100
AcDbEntity
   8
0
 370
-2
 100
AcDbLine
   6
BYBLOCK
  62
0
  10
-0.50000000000000
  20
0.0
  30
0.0
  11
-1.0000000000000
  21
0.0
  31
0.0
   0
ENDBLK
   5
C0
 100
AcDbEntity
   8
0
 100
AcDbBlockEnd
   0
BLOCK
   5
C1
 100
AcDbEntity
   8
0
 100
AcDbBlockBegin
   2
_INTEGRAL
  70
0
  10
0.0
  20
0.0
  30
0.0
   3
_INTEGRAL
   0
ARC
   5
C2
 100
AcDbEntity
   8
0
 370
-2
   6
BYBLOCK
  62
0
 100
AcDbCircle
  10
 0.44488800000000
  20
-0.91335000000000E-1
  30
0.0
  40
 0.45416700000000
 100
AcDbArc
  50
 102.00000000000
  51
 168.00000000000
   0
ARC
   5
C3
 100
AcDbEntity
   8
0
 370
-2
   6
BYBLOCK
  62
0
 100
AcDbCircle
  10
-0.44488800000000
  20
 0.91335000000000E-1
  30
0.0
  40
 0.45416700000000
 100
AcDbArc
  50
 282.00000000000
  51
 348.00000000000
   0
ENDBLK
   5
C4
 100
AcDbEntity
   8
0
 100
AcDbBlockEnd
   0
BLOCK
   5
C5
 100
AcDbEntity
   8
0
 100
AcDbBlockBegin
   2
*D1
  70
65
  10
0.0
  20
0.0
  30
0.0
   3
*D1
   0
LINE
   5
C6
 100
AcDbEntity
   8
LEVEL001
 370
15
 100
AcDbLine
   6
CONTINUOUS
  62
8
  10
 417.88295462028
  20
 958.86241211145
  30
0.0
  11
 417.88295462028
  21
 1006.0071489535
  31
0.0
   0
LINE
   5
C7
 100
AcDbEntity
   8
LEVEL001
 370
15
 100
AcDbLine
   6
CONTINUOUS
  62
8
  10
 167.88295462028
  20
 810.86241211145
  30
0.0
  11
 167.88295462028
  21
 1006.0071489535
  31
0.0
   0
LINE
   5
C8
 100
AcDbEntity
   8
LEVEL001
 370
15
 100
AcDbLine
   6
CONTINUOUS
  62
8
  10
 417.88295462028
  20
 1002.0071489535
  30
0.0
  11
 292.88295462028
  21
 1002.0071489535
  31
0.0
   0
LINE
   5
C9
 100
AcDbEntity
   8
LEVEL001
 370
15
 100
AcDbLine
   6
CONTINUOUS
  62
8
  10
 167.88295462028
  20
 1002.0071489535
  30
0.0
  11
 292.88295462028
  21
 1002.0071489535
  31
0.0
   0
SOLID
   5
CA
 100
AcDbEntity
   8
LEVEL001
 100
AcDbTrace
   6
CONTINUOUS
  62
8
  10
 417.88295462028
  20
 1002.0071489535
  30
0.0
  11
 409.88295462028
  21
 1003.4177647992
  31
0.0
  12
 409.88295462028
  22
 1000.5965331079
  32
0.0
  13
 409.88295462028
  23
 1000.5965331079
  33
0.0
   0
SOLID
   5
CB
 100
AcDbEntity
   8
LEVEL001
 100
AcDbTrace
   6
CONTINUOUS
  62
8
  10
 167.88295462028
  20
 1002.0071489535
  30
0.0
  11
 175.88295462028
  21
 1000.5965331079
  31
0.0
  12
 175.88295462028
  22
 1003.4177647992
  32
0.0
  13
 175.88295462028
  23
 1003.4177647992
  33
0.0
   0
MTEXT
   5
CC
 100
AcDbEntity
   8
LEVEL001
 370
15
  62
8
 100
AcDbMText
  10
 292.88295462028
  20
 1006.0071489535
  30
0.0
  40
 10.000000000000
  41
0.0
  71
8
  72
1
   1
\A1;250
   7
GMM002
   0
ENDBLK
   5
CD
 100
AcDbEntity
   8
0
 100
AcDbBlockEnd
   0
BLOCK
   5
CE
 100
AcDbEntity
   8
0
 100
AcDbBlockBegin
   2
*D2
  70
65
  10
0.0
  20
0.0
  30
0.0
   3
*D2
   0
LINE
   5
CF
 100
AcDbEntity
   8
LEVEL001
 370
15
 100
AcDbLine
   6
CONTINUOUS
  62
8
  10
 167.88295462028
  20
 664.64835858021
  30
0.0
  11
 167.88295462028
  21
 637.96875466091
  31
0.0
   0
LINE
   5
D0
 100
AcDbEntity
   8
LEVEL001
 370
15
 100
AcDbLine
   6
CONTINUOUS
  62
8
  10
 202.88295462028
  20
 670.76266397414
  30
0.0
  11
 202.88295462028
  21
 637.96875466091
  31
0.0
   0
LINE
   5
D1
 100
AcDbEntity
   8
LEVEL001
 370
15
 100
AcDbLine
   6
CONTINUOUS
  62
8
  10
 167.88295462028
  20
 641.96875466091
  30
0.0
  11
 185.38295462028
  21
 641.96875466091
  31
0.0
   0
LINE
   5
D2
 100
AcDbEntity
   8
LEVEL001
 370
15
 100
AcDbLine
   6
CONTINUOUS
  62
8
  10
 202.88295462028
  20
 641.96875466091
  30
0.0
  11
 185.38295462028
  21
 641.96875466091
  31
0.0
   0
SOLID
   5
D3
 100
AcDbEntity
   8
LEVEL001
 100
AcDbTrace
   6
CONTINUOUS
  62
8
  10
 167.88295462028
  20
 641.96875466091
  30
0.0
  11
 175.88295462028
  21
 640.55813881524
  31
0.0
  12
 175.88295462028
  22
 643.37937050658
  32
0.0
  13
 175.88295462028
  23
 643.37937050658
  33
0.0
   0
SOLID
   5
D4
 100
AcDbEntity
   8
LEVEL001
 100
AcDbTrace
   6
CONTINUOUS
  62
8
  10
 202.88295462028
  20
 641.96875466091
  30
0.0
  11
 194.88295462028
  21
 643.37937050658
  31
0.0
  12
 194.88295462028
  22
 640.55813881524
  32
0.0
  13
 194.88295462028
  23
 640.55813881524
  33
0.0
   0
MTEXT
   5
D5
 100
AcDbEntity
   8
LEVEL001
 370
15
  62
8
 100
AcDbMText
  10
 185.38295462028
  20
 645.96875466091
  30
0.0
  40
 10.000000000000
  41
0.0
  71
8
  72
1
   1
\A1;35
   7
GMM002
   0
ENDBLK
   5
D6
 100
AcDbEntity
   8
0
 100
AcDbBlockEnd
   0
BLOCK
   5
D7
 100
AcDbEntity
   8
0
 100
AcDbBlockBegin
   2
*D3
  70
65
  10
0.0
  20
0.0
  30
0.0
   3
*D3
   0
LINE
   5
D8
 100
AcDbEntity
   8
LEVEL001
 370
15
 100
AcDbLine
   6
CONTINUOUS
  62
8
  10
 421.88295462028
  20
 919.86241211145
  30
0.0
  11
 440.57253574658
  21
 919.86241211145
  31
0.0
   0
LINE
   5
D9
 100
AcDbEntity
   8
LEVEL001
 370
15
 100
AcDbLine
   6
CONTINUOUS
  62
8
  10
 421.88295462028
  20
 954.86241211145
  30
0.0
  11
 440.57253574658
  21
 954.86241211145
  31
0.0
   0
LINE
   5
DA
 100
AcDbEntity
   8
LEVEL001
 370
15
 100
AcDbLine
   6
CONTINUOUS
  62
8
  10
 436.57253574658
  20
 919.86241211145
  30
0.0
  11
 436.57253574658
  21
 937.36241211145
  31
0.0
   0
LINE
   5
DB
 100
AcDbEntity
   8
LEVEL001
 370
15
 100
AcDbLine
   6
CONTINUOUS
  62
8
  10
 436.57253574658
  20
 954.86241211145
  30
0.0
  11
 436.57253574658
  21
 937.36241211145
  31
0.0
   0
SOLID
   5
DC
 100
AcDbEntity
   8
LEVEL001
 100
AcDbTrace
   6
CONTINUOUS
  62
8
  10
 436.57253574658
  20
 919.86241211145
  30
0.0
  11
 437.98315159225
  21
 927.86241211145
  31
0.0
  12
 435.16191990091
  22
 927.86241211145
  32
0.0
  13
 435.16191990091
  23
 927.86241211145
  33
0.0
   0
SOLID
   5
DD
 100
AcDbEntity
   8
LEVEL001
 100
AcDbTrace
   6
CONTINUOUS
  62
8
  10
 436.57253574658
  20
 954.86241211145
  30
0.0
  11
 435.16191990091
  21
 946.86241211145
  31
0.0
  12
 437.98315159225
  22
 946.86241211145
  32
0.0
  13
 437.98315159225
  23
 946.86241211145
  33
0.0
   0
MTEXT
   5
DE
 100
AcDbEntity
   8
LEVEL001
 370
15
  62
8
 100
AcDbMText
  10
 432.57253574658
  20
 937.36241211145
  30
0.0
  40
 10.000000000000
  41
0.0
  71
8
  72
1
   1
\A1;35
   7
GMM002
  11
0.0
  21
 1.0000000000000
  31
0.0
   0
ENDBLK
   5
DF
 100
AcDbEntity
   8
0
 100
AcDbBlockEnd
   0
BLOCK
   5
E0
 100
AcDbEntity
   8
0
 100
AcDbBlockBegin
   2
*D4
  70
65
  10
0.0
  20
0.0
  30
0.0
   3
*D4
   0
LINE
   5
E1
 100
AcDbEntity
   8
LEVEL001
 370
15
 100
AcDbLine
   6
CONTINUOUS
  62
8
  10
 313.88295462028
  20
 954.86241211145
  30
0.0
  11
 123.22948205028
  21
 954.86241211145
  31
0.0
   0
LINE
   5
E2
 100
AcDbEntity
   8
LEVEL001
 370
15
 100
AcDbLine
   6
CONTINUOUS
  62
8
  10
 163.88295462028
  20
 704.86241211145
  30
0.0
  11
 123.22948205028
  21
 704.86241211145
  31
0.0
   0
LINE
   5
E3
 100
AcDbEntity
   8
LEVEL001
 370
15
 100
AcDbLine
   6
CONTINUOUS
  62
8
  10
 127.22948205028
  20
 954.86241211145
  30
0.0
  11
 127.22948205028
  21
 829.86241211145
  31
0.0
   0
LINE
   5
E4
 100
AcDbEntity
   8
LEVEL001
 370
15
 100
AcDbLine
   6
CONTINUOUS
  62
8
  10
 127.22948205028
  20
 704.86241211145
  30
0.0
  11
 127.22948205028
  21
 829.86241211145
  31
0.0
   0
SOLID
   5
E5
 100
AcDbEntity
   8
LEVEL001
 100
AcDbTrace
   6
CONTINUOUS
  62
8
  10
 127.22948205028
  20
 954.86241211145
  30
0.0
  11
 125.81886620462
  21
 946.86241211145
  31
0.0
  12
 128.64009789595
  22
 946.86241211145
  32
0.0
  13
 128.64009789595
  23
 946.86241211145
  33
0.0
   0
SOLID
   5
E6
 100
AcDbEntity
   8
LEVEL001
 100
AcDbTrace
   6
CONTINUOUS
  62
8
  10
 127.22948205028
  20
 704.86241211145
  30
0.0
  11
 128.64009789595
  21
 712.86241211145
  31
0.0
  12
 125.81886620462
  22
 712.86241211145
  32
0.0
  13
 125.81886620462
  23
 712.86241211145
  33
0.0
   0
MTEXT
   5
E7
 100
AcDbEntity
   8
LEVEL001
 370
15
  62
8
 100
AcDbMText
  10
 123.22948205028
  20
 829.86241211145
  30
0.0
  40
 10.000000000000
  41
0.0
  71
8
  72
1
   1
\A1;250
   7
GMM002
  11
0.0
  21
 1.0000000000000
  31
0.0
   0
ENDBLK
   5
E8
 100
AcDbEntity
   8
0
 100
AcDbBlockEnd
   0
BLOCK
   5
E9
 100
AcDbEntity
   8
0
 100
AcDbBlockBegin
   2
*D5
  70
65
  10
0.0
  20
0.0
  30
0.0
   3
*D5
   0
LINE
   5
EA
 100
AcDbEntity
   8
LEVEL001
 370
15
 100
AcDbLine
   6
CONTINUOUS
  62
8
  10
 417.88295462028
  20
 412.86241211147
  30
0.0
  11
 417.88295462028
  21
 460.00714895357
  31
0.0
   0
LINE
   5
EB
 100
AcDbEntity
   8
LEVEL001
 370
15
 100
AcDbLine
   6
CONTINUOUS
  62
8
  10
 167.88295462028
  20
 264.86241211147
  30
0.0
  11
 167.88295462028
  21
 460.00714895357
  31
0.0
   0
LINE
   5
EC
 100
AcDbEntity
   8
LEVEL001
 370
15
 100
AcDbLine
   6
CONTINUOUS
  62
8
  10
 417.88295462028
  20
 456.00714895357
  30
0.0
  11
 292.88295462028
  21
 456.00714895357
  31
0.0
   0
LINE
   5
ED
 100
AcDbEntity
   8
LEVEL001
 370
15
 100
AcDbLine
   6
CONTINUOUS
  62
8
  10
 167.88295462028
  20
 456.00714895357
  30
0.0
  11
 292.88295462028
  21
 456.00714895357
  31
0.0
   0
SOLID
   5
EE
 100
AcDbEntity
   8
LEVEL001
 100
AcDbTrace
   6
CONTINUOUS
  62
8
  10
 417.88295462028
  20
 456.00714895357
  30
0.0
  11
 409.88295462028
  21
 457.41776479923
  31
0.0
  12
 409.88295462028
  22
 454.59653310790
  32
0.0
  13
 409.88295462028
  23
 454.59653310790
  33
0.0
   0
SOLID
   5
EF
 100
AcDbEntity
   8
LEVEL001
 100
AcDbTrace
   6
CONTINUOUS
  62
8
  10
 167.88295462028
  20
 456.00714895357
  30
0.0
  11
 175.88295462028
  21
 454.59653310790
  31
0.0
  12
 175.88295462028
  22
 457.41776479923
  32
0.0
  13
 175.88295462028
  23
 457.41776479923
  33
0.0
   0
MTEXT
   5
F0
 100
AcDbEntity
   8
LEVEL001
 370
15
  62
8
 100
AcDbMText
  10
 292.88295462028
  20
 460.00714895357
  30
0.0
  40
 10.000000000000
  41
0.0
  71
8
  72
1
   1
\A1;250
   7
GMM002
   0
ENDBLK
   5
F1
 100
AcDbEntity
   8
0
 100
AcDbBlockEnd
   0
BLOCK
   5
F2
 100
AcDbEntity
   8
0
 100
AcDbBlockBegin
   2
*D6
  70
65
  10
0.0
  20
0.0
  30
0.0
   3
*D6
   0
LINE
   5
F3
 100
AcDbEntity
   8
LEVEL001
 370
15
 100
AcDbLine
   6
CONTINUOUS
  62
8
  10
 167.88295462028
  20
 118.64835858023
  30
0.0
  11
 167.88295462028
  21
 91.968754660932
  31
0.0
   0
LINE
   5
F4
 100
AcDbEntity
   8
LEVEL001
 370
15
 100
AcDbLine
   6
CONTINUOUS
  62
8
  10
 202.88295462028
  20
 124.76266397416
  30
0.0
  11
 202.88295462028
  21
 91.968754660932
  31
0.0
   0
LINE
   5
F5
 100
AcDbEntity
   8
LEVEL001
 370
15
 100
AcDbLine
   6
CONTINUOUS
  62
8
  10
 167.88295462028
  20
 95.968754660932
  30
0.0
  11
 185.38295462028
  21
 95.968754660932
  31
0.0
   0
LINE
   5
F6
 100
AcDbEntity
   8
LEVEL001
 370
15
 100
AcDbLine
   6
CONTINUOUS
  62
8
  10
 202.88295462028
  20
 95.968754660932
  30
0.0
  11
 185.38295462028
  21
 95.968754660932
  31
0.0
   0
SOLID
   5
F7
 100
AcDbEntity
   8
LEVEL001
 100
AcDbTrace
   6
CONTINUOUS
  62
8
  10
 167.88295462028
  20
 95.968754660932
  30
0.0
  11
 175.88295462028
  21
 94.558138815265
  31
0.0
  12
 175.88295462028
  22
 97.379370506600
  32
0.0
  13
 175.88295462028
  23
 97.379370506600
  33
0.0
   0
SOLID
   5
F8
 100
AcDbEntity
   8
LEVEL001
 100
AcDbTrace
   6
CONTINUOUS
  62
8
  10
 202.88295462028
  20
 95.968754660932
  30
0.0
  11
 194.88295462028
  21
 97.379370506600
  31
0.0
  12
 194.88295462028
  22
 94.558138815265
  32
0.0
  13
 194.88295462028
  23
 94.558138815265
  33
0.0
   0
MTEXT
   5
F9
 100
AcDbEntity
   8
LEVEL001
 370
15
  62
8
 100
AcDbMText
  10
 185.38295462028
  20
 99.968754660932
  30
0.0
  40
 10.000000000000
  41
0.0
  71
8
  72
1
   1
\A1;35
   7
GMM002
   0
ENDBLK
   5
FA
 100
AcDbEntity
   8
0
 100
AcDbBlockEnd
   0
BLOCK
   5
FB
 100
AcDbEntity
   8
0
 100
AcDbBlockBegin
   2
*D7
  70
65
  10
0.0
  20
0.0
  30
0.0
   3
*D7
   0
LINE
   5
FC
 100
AcDbEntity
   8
LEVEL001
 370
15
 100
AcDbLine
   6
CONTINUOUS
  62
8
  10
 421.88295462028
  20
 373.86241211147
  30
0.0
  11
 440.57253574658
  21
 373.86241211147
  31
0.0
   0
LINE
   5
FD
 100
AcDbEntity
   8
LEVEL001
 370
15
 100
AcDbLine
   6
CONTINUOUS
  62
8
  10
 421.88295462028
  20
 408.86241211147
  30
0.0
  11
 440.57253574658
  21
 408.86241211147
  31
0.0
   0
LINE
   5
FE
 100
AcDbEntity
   8
LEVEL001
 370
15
 100
AcDbLine
   6
CONTINUOUS
  62
8
  10
 436.57253574658
  20
 373.86241211147
  30
0.0
  11
 436.57253574658
  21
 391.36241211147
  31
0.0
   0
LINE
   5
FF
 100
AcDbEntity
   8
LEVEL001
 370
15
 100
AcDbLine
   6
CONTINUOUS
  62
8
  10
 436.57253574658
  20
 408.86241211147
  30
0.0
  11
 436.57253574658
  21
 391.36241211147
  31
0.0
   0
SOLID
   5
100
 100
AcDbEntity
   8
LEVEL001
 100
AcDbTrace
   6
CONTINUOUS
  62
8
  10
 436.57253574658
  20
 373.86241211147
  30
0.0
  11
 437.98315159225
  21
 381.86241211147
  31
0.0
  12
 435.16191990091
  22
 381.86241211147
  32
0.0
  13
 435.16191990091
  23
 381.86241211147
  33
0.0
   0
SOLID
   5
101
 100
AcDbEntity
   8
LEVEL001
 100
AcDbTrace
   6
CONTINUOUS
  62
8
  10
 436.57253574658
  20
 408.86241211147
  30
0.0
  11
 435.16191990091
  21
 400.86241211147
  31
0.0
  12
 437.98315159225
  22
 400.86241211147
  32
0.0
  13
 437.98315159225
  23
 400.86241211147
  33
0.0
   0
MTEXT
   5
102
 100
AcDbEntity
   8
LEVEL001
 370
15
  62
8
 100
AcDbMText
  10
 432.57253574658
  20
 391.36241211147
  30
0.0
  40
 10.000000000000
  41
0.0
  71
8
  72
1
   1
\A1;35
   7
GMM002
  11
0.0
  21
 1.0000000000000
  31
0.0
   0
ENDBLK
   5
103
 100
AcDbEntity
   8
0
 100
AcDbBlockEnd
   0
BLOCK
   5
104
 100
AcDbEntity
   8
0
 100
AcDbBlockBegin
   2
*D8
  70
65
  10
0.0
  20
0.0
  30
0.0
   3
*D8
   0
LINE
   5
105
 100
AcDbEntity
   8
LEVEL001
 370
15
 100
AcDbLine
   6
CONTINUOUS
  62
8
  10
 313.88295462028
  20
 408.86241211147
  30
0.0
  11
 123.22948205028
  21
 408.86241211147
  31
0.0
   0
LINE
   5
106
 100
AcDbEntity
   8
LEVEL001
 370
15
 100
AcDbLine
   6
CONTINUOUS
  62
8
  10
 163.88295462028
  20
 158.86241211147
  30
0.0
  11
 123.22948205028
  21
 158.86241211147
  31
0.0
   0
LINE
   5
107
 100
AcDbEntity
   8
LEVEL001
 370
15
 100
AcDbLine
   6
CONTINUOUS
  62
8
  10
 127.22948205028
  20
 408.86241211147
  30
0.0
  11
 127.22948205028
  21
 283.86241211147
  31
0.0
   0
LINE
   5
108
 100
AcDbEntity
   8
LEVEL001
 370
15
 100
AcDbLine
   6
CONTINUOUS
  62
8
  10
 127.22948205028
  20
 158.86241211147
  30
0.0
  11
 127.22948205028
  21
 283.86241211147
  31
0.0
   0
SOLID
   5
109
 100
AcDbEntity
   8
LEVEL001
 100
AcDbTrace
   6
CONTINUOUS
  62
8
  10
 127.22948205028
  20
 408.86241211147
  30
0.0
  11
 125.81886620462
  21
 400.86241211147
  31
0.0
  12
 128.64009789595
  22
 400.86241211147
  32
0.0
  13
 128.64009789595
  23
 400.86241211147
  33
0.0
   0
SOLID
   5
10A
 100
AcDbEntity
   8
LEVEL001
 100
AcDbTrace
   6
CONTINUOUS
  62
8
  10
 127.22948205028
  20
 158.86241211147
  30
0.0
  11
 128.64009789595
  21
 166.86241211147
  31
0.0
  12
 125.81886620462
  22
 166.86241211147
  32
0.0
  13
 125.81886620462
  23
 166.86241211147
  33
0.0
   0
MTEXT
   5
10B
 100
AcDbEntity
   8
LEVEL001
 370
15
  62
8
 100
AcDbMText
  10
 123.22948205028
  20
 283.86241211147
  30
0.0
  40
 10.000000000000
  41
0.0
  71
8
  72
1
   1
\A1;250
   7
GMM002
  11
0.0
  21
 1.0000000000000
  31
0.0
   0
ENDBLK
   5
10C
 100
AcDbEntity
   8
0
 100
AcDbBlockEnd
   0
BLOCK
   5
10D
 100
AcDbEntity
   8
0
 100
AcDbBlockBegin
   2
*D9
  70
65
  10
0.0
  20
0.0
  30
0.0
   3
*D9
   0
LINE
   5
10E
 100
AcDbEntity
   8
LEVEL001
 370
15
 100
AcDbLine
   6
CONTINUOUS
  62
8
  10
 687.98693282424
  20
 958.86241211145
  30
0.0
  11
 687.98693282424
  21
 1006.0071489535
  31
0.0
   0
LINE
   5
10F
 100
AcDbEntity
   8
LEVEL001
 370
15
 100
AcDbLine
   6
CONTINUOUS
  62
8
  10
 937.98693282424
  20
 810.86241211145
  30
0.0
  11
 937.98693282424
  21
 1006.0071489535
  31
0.0
   0
LINE
   5
110
 100
AcDbEntity
   8
LEVEL001
 370
15
 100
AcDbLine
   6
CONTINUOUS
  62
8
  10
 687.98693282424
  20
 1002.0071489535
  30
0.0
  11
 812.98693282424
  21
 1002.0071489535
  31
0.0
   0
LINE
   5
111
 100
AcDbEntity
   8
LEVEL001
 370
15
 100
AcDbLine
   6
CONTINUOUS
  62
8
  10
 937.98693282424
  20
 1002.0071489535
  30
0.0
  11
 812.98693282424
  21
 1002.0071489535
  31
0.0
   0
SOLID
   5
112
 100
AcDbEntity
   8
LEVEL001
 100
AcDbTrace
   6
CONTINUOUS
  62
8
  10
 687.98693282424
  20
 1002.0071489535
  30
0.0
  11
 695.98693282424
  21
 1000.5965331079
  31
0.0
  12
 695.98693282424
  22
 1003.4177647992
  32
0.0
  13
 695.98693282424
  23
 1003.4177647992
  33
0.0
   0
SOLID
   5
113
 100
AcDbEntity
   8
LEVEL001
 100
AcDbTrace
   6
CONTINUOUS
  62
8
  10
 937.98693282424
  20
 1002.0071489535
  30
0.0
  11
 929.98693282424
  21
 1003.4177647992
  31
0.0
  12
 929.98693282424
  22
 1000.5965331079
  32
0.0
  13
 929.98693282424
  23
 1000.5965331079
  33
0.0
   0
MTEXT
   5
114
 100
AcDbEntity
   8
LEVEL001
 370
15
  62
8
 100
AcDbMText
  10
 812.98693282424
  20
 1006.0071489535
  30
0.0
  40
 10.000000000000
  41
0.0
  71
8
  72
1
   1
\A1;250
   7
GMM002
   0
ENDBLK
   5
115
 100
AcDbEntity
   8
0
 100
AcDbBlockEnd
   0
BLOCK
   5
116
 100
AcDbEntity
   8
0
 100
AcDbBlockBegin
   2
*D10
  70
65
  10
0.0
  20
0.0
  30
0.0
   3
*D10
   0
LINE
   5
117
 100
AcDbEntity
   8
LEVEL001
 370
15
 100
AcDbLine
   6
CONTINUOUS
  62
8
  10
 902.98693282424
  20
 664.64835858021
  30
0.0
  11
 902.98693282424
  21
 637.96875466091
  31
0.0
   0
LINE
   5
118
 100
AcDbEntity
   8
LEVEL001
 370
15
 100
AcDbLine
   6
CONTINUOUS
  62
8
  10
 937.98693282424
  20
 670.76266397414
  30
0.0
  11
 937.98693282424
  21
 637.96875466091
  31
0.0
   0
LINE
   5
119
 100
AcDbEntity
   8
LEVEL001
 370
15
 100
AcDbLine
   6
CONTINUOUS
  62
8
  10
 902.98693282424
  20
 641.96875466091
  30
0.0
  11
 920.48693282424
  21
 641.96875466091
  31
0.0
   0
LINE
   5
11A
 100
AcDbEntity
   8
LEVEL001
 370
15
 100
AcDbLine
   6
CONTINUOUS
  62
8
  10
 937.98693282424
  20
 641.96875466091
  30
0.0
  11
 920.48693282424
  21
 641.96875466091
  31
0.0
   0
SOLID
   5
11B
 100
AcDbEntity
   8
LEVEL001
 100
AcDbTrace
   6
CONTINUOUS
  62
8
  10
 902.98693282424
  20
 641.96875466091
  30
0.0
  11
 910.98693282424
  21
 640.55813881524
  31
0.0
  12
 910.98693282424
  22
 643.37937050658
  32
0.0
  13
 910.98693282424
  23
 643.37937050658
  33
0.0
   0
SOLID
   5
11C
 100
AcDbEntity
   8
LEVEL001
 100
AcDbTrace
   6
CONTINUOUS
  62
8
  10
 937.98693282424
  20
 641.96875466091
  30
0.0
  11
 929.98693282424
  21
 643.37937050658
  31
0.0
  12
 929.98693282424
  22
 640.55813881524
  32
0.0
  13
 929.98693282424
  23
 640.55813881524
  33
0.0
   0
MTEXT
   5
11D
 100
AcDbEntity
   8
LEVEL001
 370
15
  62
8
 100
AcDbMText
  10
 920.48693282424
  20
 645.96875466091
  30
0.0
  40
 10.000000000000
  41
0.0
  71
8
  72
1
   1
\A1;35
   7
GMM002
   0
ENDBLK
   5
11E
 100
AcDbEntity
   8
0
 100
AcDbBlockEnd
   0
BLOCK
   5
11F
 100
AcDbEntity
   8
0
 100
AcDbBlockBegin
   2
*D11
  70
65
  10
0.0
  20
0.0
  30
0.0
   3
*D11
   0
LINE
   5
120
 100
AcDbEntity
   8
LEVEL001
 370
15
 100
AcDbLine
   6
CONTINUOUS
  62
8
  10
 683.98693282424
  20
 919.86241211145
  30
0.0
  11
 665.48012048193
  21
 919.86241211145
  31
0.0
   0
LINE
   5
121
 100
AcDbEntity
   8
LEVEL001
 370
15
 100
AcDbLine
   6
CONTINUOUS
  62
8
  10
 683.98693282424
  20
 954.86241211145
  30
0.0
  11
 665.48012048193
  21
 954.86241211145
  31
0.0
   0
LINE
   5
122
 100
AcDbEntity
   8
LEVEL001
 370
15
 100
AcDbLine
   6
CONTINUOUS
  62
8
  10
 669.48012048193
  20
 919.86241211145
  30
0.0
  11
 669.48012048193
  21
 937.36241211145
  31
0.0
   0
LINE
   5
123
 100
AcDbEntity
   8
LEVEL001
 370
15
 100
AcDbLine
   6
CONTINUOUS
  62
8
  10
 669.48012048193
  20
 954.86241211145
  30
0.0
  11
 669.48012048193
  21
 937.36241211145
  31
0.0
   0
SOLID
   5
124
 100
AcDbEntity
   8
LEVEL001
 100
AcDbTrace
   6
CONTINUOUS
  62
8
  10
 669.48012048193
  20
 919.86241211145
  30
0.0
  11
 670.89073632760
  21
 927.86241211145
  31
0.0
  12
 668.06950463626
  22
 927.86241211145
  32
0.0
  13
 668.06950463626
  23
 927.86241211145
  33
0.0
   0
SOLID
   5
125
 100
AcDbEntity
   8
LEVEL001
 100
AcDbTrace
   6
CONTINUOUS
  62
8
  10
 669.48012048193
  20
 954.86241211145
  30
0.0
  11
 668.06950463626
  21
 946.86241211145
  31
0.0
  12
 670.89073632760
  22
 946.86241211145
  32
0.0
  13
 670.89073632760
  23
 946.86241211145
  33
0.0
   0
MTEXT
   5
126
 100
AcDbEntity
   8
LEVEL001
 370
15
  62
8
 100
AcDbMText
  10
 665.48012048193
  20
 947.36241211145
  30
0.0
  40
 10.000000000000
  41
0.0
  71
8
  72
1
   1
\A1;35
   7
GMM002
  11
0.0
  21
 1.0000000000000
  31
0.0
  44
 0.79999984000003
   0
ENDBLK
   5
127
 100
AcDbEntity
   8
0
 100
AcDbBlockEnd
   0
BLOCK
   5
128
 100
AcDbEntity
   8
0
 100
AcDbBlockBegin
   2
*D12
  70
65
  10
0.0
  20
0.0
  30
0.0
   3
*D12
   0
LINE
   5
129
 100
AcDbEntity
   8
LEVEL001
 370
15
 100
AcDbLine
   6
CONTINUOUS
  62
8
  10
 941.98693282424
  20
 704.86241211145
  30
0.0
  11
 970.89286014495
  21
 704.86241211145
  31
0.0
   0
LINE
   5
12A
 100
AcDbEntity
   8
LEVEL001
 370
15
 100
AcDbLine
   6
CONTINUOUS
  62
8
  10
 791.98693282424
  20
 954.86241211145
  30
0.0
  11
 970.89286014495
  21
 954.86241211145
  31
0.0
   0
LINE
   5
12B
 100
AcDbEntity
   8
LEVEL001
 370
15
 100
AcDbLine
   6
CONTINUOUS
  62
8
  10
 966.89286014495
  20
 704.86241211145
  30
0.0
  11
 966.89286014495
  21
 829.86241211145
  31
0.0
   0
LINE
   5
12C
 100
AcDbEntity
   8
LEVEL001
 370
15
 100
AcDbLine
   6
CONTINUOUS
  62
8
  10
 966.89286014495
  20
 954.86241211145
  30
0.0
  11
 966.89286014495
  21
 829.86241211145
  31
0.0
   0
SOLID
   5
12D
 100
AcDbEntity
   8
LEVEL001
 100
AcDbTrace
   6
CONTINUOUS
  62
8
  10
 966.89286014495
  20
 704.86241211145
  30
0.0
  11
 968.30347599062
  21
 712.86241211145
  31
0.0
  12
 965.48224429928
  22
 712.86241211145
  32
0.0
  13
 965.48224429928
  23
 712.86241211145
  33
0.0
   0
SOLID
   5
12E
 100
AcDbEntity
   8
LEVEL001
 100
AcDbTrace
   6
CONTINUOUS
  62
8
  10
 966.89286014495
  20
 954.86241211145
  30
0.0
  11
 965.48224429928
  21
 946.86241211145
  31
0.0
  12
 968.30347599062
  22
 946.86241211145
  32
0.0
  13
 968.30347599062
  23
 946.86241211145
  33
0.0
   0
MTEXT
   5
12F
 100
AcDbEntity
   8
LEVEL001
 370
15
  62
8
 100
AcDbMText
  10
 962.89286014495
  20
 829.86241211145
  30
0.0
  40
 10.000000000000
  41
0.0
  71
8
  72
1
   1
\A1;250
   7
GMM002
  11
0.0
  21
 1.0000000000000
  31
0.0
   0
ENDBLK
   5
130
 100
AcDbEntity
   8
0
 100
AcDbBlockEnd
   0
BLOCK
   5
131
 100
AcDbEntity
   8
0
 100
AcDbBlockBegin
   2
*D13
  70
65
  10
0.0
  20
0.0
  30
0.0
   3
*D13
   0
LINE
   5
132
 100
AcDbEntity
   8
LEVEL001
 370
15
 100
AcDbLine
   6
CONTINUOUS
  62
8
  10
 687.98693282424
  20
 412.86241211147
  30
0.0
  11
 687.98693282424
  21
 460.00714895357
  31
0.0
   0
LINE
   5
133
 100
AcDbEntity
   8
LEVEL001
 370
15
 100
AcDbLine
   6
CONTINUOUS
  62
8
  10
 937.98693282424
  20
 264.86241211147
  30
0.0
  11
 937.98693282424
  21
 460.00714895357
  31
0.0
   0
LINE
   5
134
 100
AcDbEntity
   8
LEVEL001
 370
15
 100
AcDbLine
   6
CONTINUOUS
  62
8
  10
 687.98693282424
  20
 456.00714895357
  30
0.0
  11
 812.98693282424
  21
 456.00714895357
  31
0.0
   0
LINE
   5
135
 100
AcDbEntity
   8
LEVEL001
 370
15
 100
AcDbLine
   6
CONTINUOUS
  62
8
  10
 937.98693282424
  20
 456.00714895357
  30
0.0
  11
 812.98693282424
  21
 456.00714895357
  31
0.0
   0
SOLID
   5
136
 100
AcDbEntity
   8
LEVEL001
 100
AcDbTrace
   6
CONTINUOUS
  62
8
  10
 687.98693282424
  20
 456.00714895357
  30
0.0
  11
 695.98693282424
  21
 454.59653310790
  31
0.0
  12
 695.98693282424
  22
 457.41776479923
  32
0.0
  13
 695.98693282424
  23
 457.41776479923
  33
0.0
   0
SOLID
   5
137
 100
AcDbEntity
   8
LEVEL001
 100
AcDbTrace
   6
CONTINUOUS
  62
8
  10
 937.98693282424
  20
 456.00714895357
  30
0.0
  11
 929.98693282424
  21
 457.41776479923
  31
0.0
  12
 929.98693282424
  22
 454.59653310790
  32
0.0
  13
 929.98693282424
  23
 454.59653310790
  33
0.0
   0
MTEXT
   5
138
 100
AcDbEntity
   8
LEVEL001
 370
15
  62
8
 100
AcDbMText
  10
 812.98693282424
  20
 460.00714895357
  30
0.0
  40
 10.000000000000
  41
0.0
  71
8
  72
1
   1
\A1;250
   7
GMM002
   0
ENDBLK
   5
139
 100
AcDbEntity
   8
0
 100
AcDbBlockEnd
   0
BLOCK
   5
13A
 100
AcDbEntity
   8
0
 100
AcDbBlockBegin
   2
*D14
  70
65
  10
0.0
  20
0.0
  30
0.0
   3
*D14
   0
LINE
   5
13B
 100
AcDbEntity
   8
LEVEL001
 370
15
 100
AcDbLine
   6
CONTINUOUS
  62
8
  10
 902.98693282424
  20
 118.64835858023
  30
0.0
  11
 902.98693282424
  21
 91.968754660932
  31
0.0
   0
LINE
   5
13C
 100
AcDbEntity
   8
LEVEL001
 370
15
 100
AcDbLine
   6
CONTINUOUS
  62
8
  10
 937.98693282424
  20
 124.76266397416
  30
0.0
  11
 937.98693282424
  21
 91.968754660932
  31
0.0
   0
LINE
   5
13D
 100
AcDbEntity
   8
LEVEL001
 370
15
 100
AcDbLine
   6
CONTINUOUS
  62
8
  10
 902.98693282424
  20
 95.968754660932
  30
0.0
  11
 920.48693282424
  21
 95.968754660932
  31
0.0
   0
LINE
   5
13E
 100
AcDbEntity
   8
LEVEL001
 370
15
 100
AcDbLine
   6
CONTINUOUS
  62
8
  10
 937.98693282424
  20
 95.968754660932
  30
0.0
  11
 920.48693282424
  21
 95.968754660932
  31
0.0
   0
SOLID
   5
13F
 100
AcDbEntity
   8
LEVEL001
 100
AcDbTrace
   6
CONTINUOUS
  62
8
  10
 902.98693282424
  20
 95.968754660932
  30
0.0
  11
 910.98693282424
  21
 94.558138815265
  31
0.0
  12
 910.98693282424
  22
 97.379370506600
  32
0.0
  13
 910.98693282424
  23
 97.379370506600
  33
0.0
   0
SOLID
   5
140
 100
AcDbEntity
   8
LEVEL001
 100
AcDbTrace
   6
CONTINUOUS
  62
8
  10
 937.98693282424
  20
 95.968754660932
  30
0.0
  11
 929.98693282424
  21
 97.379370506600
  31
0.0
  12
 929.98693282424
  22
 94.558138815265
  32
0.0
  13
 929.98693282424
  23
 94.558138815265
  33
0.0
   0
MTEXT
   5
141
 100
AcDbEntity
   8
LEVEL001
 370
15
  62
8
 100
AcDbMText
  10
 920.48693282424
  20
 99.968754660932
  30
0.0
  40
 10.000000000000
  41
0.0
  71
8
  72
1
   1
\A1;35
   7
GMM002
   0
ENDBLK
   5
142
 100
AcDbEntity
   8
0
 100
AcDbBlockEnd
   0
BLOCK
   5
143
 100
AcDbEntity
   8
0
 100
AcDbBlockBegin
   2
*D15
  70
65
  10
0.0
  20
0.0
  30
0.0
   3
*D15
   0
LINE
   5
144
 100
AcDbEntity
   8
LEVEL001
 370
15
 100
AcDbLine
   6
CONTINUOUS
  62
8
  10
 683.98693282424
  20
 373.86241211147
  30
0.0
  11
 665.48012048193
  21
 373.86241211147
  31
0.0
   0
LINE
   5
145
 100
AcDbEntity
   8
LEVEL001
 370
15
 100
AcDbLine
   6
CONTINUOUS
  62
8
  10
 683.98693282424
  20
 408.86241211147
  30
0.0
  11
 665.48012048193
  21
 408.86241211147
  31
0.0
   0
LINE
   5
146
 100
AcDbEntity
   8
LEVEL001
 370
15
 100
AcDbLine
   6
CONTINUOUS
  62
8
  10
 669.48012048193
  20
 373.86241211147
  30
0.0
  11
 669.48012048193
  21
 391.36241211147
  31
0.0
   0
LINE
   5
147
 100
AcDbEntity
   8
LEVEL001
 370
15
 100
AcDbLine
   6
CONTINUOUS
  62
8
  10
 669.48012048193
  20
 408.86241211147
  30
0.0
  11
 669.48012048193
  21
 391.36241211147
  31
0.0
   0
SOLID
   5
148
 100
AcDbEntity
   8
LEVEL001
 100
AcDbTrace
   6
CONTINUOUS
  62
8
  10
 669.48012048193
  20
 373.86241211147
  30
0.0
  11
 670.89073632760
  21
 381.86241211147
  31
0.0
  12
 668.06950463626
  22
 381.86241211147
  32
0.0
  13
 668.06950463626
  23
 381.86241211147
  33
0.0
   0
SOLID
   5
149
 100
AcDbEntity
   8
LEVEL001
 100
AcDbTrace
   6
CONTINUOUS
  62
8
  10
 669.48012048193
  20
 408.86241211147
  30
0.0
  11
 668.06950463626
  21
 400.86241211147
  31
0.0
  12
 670.89073632760
  22
 400.86241211147
  32
0.0
  13
 670.89073632760
  23
 400.86241211147
  33
0.0
   0
MTEXT
   5
14A
 100
AcDbEntity
   8
LEVEL001
 370
15
  62
8
 100
AcDbMText
  10
 665.48012048193
  20
 391.36241211147
  30
0.0
  40
 10.000000000000
  41
0.0
  71
8
  72
1
   1
\A1;35
   7
GMM002
  11
0.0
  21
 1.0000000000000
  31
0.0
   0
ENDBLK
   5
14B
 100
AcDbEntity
   8
0
 100
AcDbBlockEnd
   0
BLOCK
   5
14C
 100
AcDbEntity
   8
0
 100
AcDbBlockBegin
   2
*D16
  70
65
  10
0.0
  20
0.0
  30
0.0
   3
*D16
   0
LINE
   5
14D
 100
AcDbEntity
   8
LEVEL001
 370
15
 100
AcDbLine
   6
CONTINUOUS
  62
8
  10
 941.98693282424
  20
 158.86241211147
  30
0.0
  11
 970.89286014495
  21
 158.86241211147
  31
0.0
   0
LINE
   5
14E
 100
AcDbEntity
   8
LEVEL001
 370
15
 100
AcDbLine
   6
CONTINUOUS
  62
8
  10
 791.98693282424
  20
 408.86241211147
  30
0.0
  11
 970.89286014495
  21
 408.86241211147
  31
0.0
   0
LINE
   5
14F
 100
AcDbEntity
   8
LEVEL001
 370
15
 100
AcDbLine
   6
CONTINUOUS
  62
8
  10
 966.89286014495
  20
 158.86241211147
  30
0.0
  11
 966.89286014495
  21
 283.86241211147
  31
0.0
   0
LINE
   5
150
 100
AcDbEntity
   8
LEVEL001
 370
15
 100
AcDbLine
   6
CONTINUOUS
  62
8
  10
 966.89286014495
  20
 408.86241211147
  30
0.0
  11
 966.89286014495
  21
 283.86241211147
  31
0.0
   0
SOLID
   5
151
 100
AcDbEntity
   8
LEVEL001
 100
AcDbTrace
   6
CONTINUOUS
  62
8
  10
 966.89286014495
  20
 158.86241211147
  30
0.0
  11
 968.30347599062
  21
 166.86241211147
  31
0.0
  12
 965.48224429928
  22
 166.86241211147
  32
0.0
  13
 965.48224429928
  23
 166.86241211147
  33
0.0
   0
SOLID
   5
152
 100
AcDbEntity
   8
LEVEL001
 100
AcDbTrace
   6
CONTINUOUS
  62
8
  10
 966.89286014495
  20
 408.86241211147
  30
0.0
  11
 965.48224429928
  21
 400.86241211147
  31
0.0
  12
 968.30347599062
  22
 400.86241211147
  32
0.0
  13
 968.30347599062
  23
 400.86241211147
  33
0.0
   0
MTEXT
   5
153
 100
AcDbEntity
   8
LEVEL001
 370
15
  62
8
 100
AcDbMText
  10
 962.89286014495
  20
 283.86241211147
  30
0.0
  40
 10.000000000000
  41
0.0
  71
8
  72
1
   1
\A1;250
   7
GMM002
  11
0.0
  21
 1.0000000000000
  31
0.0
   0
ENDBLK
   5
154
 100
AcDbEntity
   8
0
 100
AcDbBlockEnd
   0
BLOCK
   5
155
 100
AcDbEntity
   8
0
 100
AcDbBlockBegin
   2
*D19
  70
65
  10
0.0
  20
0.0
  30
0.0
   3
*D19
   0
LINE
   5
156
 100
AcDbEntity
   8
LEVEL001
 370
15
 100
AcDbLine
   6
CONTINUOUS
  62
8
  10
 417.88295462028
  20
 958.86241211145
  30
0.0
  11
 417.88295462028
  21
 1006.0071489535
  31
0.0
   0
LINE
   5
157
 100
AcDbEntity
   8
LEVEL001
 370
15
 100
AcDbLine
   6
CONTINUOUS
  62
8
  10
 167.88295462028
  20
 810.86241211145
  30
0.0
  11
 167.88295462028
  21
 1006.0071489535
  31
0.0
   0
LINE
   5
158
 100
AcDbEntity
   8
LEVEL001
 370
15
 100
AcDbLine
   6
CONTINUOUS
  62
8
  10
 417.88295462028
  20
 1002.0071489535
  30
0.0
  11
 292.88295462028
  21
 1002.0071489535
  31
0.0
   0
LINE
   5
159
 100
AcDbEntity
   8
LEVEL001
 370
15
 100
AcDbLine
   6
CONTINUOUS
  62
8
  10
 167.88295462028
  20
 1002.0071489535
  30
0.0
  11
 292.88295462028
  21
 1002.0071489535
  31
0.0
   0
SOLID
   5
15A
 100
AcDbEntity
   8
LEVEL001
 100
AcDbTrace
   6
CONTINUOUS
  62
8
  10
 417.88295462028
  20
 1002.0071489535
  30
0.0
  11
 409.88295462028
  21
 1003.4177647992
  31
0.0
  12
 409.88295462028
  22
 1000.5965331079
  32
0.0
  13
 409.88295462028
  23
 1000.5965331079
  33
0.0
   0
SOLID
   5
15B
 100
AcDbEntity
   8
LEVEL001
 100
AcDbTrace
   6
CONTINUOUS
  62
8
  10
 167.88295462028
  20
 1002.0071489535
  30
0.0
  11
 175.88295462028
  21
 1000.5965331079
  31
0.0
  12
 175.88295462028
  22
 1003.4177647992
  32
0.0
  13
 175.88295462028
  23
 1003.4177647992
  33
0.0
   0
MTEXT
   5
15C
 100
AcDbEntity
   8
LEVEL001
 370
15
  62
8
 100
AcDbMText
  10
 292.88295462028
  20
 1006.0071489535
  30
0.0
  40
 10.000000000000
  41
0.0
  71
8
  72
1
   1
\A1;250
   7
GMM002
   0
ENDBLK
   5
15D
 100
AcDbEntity
   8
0
 100
AcDbBlockEnd
   0
BLOCK
   5
15E
 100
AcDbEntity
   8
0
 100
AcDbBlockBegin
   2
*D20
  70
65
  10
0.0
  20
0.0
  30
0.0
   3
*D20
   0
LINE
   5
15F
 100
AcDbEntity
   8
LEVEL001
 370
15
 100
AcDbLine
   6
CONTINUOUS
  62
8
  10
 167.88295462028
  20
 664.64835858021
  30
0.0
  11
 167.88295462028
  21
 637.96875466091
  31
0.0
   0
LINE
   5
160
 100
AcDbEntity
   8
LEVEL001
 370
15
 100
AcDbLine
   6
CONTINUOUS
  62
8
  10
 202.88295462028
  20
 670.76266397414
  30
0.0
  11
 202.88295462028
  21
 637.96875466091
  31
0.0
   0
LINE
   5
161
 100
AcDbEntity
   8
LEVEL001
 370
15
 100
AcDbLine
   6
CONTINUOUS
  62
8
  10
 167.88295462028
  20
 641.96875466091
  30
0.0
  11
 185.38295462028
  21
 641.96875466091
  31
0.0
   0
LINE
   5
162
 100
AcDbEntity
   8
LEVEL001
 370
15
 100
AcDbLine
   6
CONTINUOUS
  62
8
  10
 202.88295462028
  20
 641.96875466091
  30
0.0
  11
 185.38295462028
  21
 641.96875466091
  31
0.0
   0
SOLID
   5
163
 100
AcDbEntity
   8
LEVEL001
 100
AcDbTrace
   6
CONTINUOUS
  62
8
  10
 167.88295462028
  20
 641.96875466091
  30
0.0
  11
 175.88295462028
  21
 640.55813881524
  31
0.0
  12
 175.88295462028
  22
 643.37937050658
  32
0.0
  13
 175.88295462028
  23
 643.37937050658
  33
0.0
   0
SOLID
   5
164
 100
AcDbEntity
   8
LEVEL001
 100
AcDbTrace
   6
CONTINUOUS
  62
8
  10
 202.88295462028
  20
 641.96875466091
  30
0.0
  11
 194.88295462028
  21
 643.37937050658
  31
0.0
  12
 194.88295462028
  22
 640.55813881524
  32
0.0
  13
 194.88295462028
  23
 640.55813881524
  33
0.0
   0
MTEXT
   5
165
 100
AcDbEntity
   8
LEVEL001
 370
15
  62
8
 100
AcDbMText
  10
 185.38295462028
  20
 645.96875466091
  30
0.0
  40
 10.000000000000
  41
0.0
  71
8
  72
1
   1
\A1;35
   7
GMM002
   0
ENDBLK
   5
166
 100
AcDbEntity
   8
0
 100
AcDbBlockEnd
   0
BLOCK
   5
167
 100
AcDbEntity
   8
0
 100
AcDbBlockBegin
   2
*D21
  70
65
  10
0.0
  20
0.0
  30
0.0
   3
*D21
   0
LINE
   5
168
 100
AcDbEntity
   8
LEVEL001
 370
15
 100
AcDbLine
   6
CONTINUOUS
  62
8
  10
 421.88295462028
  20
 919.86241211145
  30
0.0
  11
 440.57253574658
  21
 919.86241211145
  31
0.0
   0
LINE
   5
169
 100
AcDbEntity
   8
LEVEL001
 370
15
 100
AcDbLine
   6
CONTINUOUS
  62
8
  10
 421.88295462028
  20
 954.86241211145
  30
0.0
  11
 440.57253574658
  21
 954.86241211145
  31
0.0
   0
LINE
   5
16A
 100
AcDbEntity
   8
LEVEL001
 370
15
 100
AcDbLine
   6
CONTINUOUS
  62
8
  10
 436.57253574658
  20
 919.86241211145
  30
0.0
  11
 436.57253574658
  21
 937.36241211145
  31
0.0
   0
LINE
   5
16B
 100
AcDbEntity
   8
LEVEL001
 370
15
 100
AcDbLine
   6
CONTINUOUS
  62
8
  10
 436.57253574658
  20
 954.86241211145
  30
0.0
  11
 436.57253574658
  21
 937.36241211145
  31
0.0
   0
SOLID
   5
16C
 100
AcDbEntity
   8
LEVEL001
 100
AcDbTrace
   6
CONTINUOUS
  62
8
  10
 436.57253574658
  20
 919.86241211145
  30
0.0
  11
 437.98315159225
  21
 927.86241211145
  31
0.0
  12
 435.16191990091
  22
 927.86241211145
  32
0.0
  13
 435.16191990091
  23
 927.86241211145
  33
0.0
   0
SOLID
   5
16D
 100
AcDbEntity
   8
LEVEL001
 100
AcDbTrace
   6
CONTINUOUS
  62
8
  10
 436.57253574658
  20
 954.86241211145
  30
0.0
  11
 435.16191990091
  21
 946.86241211145
  31
0.0
  12
 437.98315159225
  22
 946.86241211145
  32
0.0
  13
 437.98315159225
  23
 946.86241211145
  33
0.0
   0
MTEXT
   5
16E
 100
AcDbEntity
   8
LEVEL001
 370
15
  62
8
 100
AcDbMText
  10
 432.57253574658
  20
 937.36241211145
  30
0.0
  40
 10.000000000000
  41
0.0
  71
8
  72
1
   1
\A1;35
   7
GMM002
  11
0.0
  21
 1.0000000000000
  31
0.0
   0
ENDBLK
   5
16F
 100
AcDbEntity
   8
0
 100
AcDbBlockEnd
   0
BLOCK
   5
170
 100
AcDbEntity
   8
0
 100
AcDbBlockBegin
   2
*D22
  70
65
  10
0.0
  20
0.0
  30
0.0
   3
*D22
   0
LINE
   5
171
 100
AcDbEntity
   8
LEVEL001
 370
15
 100
AcDbLine
   6
CONTINUOUS
  62
8
  10
 313.88295462028
  20
 954.86241211145
  30
0.0
  11
 123.22948205028
  21
 954.86241211145
  31
0.0
   0
LINE
   5
172
 100
AcDbEntity
   8
LEVEL001
 370
15
 100
AcDbLine
   6
CONTINUOUS
  62
8
  10
 163.88295462028
  20
 704.86241211145
  30
0.0
  11
 123.22948205028
  21
 704.86241211145
  31
0.0
   0
LINE
   5
173
 100
AcDbEntity
   8
LEVEL001
 370
15
 100
AcDbLine
   6
CONTINUOUS
  62
8
  10
 127.22948205028
  20
 954.86241211145
  30
0.0
  11
 127.22948205028
  21
 829.86241211145
  31
0.0
   0
LINE
   5
174
 100
AcDbEntity
   8
LEVEL001
 370
15
 100
AcDbLine
   6
CONTINUOUS
  62
8
  10
 127.22948205028
  20
 704.86241211145
  30
0.0
  11
 127.22948205028
  21
 829.86241211145
  31
0.0
   0
SOLID
   5
175
 100
AcDbEntity
   8
LEVEL001
 100
AcDbTrace
   6
CONTINUOUS
  62
8
  10
 127.22948205028
  20
 954.86241211145
  30
0.0
  11
 125.81886620462
  21
 946.86241211145
  31
0.0
  12
 128.64009789595
  22
 946.86241211145
  32
0.0
  13
 128.64009789595
  23
 946.86241211145
  33
0.0
   0
SOLID
   5
176
 100
AcDbEntity
   8
LEVEL001
 100
AcDbTrace
   6
CONTINUOUS
  62
8
  10
 127.22948205028
  20
 704.86241211145
  30
0.0
  11
 128.64009789595
  21
 712.86241211145
  31
0.0
  12
 125.81886620462
  22
 712.86241211145
  32
0.0
  13
 125.81886620462
  23
 712.86241211145
  33
0.0
   0
MTEXT
   5
177
 100
AcDbEntity
   8
LEVEL001
 370
15
  62
8
 100
AcDbMText
  10
 123.22948205028
  20
 829.86241211145
  30
0.0
  40
 10.000000000000
  41
0.0
  71
8
  72
1
   1
\A1;250
   7
GMM002
  11
0.0
  21
 1.0000000000000
  31
0.0
   0
ENDBLK
   5
178
 100
AcDbEntity
   8
0
 100
AcDbBlockEnd
   0
BLOCK
   5
179
 100
AcDbEntity
   8
0
 100
AcDbBlockBegin
   2
*D23
  70
65
  10
0.0
  20
0.0
  30
0.0
   3
*D23
   0
LINE
   5
17A
 100
AcDbEntity
   8
LEVEL001
 370
15
 100
AcDbLine
   6
CONTINUOUS
  62
8
  10
 417.88295462028
  20
 412.86241211147
  30
0.0
  11
 417.88295462028
  21
 460.00714895357
  31
0.0
   0
LINE
   5
17B
 100
AcDbEntity
   8
LEVEL001
 370
15
 100
AcDbLine
   6
CONTINUOUS
  62
8
  10
 167.88295462028
  20
 264.86241211147
  30
0.0
  11
 167.88295462028
  21
 460.00714895357
  31
0.0
   0
LINE
   5
17C
 100
AcDbEntity
   8
LEVEL001
 370
15
 100
AcDbLine
   6
CONTINUOUS
  62
8
  10
 417.88295462028
  20
 456.00714895357
  30
0.0
  11
 292.88295462028
  21
 456.00714895357
  31
0.0
   0
LINE
   5
17D
 100
AcDbEntity
   8
LEVEL001
 370
15
 100
AcDbLine
   6
CONTINUOUS
  62
8
  10
 167.88295462028
  20
 456.00714895357
  30
0.0
  11
 292.88295462028
  21
 456.00714895357
  31
0.0
   0
SOLID
   5
17E
 100
AcDbEntity
   8
LEVEL001
 100
AcDbTrace
   6
CONTINUOUS
  62
8
  10
 417.88295462028
  20
 456.00714895357
  30
0.0
  11
 409.88295462028
  21
 457.41776479923
  31
0.0
  12
 409.88295462028
  22
 454.59653310790
  32
0.0
  13
 409.88295462028
  23
 454.59653310790
  33
0.0
   0
SOLID
   5
17F
 100
AcDbEntity
   8
LEVEL001
 100
AcDbTrace
   6
CONTINUOUS
  62
8
  10
 167.88295462028
  20
 456.00714895357
  30
0.0
  11
 175.88295462028
  21
 454.59653310790
  31
0.0
  12
 175.88295462028
  22
 457.41776479923
  32
0.0
  13
 175.88295462028
  23
 457.41776479923
  33
0.0
   0
MTEXT
   5
180
 100
AcDbEntity
   8
LEVEL001
 370
15
  62
8
 100
AcDbMText
  10
 292.88295462028
  20
 460.00714895357
  30
0.0
  40
 10.000000000000
  41
0.0
  71
8
  72
1
   1
\A1;250
   7
GMM002
   0
ENDBLK
   5
181
 100
AcDbEntity
   8
0
 100
AcDbBlockEnd
   0
BLOCK
   5
182
 100
AcDbEntity
   8
0
 100
AcDbBlockBegin
   2
*D24
  70
65
  10
0.0
  20
0.0
  30
0.0
   3
*D24
   0
LINE
   5
183
 100
AcDbEntity
   8
LEVEL001
 370
15
 100
AcDbLine
   6
CONTINUOUS
  62
8
  10
 167.88295462028
  20
 118.64835858023
  30
0.0
  11
 167.88295462028
  21
 91.968754660932
  31
0.0
   0
LINE
   5
184
 100
AcDbEntity
   8
LEVEL001
 370
15
 100
AcDbLine
   6
CONTINUOUS
  62
8
  10
 202.88295462028
  20
 124.76266397416
  30
0.0
  11
 202.88295462028
  21
 91.968754660932
  31
0.0
   0
LINE
   5
185
 100
AcDbEntity
   8
LEVEL001
 370
15
 100
AcDbLine
   6
CONTINUOUS
  62
8
  10
 167.88295462028
  20
 95.968754660932
  30
0.0
  11
 185.38295462028
  21
 95.968754660932
  31
0.0
   0
LINE
   5
186
 100
AcDbEntity
   8
LEVEL001
 370
15
 100
AcDbLine
   6
CONTINUOUS
  62
8
  10
 202.88295462028
  20
 95.968754660932
  30
0.0
  11
 185.38295462028
  21
 95.968754660932
  31
0.0
   0
SOLID
   5
187
 100
AcDbEntity
   8
LEVEL001
 100
AcDbTrace
   6
CONTINUOUS
  62
8
  10
 167.88295462028
  20
 95.968754660932
  30
0.0
  11
 175.88295462028
  21
 94.558138815265
  31
0.0
  12
 175.88295462028
  22
 97.379370506600
  32
0.0
  13
 175.88295462028
  23
 97.379370506600
  33
0.0
   0
SOLID
   5
188
 100
AcDbEntity
   8
LEVEL001
 100
AcDbTrace
   6
CONTINUOUS
  62
8
  10
 202.88295462028
  20
 95.968754660932
  30
0.0
  11
 194.88295462028
  21
 97.379370506600
  31
0.0
  12
 194.88295462028
  22
 94.558138815265
  32
0.0
  13
 194.88295462028
  23
 94.558138815265
  33
0.0
   0
MTEXT
   5
189
 100
AcDbEntity
   8
LEVEL001
 370
15
  62
8
 100
AcDbMText
  10
 185.38295462028
  20
 99.968754660932
  30
0.0
  40
 10.000000000000
  41
0.0
  71
8
  72
1
   1
\A1;35
   7
GMM002
   0
ENDBLK
   5
18A
 100
AcDbEntity
   8
0
 100
AcDbBlockEnd
   0
BLOCK
   5
18B
 100
AcDbEntity
   8
0
 100
AcDbBlockBegin
   2
*D25
  70
65
  10
0.0
  20
0.0
  30
0.0
   3
*D25
   0
LINE
   5
18C
 100
AcDbEntity
   8
LEVEL001
 370
15
 100
AcDbLine
   6
CONTINUOUS
  62
8
  10
 421.88295462028
  20
 373.86241211147
  30
0.0
  11
 440.57253574658
  21
 373.86241211147
  31
0.0
   0
LINE
   5
18D
 100
AcDbEntity
   8
LEVEL001
 370
15
 100
AcDbLine
   6
CONTINUOUS
  62
8
  10
 421.88295462028
  20
 408.86241211147
  30
0.0
  11
 440.57253574658
  21
 408.86241211147
  31
0.0
   0
LINE
   5
18E
 100
AcDbEntity
   8
LEVEL001
 370
15
 100
AcDbLine
   6
CONTINUOUS
  62
8
  10
 436.57253574658
  20
 373.86241211147
  30
0.0
  11
 436.57253574658
  21
 391.36241211147
  31
0.0
   0
LINE
   5
18F
 100
AcDbEntity
   8
LEVEL001
 370
15
 100
AcDbLine
   6
CONTINUOUS
  62
8
  10
 436.57253574658
  20
 408.86241211147
  30
0.0
  11
 436.57253574658
  21
 391.36241211147
  31
0.0
   0
SOLID
   5
190
 100
AcDbEntity
   8
LEVEL001
 100
AcDbTrace
   6
CONTINUOUS
  62
8
  10
 436.57253574658
  20
 373.86241211147
  30
0.0
  11
 437.98315159225
  21
 381.86241211147
  31
0.0
  12
 435.16191990091
  22
 381.86241211147
  32
0.0
  13
 435.16191990091
  23
 381.86241211147
  33
0.0
   0
SOLID
   5
191
 100
AcDbEntity
   8
LEVEL001
 100
AcDbTrace
   6
CONTINUOUS
  62
8
  10
 436.57253574658
  20
 408.86241211147
  30
0.0
  11
 435.16191990091
  21
 400.86241211147
  31
0.0
  12
 437.98315159225
  22
 400.86241211147
  32
0.0
  13
 437.98315159225
  23
 400.86241211147
  33
0.0
   0
MTEXT
   5
192
 100
AcDbEntity
   8
LEVEL001
 370
15
  62
8
 100
AcDbMText
  10
 432.57253574658
  20
 391.36241211147
  30
0.0
  40
 10.000000000000
  41
0.0
  71
8
  72
1
   1
\A1;35
   7
GMM002
  11
0.0
  21
 1.0000000000000
  31
0.0
   0
ENDBLK
   5
193
 100
AcDbEntity
   8
0
 100
AcDbBlockEnd
   0
BLOCK
   5
194
 100
AcDbEntity
   8
0
 100
AcDbBlockBegin
   2
*D26
  70
65
  10
0.0
  20
0.0
  30
0.0
   3
*D26
   0
LINE
   5
195
 100
AcDbEntity
   8
LEVEL001
 370
15
 100
AcDbLine
   6
CONTINUOUS
  62
8
  10
 313.88295462028
  20
 408.86241211147
  30
0.0
  11
 123.22948205028
  21
 408.86241211147
  31
0.0
   0
LINE
   5
196
 100
AcDbEntity
   8
LEVEL001
 370
15
 100
AcDbLine
   6
CONTINUOUS
  62
8
  10
 163.88295462028
  20
 158.86241211147
  30
0.0
  11
 123.22948205028
  21
 158.86241211147
  31
0.0
   0
LINE
   5
197
 100
AcDbEntity
   8
LEVEL001
 370
15
 100
AcDbLine
   6
CONTINUOUS
  62
8
  10
 127.22948205028
  20
 408.86241211147
  30
0.0
  11
 127.22948205028
  21
 283.86241211147
  31
0.0
   0
LINE
   5
198
 100
AcDbEntity
   8
LEVEL001
 370
15
 100
AcDbLine
   6
CONTINUOUS
  62
8
  10
 127.22948205028
  20
 158.86241211147
  30
0.0
  11
 127.22948205028
  21
 283.86241211147
  31
0.0
   0
SOLID
   5
199
 100
AcDbEntity
   8
LEVEL001
 100
AcDbTrace
   6
CONTINUOUS
  62
8
  10
 127.22948205028
  20
 408.86241211147
  30
0.0
  11
 125.81886620462
  21
 400.86241211147
  31
0.0
  12
 128.64009789595
  22
 400.86241211147
  32
0.0
  13
 128.64009789595
  23
 400.86241211147
  33
0.0
   0
SOLID
   5
19A
 100
AcDbEntity
   8
LEVEL001
 100
AcDbTrace
   6
CONTINUOUS
  62
8
  10
 127.22948205028
  20
 158.86241211147
  30
0.0
  11
 128.64009789595
  21
 166.86241211147
  31
0.0
  12
 125.81886620462
  22
 166.86241211147
  32
0.0
  13
 125.81886620462
  23
 166.86241211147
  33
0.0
   0
MTEXT
   5
19B
 100
AcDbEntity
   8
LEVEL001
 370
15
  62
8
 100
AcDbMText
  10
 123.22948205028
  20
 283.86241211147
  30
0.0
  40
 10.000000000000
  41
0.0
  71
8
  72
1
   1
\A1;250
   7
GMM002
  11
0.0
  21
 1.0000000000000
  31
0.0
   0
ENDBLK
   5
19C
 100
AcDbEntity
   8
0
 100
AcDbBlockEnd
   0
BLOCK
   5
19D
 100
AcDbEntity
   8
0
 100
AcDbBlockBegin
   2
*D27
  70
65
  10
0.0
  20
0.0
  30
0.0
   3
*D27
   0
LINE
   5
19E
 100
AcDbEntity
   8
LEVEL001
 370
15
 100
AcDbLine
   6
CONTINUOUS
  62
8
  10
 687.98693282424
  20
 958.86241211145
  30
0.0
  11
 687.98693282424
  21
 1006.0071489535
  31
0.0
   0
LINE
   5
19F
 100
AcDbEntity
   8
LEVEL001
 370
15
 100
AcDbLine
   6
CONTINUOUS
  62
8
  10
 937.98693282424
  20
 810.86241211145
  30
0.0
  11
 937.98693282424
  21
 1006.0071489535
  31
0.0
   0
LINE
   5
1A0
 100
AcDbEntity
   8
LEVEL001
 370
15
 100
AcDbLine
   6
CONTINUOUS
  62
8
  10
 687.98693282424
  20
 1002.0071489535
  30
0.0
  11
 812.98693282424
  21
 1002.0071489535
  31
0.0
   0
LINE
   5
1A1
 100
AcDbEntity
   8
LEVEL001
 370
15
 100
AcDbLine
   6
CONTINUOUS
  62
8
  10
 937.98693282424
  20
 1002.0071489535
  30
0.0
  11
 812.98693282424
  21
 1002.0071489535
  31
0.0
   0
SOLID
   5
1A2
 100
AcDbEntity
   8
LEVEL001
 100
AcDbTrace
   6
CONTINUOUS
  62
8
  10
 687.98693282424
  20
 1002.0071489535
  30
0.0
  11
 695.98693282424
  21
 1000.5965331079
  31
0.0
  12
 695.98693282424
  22
 1003.4177647992
  32
0.0
  13
 695.98693282424
  23
 1003.4177647992
  33
0.0
   0
SOLID
   5
1A3
 100
AcDbEntity
   8
LEVEL001
 100
AcDbTrace
   6
CONTINUOUS
  62
8
  10
 937.98693282424
  20
 1002.0071489535
  30
0.0
  11
 929.98693282424
  21
 1003.4177647992
  31
0.0
  12
 929.98693282424
  22
 1000.5965331079
  32
0.0
  13
 929.98693282424
  23
 1000.5965331079
  33
0.0
   0
MTEXT
   5
1A4
 100
AcDbEntity
   8
LEVEL001
 370
15
  62
8
 100
AcDbMText
  10
 812.98693282424
  20
 1006.0071489535
  30
0.0
  40
 10.000000000000
  41
0.0
  71
8
  72
1
   1
\A1;250
   7
GMM002
   0
ENDBLK
   5
1A5
 100
AcDbEntity
   8
0
 100
AcDbBlockEnd
   0
BLOCK
   5
1A6
 100
AcDbEntity
   8
0
 100
AcDbBlockBegin
   2
*D28
  70
65
  10
0.0
  20
0.0
  30
0.0
   3
*D28
   0
LINE
   5
1A7
 100
AcDbEntity
   8
LEVEL001
 370
15
 100
AcDbLine
   6
CONTINUOUS
  62
8
  10
 902.98693282424
  20
 664.64835858021
  30
0.0
  11
 902.98693282424
  21
 637.96875466091
  31
0.0
   0
LINE
   5
1A8
 100
AcDbEntity
   8
LEVEL001
 370
15
 100
AcDbLine
   6
CONTINUOUS
  62
8
  10
 937.98693282424
  20
 670.76266397414
  30
0.0
  11
 937.98693282424
  21
 637.96875466091
  31
0.0
   0
LINE
   5
1A9
 100
AcDbEntity
   8
LEVEL001
 370
15
 100
AcDbLine
   6
CONTINUOUS
  62
8
  10
 902.98693282424
  20
 641.96875466091
  30
0.0
  11
 920.48693282424
  21
 641.96875466091
  31
0.0
   0
LINE
   5
1AA
 100
AcDbEntity
   8
LEVEL001
 370
15
 100
AcDbLine
   6
CONTINUOUS
  62
8
  10
 937.98693282424
  20
 641.96875466091
  30
0.0
  11
 920.48693282424
  21
 641.96875466091
  31
0.0
   0
SOLID
   5
1AB
 100
AcDbEntity
   8
LEVEL001
 100
AcDbTrace
   6
CONTINUOUS
  62
8
  10
 902.98693282424
  20
 641.96875466091
  30
0.0
  11
 910.98693282424
  21
 640.55813881524
  31
0.0
  12
 910.98693282424
  22
 643.37937050658
  32
0.0
  13
 910.98693282424
  23
 643.37937050658
  33
0.0
   0
SOLID
   5
1AC
 100
AcDbEntity
   8
LEVEL001
 100
AcDbTrace
   6
CONTINUOUS
  62
8
  10
 937.98693282424
  20
 641.96875466091
  30
0.0
  11
 929.98693282424
  21
 643.37937050658
  31
0.0
  12
 929.98693282424
  22
 640.55813881524
  32
0.0
  13
 929.98693282424
  23
 640.55813881524
  33
0.0
   0
MTEXT
   5
1AD
 100
AcDbEntity
   8
LEVEL001
 370
15
  62
8
 100
AcDbMText
  10
 920.48693282424
  20
 645.96875466091
  30
0.0
  40
 10.000000000000
  41
0.0
  71
8
  72
1
   1
\A1;35
   7
GMM002
   0
ENDBLK
   5
1AE
 100
AcDbEntity
   8
0
 100
AcDbBlockEnd
   0
BLOCK
   5
1AF
 100
AcDbEntity
   8
0
 100
AcDbBlockBegin
   2
*D29
  70
65
  10
0.0
  20
0.0
  30
0.0
   3
*D29
   0
LINE
   5
1B0
 100
AcDbEntity
   8
LEVEL001
 370
15
 100
AcDbLine
   6
CONTINUOUS
  62
8
  10
 683.98693282424
  20
 919.86241211145
  30
0.0
  11
 665.48012048193
  21
 919.86241211145
  31
0.0
   0
LINE
   5
1B1
 100
AcDbEntity
   8
LEVEL001
 370
15
 100
AcDbLine
   6
CONTINUOUS
  62
8
  10
 683.98693282424
  20
 954.86241211145
  30
0.0
  11
 665.48012048193
  21
 954.86241211145
  31
0.0
   0
LINE
   5
1B2
 100
AcDbEntity
   8
LEVEL001
 370
15
 100
AcDbLine
   6
CONTINUOUS
  62
8
  10
 669.48012048193
  20
 919.86241211145
  30
0.0
  11
 669.48012048193
  21
 937.36241211145
  31
0.0
   0
LINE
   5
1B3
 100
AcDbEntity
   8
LEVEL001
 370
15
 100
AcDbLine
   6
CONTINUOUS
  62
8
  10
 669.48012048193
  20
 954.86241211145
  30
0.0
  11
 669.48012048193
  21
 937.36241211145
  31
0.0
   0
SOLID
   5
1B4
 100
AcDbEntity
   8
LEVEL001
 100
AcDbTrace
   6
CONTINUOUS
  62
8
  10
 669.48012048193
  20
 919.86241211145
  30
0.0
  11
 670.89073632760
  21
 927.86241211145
  31
0.0
  12
 668.06950463626
  22
 927.86241211145
  32
0.0
  13
 668.06950463626
  23
 927.86241211145
  33
0.0
   0
SOLID
   5
1B5
 100
AcDbEntity
   8
LEVEL001
 100
AcDbTrace
   6
CONTINUOUS
  62
8
  10
 669.48012048193
  20
 954.86241211145
  30
0.0
  11
 668.06950463626
  21
 946.86241211145
  31
0.0
  12
 670.89073632760
  22
 946.86241211145
  32
0.0
  13
 670.89073632760
  23
 946.86241211145
  33
0.0
   0
MTEXT
   5
1B6
 100
AcDbEntity
   8
LEVEL001
 370
15
  62
8
 100
AcDbMText
  10
 665.48012048193
  20
 937.36241211145
  30
0.0
  40
 10.000000000000
  41
0.0
  71
8
  72
1
   1
\A1;35
   7
GMM002
  11
0.0
  21
 1.0000000000000
  31
0.0
   0
ENDBLK
   5
1B7
 100
AcDbEntity
   8
0
 100
AcDbBlockEnd
   0
BLOCK
   5
1B8
 100
AcDbEntity
   8
0
 100
AcDbBlockBegin
   2
*D30
  70
65
  10
0.0
  20
0.0
  30
0.0
   3
*D30
   0
LINE
   5
1B9
 100
AcDbEntity
   8
LEVEL001
 370
15
 100
AcDbLine
   6
CONTINUOUS
  62
8
  10
 941.98693282424
  20
 704.86241211145
  30
0.0
  11
 970.89286014495
  21
 704.86241211145
  31
0.0
   0
LINE
   5
1BA
 100
AcDbEntity
   8
LEVEL001
 370
15
 100
AcDbLine
   6
CONTINUOUS
  62
8
  10
 791.98693282424
  20
 954.86241211145
  30
0.0
  11
 970.89286014495
  21
 954.86241211145
  31
0.0
   0
LINE
   5
1BB
 100
AcDbEntity
   8
LEVEL001
 370
15
 100
AcDbLine
   6
CONTINUOUS
  62
8
  10
 966.89286014495
  20
 704.86241211145
  30
0.0
  11
 966.89286014495
  21
 829.86241211145
  31
0.0
   0
LINE
   5
1BC
 100
AcDbEntity
   8
LEVEL001
 370
15
 100
AcDbLine
   6
CONTINUOUS
  62
8
  10
 966.89286014495
  20
 954.86241211145
  30
0.0
  11
 966.89286014495
  21
 829.86241211145
  31
0.0
   0
SOLID
   5
1BD
 100
AcDbEntity
   8
LEVEL001
 100
AcDbTrace
   6
CONTINUOUS
  62
8
  10
 966.89286014495
  20
 704.86241211145
  30
0.0
  11
 968.30347599062
  21
 712.86241211145
  31
0.0
  12
 965.48224429928
  22
 712.86241211145
  32
0.0
  13
 965.48224429928
  23
 712.86241211145
  33
0.0
   0
SOLID
   5
1BE
 100
AcDbEntity
   8
LEVEL001
 100
AcDbTrace
   6
CONTINUOUS
  62
8
  10
 966.89286014495
  20
 954.86241211145
  30
0.0
  11
 965.48224429928
  21
 946.86241211145
  31
0.0
  12
 968.30347599062
  22
 946.86241211145
  32
0.0
  13
 968.30347599062
  23
 946.86241211145
  33
0.0
   0
MTEXT
   5
1BF
 100
AcDbEntity
   8
LEVEL001
 370
15
  62
8
 100
AcDbMText
  10
 962.89286014495
  20
 829.86241211145
  30
0.0
  40
 10.000000000000
  41
0.0
  71
8
  72
1
   1
\A1;250
   7
GMM002
  11
0.0
  21
 1.0000000000000
  31
0.0
   0
ENDBLK
   5
1C0
 100
AcDbEntity
   8
0
 100
AcDbBlockEnd
   0
BLOCK
   5
1C1
 100
AcDbEntity
   8
0
 100
AcDbBlockBegin
   2
*D31
  70
65
  10
0.0
  20
0.0
  30
0.0
   3
*D31
   0
LINE
   5
1C2
 100
AcDbEntity
   8
LEVEL001
 370
15
 100
AcDbLine
   6
CONTINUOUS
  62
8
  10
 687.98693282424
  20
 412.86241211147
  30
0.0
  11
 687.98693282424
  21
 460.00714895357
  31
0.0
   0
LINE
   5
1C3
 100
AcDbEntity
   8
LEVEL001
 370
15
 100
AcDbLine
   6
CONTINUOUS
  62
8
  10
 937.98693282424
  20
 264.86241211147
  30
0.0
  11
 937.98693282424
  21
 460.00714895357
  31
0.0
   0
LINE
   5
1C4
 100
AcDbEntity
   8
LEVEL001
 370
15
 100
AcDbLine
   6
CONTINUOUS
  62
8
  10
 687.98693282424
  20
 456.00714895357
  30
0.0
  11
 812.98693282424
  21
 456.00714895357
  31
0.0
   0
LINE
   5
1C5
 100
AcDbEntity
   8
LEVEL001
 370
15
 100
AcDbLine
   6
CONTINUOUS
  62
8
  10
 937.98693282424
  20
 456.00714895357
  30
0.0
  11
 812.98693282424
  21
 456.00714895357
  31
0.0
   0
SOLID
   5
1C6
 100
AcDbEntity
   8
LEVEL001
 100
AcDbTrace
   6
CONTINUOUS
  62
8
  10
 687.98693282424
  20
 456.00714895357
  30
0.0
  11
 695.98693282424
  21
 454.59653310790
  31
0.0
  12
 695.98693282424
  22
 457.41776479923
  32
0.0
  13
 695.98693282424
  23
 457.41776479923
  33
0.0
   0
SOLID
   5
1C7
 100
AcDbEntity
   8
LEVEL001
 100
AcDbTrace
   6
CONTINUOUS
  62
8
  10
 937.98693282424
  20
 456.00714895357
  30
0.0
  11
 929.98693282424
  21
 457.41776479923
  31
0.0
  12
 929.98693282424
  22
 454.59653310790
  32
0.0
  13
 929.98693282424
  23
 454.59653310790
  33
0.0
   0
MTEXT
   5
1C8
 100
AcDbEntity
   8
LEVEL001
 370
15
  62
8
 100
AcDbMText
  10
 812.98693282424
  20
 460.00714895357
  30
0.0
  40
 10.000000000000
  41
0.0
  71
8
  72
1
   1
\A1;250
   7
GMM002
   0
ENDBLK
   5
1C9
 100
AcDbEntity
   8
0
 100
AcDbBlockEnd
   0
BLOCK
   5
1CA
 100
AcDbEntity
   8
0
 100
AcDbBlockBegin
   2
*D32
  70
65
  10
0.0
  20
0.0
  30
0.0
   3
*D32
   0
LINE
   5
1CB
 100
AcDbEntity
   8
LEVEL001
 370
15
 100
AcDbLine
   6
CONTINUOUS
  62
8
  10
 902.98693282424
  20
 118.64835858023
  30
0.0
  11
 902.98693282424
  21
 91.968754660932
  31
0.0
   0
LINE
   5
1CC
 100
AcDbEntity
   8
LEVEL001
 370
15
 100
AcDbLine
   6
CONTINUOUS
  62
8
  10
 937.98693282424
  20
 124.76266397416
  30
0.0
  11
 937.98693282424
  21
 91.968754660932
  31
0.0
   0
LINE
   5
1CD
 100
AcDbEntity
   8
LEVEL001
 370
15
 100
AcDbLine
   6
CONTINUOUS
  62
8
  10
 902.98693282424
  20
 95.968754660932
  30
0.0
  11
 920.48693282424
  21
 95.968754660932
  31
0.0
   0
LINE
   5
1CE
 100
AcDbEntity
   8
LEVEL001
 370
15
 100
AcDbLine
   6
CONTINUOUS
  62
8
  10
 937.98693282424
  20
 95.968754660932
  30
0.0
  11
 920.48693282424
  21
 95.968754660932
  31
0.0
   0
SOLID
   5
1CF
 100
AcDbEntity
   8
LEVEL001
 100
AcDbTrace
   6
CONTINUOUS
  62
8
  10
 902.98693282424
  20
 95.968754660932
  30
0.0
  11
 910.98693282424
  21
 94.558138815265
  31
0.0
  12
 910.98693282424
  22
 97.379370506600
  32
0.0
  13
 910.98693282424
  23
 97.379370506600
  33
0.0
   0
SOLID
   5
1D0
 100
AcDbEntity
   8
LEVEL001
 100
AcDbTrace
   6
CONTINUOUS
  62
8
  10
 937.98693282424
  20
 95.968754660932
  30
0.0
  11
 929.98693282424
  21
 97.379370506600
  31
0.0
  12
 929.98693282424
  22
 94.558138815265
  32
0.0
  13
 929.98693282424
  23
 94.558138815265
  33
0.0
   0
MTEXT
   5
1D1
 100
AcDbEntity
   8
LEVEL001
 370
15
  62
8
 100
AcDbMText
  10
 920.48693282424
  20
 99.968754660932
  30
0.0
  40
 10.000000000000
  41
0.0
  71
8
  72
1
   1
\A1;35
   7
GMM002
   0
ENDBLK
   5
1D2
 100
AcDbEntity
   8
0
 100
AcDbBlockEnd
   0
BLOCK
   5
1D3
 100
AcDbEntity
   8
0
 100
AcDbBlockBegin
   2
*D33
  70
65
  10
0.0
  20
0.0
  30
0.0
   3
*D33
   0
LINE
   5
1D4
 100
AcDbEntity
   8
LEVEL001
 370
15
 100
AcDbLine
   6
CONTINUOUS
  62
8
  10
 683.98693282424
  20
 373.86241211147
  30
0.0
  11
 665.48012048193
  21
 373.86241211147
  31
0.0
   0
LINE
   5
1D5
 100
AcDbEntity
   8
LEVEL001
 370
15
 100
AcDbLine
   6
CONTINUOUS
  62
8
  10
 683.98693282424
  20
 408.86241211147
  30
0.0
  11
 665.48012048193
  21
 408.86241211147
  31
0.0
   0
LINE
   5
1D6
 100
AcDbEntity
   8
LEVEL001
 370
15
 100
AcDbLine
   6
CONTINUOUS
  62
8
  10
 669.48012048193
  20
 373.86241211147
  30
0.0
  11
 669.48012048193
  21
 391.36241211147
  31
0.0
   0
LINE
   5
1D7
 100
AcDbEntity
   8
LEVEL001
 370
15
 100
AcDbLine
   6
CONTINUOUS
  62
8
  10
 669.48012048193
  20
 408.86241211147
  30
0.0
  11
 669.48012048193
  21
 391.36241211147
  31
0.0
   0
SOLID
   5
1D8
 100
AcDbEntity
   8
LEVEL001
 100
AcDbTrace
   6
CONTINUOUS
  62
8
  10
 669.48012048193
  20
 373.86241211147
  30
0.0
  11
 670.89073632760
  21
 381.86241211147
  31
0.0
  12
 668.06950463626
  22
 381.86241211147
  32
0.0
  13
 668.06950463626
  23
 381.86241211147
  33
0.0
   0
SOLID
   5
1D9
 100
AcDbEntity
   8
LEVEL001
 100
AcDbTrace
   6
CONTINUOUS
  62
8
  10
 669.48012048193
  20
 408.86241211147
  30
0.0
  11
 668.06950463626
  21
 400.86241211147
  31
0.0
  12
 670.89073632760
  22
 400.86241211147
  32
0.0
  13
 670.89073632760
  23
 400.86241211147
  33
0.0
   0
MTEXT
   5
1DA
 100
AcDbEntity
   8
LEVEL001
 370
15
  62
8
 100
AcDbMText
  10
 665.48012048193
  20
 391.36241211147
  30
0.0
  40
 10.000000000000
  41
0.0
  71
8
  72
1
   1
\A1;35
   7
GMM002
  11
0.0
  21
 1.0000000000000
  31
0.0
   0
ENDBLK
   5
1DB
 100
AcDbEntity
   8
0
 100
AcDbBlockEnd
   0
BLOCK
   5
1DC
 100
AcDbEntity
   8
0
 100
AcDbBlockBegin
   2
*D34
  70
65
  10
0.0
  20
0.0
  30
0.0
   3
*D34
   0
LINE
   5
1DD
 100
AcDbEntity
   8
LEVEL001
 370
15
 100
AcDbLine
   6
CONTINUOUS
  62
8
  10
 941.98693282424
  20
 158.86241211147
  30
0.0
  11
 970.89286014495
  21
 158.86241211147
  31
0.0
   0
LINE
   5
1DE
 100
AcDbEntity
   8
LEVEL001
 370
15
 100
AcDbLine
   6
CONTINUOUS
  62
8
  10
 791.98693282424
  20
 408.86241211147
  30
0.0
  11
 970.89286014495
  21
 408.86241211147
  31
0.0
   0
LINE
   5
1DF
 100
AcDbEntity
   8
LEVEL001
 370
15
 100
AcDbLine
   6
CONTINUOUS
  62
8
  10
 966.89286014495
  20
 158.86241211147
  30
0.0
  11
 966.89286014495
  21
 283.86241211147
  31
0.0
   0
LINE
   5
1E0
 100
AcDbEntity
   8
LEVEL001
 370
15
 100
AcDbLine
   6
CONTINUOUS
  62
8
  10
 966.89286014495
  20
 408.86241211147
  30
0.0
  11
 966.89286014495
  21
 283.86241211147
  31
0.0
   0
SOLID
   5
1E1
 100
AcDbEntity
   8
LEVEL001
 100
AcDbTrace
   6
CONTINUOUS
  62
8
  10
 966.89286014495
  20
 158.86241211147
  30
0.0
  11
 968.30347599062
  21
 166.86241211147
  31
0.0
  12
 965.48224429928
  22
 166.86241211147
  32
0.0
  13
 965.48224429928
  23
 166.86241211147
  33
0.0
   0
SOLID
   5
1E2
 100
AcDbEntity
   8
LEVEL001
 100
AcDbTrace
   6
CONTINUOUS
  62
8
  10
 966.89286014495
  20
 408.86241211147
  30
0.0
  11
 965.48224429928
  21
 400.86241211147
  31
0.0
  12
 968.30347599062
  22
 400.86241211147
  32
0.0
  13
 968.30347599062
  23
 400.86241211147
  33
0.0
   0
MTEXT
   5
1E3
 100
AcDbEntity
   8
LEVEL001
 370
15
  62
8
 100
AcDbMText
  10
 962.89286014495
  20
 283.86241211147
  30
0.0
  40
 10.000000000000
  41
0.0
  71
8
  72
1
   1
\A1;250
   7
GMM002
  11
0.0
  21
 1.0000000000000
  31
0.0
   0
ENDBLK
   5
1E4
 100
AcDbEntity
   8
0
 100
AcDbBlockEnd
   0
ENDSEC
   0
SECTION
   2
ENTITIES
   0
LINE
   5
1E5
 100
AcDbEntity
   8
LEVEL002
 370
30
 100
AcDbLine
   6
CONTINUOUS
  62
7
  10
 1376.6000000000
  20
 1088.3000000000
  30
0.0
  11
 1347.8000000000
  21
 1088.3000000000
  31
0.0
   0
LINE
   5
1E6
 100
AcDbEntity
   8
LEVEL002
 370
30
 100
AcDbLine
   6
CONTINUOUS
  62
7
  10
 1347.8000000000
  20
 1088.3000000000
  30
0.0
  11
 1347.8000000000
  21
 1045.1000000000
  31
0.0
   0
LINE
   5
1E7
 100
AcDbEntity
   8
LEVEL002
 370
30
 100
AcDbLine
   6
CONTINUOUS
  62
7
  10
 1347.8000000000
  20
 1045.1000000000
  30
0.0
  11
 1362.2000000000
  21
 1045.1000000000
  31
0.0
   0
LINE
   5
1E8
 100
AcDbEntity
   8
LEVEL002
 370
30
 100
AcDbLine
   6
CONTINUOUS
  62
7
  10
 1362.2000000000
  20
 1045.1000000000
  30
0.0
  11
 1362.2000000000
  21
 1052.3000000000
  31
0.0
   0
LINE
   5
1E9
 100
AcDbEntity
   8
LEVEL002
 370
30
 100
AcDbLine
   6
CONTINUOUS
  62
7
  10
 1362.2000000000
  20
 1052.3000000000
  30
0.0
  11
 1376.6000000000
  21
 1052.3000000000
  31
0.0
   0
ARC
   5
1EA
 100
AcDbEntity
   8
LEVEL002
 370
30
   6
CONTINUOUS
  62
7
 100
AcDbCircle
  10
 1376.6000000000
  20
 1070.3000000000
  30
0.0
  40
 18.000000000000
 100
AcDbArc
  50
 270.00000000000
  51
 90.000000000000
   0
LINE
   5
1EB
 100
AcDbEntity
   8
LEVEL002
 370
30
 100
AcDbLine
   6
CONTINUOUS
  62
7
  10
 1362.2000000000
  20
 1066.7000000000
  30
0.0
  11
 1376.6000000000
  21
 1066.7000000000
  31
0.0
   0
ARC
   5
1EC
 100
AcDbEntity
   8
LEVEL002
 370
30
   6
CONTINUOUS
  62
7
 100
AcDbCircle
  10
 1376.6000000000
  20
 1070.3000000000
  30
0.0
  40
 3.6000000000000
 100
AcDbArc
  50
 270.00000000000
  51
 90.000000000000
   0
LINE
   5
1ED
 100
AcDbEntity
   8
LEVEL002
 370
30
 100
AcDbLine
   6
CONTINUOUS
  62
7
  10
 1376.6000000000
  20
 1073.9000000000
  30
0.0
  11
 1362.2000000000
  21
 1073.9000000000
  31
0.0
   0
LINE
   5
1EE
 100
AcDbEntity
   8
LEVEL002
 370
30
 100
AcDbLine
   6
CONTINUOUS
  62
7
  10
 1362.2000000000
  20
 1073.9000000000
  30
0.0
  11
 1362.2000000000
  21
 1066.7000000000
  31
0.0
   0
LINE
   5
1EF
 100
AcDbEntity
   8
LEVEL002
 370
30
 100
AcDbLine
   6
CONTINUOUS
  62
7
  10
 1383.8000000000
  20
 1045.1000000000
  30
0.0
  11
 1412.6000000000
  21
 1088.3000000000
  31
0.0
   0
LINE
   5
1F0
 100
AcDbEntity
   8
LEVEL002
 370
30
 100
AcDbLine
   6
CONTINUOUS
  62
7
  10
 1412.6000000000
  20
 1088.3000000000
  30
0.0
  11
 1448.6000000000
  21
 1088.3000000000
  31
0.0
   0
LINE
   5
1F1
 100
AcDbEntity
   8
LEVEL002
 370
30
 100
AcDbLine
   6
CONTINUOUS
  62
7
  10
 1448.6000000000
  20
 1088.3000000000
  30
0.0
  11
 1448.6000000000
  21
 1059.5000000000
  31
0.0
   0
LINE
   5
1F2
 100
AcDbEntity
   8
LEVEL002
 370
30
 100
AcDbLine
   6
CONTINUOUS
  62
7
  10
 1448.6000000000
  20
 1059.5000000000
  30
0.0
  11
 1470.2000000000
  21
 1059.5000000000
  31
0.0
   0
LINE
   5
1F3
 100
AcDbEntity
   8
LEVEL002
 370
30
 100
AcDbLine
   6
CONTINUOUS
  62
7
  10
 1470.2000000000
  20
 1059.5000000000
  30
0.0
  11
 1470.2000000000
  21
 1073.9000000000
  31
0.0
   0
LINE
   5
1F4
 100
AcDbEntity
   8
LEVEL002
 370
30
 100
AcDbLine
   6
CONTINUOUS
  62
7
  10
 1470.2000000000
  20
 1073.9000000000
  30
0.0
  11
 1455.8000000000
  21
 1073.9000000000
  31
0.0
   0
LINE
   5
1F5
 100
AcDbEntity
   8
LEVEL002
 370
30
 100
AcDbLine
   6
CONTINUOUS
  62
7
  10
 1455.8000000000
  20
 1073.9000000000
  30
0.0
  11
 1455.8000000000
  21
 1088.3000000000
  31
0.0
   0
LINE
   5
1F6
 100
AcDbEntity
   8
LEVEL002
 370
30
 100
AcDbLine
   6
CONTINUOUS
  62
7
  10
 1455.8000000000
  20
 1088.3000000000
  30
0.0
  11
 1542.2000000000
  21
 1088.3000000000
  31
0.0
   0
LINE
   5
1F7
 100
AcDbEntity
   8
LEVEL002
 370
30
 100
AcDbLine
   6
CONTINUOUS
  62
7
  10
 1542.2000000000
  20
 1088.3000000000
  30
0.0
  11
 1542.2000000000
  21
 1073.9000000000
  31
0.0
   0
LINE
   5
1F8
 100
AcDbEntity
   8
LEVEL002
 370
30
 100
AcDbLine
   6
CONTINUOUS
  62
7
  10
 1542.2000000000
  20
 1073.9000000000
  30
0.0
  11
 1513.4000000000
  21
 1073.9000000000
  31
0.0
   0
LINE
   5
1F9
 100
AcDbEntity
   8
LEVEL002
 370
30
 100
AcDbLine
   6
CONTINUOUS
  62
7
  10
 1513.4000000000
  20
 1073.9000000000
  30
0.0
  11
 1513.4000000000
  21
 1070.3000000000
  31
0.0
   0
LINE
   5
1FA
 100
AcDbEntity
   8
LEVEL002
 370
30
 100
AcDbLine
   6
CONTINUOUS
  62
7
  10
 1513.4000000000
  20
 1070.3000000000
  30
0.0
  11
 1538.6000000000
  21
 1070.3000000000
  31
0.0
   0
LINE
   5
1FB
 100
AcDbEntity
   8
LEVEL002
 370
30
 100
AcDbLine
   6
CONTINUOUS
  62
7
  10
 1538.6000000000
  20
 1070.3000000000
  30
0.0
  11
 1538.6000000000
  21
 1063.1000000000
  31
0.0
   0
LINE
   5
1FC
 100
AcDbEntity
   8
LEVEL002
 370
30
 100
AcDbLine
   6
CONTINUOUS
  62
7
  10
 1538.6000000000
  20
 1063.1000000000
  30
0.0
  11
 1513.4000000000
  21
 1063.1000000000
  31
0.0
   0
LINE
   5
1FD
 100
AcDbEntity
   8
LEVEL002
 370
30
 100
AcDbLine
   6
CONTINUOUS
  62
7
  10
 1513.4000000000
  20
 1063.1000000000
  30
0.0
  11
 1513.4000000000
  21
 1059.5000000000
  31
0.0
   0
LINE
   5
1FE
 100
AcDbEntity
   8
LEVEL002
 370
30
 100
AcDbLine
   6
CONTINUOUS
  62
7
  10
 1513.4000000000
  20
 1059.5000000000
  30
0.0
  11
 1542.2000000000
  21
 1059.5000000000
  31
0.0
   0
LINE
   5
1FF
 100
AcDbEntity
   8
LEVEL002
 370
30
 100
AcDbLine
   6
CONTINUOUS
  62
7
  10
 1542.2000000000
  20
 1059.5000000000
  30
0.0
  11
 1542.2000000000
  21
 1045.1000000000
  31
0.0
   0
LINE
   5
200
 100
AcDbEntity
   8
LEVEL002
 370
30
 100
AcDbLine
   6
CONTINUOUS
  62
7
  10
 1542.2000000000
  20
 1045.1000000000
  30
0.0
  11
 1499.0000000000
  21
 1045.1000000000
  31
0.0
   0
LINE
   5
201
 100
AcDbEntity
   8
LEVEL002
 370
30
 100
AcDbLine
   6
CONTINUOUS
  62
7
  10
 1499.0000000000
  20
 1045.1000000000
  30
0.0
  11
 1499.0000000000
  21
 1073.9000000000
  31
0.0
   0
LINE
   5
202
 100
AcDbEntity
   8
LEVEL002
 370
30
 100
AcDbLine
   6
CONTINUOUS
  62
7
  10
 1499.0000000000
  20
 1073.9000000000
  30
0.0
  11
 1484.6000000000
  21
 1073.9000000000
  31
0.0
   0
LINE
   5
203
 100
AcDbEntity
   8
LEVEL002
 370
30
 100
AcDbLine
   6
CONTINUOUS
  62
7
  10
 1484.6000000000
  20
 1073.9000000000
  30
0.0
  11
 1484.6000000000
  21
 1045.1000000000
  31
0.0
   0
LINE
   5
204
 100
AcDbEntity
   8
LEVEL002
 370
30
 100
AcDbLine
   6
CONTINUOUS
  62
7
  10
 1484.6000000000
  20
 1045.1000000000
  30
0.0
  11
 1434.2000000000
  21
 1045.1000000000
  31
0.0
   0
LINE
   5
205
 100
AcDbEntity
   8
LEVEL002
 370
30
 100
AcDbLine
   6
CONTINUOUS
  62
7
  10
 1434.2000000000
  20
 1045.1000000000
  30
0.0
  11
 1434.2000000000
  21
 1088.3000000000
  31
0.0
   0
LINE
   5
206
 100
AcDbEntity
   8
LEVEL002
 370
30
 100
AcDbLine
   6
CONTINUOUS
  62
7
  10
 1434.2000000000
  20
 1088.3000000000
  30
0.0
  11
 1405.4000000000
  21
 1045.1000000000
  31
0.0
   0
LINE
   5
207
 100
AcDbEntity
   8
LEVEL002
 370
30
 100
AcDbLine
   6
CONTINUOUS
  62
7
  10
 1405.4000000000
  20
 1045.1000000000
  30
0.0
  11
 1383.8000000000
  21
 1045.1000000000
  31
0.0
   0
LINE
   5
208
 100
AcDbEntity
   8
LEVEL002
 370
30
 100
AcDbLine
   6
CONTINUOUS
  62
7
  10
 1429.4000000000
  20
 1072.4466769388
  30
0.0
  11
 1411.1688820408
  21
 1045.1000000000
  31
0.0
   0
LINE
   5
209
 100
AcDbEntity
   8
LEVEL002
 370
30
 100
AcDbLine
   6
CONTINUOUS
  62
7
  10
 1411.1688820408
  20
 1045.1000000000
  30
0.0
  11
 1429.4000000000
  21
 1045.1000000000
  31
0.0
   0
LINE
   5
20A
 100
AcDbEntity
   8
LEVEL002
 370
30
 100
AcDbLine
   6
CONTINUOUS
  62
7
  10
 1429.4000000000
  20
 1045.1000000000
  30
0.0
  11
 1429.4000000000
  21
 1072.4466769388
  31
0.0
   0
ARC
   5
20B
 100
AcDbEntity
   8
LEVEL002
 370
30
   6
CONTINUOUS
  62
7
 100
AcDbCircle
  10
 1563.8000000000
  20
 1066.7000000000
  30
0.0
  40
 21.600000000000
 100
AcDbArc
  50
 90.000000000000
  51
 270.00000000000
   0
ARC
   5
20C
 100
AcDbEntity
   8
LEVEL002
 370
30
   6
CONTINUOUS
  62
7
 100
AcDbCircle
  10
 1563.8000000000
  20
 1066.7000000000
  30
0.0
  40
 7.2000000000000
 100
AcDbArc
  50
 90.000000000000
  51
 270.00000000000
   0
LINE
   5
20D
 100
AcDbEntity
   8
LEVEL002
 370
30
 100
AcDbLine
   6
CONTINUOUS
  62
7
  10
 1563.8000000000
  20
 1088.3000000000
  30
0.0
  11
 1585.4000000000
  21
 1088.3000000000
  31
0.0
   0
LINE
   5
20E
 100
AcDbEntity
   8
LEVEL002
 370
30
 100
AcDbLine
   6
CONTINUOUS
  62
7
  10
 1585.4000000000
  20
 1088.3000000000
  30
0.0
  11
 1585.4000000000
  21
 1073.9000000000
  31
0.0
   0
LINE
   5
20F
 100
AcDbEntity
   8
LEVEL002
 370
30
 100
AcDbLine
   6
CONTINUOUS
  62
7
  10
 1585.4000000000
  20
 1073.9000000000
  30
0.0
  11
 1563.8000000000
  21
 1073.9000000000
  31
0.0
   0
LINE
   5
210
 100
AcDbEntity
   8
LEVEL002
 370
30
 100
AcDbLine
   6
CONTINUOUS
  62
7
  10
 1347.8000000000
  20
 1088.3000000000
  30
0.0
  11
 1347.8000000000
  21
 1045.1000000000
  31
0.0
   0
LINE
   5
211
 100
AcDbEntity
   8
LEVEL002
 370
30
 100
AcDbLine
   6
CONTINUOUS
  62
7
  10
 1347.8000000000
  20
 1045.1000000000
  30
0.0
  11
 1362.2000000000
  21
 1045.1000000000
  31
0.0
   0
LINE
   5
212
 100
AcDbEntity
   8
LEVEL002
 370
30
 100
AcDbLine
   6
CONTINUOUS
  62
7
  10
 1362.2000000000
  20
 1045.1000000000
  30
0.0
  11
 1362.2000000000
  21
 1052.3000000000
  31
0.0
   0
LINE
   5
213
 100
AcDbEntity
   8
LEVEL002
 370
30
 100
AcDbLine
   6
CONTINUOUS
  62
7
  10
 1362.2000000000
  20
 1052.3000000000
  30
0.0
  11
 1376.6000000000
  21
 1052.3000000000
  31
0.0
   0
ARC
   5
214
 100
AcDbEntity
   8
LEVEL002
 370
30
   6
CONTINUOUS
  62
7
 100
AcDbCircle
  10
 1376.6000000000
  20
 1070.3000000000
  30
0.0
  40
 18.000000000000
 100
AcDbArc
  50
 270.00000000000
  51
 90.000000000000
   0
LINE
   5
215
 100
AcDbEntity
   8
LEVEL002
 370
30
 100
AcDbLine
   6
CONTINUOUS
  62
7
  10
 1376.6000000000
  20
 1088.3000000000
  30
0.0
  11
 1347.8000000000
  21
 1088.3000000000
  31
0.0
   0
LINE
   5
216
 100
AcDbEntity
   8
LEVEL002
 370
30
 100
AcDbLine
   6
CONTINUOUS
  62
7
  10
 1362.2000000000
  20
 1073.9000000000
  30
0.0
  11
 1362.2000000000
  21
 1066.7000000000
  31
0.0
   0
LINE
   5
217
 100
AcDbEntity
   8
LEVEL002
 370
30
 100
AcDbLine
   6
CONTINUOUS
  62
7
  10
 1362.2000000000
  20
 1066.7000000000
  30
0.0
  11
 1376.6000000000
  21
 1066.7000000000
  31
0.0
   0
ARC
   5
218
 100
AcDbEntity
   8
LEVEL002
 370
30
   6
CONTINUOUS
  62
7
 100
AcDbCircle
  10
 1376.6000000000
  20
 1070.3000000000
  30
0.0
  40
 3.6000000000000
 100
AcDbArc
  50
 270.00000000000
  51
 90.000000000000
   0
LINE
   5
219
 100
AcDbEntity
   8
LEVEL002
 370
30
 100
AcDbLine
   6
CONTINUOUS
  62
7
  10
 1376.6000000000
  20
 1073.9000000000
  30
0.0
  11
 1362.2000000000
  21
 1073.9000000000
  31
0.0
   0
LINE
   5
21A
 100
AcDbEntity
   8
LEVEL002
 370
30
 100
AcDbLine
   6
CONTINUOUS
  62
7
  10
 1412.6000000000
  20
 1088.3000000000
  30
0.0
  11
 1383.8000000000
  21
 1045.1000000000
  31
0.0
   0
LINE
   5
21B
 100
AcDbEntity
   8
LEVEL002
 370
30
 100
AcDbLine
   6
CONTINUOUS
  62
7
  10
 1383.8000000000
  20
 1045.1000000000
  30
0.0
  11
 1405.4000000000
  21
 1045.1000000000
  31
0.0
   0
LINE
   5
21C
 100
AcDbEntity
   8
LEVEL002
 370
30
 100
AcDbLine
   6
CONTINUOUS
  62
7
  10
 1405.4000000000
  20
 1045.1000000000
  30
0.0
  11
 1434.2000000000
  21
 1088.3000000000
  31
0.0
   0
LINE
   5
21D
 100
AcDbEntity
   8
LEVEL002
 370
30
 100
AcDbLine
   6
CONTINUOUS
  62
7
  10
 1434.2000000000
  20
 1088.3000000000
  30
0.0
  11
 1412.6000000000
  21
 1088.3000000000
  31
0.0
   0
LINE
   5
21E
 100
AcDbEntity
   8
LEVEL002
 370
30
 100
AcDbLine
   6
CONTINUOUS
  62
7
  10
 1429.4000000000
  20
 1045.1000000000
  30
0.0
  11
 1429.4000000000
  21
 1072.4466769388
  31
0.0
   0
LINE
   5
21F
 100
AcDbEntity
   8
LEVEL002
 370
30
 100
AcDbLine
   6
CONTINUOUS
  62
7
  10
 1429.4000000000
  20
 1072.4466769388
  30
0.0
  11
 1411.1688820408
  21
 1045.1000000000
  31
0.0
   0
LINE
   5
220
 100
AcDbEntity
   8
LEVEL002
 370
30
 100
AcDbLine
   6
CONTINUOUS
  62
7
  10
 1411.1688820408
  20
 1045.1000000000
  30
0.0
  11
 1429.4000000000
  21
 1045.1000000000
  31
0.0
   0
LINE
   5
221
 100
AcDbEntity
   8
LEVEL002
 370
30
 100
AcDbLine
   6
CONTINUOUS
  62
7
  10
 1434.2000000000
  20
 1045.1000000000
  30
0.0
  11
 1484.6000000000
  21
 1045.1000000000
  31
0.0
   0
LINE
   5
222
 100
AcDbEntity
   8
LEVEL002
 370
30
 100
AcDbLine
   6
CONTINUOUS
  62
7
  10
 1484.6000000000
  20
 1045.1000000000
  30
0.0
  11
 1484.6000000000
  21
 1073.9000000000
  31
0.0
   0
LINE
   5
223
 100
AcDbEntity
   8
LEVEL002
 370
30
 100
AcDbLine
   6
CONTINUOUS
  62
7
  10
 1484.6000000000
  20
 1073.9000000000
  30
0.0
  11
 1499.0000000000
  21
 1073.9000000000
  31
0.0
   0
LINE
   5
224
 100
AcDbEntity
   8
LEVEL002
 370
30
 100
AcDbLine
   6
CONTINUOUS
  62
7
  10
 1499.0000000000
  20
 1073.9000000000
  30
0.0
  11
 1499.0000000000
  21
 1045.1000000000
  31
0.0
   0
LINE
   5
225
 100
AcDbEntity
   8
LEVEL002
 370
30
 100
AcDbLine
   6
CONTINUOUS
  62
7
  10
 1499.0000000000
  20
 1045.1000000000
  30
0.0
  11
 1542.2000000000
  21
 1045.1000000000
  31
0.0
   0
LINE
   5
226
 100
AcDbEntity
   8
LEVEL002
 370
30
 100
AcDbLine
   6
CONTINUOUS
  62
7
  10
 1542.2000000000
  20
 1045.1000000000
  30
0.0
  11
 1542.2000000000
  21
 1059.5000000000
  31
0.0
   0
LINE
   5
227
 100
AcDbEntity
   8
LEVEL002
 370
30
 100
AcDbLine
   6
CONTINUOUS
  62
7
  10
 1542.2000000000
  20
 1059.5000000000
  30
0.0
  11
 1513.4000000000
  21
 1059.5000000000
  31
0.0
   0
LINE
   5
228
 100
AcDbEntity
   8
LEVEL002
 370
30
 100
AcDbLine
   6
CONTINUOUS
  62
7
  10
 1513.4000000000
  20
 1059.5000000000
  30
0.0
  11
 1513.4000000000
  21
 1063.1000000000
  31
0.0
   0
LINE
   5
229
 100
AcDbEntity
   8
LEVEL002
 370
30
 100
AcDbLine
   6
CONTINUOUS
  62
7
  10
 1513.4000000000
  20
 1063.1000000000
  30
0.0
  11
 1538.6000000000
  21
 1063.1000000000
  31
0.0
   0
LINE
   5
22A
 100
AcDbEntity
   8
LEVEL002
 370
30
 100
AcDbLine
   6
CONTINUOUS
  62
7
  10
 1538.6000000000
  20
 1063.1000000000
  30
0.0
  11
 1538.6000000000
  21
 1070.3000000000
  31
0.0
   0
LINE
   5
22B
 100
AcDbEntity
   8
LEVEL002
 370
30
 100
AcDbLine
   6
CONTINUOUS
  62
7
  10
 1538.6000000000
  20
 1070.3000000000
  30
0.0
  11
 1513.4000000000
  21
 1070.3000000000
  31
0.0
   0
LINE
   5
22C
 100
AcDbEntity
   8
LEVEL002
 370
30
 100
AcDbLine
   6
CONTINUOUS
  62
7
  10
 1513.4000000000
  20
 1070.3000000000
  30
0.0
  11
 1513.4000000000
  21
 1073.9000000000
  31
0.0
   0
LINE
   5
22D
 100
AcDbEntity
   8
LEVEL002
 370
30
 100
AcDbLine
   6
CONTINUOUS
  62
7
  10
 1513.4000000000
  20
 1073.9000000000
  30
0.0
  11
 1542.2000000000
  21
 1073.9000000000
  31
0.0
   0
LINE
   5
22E
 100
AcDbEntity
   8
LEVEL002
 370
30
 100
AcDbLine
   6
CONTINUOUS
  62
7
  10
 1542.2000000000
  20
 1073.9000000000
  30
0.0
  11
 1542.2000000000
  21
 1088.3000000000
  31
0.0
   0
LINE
   5
22F
 100
AcDbEntity
   8
LEVEL002
 370
30
 100
AcDbLine
   6
CONTINUOUS
  62
7
  10
 1542.2000000000
  20
 1088.3000000000
  30
0.0
  11
 1455.8000000000
  21
 1088.3000000000
  31
0.0
   0
LINE
   5
230
 100
AcDbEntity
   8
LEVEL002
 370
30
 100
AcDbLine
   6
CONTINUOUS
  62
7
  10
 1455.8000000000
  20
 1088.3000000000
  30
0.0
  11
 1455.8000000000
  21
 1073.9000000000
  31
0.0
   0
LINE
   5
231
 100
AcDbEntity
   8
LEVEL002
 370
30
 100
AcDbLine
   6
CONTINUOUS
  62
7
  10
 1455.8000000000
  20
 1073.9000000000
  30
0.0
  11
 1470.2000000000
  21
 1073.9000000000
  31
0.0
   0
LINE
   5
232
 100
AcDbEntity
   8
LEVEL002
 370
30
 100
AcDbLine
   6
CONTINUOUS
  62
7
  10
 1470.2000000000
  20
 1073.9000000000
  30
0.0
  11
 1470.2000000000
  21
 1059.5000000000
  31
0.0
   0
LINE
   5
233
 100
AcDbEntity
   8
LEVEL002
 370
30
 100
AcDbLine
   6
CONTINUOUS
  62
7
  10
 1470.2000000000
  20
 1059.5000000000
  30
0.0
  11
 1448.6000000000
  21
 1059.5000000000
  31
0.0
   0
LINE
   5
234
 100
AcDbEntity
   8
LEVEL002
 370
30
 100
AcDbLine
   6
CONTINUOUS
  62
7
  10
 1448.6000000000
  20
 1059.5000000000
  30
0.0
  11
 1448.6000000000
  21
 1088.3000000000
  31
0.0
   0
LINE
   5
235
 100
AcDbEntity
   8
LEVEL002
 370
30
 100
AcDbLine
   6
CONTINUOUS
  62
7
  10
 1448.6000000000
  20
 1088.3000000000
  30
0.0
  11
 1434.2000000000
  21
 1088.3000000000
  31
0.0
   0
LINE
   5
236
 100
AcDbEntity
   8
LEVEL002
 370
30
 100
AcDbLine
   6
CONTINUOUS
  62
7
  10
 1434.2000000000
  20
 1088.3000000000
  30
0.0
  11
 1434.2000000000
  21
 1045.1000000000
  31
0.0
   0
LINE
   5
237
 100
AcDbEntity
   8
LEVEL002
 370
30
 100
AcDbLine
   6
CONTINUOUS
  62
7
  10
 1563.8000000000
  20
 1045.1000000000
  30
0.0
  11
 1585.4000000000
  21
 1045.1000000000
  31
0.0
   0
LINE
   5
238
 100
AcDbEntity
   8
LEVEL002
 370
30
 100
AcDbLine
   6
CONTINUOUS
  62
7
  10
 1585.4000000000
  20
 1045.1000000000
  30
0.0
  11
 1585.4000000000
  21
 1059.5000000000
  31
0.0
   0
LINE
   5
239
 100
AcDbEntity
   8
LEVEL002
 370
30
 100
AcDbLine
   6
CONTINUOUS
  62
7
  10
 1585.4000000000
  20
 1059.5000000000
  30
0.0
  11
 1563.8000000000
  21
 1059.5000000000
  31
0.0
   0
ARC
   5
23A
 100
AcDbEntity
   8
LEVEL002
 370
30
   6
CONTINUOUS
  62
7
 100
AcDbCircle
  10
 1563.8000000000
  20
 1066.7000000000
  30
0.0
  40
 7.2000000000000
 100
AcDbArc
  50
 90.000000000000
  51
 270.00000000000
   0
LINE
   5
23B
 100
AcDbEntity
   8
LEVEL002
 370
30
 100
AcDbLine
   6
CONTINUOUS
  62
7
  10
 1563.8000000000
  20
 1073.9000000000
  30
0.0
  11
 1585.4000000000
  21
 1073.9000000000
  31
0.0
   0
LINE
   5
23C
 100
AcDbEntity
   8
LEVEL002
 370
30
 100
AcDbLine
   6
CONTINUOUS
  62
7
  10
 1585.4000000000
  20
 1073.9000000000
  30
0.0
  11
 1585.4000000000
  21
 1088.3000000000
  31
0.0
   0
LINE
   5
23D
 100
AcDbEntity
   8
LEVEL002
 370
30
 100
AcDbLine
   6
CONTINUOUS
  62
7
  10
 1585.4000000000
  20
 1088.3000000000
  30
0.0
  11
 1563.8000000000
  21
 1088.3000000000
  31
0.0
   0
ARC
   5
23E
 100
AcDbEntity
   8
LEVEL002
 370
30
   6
CONTINUOUS
  62
7
 100
AcDbCircle
  10
 1563.8000000000
  20
 1066.7000000000
  30
0.0
  40
 21.600000000000
 100
AcDbArc
  50
 90.000000000000
  51
 270.00000000000
   0
MTEXT
   5
240
 100
AcDbEntity
   8
LEVEL002
 370
30
  62
7
 100
AcDbMText
  10
 1347.8000000000
  20
 1095.5000000000
  30
0.0
  40
 15.000000000000
  41
0.0
  71
7
  72
1
   1
\T1.000000;ケージーパルテック株式会社
   7
GMM001
  44
 0.79999984000003
   0
LINE
   5
241
 100
AcDbEntity
   8
LEVEL002
 370
30
 100
AcDbLine
   6
CONTINUOUS
  62
7
  10
 1333.4000000000
  20
 1054.7000000000
  30
0.0
  11
 1315.4000000000
  21
 1083.5000000000
  31
0.0
   0
LINE
   5
242
 100
AcDbEntity
   8
LEVEL002
 370
30
 100
AcDbLine
   6
CONTINUOUS
  62
7
  10
 1315.4000000000
  20
 1083.5000000000
  30
0.0
  11
 1333.4000000000
  21
 1083.5000000000
  31
0.0
   0
LINE
   5
243
 100
AcDbEntity
   8
LEVEL002
 370
30
 100
AcDbLine
   6
CONTINUOUS
  62
7
  10
 1333.4000000000
  20
 1083.5000000000
  30
0.0
  11
 1333.4000000000
  21
 1054.7000000000
  31
0.0
   0
LINE
   5
244
 100
AcDbEntity
   8
LEVEL002
 370
30
 100
AcDbLine
   6
CONTINUOUS
  62
7
  10
 1315.4000000000
  20
 1083.5000000000
  30
0.0
  11
 1333.4000000000
  21
 1054.7000000000
  31
0.0
   0
LINE
   5
245
 100
AcDbEntity
   8
LEVEL002
 370
30
 100
AcDbLine
   6
CONTINUOUS
  62
7
  10
 1333.4000000000
  20
 1054.7000000000
  30
0.0
  11
 1333.4000000000
  21
 1083.5000000000
  31
0.0
   0
LINE
   5
246
 100
AcDbEntity
   8
LEVEL002
 370
30
 100
AcDbLine
   6
CONTINUOUS
  62
7
  10
 1333.4000000000
  20
 1083.5000000000
  30
0.0
  11
 1315.4000000000
  21
 1083.5000000000
  31
0.0
   0
LINE
   5
247
 100
AcDbEntity
   8
LEVEL002
 370
30
 100
AcDbLine
   6
CONTINUOUS
  62
7
  10
 1276.2000000000
  20
 1121.9000000000
  30
0.0
  11
 1250.6000000000
  21
 1083.5000000000
  31
0.0
   0
LINE
   5
248
 100
AcDbEntity
   8
LEVEL002
 370
30
 100
AcDbLine
   6
CONTINUOUS
  62
7
  10
 1250.6000000000
  20
 1083.5000000000
  30
0.0
  11
 1276.2000000000
  21
 1045.1000000000
  31
0.0
   0
LINE
   5
249
 100
AcDbEntity
   8
LEVEL002
 370
30
 100
AcDbLine
   6
CONTINUOUS
  62
7
  10
 1297.8000000000
  20
 1045.1000000000
  30
0.0
  11
 1272.2000000000
  21
 1083.5000000000
  31
0.0
   0
LINE
   5
24A
 100
AcDbEntity
   8
LEVEL002
 370
30
 100
AcDbLine
   6
CONTINUOUS
  62
7
  10
 1272.2000000000
  20
 1083.5000000000
  30
0.0
  11
 1297.8000000000
  21
 1121.9000000000
  31
0.0
   0
LINE
   5
24B
 100
AcDbEntity
   8
LEVEL002
 370
30
 100
AcDbLine
   6
CONTINUOUS
  62
7
  10
 1308.6000000000
  20
 1121.9000000000
  30
0.0
  11
 1283.0000000000
  21
 1083.5000000000
  31
0.0
   0
LINE
   5
24C
 100
AcDbEntity
   8
LEVEL002
 370
30
 100
AcDbLine
   6
CONTINUOUS
  62
7
  10
 1283.0000000000
  20
 1083.5000000000
  30
0.0
  11
 1308.6000000000
  21
 1045.1000000000
  31
0.0
   0
LINE
   5
24D
 100
AcDbEntity
   8
LEVEL002
 370
30
 100
AcDbLine
   6
CONTINUOUS
  62
7
  10
 1330.2000000000
  20
 1045.1000000000
  30
0.0
  11
 1304.6000000000
  21
 1083.5000000000
  31
0.0
   0
LINE
   5
24E
 100
AcDbEntity
   8
LEVEL002
 370
30
 100
AcDbLine
   6
CONTINUOUS
  62
7
  10
 1304.6000000000
  20
 1083.5000000000
  30
0.0
  11
 1330.2000000000
  21
 1121.9000000000
  31
0.0
   0
LINE
   5
24F
 100
AcDbEntity
   8
LEVEL002
 370
30
 100
AcDbLine
   6
CONTINUOUS
  62
7
  10
 1276.2000000000
  20
 1045.1000000000
  30
0.0
  11
 1250.6000000000
  21
 1083.5000000000
  31
0.0
   0
LINE
   5
250
 100
AcDbEntity
   8
LEVEL002
 370
30
 100
AcDbLine
   6
CONTINUOUS
  62
7
  10
 1250.6000000000
  20
 1083.5000000000
  30
0.0
  11
 1276.2000000000
  21
 1121.9000000000
  31
0.0
   0
LINE
   5
251
 100
AcDbEntity
   8
LEVEL002
 370
30
 100
AcDbLine
   6
CONTINUOUS
  62
7
  10
 1276.2000000000
  20
 1121.9000000000
  30
0.0
  11
 1297.8000000000
  21
 1121.9000000000
  31
0.0
   0
LINE
   5
252
 100
AcDbEntity
   8
LEVEL002
 370
30
 100
AcDbLine
   6
CONTINUOUS
  62
7
  10
 1297.8000000000
  20
 1121.9000000000
  30
0.0
  11
 1272.2000000000
  21
 1083.5000000000
  31
0.0
   0
LINE
   5
253
 100
AcDbEntity
   8
LEVEL002
 370
30
 100
AcDbLine
   6
CONTINUOUS
  62
7
  10
 1272.2000000000
  20
 1083.5000000000
  30
0.0
  11
 1297.8000000000
  21
 1045.1000000000
  31
0.0
   0
LINE
   5
254
 100
AcDbEntity
   8
LEVEL002
 370
30
 100
AcDbLine
   6
CONTINUOUS
  62
7
  10
 1297.8000000000
  20
 1045.1000000000
  30
0.0
  11
 1276.2000000000
  21
 1045.1000000000
  31
0.0
   0
LINE
   5
255
 100
AcDbEntity
   8
LEVEL002
 370
30
 100
AcDbLine
   6
CONTINUOUS
  62
7
  10
 1308.6000000000
  20
 1045.1000000000
  30
0.0
  11
 1283.0000000000
  21
 1083.5000000000
  31
0.0
   0
LINE
   5
256
 100
AcDbEntity
   8
LEVEL002
 370
30
 100
AcDbLine
   6
CONTINUOUS
  62
7
  10
 1283.0000000000
  20
 1083.5000000000
  30
0.0
  11
 1308.6000000000
  21
 1121.9000000000
  31
0.0
   0
LINE
   5
257
 100
AcDbEntity
   8
LEVEL002
 370
30
 100
AcDbLine
   6
CONTINUOUS
  62
7
  10
 1308.6000000000
  20
 1121.9000000000
  30
0.0
  11
 1330.2000000000
  21
 1121.9000000000
  31
0.0
   0
LINE
   5
258
 100
AcDbEntity
   8
LEVEL002
 370
30
 100
AcDbLine
   6
CONTINUOUS
  62
7
  10
 1330.2000000000
  20
 1121.9000000000
  30
0.0
  11
 1304.6000000000
  21
 1083.5000000000
  31
0.0
   0
LINE
   5
259
 100
AcDbEntity
   8
LEVEL002
 370
30
 100
AcDbLine
   6
CONTINUOUS
  62
7
  10
 1304.6000000000
  20
 1083.5000000000
  30
0.0
  11
 1330.2000000000
  21
 1045.1000000000
  31
0.0
   0
LINE
   5
25A
 100
AcDbEntity
   8
LEVEL002
 370
30
 100
AcDbLine
   6
CONTINUOUS
  62
7
  10
 1330.2000000000
  20
 1045.1000000000
  30
0.0
  11
 1308.6000000000
  21
 1045.1000000000
  31
0.0
   0
LINE
   5
25B
 100
AcDbEntity
   8
LEVEL001
 370
30
 100
AcDbLine
   6
DOT
  62
7
  10
0.0
  20
0.0
  30
0.0
  11
 1680.0000000000
  21
0.0
  31
0.0
   0
LINE
   5
25C
 100
AcDbEntity
   8
LEVEL001
 370
30
 100
AcDbLine
   6
DOT
  62
7
  10
 1680.0000000000
  20
0.0
  30
0.0
  11
 1680.0000000000
  21
 1188.0000000000
  31
0.0
   0
LINE
   5
25D
 100
AcDbEntity
   8
LEVEL001
 370
30
 100
AcDbLine
   6
DOT
  62
7
  10
 1680.0000000000
  20
 1188.0000000000
  30
0.0
  11
0.0
  21
 1188.0000000000
  31
0.0
   0
LINE
   5
25E
 100
AcDbEntity
   8
LEVEL001
 370
30
 100
AcDbLine
   6
DOT
  62
7
  10
0.0
  20
 1188.0000000000
  30
0.0
  11
0.0
  21
0.0
  31
0.0
   0
LINE
   5
25F
 100
AcDbEntity
   8
LEVEL002
 370
40
 100
AcDbLine
   6
CONTINUOUS
  62
3
  10
 61.999999999800
  20
 1100.0000000000
  30
0.0
  11
 1217.9999999998
  21
 1100.0000000000
  31
0.0
   0
LINE
   5
260
 100
AcDbEntity
   8
LEVEL002
 370
40
 100
AcDbLine
   6
CONTINUOUS
  62
3
  10
 1217.9999999998
  20
 1027.0000000000
  30
0.0
  11
 1617.9999999998
  21
 1027.0000000000
  31
0.0
   0
LINE
   5
261
 100
AcDbEntity
   8
LEVEL002
 370
40
 100
AcDbLine
   6
CONTINUOUS
  62
3
  10
 1217.9999999998
  20
 947.00000000000
  30
0.0
  11
 1617.9999999998
  21
 947.00000000000
  31
0.0
   0
LINE
   5
262
 100
AcDbEntity
   8
LEVEL002
 370
40
 100
AcDbLine
   6
CONTINUOUS
  62
3
  10
 1217.9999999998
  20
 867.00000000000
  30
0.0
  11
 1617.9999999998
  21
 867.00000000000
  31
0.0
   0
LINE
   5
263
 100
AcDbEntity
   8
LEVEL002
 370
40
 100
AcDbLine
   6
CONTINUOUS
  62
3
  10
 1217.9999999998
  20
 288.00000000004
  30
0.0
  11
 1617.9999999998
  21
 288.00000000004
  31
0.0
   0
LINE
   5
264
 100
AcDbEntity
   8
LEVEL002
 370
40
 100
AcDbLine
   6
CONTINUOUS
  62
3
  10
 1217.9999999998
  20
 208.00000000004
  30
0.0
  11
 1617.9999999998
  21
 208.00000000004
  31
0.0
   0
LINE
   5
265
 100
AcDbEntity
   8
LEVEL002
 370
40
 100
AcDbLine
   6
CONTINUOUS
  62
3
  10
 1217.9999999998
  20
 128.00000000004
  30
0.0
  11
 1617.9999999998
  21
 128.00000000004
  31
0.0
   0
LINE
   5
266
 100
AcDbEntity
   8
LEVEL002
 370
40
 100
AcDbLine
   6
CONTINUOUS
  62
3
  10
 1417.9999999998
  20
 208.00000000004
  30
0.0
  11
 1417.9999999998
  21
 48.000000000040
  31
0.0
   0
LINE
   5
267
 100
AcDbEntity
   8
LEVEL002
 370
40
 100
AcDbLine
   6
CONTINUOUS
  62
3
  10
 1417.9999999998
  20
 154.66666666672
  30
0.0
  11
 1617.9999999998
  21
 154.66666666672
  31
0.0
   0
LINE
   5
268
 100
AcDbEntity
   8
LEVEL002
 370
40
 100
AcDbLine
   6
CONTINUOUS
  62
3
  10
 1417.9999999998
  20
 181.33333333338
  30
0.0
  11
 1617.9999999998
  21
 181.33333333338
  31
0.0
   0
LINE
   5
269
 100
AcDbEntity
   8
LEVEL002
 370
50
 100
AcDbLine
   6
CONTINUOUS
  62
4
  10
 1617.9999999998
  20
 1140.0000000000
  30
0.0
  11
 61.999999999800
  21
 1140.0000000000
  31
0.0
   0
LINE
   5
26A
 100
AcDbEntity
   8
LEVEL002
 370
50
 100
AcDbLine
   6
CONTINUOUS
  62
4
  10
 1217.9999999998
  20
 1140.0000000000
  30
0.0
  11
 1217.9999999998
  21
 48.000000000040
  31
0.0
   0
LINE
   5
26B
 100
AcDbEntity
   8
LEVEL002
 370
50
 100
AcDbLine
   6
CONTINUOUS
  62
4
  10
 1617.9999999998
  20
 48.000000000040
  30
0.0
  11
 1617.9999999998
  21
 1140.0000000000
  31
0.0
   0
LINE
   5
26C
 100
AcDbEntity
   8
LEVEL002
 370
50
 100
AcDbLine
   6
CONTINUOUS
  62
4
  10
 61.999999999800
  20
 1140.0000000000
  30
0.0
  11
 61.999999999800
  21
 48.000000000040
  31
0.0
   0
LINE
   5
26D
 100
AcDbEntity
   8
LEVEL002
 370
50
 100
AcDbLine
   6
CONTINUOUS
  62
4
  10
 61.999999999800
  20
 48.000000000040
  30
0.0
  11
 1617.9999999998
  21
 48.000000000040
  31
0.0
   0
HATCH
   5
26E
 100
AcDbEntity
   8
LEVEL001
  62
1
 100
AcDbHatch
  10
0.0
  20
0.0
  30
0.0
 210
0.0
 220
0.0
 230
 1.0000000000000
   2
SOLID
  70
1
  71
1
  91
7
  92
1
  93
6
  72
1
  10
 1297.8000000000
  20
 1121.9000000000
  11
 1272.2000000000
  21
 1083.5000000000
  72
1
  10
 1272.2000000000
  20
 1083.5000000000
  11
 1297.8000000000
  21
 1045.1000000000
  72
1
  10
 1297.8000000000
  20
 1045.1000000000
  11
 1276.2000000000
  21
 1045.1000000000
  72
1
  10
 1276.2000000000
  20
 1045.1000000000
  11
 1250.6000000000
  21
 1083.5000000000
  72
1
  10
 1250.6000000000
  20
 1083.5000000000
  11
 1276.2000000000
  21
 1121.9000000000
  72
1
  10
 1276.2000000000
  20
 1121.9000000000
  11
 1297.8000000000
  21
 1121.9000000000
  97
1
 330

  92
16
  93
6
  72
1
  10
 1308.6000000000
  20
 1121.9000000000
  11
 1330.2000000000
  21
 1121.9000000000
  72
1
  10
 1330.2000000000
  20
 1121.9000000000
  11
 1304.6000000000
  21
 1083.5000000000
  72
1
  10
 1304.6000000000
  20
 1083.5000000000
  11
 1330.2000000000
  21
 1045.1000000000
  72
1
  10
 1330.2000000000
  20
 1045.1000000000
  11
 1308.6000000000
  21
 1045.1000000000
  72
1
  10
 1308.6000000000
  20
 1045.1000000000
  11
 1283.0000000000
  21
 1083.5000000000
  72
1
  10
 1283.0000000000
  20
 1083.5000000000
  11
 1308.6000000000
  21
 1121.9000000000
  97
1
 330

  92
16
  93
3
  72
1
  10
 1333.4000000000
  20
 1083.5000000000
  11
 1315.4000000000
  21
 1083.5000000000
  72
1
  10
 1315.4000000000
  20
 1083.5000000000
  11
 1333.4000000000
  21
 1054.7000000000
  72
1
  10
 1333.4000000000
  20
 1054.7000000000
  11
 1333.4000000000
  21
 1083.5000000000
  97
1
 330

  92
16
  93
6
  72
1
  10
 1347.8000000000
  20
 1088.3000000000
  11
 1376.6000000000
  21
 1088.3000000000
  72
2
  10
 1376.6000000000
  20
 1070.3000000000
  40
 18.000000000000
  50
 270.00000000000
  51
 90.000000000000
  73
0
  72
1
  10
 1376.6000000000
  20
 1052.3000000000
  11
 1362.2000000000
  21
 1052.3000000000
  72
1
  10
 1362.2000000000
  20
 1052.3000000000
  11
 1362.2000000000
  21
 1045.1000000000
  72
1
  10
 1362.2000000000
  20
 1045.1000000000
  11
 1347.8000000000
  21
 1045.1000000000
  72
1
  10
 1347.8000000000
  20
 1045.1000000000
  11
 1347.8000000000
  21
 1088.3000000000
  97
1
 330

  92
16
  93
4
  72
1
  10
 1376.6000000000
  20
 1073.9000000000
  11
 1362.2000000000
  21
 1073.9000000000
  72
1
  10
 1362.2000000000
  20
 1073.9000000000
  11
 1362.2000000000
  21
 1066.7000000000
  72
1
  10
 1362.2000000000
  20
 1066.7000000000
  11
 1376.6000000000
  21
 1066.7000000000
  72
2
  10
 1376.6000000000
  20
 1070.3000000000
  40
 3.6000000000000
  50
 270.00000000000
  51
 90.000000000000
  73
1
  97
1
 330

  92
16
  93
4
  72
1
  10
 1383.8000000000
  20
 1045.1000000000
  11
 1412.6000000000
  21
 1088.3000000000
  72
1
  10
 1412.6000000000
  20
 1088.3000000000
  11
 1434.2000000000
  21
 1088.3000000000
  72
1
  10
 1434.2000000000
  20
 1088.3000000000
  11
 1405.4000000000
  21
 1045.1000000000
  72
1
  10
 1405.4000000000
  20
 1045.1000000000
  11
 1383.8000000000
  21
 1045.1000000000
  97
1
 330

  92
16
  93
3
  72
1
  10
 1429.4000000000
  20
 1072.4466769388
  11
 1411.1688820408
  21
 1045.1000000000
  72
1
  10
 1411.1688820408
  20
 1045.1000000000
  11
 1429.4000000000
  21
 1045.1000000000
  72
1
  10
 1429.4000000000
  20
 1045.1000000000
  11
 1429.4000000000
  21
 1072.4466769388
  97
1
 330

  75
0
  76
1
  98
1
  10
0.0
  20
0.0
   0
HATCH
   5
26F
 100
AcDbEntity
   8
LEVEL001
  62
1
 100
AcDbHatch
  10
0.0
  20
0.0
  30
0.0
 210
0.0
 220
0.0
 230
 1.0000000000000
   2
SOLID
  70
1
  71
1
  91
1
  92
1
  93
22
  72
1
  10
 1434.2000000000
  20
 1088.3000000000
  11
 1448.6000000000
  21
 1088.3000000000
  72
1
  10
 1448.6000000000
  20
 1088.3000000000
  11
 1448.6000000000
  21
 1059.5000000000
  72
1
  10
 1448.6000000000
  20
 1059.5000000000
  11
 1470.2000000000
  21
 1059.5000000000
  72
1
  10
 1470.2000000000
  20
 1059.5000000000
  11
 1470.2000000000
  21
 1073.9000000000
  72
1
  10
 1470.2000000000
  20
 1073.9000000000
  11
 1455.8000000000
  21
 1073.9000000000
  72
1
  10
 1455.8000000000
  20
 1073.9000000000
  11
 1455.8000000000
  21
 1088.3000000000
  72
1
  10
 1455.8000000000
  20
 1088.3000000000
  11
 1542.2000000000
  21
 1088.3000000000
  72
1
  10
 1542.2000000000
  20
 1088.3000000000
  11
 1542.2000000000
  21
 1073.9000000000
  72
1
  10
 1542.2000000000
  20
 1073.9000000000
  11
 1513.4000000000
  21
 1073.9000000000
  72
1
  10
 1513.4000000000
  20
 1073.9000000000
  11
 1513.4000000000
  21
 1070.3000000000
  72
1
  10
 1513.4000000000
  20
 1070.3000000000
  11
 1538.6000000000
  21
 1070.3000000000
  72
1
  10
 1538.6000000000
  20
 1070.3000000000
  11
 1538.6000000000
  21
 1063.1000000000
  72
1
  10
 1538.6000000000
  20
 1063.1000000000
  11
 1513.4000000000
  21
 1063.1000000000
  72
1
  10
 1513.4000000000
  20
 1063.1000000000
  11
 1513.4000000000
  21
 1059.5000000000
  72
1
  10
 1513.4000000000
  20
 1059.5000000000
  11
 1542.2000000000
  21
 1059.5000000000
  72
1
  10
 1542.2000000000
  20
 1059.5000000000
  11
 1542.2000000000
  21
 1045.1000000000
  72
1
  10
 1542.2000000000
  20
 1045.1000000000
  11
 1499.0000000000
  21
 1045.1000000000
  72
1
  10
 1499.0000000000
  20
 1045.1000000000
  11
 1499.0000000000
  21
 1073.9000000000
  72
1
  10
 1499.0000000000
  20
 1073.9000000000
  11
 1484.6000000000
  21
 1073.9000000000
  72
1
  10
 1484.6000000000
  20
 1073.9000000000
  11
 1484.6000000000
  21
 1045.1000000000
  72
1
  10
 1484.6000000000
  20
 1045.1000000000
  11
 1434.2000000000
  21
 1045.1000000000
  72
1
  10
 1434.2000000000
  20
 1045.1000000000
  11
 1434.2000000000
  21
 1088.3000000000
  97
1
 330

  75
0
  76
1
  98
1
  10
0.0
  20
0.0
   0
HATCH
   5
270
 100
AcDbEntity
   8
LEVEL001
  62
1
 100
AcDbHatch
  10
0.0
  20
0.0
  30
0.0
 210
0.0
 220
0.0
 230
 1.0000000000000
   2
SOLID
  70
1
  71
1
  91
1
  92
1
  93
8
  72
1
  10
 1585.4000000000
  20
 1088.3000000000
  11
 1563.8000000000
  21
 1088.3000000000
  72
2
  10
 1563.8000000000
  20
 1066.7000000000
  40
 21.600000000000
  50
 90.000000000000
  51
 270.00000000000
  73
1
  72
1
  10
 1563.8000000000
  20
 1045.1000000000
  11
 1585.4000000000
  21
 1045.1000000000
  72
1
  10
 1585.4000000000
  20
 1045.1000000000
  11
 1585.4000000000
  21
 1059.5000000000
  72
1
  10
 1585.4000000000
  20
 1059.5000000000
  11
 1563.8000000000
  21
 1059.5000000000
  72
2
  10
 1563.8000000000
  20
 1066.7000000000
  40
 7.2000000000000
  50
 90.000000000000
  51
 270.00000000000
  73
0
  72
1
  10
 1563.8000000000
  20
 1073.9000000000
  11
 1585.4000000000
  21
 1073.9000000000
  72
1
  10
 1585.4000000000
  20
 1073.9000000000
  11
 1585.4000000000
  21
 1088.3000000000
  97
1
 330

  75
0
  76
1
  98
1
  10
0.0
  20
0.0
   0
MTEXT
   5
272
 100
AcDbEntity
   8
LEVEL002
 370
15
  62
8
 100
AcDbMText
  10
 1243.1999999998
  20
 113.00000000004
  30
0.0
  40
 12.000000000000
  41
0.0
  71
5
  72
1
   1
\T1.000000;サイズ：
   7
GMM002
  44
 0.79999984000003
   0
MTEXT
   5
274
 100
AcDbEntity
   8
LEVEL002
 370
15
  62
8
 100
AcDbMText
  10
 1237.1999999998
  20
 193.00000000004
  30
0.0
  40
 12.000000000000
  41
0.0
  71
5
  72
1
   1
\T1.000000;縮尺：
   7
GMM002
  44
 0.79999984000003
   0
MTEXT
   5
276
 100
AcDbEntity
   8
LEVEL002
 370
15
  62
8
 100
AcDbMText
  10
 1249.1999999998
  20
 273.00000000004
  30
0.0
  40
 12.000000000000
  41
0.0
  71
5
  72
1
   1
\T1.000000;図面名称：
   7
GMM002
  44
 0.79999984000003
   0
MTEXT
   5
278
 100
AcDbEntity
   8
LEVEL002
 370
15
  62
8
 100
AcDbMText
  10
 1455.1999999998
  20
 113.00000000004
  30
0.0
  40
 12.000000000000
  41
0.0
  71
5
  72
1
   1
\T1.000000;ファイル名：
   7
GMM002
  44
 0.79999984000003
   0
MTEXT
   5
27A
 100
AcDbEntity
   8
LEVEL002
 370
15
  62
8
 100
AcDbMText
  10
 1449.1999999998
  20
 194.66666666672
  30
0.0
  40
 11.200000000000
  41
0.0
  71
5
  72
1
   1
\T1.000000;作成日付：
   7
GMM003
  44
 0.79999984000003
   0
MTEXT
   5
27C
 100
AcDbEntity
   8
LEVEL002
 370
15
  62
8
 100
AcDbMText
  10
 1449.1999999998
  20
 168.00000000004
  30
0.0
  40
 11.200000000000
  41
0.0
  71
5
  72
1
   1
\T1.000000;変更日付：
   7
GMM003
  44
 0.79999984000003
   0
MTEXT
   5
27E
 100
AcDbEntity
   8
LEVEL002
 370
15
  62
8
 100
AcDbMText
  10
 1317.9999999998
  20
 73.000000000040
  30
0.0
  40
 15.000000000000
  41
0.0
  71
5
  72
1
   1
\T1.000000;Ａ３
   7
GMM002
  44
 0.79999984000003
   0
MTEXT
   5
280
 100
AcDbEntity
   8
LEVEL002
 370
15
  62
8
 100
AcDbMText
  10
 1237.1999999998
  20
 852.00000000000
  30
0.0
  40
 12.000000000000
  41
0.0
  71
5
  72
1
   1
\T1.000000;仕様：
   7
GMM002
  44
 0.79999984000003
   0
MTEXT
   5
282
 100
AcDbEntity
   8
LEVEL002
 370
15
  62
8
 100
AcDbMText
  10
 1237.1999999998
  20
 932.00000000000
  30
0.0
  40
 12.000000000000
  41
0.0
  71
5
  72
1
   1
\T1.000000;形式：
   7
GMM002
  44
 0.79999984000003
   0
MTEXT
   5
284
 100
AcDbEntity
   8
LEVEL002
 370
15
  62
8
 100
AcDbMText
  10
 1243.1999999998
  20
 1012.0000000000
  30
0.0
  40
 12.000000000000
  41
0.0
  71
5
  72
1
   1
\T1.000000;商品名：
   7
GMM002
  44
 0.79999984000003
   0
MTEXT
   5
286
 100
AcDbEntity
   8
LEVEL002
 370
15
  62
8
 100
AcDbMText
  10
 1387.5999999998
  20
 307.48321383605
  30
0.0
  40
 16.000000000000
  41
0.0
  71
5
  72
1
   1
\T1.000000;　※本製品は予告無しに変更する事があります。
   7
GMM002
  44
 0.79999984000003
   0
MTEXT
   5
288
 100
AcDbEntity
   8
LEVEL002
 370
15
  62
8
 100
AcDbMText
  10
 1289.9999999998
  20
 978.00000000000
  30
0.0
  40
 18.000000000000
  41
0.0
  71
7
  72
1
   1
\T1.000000;　フロアー金具コーナー部材
   7
GMM004
  44
 0.79999984000003
   0
MTEXT
   5
28A
 100
AcDbEntity
   8
LEVEL002
 370
15
  62
8
 100
AcDbMText
  10
 1517.9999999998
  20
 80.333333333380
  30
0.0
  40
 10.000000000000
  41
0.0
  71
5
  72
1
   1
\T1.000000;フロアー金具コーナー部材－１
   7
GMM002
  44
 0.79999984000003
   0
LINE
   5
28B
 100
AcDbEntity
   8
LEVEL002
 370
40
 100
AcDbLine
   6
CONTINUOUS
  62
3
  10
 61.999999999800
  20
 554.00000000002
  30
0.0
  11
 1217.9999999998
  21
 554.00000000002
  31
0.0
   0
LINE
   5
28C
 100
AcDbEntity
   8
LEVEL002
 370
40
 100
AcDbLine
   6
CONTINUOUS
  62
3
  10
 61.999999999800
  20
 594.00000000002
  30
0.0
  11
 1217.9999999998
  21
 594.00000000002
  31
0.0
   0
LWPOLYLINE
   5
28D
 100
AcDbEntity
   8
LEVEL001
 370
30
   6
CONTINUOUS
  62
7
 100
AcDbPolyline
  90
4
  70
1
  10
 83.455488621149
  20
 1032.3978580991
  10
 83.455488621149
  20
 1015.8580990629
  10
 159.79283801874
  20
 1015.8580990629
  10
 159.79283801874
  20
 1032.3978580991
   0
LWPOLYLINE
   5
28E
 100
AcDbEntity
   8
LEVEL001
 370
30
   6
CONTINUOUS
  62
7
 100
AcDbPolyline
  90
4
  70
1
  10
 603.55946682511
  20
 1032.3978580991
  10
 603.55946682511
  20
 1015.8580990629
  10
 679.89681622270
  20
 1015.8580990629
  10
 679.89681622270
  20
 1032.3978580991
   0
LWPOLYLINE
   5
28F
 100
AcDbEntity
   8
LEVEL001
 370
30
   6
CONTINUOUS
  62
7
 100
AcDbPolyline
  90
4
  70
1
  10
 83.455488621149
  20
 486.39785809908
  10
 83.455488621149
  20
 469.85809906294
  10
 159.79283801874
  20
 469.85809906294
  10
 159.79283801874
  20
 486.39785809908
   0
LWPOLYLINE
   5
290
 100
AcDbEntity
   8
LEVEL001
 370
30
   6
CONTINUOUS
  62
7
 100
AcDbPolyline
  90
4
  70
1
  10
 603.55946682511
  20
 486.39785809908
  10
 603.55946682511
  20
 469.85809906294
  10
 679.89681622270
  20
 469.85809906294
  10
 679.89681622270
  20
 486.39785809908
   0
MTEXT
   5
292
 100
AcDbEntity
   8
LEVEL002
 370
15
  62
8
 100
AcDbMText
  10
 1317.9999999998
  20
 153.00000000004
  30
0.0
  40
 15.000000000000
  41
0.0
  71
5
  72
1
   1
\T1.000000;Ｓ＝１：４
   7
GMM002
  44
 0.79999984000003
   0
MTEXT
   5
294
 100
AcDbEntity
   8
LEVEL002
 370
15
  62
8
 100
AcDbMText
  10
 246.78915662631
  20
 574.00000000002
  30
0.0
  40
 12.000000000000
  41
0.0
  71
5
  72
1
   1
\T1.000000;Ｓ３５ＣＲ（穴なし）
   7
GMM002
  44
 0.79999984000003
   0
MTEXT
   5
296
 100
AcDbEntity
   8
LEVEL001
 370
15
  62
8
 100
AcDbMText
  10
 63.199999999800
  20
 1120.0000000000
  30
0.0
  40
 10.000000000000
  41
0.0
  71
4
  72
1
   1
\W0.500000;\T1.000000; \W1.000000;\T1.000000;床押えアールコーナー
   7
GMM002
  44
 0.79999984000003
   0
MTEXT
   5
298
 100
AcDbEntity
   8
LEVEL001
 370
15
  62
8
 100
AcDbMText
  10
 63.199999999800
  20
 574.00000000002
  30
0.0
  40
 10.000000000000
  41
0.0
  71
4
  72
1
   1
\W0.500000;\T1.000000; \W1.000000;\T1.000000;床押えアールコーナー
   7
GMM002
  44
 0.79999984000003
   0
MTEXT
   5
29A
 100
AcDbEntity
   8
LEVEL002
 370
15
  62
8
 100
AcDbMText
  10
 1417.9999999998
  20
 233.00000000004
  30
0.0
  40
 15.000000000000
  41
0.0
  71
5
  72
1
   1
\T1.000000;平面図・断面図
   7
GMM002
  44
 0.79999984000003
   0
DIMENSION
   5
29B
 100
AcDbEntity
   8
LEVEL001
 370
15
   6
CONTINUOUS
  62
8
 100
AcDbDimension
   2
*D1
  10
 167.88295462028
  20
 1002.0071489535
  30
0.0
  11
 292.88295462028
  21
 1002.0071489535
  31
0.0
  70
0
   3
GMM001
 100
AcDbAlignedDimension
  13
 417.88295462028
  23
 954.86241211145
  33
0.0
  14
 167.88295462028
  24
 806.86241211145
  34
0.0
  50
 180.00000000000
 100
AcDbRotatedDimension
   0
LINE
   5
29C
 100
AcDbEntity
   8
LEVEL002
 370
15
 100
AcDbLine
   6
DASHDOT
  62
8
  10
 417.88295462028
  20
 704.86241211145
  30
0.0
  11
 183.70633044265
  21
 939.03903628908
  31
0.0
   0
DIMENSION
   5
29D
 100
AcDbEntity
   8
LEVEL001
 370
15
   6
CONTINUOUS
  62
8
 100
AcDbDimension
   2
*D2
  10
 202.88295462028
  20
 641.96875466091
  30
0.0
  11
 185.38295462028
  21
 641.96875466091
  31
0.0
  70
0
   3
GMM001
 100
AcDbAlignedDimension
  13
 167.88295462028
  23
 668.64835858021
  33
0.0
  14
 202.88295462028
  24
 674.76266397414
  34
0.0
 100
AcDbRotatedDimension
   0
DIMENSION
   5
29E
 100
AcDbEntity
   8
LEVEL001
 370
15
   6
CONTINUOUS
  62
8
 100
AcDbDimension
   2
*D3
  10
 436.57253574658
  20
 954.86241211145
  30
0.0
  11
 436.57253574658
  21
 937.36241211145
  31
0.0
  70
0
   3
GMM001
 100
AcDbAlignedDimension
  13
 417.88295462028
  23
 919.86241211145
  33
0.0
  14
 417.88295462028
  24
 954.86241211145
  34
0.0
  50
 90.000000000000
 100
AcDbRotatedDimension
   0
LINE
   5
29F
 100
AcDbEntity
   8
LEVEL001
 370
15
 100
AcDbLine
   6
DASHDOT
  62
8
  10
 387.38295462028
  20
 923.53467202141
  30
0.0
  11
 387.38295462028
  21
 939.19015220148
  31
0.0
   0
LINE
   5
2A0
 100
AcDbEntity
   8
LEVEL001
 370
15
 100
AcDbLine
   6
DASHDOT
  62
8
  10
 394.69301767429
  20
 931.36241211145
  30
0.0
  11
 380.07289156627
  21
 931.36241211145
  31
0.0
   0
LINE
   5
2A1
 100
AcDbEntity
   8
LEVEL001
 370
15
 100
AcDbLine
   6
DASHDOT
  62
8
  10
 261.13176146809
  20
 910.09019853738
  30
0.0
  11
 261.13176146809
  21
 925.74567871745
  31
0.0
   0
LINE
   5
2A2
 100
AcDbEntity
   8
LEVEL001
 370
15
 100
AcDbLine
   6
DASHDOT
  62
8
  10
 268.44182452210
  20
 917.91793862742
  30
0.0
  11
 253.82169841407
  21
 917.91793862742
  31
0.0
   0
LINE
   5
2A3
 100
AcDbEntity
   8
LEVEL001
 370
15
 100
AcDbLine
   6
DASHDOT
  62
8
  10
 204.82742810438
  20
 853.78586517373
  30
0.0
  11
 204.82742810438
  21
 869.44134535380
  31
0.0
   0
LINE
   5
2A4
 100
AcDbEntity
   8
LEVEL001
 370
15
 100
AcDbLine
   6
DASHDOT
  62
8
  10
 212.13749115839
  20
 861.61360526377
  30
0.0
  11
 197.51736505037
  21
 861.61360526377
  31
0.0
   0
LINE
   5
2A5
 100
AcDbEntity
   8
LEVEL001
 370
15
 100
AcDbLine
   6
DASHDOT
  62
8
  10
 191.38295462028
  20
 727.53467202141
  30
0.0
  11
 191.38295462028
  21
 743.19015220148
  31
0.0
   0
LINE
   5
2A6
 100
AcDbEntity
   8
LEVEL001
 370
15
 100
AcDbLine
   6
DASHDOT
  62
8
  10
 198.69301767429
  20
 735.36241211145
  30
0.0
  11
 184.07289156627
  21
 735.36241211145
  31
0.0
   0
DIMENSION
   5
2A7
 100
AcDbEntity
   8
LEVEL001
 370
15
   6
CONTINUOUS
  62
8
 100
AcDbDimension
   2
*D4
  10
 127.22948205028
  20
 704.86241211145
  30
0.0
  11
 127.22948205028
  21
 829.86241211145
  31
0.0
  70
0
   3
GMM001
 100
AcDbAlignedDimension
  13
 317.88295462028
  23
 954.86241211145
  33
0.0
  14
 167.88295462028
  24
 704.86241211145
  34
0.0
  50
 270.00000000000
 100
AcDbRotatedDimension
   0
DIMENSION
   5
2A8
 100
AcDbEntity
   8
LEVEL001
 370
15
   6
CONTINUOUS
  62
8
 100
AcDbDimension
   2
*D5
  10
 167.88295462028
  20
 456.00714895357
  30
0.0
  11
 292.88295462028
  21
 456.00714895357
  31
0.0
  70
0
   3
GMM001
 100
AcDbAlignedDimension
  13
 417.88295462028
  23
 408.86241211147
  33
0.0
  14
 167.88295462028
  24
 260.86241211147
  34
0.0
  50
 180.00000000000
 100
AcDbRotatedDimension
   0
LINE
   5
2A9
 100
AcDbEntity
   8
LEVEL002
 370
15
 100
AcDbLine
   6
DASHDOT
  62
8
  10
 417.88295462028
  20
 158.86241211147
  30
0.0
  11
 183.70633044265
  21
 393.03903628910
  31
0.0
   0
DIMENSION
   5
2AA
 100
AcDbEntity
   8
LEVEL001
 370
15
   6
CONTINUOUS
  62
8
 100
AcDbDimension
   2
*D6
  10
 202.88295462028
  20
 95.968754660932
  30
0.0
  11
 185.38295462028
  21
 95.968754660932
  31
0.0
  70
0
   3
GMM001
 100
AcDbAlignedDimension
  13
 167.88295462028
  23
 122.64835858023
  33
0.0
  14
 202.88295462028
  24
 128.76266397416
  34
0.0
 100
AcDbRotatedDimension
   0
DIMENSION
   5
2AB
 100
AcDbEntity
   8
LEVEL001
 370
15
   6
CONTINUOUS
  62
8
 100
AcDbDimension
   2
*D7
  10
 436.57253574658
  20
 408.86241211147
  30
0.0
  11
 436.57253574658
  21
 391.36241211147
  31
0.0
  70
0
   3
GMM001
 100
AcDbAlignedDimension
  13
 417.88295462028
  23
 373.86241211147
  33
0.0
  14
 417.88295462028
  24
 408.86241211147
  34
0.0
  50
 90.000000000000
 100
AcDbRotatedDimension
   0
DIMENSION
   5
2AC
 100
AcDbEntity
   8
LEVEL001
 370
15
   6
CONTINUOUS
  62
8
 100
AcDbDimension
   2
*D8
  10
 127.22948205028
  20
 158.86241211147
  30
0.0
  11
 127.22948205028
  21
 283.86241211147
  31
0.0
  70
0
   3
GMM001
 100
AcDbAlignedDimension
  13
 317.88295462028
  23
 408.86241211147
  33
0.0
  14
 167.88295462028
  24
 158.86241211147
  34
0.0
  50
 270.00000000000
 100
AcDbRotatedDimension
   0
DIMENSION
   5
2AD
 100
AcDbEntity
   8
LEVEL001
 370
15
   6
CONTINUOUS
  62
8
 100
AcDbDimension
   2
*D9
  10
 937.98693282424
  20
 1002.0071489535
  30
0.0
  11
 812.98693282424
  21
 1002.0071489535
  31
0.0
  70
0
   3
GMM001
 100
AcDbAlignedDimension
  13
 687.98693282424
  23
 954.86241211145
  33
0.0
  14
 937.98693282424
  24
 806.86241211145
  34
0.0
 100
AcDbRotatedDimension
   0
LINE
   5
2AE
 100
AcDbEntity
   8
LEVEL002
 370
15
 100
AcDbLine
   6
DASHDOT
  62
8
  10
 687.98693282424
  20
 704.86241211145
  30
0.0
  11
 922.16355700187
  21
 939.03903628908
  31
0.0
   0
DIMENSION
   5
2AF
 100
AcDbEntity
   8
LEVEL001
 370
15
   6
CONTINUOUS
  62
8
 100
AcDbDimension
   2
*D10
  10
 937.98693282424
  20
 641.96875466091
  30
0.0
  11
 920.48693282424
  21
 641.96875466091
  31
0.0
  70
0
   3
GMM001
 100
AcDbAlignedDimension
  13
 902.98693282424
  23
 668.64835858021
  33
0.0
  14
 937.98693282424
  24
 674.76266397414
  34
0.0
 100
AcDbRotatedDimension
   0
DIMENSION
   5
2B0
 100
AcDbEntity
   8
LEVEL001
 370
15
   6
CONTINUOUS
  62
8
 100
AcDbDimension
   2
*D11
  10
 669.48012048193
  20
 954.86241211145
  30
0.0
  11
 669.48012048193
  21
 937.36241211145
  31
0.0
  70
0
   3
GMM001
 100
AcDbAlignedDimension
  13
 687.98693282424
  23
 919.86241211145
  33
0.0
  14
 687.98693282424
  24
 954.86241211145
  34
0.0
  50
 90.000000000000
 100
AcDbRotatedDimension
   0
LINE
   5
2B1
 100
AcDbEntity
   8
LEVEL001
 370
15
 100
AcDbLine
   6
DASHDOT
  62
8
  10
 718.48693282424
  20
 935.53467202141
  30
0.0
  11
 718.48693282424
  21
 951.19015220148
  31
0.0
   0
LINE
   5
2B2
 100
AcDbEntity
   8
LEVEL001
 370
15
 100
AcDbLine
   6
DASHDOT
  62
8
  10
 711.17686977023
  20
 943.36241211145
  30
0.0
  11
 725.79699587825
  21
 943.36241211145
  31
0.0
   0
LINE
   5
2B3
 100
AcDbEntity
   8
LEVEL001
 370
15
 100
AcDbLine
   6
DASHDOT
  62
8
  10
 850.12163837030
  20
 920.81483346381
  30
0.0
  11
 850.12163837030
  21
 936.47031364387
  31
0.0
   0
LINE
   5
2B4
 100
AcDbEntity
   8
LEVEL001
 370
15
 100
AcDbLine
   6
DASHDOT
  62
8
  10
 842.81157531629
  20
 928.64257355384
  30
0.0
  11
 857.43170142431
  21
 928.64257355384
  31
0.0
   0
LINE
   5
2B5
 100
AcDbEntity
   8
LEVEL001
 370
15
 100
AcDbLine
   6
DASHDOT
  62
8
  10
 911.76709426654
  20
 859.16937756765
  30
0.0
  11
 911.76709426654
  21
 874.82485774771
  31
0.0
   0
LINE
   5
2B6
 100
AcDbEntity
   8
LEVEL001
 370
15
 100
AcDbLine
   6
DASHDOT
  62
8
  10
 904.45703121253
  20
 866.99711765768
  30
0.0
  11
 919.07715732055
  21
 866.99711765768
  31
0.0
   0
LINE
   5
2B7
 100
AcDbEntity
   8
LEVEL001
 370
15
 100
AcDbLine
   6
DASHDOT
  62
8
  10
 926.48693282424
  20
 727.53467202141
  30
0.0
  11
 926.48693282424
  21
 743.19015220148
  31
0.0
   0
LINE
   5
2B8
 100
AcDbEntity
   8
LEVEL001
 370
15
 100
AcDbLine
   6
DASHDOT
  62
8
  10
 919.17686977023
  20
 735.36241211145
  30
0.0
  11
 933.79699587825
  21
 735.36241211145
  31
0.0
   0
DIMENSION
   5
2B9
 100
AcDbEntity
   8
LEVEL001
 370
15
   6
CONTINUOUS
  62
8
 100
AcDbDimension
   2
*D12
  10
 966.89286014495
  20
 954.86241211145
  30
0.0
  11
 966.89286014495
  21
 829.86241211145
  31
0.0
  70
0
   3
GMM001
 100
AcDbAlignedDimension
  13
 937.98693282424
  23
 704.86241211145
  33
0.0
  14
 787.98693282424
  24
 954.86241211145
  34
0.0
  50
 90.000000000000
 100
AcDbRotatedDimension
   0
DIMENSION
   5
2BA
 100
AcDbEntity
   8
LEVEL001
 370
15
   6
CONTINUOUS
  62
8
 100
AcDbDimension
   2
*D13
  10
 937.98693282424
  20
 456.00714895357
  30
0.0
  11
 812.98693282424
  21
 456.00714895357
  31
0.0
  70
0
   3
GMM001
 100
AcDbAlignedDimension
  13
 687.98693282424
  23
 408.86241211147
  33
0.0
  14
 937.98693282424
  24
 260.86241211147
  34
0.0
 100
AcDbRotatedDimension
   0
LINE
   5
2BB
 100
AcDbEntity
   8
LEVEL002
 370
15
 100
AcDbLine
   6
DASHDOT
  62
8
  10
 687.98693282424
  20
 158.86241211147
  30
0.0
  11
 922.16355700187
  21
 393.03903628910
  31
0.0
   0
DIMENSION
   5
2BC
 100
AcDbEntity
   8
LEVEL001
 370
15
   6
CONTINUOUS
  62
8
 100
AcDbDimension
   2
*D14
  10
 937.98693282424
  20
 95.968754660932
  30
0.0
  11
 920.48693282424
  21
 95.968754660932
  31
0.0
  70
0
   3
GMM001
 100
AcDbAlignedDimension
  13
 902.98693282424
  23
 122.64835858023
  33
0.0
  14
 937.98693282424
  24
 128.76266397416
  34
0.0
 100
AcDbRotatedDimension
   0
DIMENSION
   5
2BD
 100
AcDbEntity
   8
LEVEL001
 370
15
   6
CONTINUOUS
  62
8
 100
AcDbDimension
   2
*D15
  10
 669.48012048193
  20
 408.86241211147
  30
0.0
  11
 669.48012048193
  21
 391.36241211147
  31
0.0
  70
0
   3
GMM001
 100
AcDbAlignedDimension
  13
 687.98693282424
  23
 373.86241211147
  33
0.0
  14
 687.98693282424
  24
 408.86241211147
  34
0.0
  50
 90.000000000000
 100
AcDbRotatedDimension
   0
DIMENSION
   5
2BE
 100
AcDbEntity
   8
LEVEL001
 370
15
   6
CONTINUOUS
  62
8
 100
AcDbDimension
   2
*D16
  10
 966.89286014495
  20
 408.86241211147
  30
0.0
  11
 966.89286014495
  21
 283.86241211147
  31
0.0
  70
0
   3
GMM001
 100
AcDbAlignedDimension
  13
 937.98693282424
  23
 158.86241211147
  33
0.0
  14
 787.98693282424
  24
 408.86241211147
  34
0.0
  50
 90.000000000000
 100
AcDbRotatedDimension
   0
MTEXT
   5
2C0
 100
AcDbEntity
   8
LEVEL002
 370
15
  62
8
 100
AcDbMText
  10
 246.78915662631
  20
 1120.0000000000
  30
0.0
  40
 12.000000000000
  41
0.0
  71
5
  72
1
   1
\T1.000000;Ｓ３５ＣＲＨ（穴付）
   7
GMM002
  44
 0.79999984000003
   0
MTEXT
   5
2C2
 100
AcDbEntity
   8
LEVEL002
 370
15
  62
8
 100
AcDbMText
  10
 1548.8603382430
  20
 194.66666666672
  30
0.0
  40
 12.000000000000
  41
0.0
  71
5
  72
1
   1
\T1.000000;令和０５年０３月３０日
   7
GMM002
  44
 0.79999984000003
   0
MTEXT
   5
2C4
 100
AcDbEntity
   8
LEVEL002
 370
15
  62
8
 100
AcDbMText
  10
 1548.8603382430
  20
 168.00000000004
  30
0.0
  40
 12.000000000000
  41
0.0
  71
5
  72
1
   1
\T1.000000;令和　　年　　月　　日
   7
GMM002
  44
 0.79999984000003
   0
MTEXT
   5
2C6
 100
AcDbEntity
   8
LEVEL002
 370
15
  62
8
 100
AcDbMText
  10
 1548.8603382430
  20
 141.33333333338
  30
0.0
  40
 12.000000000000
  41
0.0
  71
5
  72
1
   1
\T1.000000;令和　　年　　月　　日
   7
GMM002
  44
 0.79999984000003
   0
MTEXT
   5
2C8
 100
AcDbEntity
   8
LEVEL002
 370
15
  62
8
 100
AcDbMText
  10
 71.999999999800
  20
 546.66666666682
  30
0.0
  40
 8.0000000000000
  41
0.0
  71
1
  72
1
   3
{\W0.500000;\T1.000000;･\W1.000000;\T1.000000;材質：ＳＵＳ４３０}\P{\W0.500000;\T1.000000;･\W1.000000;\T1.000000;仕上：ＨＬ}\P{\W0.500000;\T1.000000;･\W1.000000;\T1.000000;サイズ：２５０\W0.500000;\T1.000000;m/m\W1.000000;\T1.000000;×２５０\W0.50000
   1
0;\T1.000000;m/m}\P{\W0.500000;\T1.000000;･\W1.000000;\T1.000000;適応品番：Ｓ３５１２\W0.500000;\T1.000000;､\W1.000000;\T1.000000;Ｓ３５１２Ａ}
   7
GMM002
  44
 0.79999984000003
   0
MTEXT
   5
2CA
 100
AcDbEntity
   8
LEVEL002
 370
15
  62
8
 100
AcDbMText
  10
 71.999999999800
  20
 1092.6666666668
  30
0.0
  40
 8.0000000000000
  41
0.0
  71
1
  72
1
   3
{\W0.500000;\T1.000000;･\W1.000000;\T1.000000;材質：ＳＵＳ４３０}\P{\W0.500000;\T1.000000;･\W1.000000;\T1.000000;仕上：ＨＬ}\P{\W0.500000;\T1.000000;･\W1.000000;\T1.000000;サイズ：２５０\W0.500000;\T1.000000;m/m\W1.000000;\T1.000000;×２５０\W0.50000
   1
0;\T1.000000;m/m}\P{\W0.500000;\T1.000000;･\W1.000000;\T1.000000;適応品番：Ｓ３５１２\W0.500000;\T1.000000;､\W1.000000;\T1.000000;Ｓ３５１２Ａ}
   7
GMM002
  44
 0.79999984000003
   0
LINE
   5
2CB
 100
AcDbEntity
   8
LEVEL002
 370
20
 100
AcDbLine
   6
CONTINUOUS
  62
6
  10
 317.88295462028
  20
 942.86241211145
  30
0.0
  11
 417.88295462028
  21
 942.86241211145
  31
0.0
   0
LINE
   5
2CC
 100
AcDbEntity
   8
LEVEL002
 370
20
 100
AcDbLine
   6
CONTINUOUS
  62
6
  10
 179.88295462028
  20
 704.86241211145
  30
0.0
  11
 179.88295462028
  21
 804.86241211145
  31
0.0
   0
ARC
   5
2CD
 100
AcDbEntity
   8
LEVEL002
 370
20
   6
CONTINUOUS
  62
6
 100
AcDbCircle
  10
 317.88295462028
  20
 804.86241211145
  30
0.0
  40
 138.00000000000
 100
AcDbArc
  50
 90.000000000000
  51
 180.00000000000
   0
ARC
   5
2CE
 100
AcDbEntity
   8
LEVEL001
 370
20
   6
CONTINUOUS
  62
6
 100
AcDbCircle
  10
 787.98693282424
  20
 804.86241211145
  30
0.0
  40
 127.00000000000
 100
AcDbArc
  50
0.0
  51
 90.000000000000
   0
LINE
   5
2CF
 100
AcDbEntity
   8
LEVEL001
 370
20
 100
AcDbLine
   6
CONTINUOUS
  62
6
  10
 787.98693282424
  20
 931.86241211145
  30
0.0
  11
 687.98693282424
  21
 931.86241211145
  31
0.0
   0
LINE
   5
2D0
 100
AcDbEntity
   8
LEVEL001
 370
20
 100
AcDbLine
   6
CONTINUOUS
  62
6
  10
 914.98693282424
  20
 704.86241211145
  30
0.0
  11
 914.98693282424
  21
 804.86241211145
  31
0.0
   0
CIRCLE
   5
2D1
 100
AcDbEntity
   8
LEVEL002
 370
30
 100
AcDbCircle
   6
CONTINUOUS
  62
7
  10
 387.38295462028
  20
 931.36241211145
  30
0.0
  40
 2.5000000000000
   0
LINE
   5
2D2
 100
AcDbEntity
   8
LEVEL002
 370
30
 100
AcDbLine
   6
CONTINUOUS
  62
7
  10
 202.88295462028
  20
 804.86241211145
  30
0.0
  11
 202.88295462028
  21
 704.86241211145
  31
0.0
   0
LINE
   5
2D3
 100
AcDbEntity
   8
LEVEL002
 370
30
 100
AcDbLine
   6
CONTINUOUS
  62
7
  10
 202.88295462028
  20
 704.86241211145
  30
0.0
  11
 167.88295462028
  21
 704.86241211145
  31
0.0
   0
LINE
   5
2D4
 100
AcDbEntity
   8
LEVEL002
 370
30
 100
AcDbLine
   6
CONTINUOUS
  62
7
  10
 167.88295462028
  20
 704.86241211145
  30
0.0
  11
 167.88295462028
  21
 804.86241211145
  31
0.0
   0
LINE
   5
2D5
 100
AcDbEntity
   8
LEVEL002
 370
30
 100
AcDbLine
   6
CONTINUOUS
  62
7
  10
 317.88295462028
  20
 954.86241211145
  30
0.0
  11
 417.88295462028
  21
 954.86241211145
  31
0.0
   0
LINE
   5
2D6
 100
AcDbEntity
   8
LEVEL002
 370
30
 100
AcDbLine
   6
CONTINUOUS
  62
7
  10
 417.88295462028
  20
 954.86241211145
  30
0.0
  11
 417.88295462028
  21
 919.86241211145
  31
0.0
   0
LINE
   5
2D7
 100
AcDbEntity
   8
LEVEL002
 370
30
 100
AcDbLine
   6
CONTINUOUS
  62
7
  10
 417.88295462028
  20
 919.86241211145
  30
0.0
  11
 317.88295462028
  21
 919.86241211145
  31
0.0
   0
CIRCLE
   5
2D8
 100
AcDbEntity
   8
LEVEL002
 370
30
 100
AcDbCircle
   6
CONTINUOUS
  62
7
  10
 261.13176146809
  20
 917.91793862742
  30
0.0
  40
 2.5000000000000
   0
CIRCLE
   5
2D9
 100
AcDbEntity
   8
LEVEL002
 370
30
 100
AcDbCircle
   6
CONTINUOUS
  62
7
  10
 204.82742810438
  20
 861.61360526377
  30
0.0
  40
 2.5000000000000
   0
ARC
   5
2DA
 100
AcDbEntity
   8
LEVEL002
 370
30
   6
CONTINUOUS
  62
7
 100
AcDbCircle
  10
 317.88295462028
  20
 804.86241211145
  30
0.0
  40
 150.00000000000
 100
AcDbArc
  50
 90.000000000000
  51
 180.00000000000
   0
ARC
   5
2DB
 100
AcDbEntity
   8
LEVEL002
 370
30
   6
CONTINUOUS
  62
7
 100
AcDbCircle
  10
 317.88295462028
  20
 804.86241211145
  30
0.0
  40
 115.00000000000
 100
AcDbArc
  50
 90.000000000000
  51
 180.00000000000
   0
CIRCLE
   5
2DC
 100
AcDbEntity
   8
LEVEL002
 370
30
 100
AcDbCircle
   6
CONTINUOUS
  62
7
  10
 191.38295462028
  20
 735.36241211145
  30
0.0
  40
 2.5000000000000
   0
LINE
   5
2DD
 100
AcDbEntity
   8
LEVEL003
 370
30
 100
AcDbLine
   6
CONTINUOUS
  62
7
  10
 179.88295462028
  20
 678.76266397414
  30
0.0
  11
 167.88295462028
  21
 672.64835858021
  31
0.0
   0
LINE
   5
2DE
 100
AcDbEntity
   8
LEVEL003
 370
30
 100
AcDbLine
   6
CONTINUOUS
  62
7
  10
 180.17104913118
  20
 677.56266397414
  30
0.0
  11
 168.42774321997
  21
 671.57915075118
  31
0.0
   0
LINE
   5
2DF
 100
AcDbEntity
   8
LEVEL003
 370
30
 100
AcDbLine
   6
CONTINUOUS
  62
7
  10
 167.88295462028
  20
 672.64835858021
  30
0.0
  11
 168.42774321997
  21
 671.57915075118
  31
0.0
   0
LINE
   5
2E0
 100
AcDbEntity
   8
LEVEL003
 370
30
 100
AcDbLine
   6
CONTINUOUS
  62
7
  10
 179.88295462028
  20
 678.76266397414
  30
0.0
  11
 202.88295462028
  21
 678.76266397414
  31
0.0
   0
LINE
   5
2E1
 100
AcDbEntity
   8
LEVEL003
 370
30
 100
AcDbLine
   6
CONTINUOUS
  62
7
  10
 180.17104913118
  20
 677.56266397414
  30
0.0
  11
 202.88295462028
  21
 677.56266397414
  31
0.0
   0
LINE
   5
2E2
 100
AcDbEntity
   8
LEVEL003
 370
30
 100
AcDbLine
   6
CONTINUOUS
  62
7
  10
 202.88295462028
  20
 678.76266397414
  30
0.0
  11
 202.88295462028
  21
 677.56266397414
  31
0.0
   0
LINE
   5
2E3
 100
AcDbEntity
   8
LEVEL002
 370
30
 100
AcDbLine
   6
CONTINUOUS
  62
7
  10
 902.98693282424
  20
 804.86241211145
  30
0.0
  11
 902.98693282424
  21
 704.86241211145
  31
0.0
   0
LINE
   5
2E4
 100
AcDbEntity
   8
LEVEL002
 370
30
 100
AcDbLine
   6
CONTINUOUS
  62
7
  10
 902.98693282424
  20
 704.86241211145
  30
0.0
  11
 937.98693282424
  21
 704.86241211145
  31
0.0
   0
LINE
   5
2E5
 100
AcDbEntity
   8
LEVEL002
 370
30
 100
AcDbLine
   6
CONTINUOUS
  62
7
  10
 937.98693282424
  20
 704.86241211145
  30
0.0
  11
 937.98693282424
  21
 804.86241211145
  31
0.0
   0
LINE
   5
2E6
 100
AcDbEntity
   8
LEVEL002
 370
30
 100
AcDbLine
   6
CONTINUOUS
  62
7
  10
 787.98693282424
  20
 954.86241211145
  30
0.0
  11
 687.98693282424
  21
 954.86241211145
  31
0.0
   0
LINE
   5
2E7
 100
AcDbEntity
   8
LEVEL002
 370
30
 100
AcDbLine
   6
CONTINUOUS
  62
7
  10
 687.98693282424
  20
 954.86241211145
  30
0.0
  11
 687.98693282424
  21
 919.86241211145
  31
0.0
   0
LINE
   5
2E8
 100
AcDbEntity
   8
LEVEL002
 370
30
 100
AcDbLine
   6
CONTINUOUS
  62
7
  10
 687.98693282424
  20
 919.86241211145
  30
0.0
  11
 787.98693282424
  21
 919.86241211145
  31
0.0
   0
ARC
   5
2E9
 100
AcDbEntity
   8
LEVEL002
 370
30
   6
CONTINUOUS
  62
7
 100
AcDbCircle
  10
 787.98693282424
  20
 804.86241211145
  30
0.0
  40
 150.00000000000
 100
AcDbArc
  50
0.0
  51
 90.000000000000
   0
ARC
   5
2EA
 100
AcDbEntity
   8
LEVEL002
 370
30
   6
CONTINUOUS
  62
7
 100
AcDbCircle
  10
 787.98693282424
  20
 804.86241211145
  30
0.0
  40
 115.00000000000
 100
AcDbArc
  50
0.0
  51
 90.000000000000
   0
LINE
   5
2EB
 100
AcDbEntity
   8
LEVEL003
 370
30
 100
AcDbLine
   6
CONTINUOUS
  62
7
  10
 914.98693282424
  20
 678.76266397414
  30
0.0
  11
 902.98693282424
  21
 672.64835858021
  31
0.0
   0
LINE
   5
2EC
 100
AcDbEntity
   8
LEVEL003
 370
30
 100
AcDbLine
   6
CONTINUOUS
  62
7
  10
 915.27502733514
  20
 677.56266397414
  30
0.0
  11
 903.53172142393
  21
 671.57915075118
  31
0.0
   0
LINE
   5
2ED
 100
AcDbEntity
   8
LEVEL003
 370
30
 100
AcDbLine
   6
CONTINUOUS
  62
7
  10
 902.98693282424
  20
 672.64835858021
  30
0.0
  11
 903.53172142393
  21
 671.57915075118
  31
0.0
   0
LINE
   5
2EE
 100
AcDbEntity
   8
LEVEL003
 370
30
 100
AcDbLine
   6
CONTINUOUS
  62
7
  10
 914.98693282424
  20
 678.76266397414
  30
0.0
  11
 937.98693282424
  21
 678.76266397414
  31
0.0
   0
LINE
   5
2EF
 100
AcDbEntity
   8
LEVEL003
 370
30
 100
AcDbLine
   6
CONTINUOUS
  62
7
  10
 915.27502733514
  20
 677.56266397414
  30
0.0
  11
 937.98693282424
  21
 677.56266397414
  31
0.0
   0
LINE
   5
2F0
 100
AcDbEntity
   8
LEVEL003
 370
30
 100
AcDbLine
   6
CONTINUOUS
  62
7
  10
 937.98693282424
  20
 678.76266397414
  30
0.0
  11
 937.98693282424
  21
 677.56266397414
  31
0.0
   0
CIRCLE
   5
2F1
 100
AcDbEntity
   8
LEVEL002
 370
30
 100
AcDbCircle
   6
CONTINUOUS
  62
7
  10
 926.48693282424
  20
 735.36241211145
  30
0.0
  40
 2.5000000000000
   0
CIRCLE
   5
2F2
 100
AcDbEntity
   8
LEVEL002
 370
30
 100
AcDbCircle
   6
CONTINUOUS
  62
7
  10
 911.76709426654
  20
 866.99711765768
  30
0.0
  40
 2.5000000000000
   0
CIRCLE
   5
2F3
 100
AcDbEntity
   8
LEVEL002
 370
30
 100
AcDbCircle
   6
CONTINUOUS
  62
7
  10
 850.12163837030
  20
 928.64257355384
  30
0.0
  40
 2.5000000000000
   0
CIRCLE
   5
2F4
 100
AcDbEntity
   8
LEVEL002
 370
30
 100
AcDbCircle
   6
CONTINUOUS
  62
7
  10
 718.48693282424
  20
 943.36241211145
  30
0.0
  40
 2.5000000000000
   0
CIRCLE
   5
2F5
 100
AcDbEntity
   8
LEVEL001
 370
20
 100
AcDbCircle
   6
CONTINUOUS
  62
6
  10
 191.38295462028
  20
 735.36241211145
  30
0.0
  40
 3.5000000000000
   0
CIRCLE
   5
2F6
 100
AcDbEntity
   8
LEVEL001
 370
20
 100
AcDbCircle
   6
CONTINUOUS
  62
6
  10
 200.41129593519
  20
 744.21119764534
  30
0.0
  40
 3.5000000000000
   0
CIRCLE
   5
2F7
 100
AcDbEntity
   8
LEVEL001
 370
20
 100
AcDbCircle
   6
CONTINUOUS
  62
6
  10
 200.41129593519
  20
 744.21119764534
  30
0.0
  40
 3.5000000000000
   0
CIRCLE
   5
2F8
 100
AcDbEntity
   8
LEVEL001
 370
20
 100
AcDbCircle
   6
CONTINUOUS
  62
6
  10
 204.82742810438
  20
 861.61360526377
  30
0.0
  40
 3.5000000000000
   0
CIRCLE
   5
2F9
 100
AcDbEntity
   8
LEVEL001
 370
20
 100
AcDbCircle
   6
CONTINUOUS
  62
6
  10
 261.13176146809
  20
 917.91793862742
  30
0.0
  40
 3.5000000000000
   0
CIRCLE
   5
2FA
 100
AcDbEntity
   8
LEVEL001
 370
20
 100
AcDbCircle
   6
CONTINUOUS
  62
6
  10
 387.38295462028
  20
 931.36241211145
  30
0.0
  40
 3.5000000000000
   0
CIRCLE
   5
2FB
 100
AcDbEntity
   8
LEVEL001
 370
20
 100
AcDbCircle
   6
CONTINUOUS
  62
6
  10
 718.48693282424
  20
 943.36241211145
  30
0.0
  40
 3.5000000000000
   0
CIRCLE
   5
2FC
 100
AcDbEntity
   8
LEVEL001
 370
20
 100
AcDbCircle
   6
CONTINUOUS
  62
6
  10
 850.12163837030
  20
 928.64257355384
  30
0.0
  40
 3.5000000000000
   0
CIRCLE
   5
2FD
 100
AcDbEntity
   8
LEVEL001
 370
20
 100
AcDbCircle
   6
CONTINUOUS
  62
6
  10
 911.76709426654
  20
 866.99711765768
  30
0.0
  40
 3.5000000000000
   0
CIRCLE
   5
2FE
 100
AcDbEntity
   8
LEVEL001
 370
20
 100
AcDbCircle
   6
CONTINUOUS
  62
6
  10
 926.48693282424
  20
 735.36241211145
  30
0.0
  40
 3.5000000000000
   0
LINE
   5
2FF
 100
AcDbEntity
   8
LEVEL002
 370
20
 100
AcDbLine
   6
CONTINUOUS
  62
6
  10
 317.88295462028
  20
 396.86241211147
  30
0.0
  11
 417.88295462028
  21
 396.86241211147
  31
0.0
   0
LINE
   5
300
 100
AcDbEntity
   8
LEVEL002
 370
20
 100
AcDbLine
   6
CONTINUOUS
  62
6
  10
 179.88295462028
  20
 158.86241211147
  30
0.0
  11
 179.88295462028
  21
 258.86241211147
  31
0.0
   0
ARC
   5
301
 100
AcDbEntity
   8
LEVEL002
 370
20
   6
CONTINUOUS
  62
6
 100
AcDbCircle
  10
 317.88295462028
  20
 258.86241211147
  30
0.0
  40
 138.00000000000
 100
AcDbArc
  50
 90.000000000000
  51
 180.00000000000
   0
ARC
   5
302
 100
AcDbEntity
   8
LEVEL001
 370
20
   6
CONTINUOUS
  62
6
 100
AcDbCircle
  10
 787.98693282424
  20
 258.86241211147
  30
0.0
  40
 127.00000000000
 100
AcDbArc
  50
0.0
  51
 90.000000000000
   0
LINE
   5
303
 100
AcDbEntity
   8
LEVEL001
 370
20
 100
AcDbLine
   6
CONTINUOUS
  62
6
  10
 787.98693282424
  20
 385.86241211147
  30
0.0
  11
 687.98693282424
  21
 385.86241211147
  31
0.0
   0
LINE
   5
304
 100
AcDbEntity
   8
LEVEL001
 370
20
 100
AcDbLine
   6
CONTINUOUS
  62
6
  10
 914.98693282424
  20
 158.86241211147
  30
0.0
  11
 914.98693282424
  21
 258.86241211147
  31
0.0
   0
LINE
   5
305
 100
AcDbEntity
   8
LEVEL002
 370
30
 100
AcDbLine
   6
CONTINUOUS
  62
7
  10
 202.88295462028
  20
 258.86241211147
  30
0.0
  11
 202.88295462028
  21
 158.86241211147
  31
0.0
   0
LINE
   5
306
 100
AcDbEntity
   8
LEVEL002
 370
30
 100
AcDbLine
   6
CONTINUOUS
  62
7
  10
 202.88295462028
  20
 158.86241211147
  30
0.0
  11
 167.88295462028
  21
 158.86241211147
  31
0.0
   0
LINE
   5
307
 100
AcDbEntity
   8
LEVEL002
 370
30
 100
AcDbLine
   6
CONTINUOUS
  62
7
  10
 167.88295462028
  20
 158.86241211147
  30
0.0
  11
 167.88295462028
  21
 258.86241211147
  31
0.0
   0
LINE
   5
308
 100
AcDbEntity
   8
LEVEL002
 370
30
 100
AcDbLine
   6
CONTINUOUS
  62
7
  10
 317.88295462028
  20
 408.86241211147
  30
0.0
  11
 417.88295462028
  21
 408.86241211147
  31
0.0
   0
LINE
   5
309
 100
AcDbEntity
   8
LEVEL002
 370
30
 100
AcDbLine
   6
CONTINUOUS
  62
7
  10
 417.88295462028
  20
 408.86241211147
  30
0.0
  11
 417.88295462028
  21
 373.86241211147
  31
0.0
   0
LINE
   5
30A
 100
AcDbEntity
   8
LEVEL002
 370
30
 100
AcDbLine
   6
CONTINUOUS
  62
7
  10
 417.88295462028
  20
 373.86241211147
  30
0.0
  11
 317.88295462028
  21
 373.86241211147
  31
0.0
   0
ARC
   5
30B
 100
AcDbEntity
   8
LEVEL002
 370
30
   6
CONTINUOUS
  62
7
 100
AcDbCircle
  10
 317.88295462028
  20
 258.86241211147
  30
0.0
  40
 150.00000000000
 100
AcDbArc
  50
 90.000000000000
  51
 180.00000000000
   0
ARC
   5
30C
 100
AcDbEntity
   8
LEVEL002
 370
30
   6
CONTINUOUS
  62
7
 100
AcDbCircle
  10
 317.88295462028
  20
 258.86241211147
  30
0.0
  40
 115.00000000000
 100
AcDbArc
  50
 90.000000000000
  51
 180.00000000000
   0
LINE
   5
30D
 100
AcDbEntity
   8
LEVEL003
 370
30
 100
AcDbLine
   6
CONTINUOUS
  62
7
  10
 179.88295462028
  20
 132.76266397416
  30
0.0
  11
 167.88295462028
  21
 126.64835858023
  31
0.0
   0
LINE
   5
30E
 100
AcDbEntity
   8
LEVEL003
 370
30
 100
AcDbLine
   6
CONTINUOUS
  62
7
  10
 180.17104913118
  20
 131.56266397416
  30
0.0
  11
 168.42774321997
  21
 125.57915075120
  31
0.0
   0
LINE
   5
30F
 100
AcDbEntity
   8
LEVEL003
 370
30
 100
AcDbLine
   6
CONTINUOUS
  62
7
  10
 167.88295462028
  20
 126.64835858023
  30
0.0
  11
 168.42774321997
  21
 125.57915075120
  31
0.0
   0
LINE
   5
310
 100
AcDbEntity
   8
LEVEL003
 370
30
 100
AcDbLine
   6
CONTINUOUS
  62
7
  10
 179.88295462028
  20
 132.76266397416
  30
0.0
  11
 202.88295462028
  21
 132.76266397416
  31
0.0
   0
LINE
   5
311
 100
AcDbEntity
   8
LEVEL003
 370
30
 100
AcDbLine
   6
CONTINUOUS
  62
7
  10
 180.17104913118
  20
 131.56266397416
  30
0.0
  11
 202.88295462028
  21
 131.56266397416
  31
0.0
   0
LINE
   5
312
 100
AcDbEntity
   8
LEVEL003
 370
30
 100
AcDbLine
   6
CONTINUOUS
  62
7
  10
 202.88295462028
  20
 132.76266397416
  30
0.0
  11
 202.88295462028
  21
 131.56266397416
  31
0.0
   0
LINE
   5
313
 100
AcDbEntity
   8
LEVEL002
 370
30
 100
AcDbLine
   6
CONTINUOUS
  62
7
  10
 902.98693282424
  20
 258.86241211147
  30
0.0
  11
 902.98693282424
  21
 158.86241211147
  31
0.0
   0
LINE
   5
314
 100
AcDbEntity
   8
LEVEL002
 370
30
 100
AcDbLine
   6
CONTINUOUS
  62
7
  10
 902.98693282424
  20
 158.86241211147
  30
0.0
  11
 937.98693282424
  21
 158.86241211147
  31
0.0
   0
LINE
   5
315
 100
AcDbEntity
   8
LEVEL002
 370
30
 100
AcDbLine
   6
CONTINUOUS
  62
7
  10
 937.98693282424
  20
 158.86241211147
  30
0.0
  11
 937.98693282424
  21
 258.86241211147
  31
0.0
   0
LINE
   5
316
 100
AcDbEntity
   8
LEVEL002
 370
30
 100
AcDbLine
   6
CONTINUOUS
  62
7
  10
 787.98693282424
  20
 408.86241211147
  30
0.0
  11
 687.98693282424
  21
 408.86241211147
  31
0.0
   0
LINE
   5
317
 100
AcDbEntity
   8
LEVEL002
 370
30
 100
AcDbLine
   6
CONTINUOUS
  62
7
  10
 687.98693282424
  20
 408.86241211147
  30
0.0
  11
 687.98693282424
  21
 373.86241211147
  31
0.0
   0
LINE
   5
318
 100
AcDbEntity
   8
LEVEL002
 370
30
 100
AcDbLine
   6
CONTINUOUS
  62
7
  10
 687.98693282424
  20
 373.86241211147
  30
0.0
  11
 787.98693282424
  21
 373.86241211147
  31
0.0
   0
ARC
   5
319
 100
AcDbEntity
   8
LEVEL002
 370
30
   6
CONTINUOUS
  62
7
 100
AcDbCircle
  10
 787.98693282424
  20
 258.86241211147
  30
0.0
  40
 150.00000000000
 100
AcDbArc
  50
0.0
  51
 90.000000000000
   0
ARC
   5
31A
 100
AcDbEntity
   8
LEVEL002
 370
30
   6
CONTINUOUS
  62
7
 100
AcDbCircle
  10
 787.98693282424
  20
 258.86241211147
  30
0.0
  40
 115.00000000000
 100
AcDbArc
  50
0.0
  51
 90.000000000000
   0
LINE
   5
31B
 100
AcDbEntity
   8
LEVEL003
 370
30
 100
AcDbLine
   6
CONTINUOUS
  62
7
  10
 914.98693282424
  20
 132.76266397416
  30
0.0
  11
 902.98693282424
  21
 126.64835858023
  31
0.0
   0
LINE
   5
31C
 100
AcDbEntity
   8
LEVEL003
 370
30
 100
AcDbLine
   6
CONTINUOUS
  62
7
  10
 915.27502733514
  20
 131.56266397416
  30
0.0
  11
 903.53172142393
  21
 125.57915075120
  31
0.0
   0
LINE
   5
31D
 100
AcDbEntity
   8
LEVEL003
 370
30
 100
AcDbLine
   6
CONTINUOUS
  62
7
  10
 902.98693282424
  20
 126.64835858023
  30
0.0
  11
 903.53172142393
  21
 125.57915075120
  31
0.0
   0
LINE
   5
31E
 100
AcDbEntity
   8
LEVEL003
 370
30
 100
AcDbLine
   6
CONTINUOUS
  62
7
  10
 914.98693282424
  20
 132.76266397416
  30
0.0
  11
 937.98693282424
  21
 132.76266397416
  31
0.0
   0
LINE
   5
31F
 100
AcDbEntity
   8
LEVEL003
 370
30
 100
AcDbLine
   6
CONTINUOUS
  62
7
  10
 915.27502733514
  20
 131.56266397416
  30
0.0
  11
 937.98693282424
  21
 131.56266397416
  31
0.0
   0
LINE
   5
320
 100
AcDbEntity
   8
LEVEL003
 370
30
 100
AcDbLine
   6
CONTINUOUS
  62
7
  10
 937.98693282424
  20
 132.76266397416
  30
0.0
  11
 937.98693282424
  21
 131.56266397416
  31
0.0
   0
MTEXT
   5
322
 100
AcDbEntity
   8
LEVEL002
 370
15
  62
8
 100
AcDbMText
  10
 1417.9999999998
  20
 907.00000000000
  30
0.0
  40
 16.000000000000
  41
0.0
  71
5
  72
1
   1
\W1.000000;\T1.000000;部材①（Ｓ３５ＣＲＨ\W0.500000;\T1.000000;/\W1.000000;\T1.000000;Ｓ３５ＣＲ）
   7
GMM002
  44
 0.79999984000003
   0
MTEXT
   5
324
 100
AcDbEntity
   8
LEVEL002
 370
15
  62
8
 100
AcDbMText
  10
 121.62416331994
  20
 1024.1279785810
  30
0.0
  40
 12.000000000000
  41
0.0
  71
5
  72
1
   1
\T1.000000;出　隅
   7
GMM002
  44
 0.79999984000003
   0
MTEXT
   5
326
 100
AcDbEntity
   8
LEVEL002
 370
15
  62
8
 100
AcDbMText
  10
 641.72814152391
  20
 1024.1279785810
  30
0.0
  40
 12.000000000000
  41
0.0
  71
5
  72
1
   1
\T1.000000;入　隅
   7
GMM002
  44
 0.79999984000003
   0
MTEXT
   5
328
 100
AcDbEntity
   8
LEVEL002
 370
15
  62
8
 100
AcDbMText
  10
 121.62416331994
  20
 478.12797858101
  30
0.0
  40
 12.000000000000
  41
0.0
  71
5
  72
1
   1
\T1.000000;出　隅
   7
GMM002
  44
 0.79999984000003
   0
MTEXT
   5
32A
 100
AcDbEntity
   8
LEVEL002
 370
15
  62
8
 100
AcDbMText
  10
 641.72814152391
  20
 478.12797858101
  30
0.0
  40
 12.000000000000
  41
0.0
  71
5
  72
1
   1
\T1.000000;入　隅
   7
GMM002
  44
 0.79999984000003
   0
LEADER
   5
32B
 100
AcDbEntity
   8
LEVEL001
 370
15
   6
CONTINUOUS
  62
8
 100
AcDbLeader
   3
GMM002
  73
0
  74
0
  75
0
  40
 10.000000000000
  41
 100.00000000000
  76
2
  10
 387.38295462028
  20
 927.86241211145
  30
0.0
  10
 406.92052168861
  20
 891.94844175190
  30
0.0
  77
8
 340
32C
 213
0.0
 223
-4.0000000000000
 233
0.0
   0
MTEXT
   5
32C
 102
{ACAD_REACTORS
 330
32B
 102
}
 100
AcDbEntity
   8
LEVEL001
 370
15
  62
8
 100
AcDbMText
  10
 406.92052168861
  20
 895.94844175190
  30
0.0
  40
 10.000000000000
  41
0.0
  71
7
  72
1
   1
\A1;４－下穴%%c５／皿%%c７
   7
GMM002
   0
LEADER
   5
32D
 100
AcDbEntity
   8
LEVEL001
 370
15
   6
CONTINUOUS
  62
8
 100
AcDbLeader
   3
GMM002
  73
0
  74
1
  75
0
  40
 10.000000000000
  41
 100.00000000000
  76
2
  10
 718.48693282424
  20
 939.86241211145
  30
0.0
  10
 691.83668429646
  20
 891.94844175190
  30
0.0
  77
8
 340
32E
 213
0.0
 223
-4.0000000000001
 233
0.0
   0
MTEXT
   5
32E
 102
{ACAD_REACTORS
 330
32D
 102
}
 100
AcDbEntity
   8
LEVEL001
 370
15
  62
8
 100
AcDbMText
  10
 591.83668429646
  20
 895.94844175190
  30
0.0
  40
 10.000000000000
  41
0.0
  71
7
  72
1
   1
\A1;４－下穴%%c５／皿%%c７
   7
GMM002
   0
MTEXT
   5
330
 100
AcDbEntity
   8
LEVEL002
 370
15
  62
8
 100
AcDbMText
  10
 1277.9999999998
  20
 831.66666666680
  30
0.0
  40
 14.000000000000
  41
0.0
  71
1
  72
1
   1
{\W0.500000;\T1.000000;･\W1.000000;\T1.000000;ステンレス：ＳＵＳ３０４}\P{\W0.500000;\T1.000000; }\P{\W0.500000;\T1.000000; \W1.000000;\T1.000000;仕上げ：ＨＬ}
   7
GMM002
  44
 0.79999984000003
   0
LINE
   5
331
 100
AcDbEntity
   8
LEVEL001
 370
30
 100
AcDbLine
   6
CONTINUOUS
  62
7
  10
 1376.6000000000
  20
 1088.3000000000
  30
0.0
  11
 1347.8000000000
  21
 1088.3000000000
  31
0.0
   0
LINE
   5
332
 100
AcDbEntity
   8
LEVEL001
 370
30
 100
AcDbLine
   6
CONTINUOUS
  62
7
  10
 1347.8000000000
  20
 1088.3000000000
  30
0.0
  11
 1347.8000000000
  21
 1045.1000000000
  31
0.0
   0
LINE
   5
333
 100
AcDbEntity
   8
LEVEL001
 370
30
 100
AcDbLine
   6
CONTINUOUS
  62
7
  10
 1347.8000000000
  20
 1045.1000000000
  30
0.0
  11
 1362.2000000000
  21
 1045.1000000000
  31
0.0
   0
LINE
   5
334
 100
AcDbEntity
   8
LEVEL001
 370
30
 100
AcDbLine
   6
CONTINUOUS
  62
7
  10
 1362.2000000000
  20
 1045.1000000000
  30
0.0
  11
 1362.2000000000
  21
 1052.3000000000
  31
0.0
   0
LINE
   5
335
 100
AcDbEntity
   8
LEVEL001
 370
30
 100
AcDbLine
   6
CONTINUOUS
  62
7
  10
 1362.2000000000
  20
 1052.3000000000
  30
0.0
  11
 1376.6000000000
  21
 1052.3000000000
  31
0.0
   0
ARC
   5
336
 100
AcDbEntity
   8
LEVEL001
 370
30
   6
CONTINUOUS
  62
7
 100
AcDbCircle
  10
 1376.6000000000
  20
 1070.3000000000
  30
0.0
  40
 18.000000000000
 100
AcDbArc
  50
 270.00000000000
  51
 90.000000000000
   0
LINE
   5
337
 100
AcDbEntity
   8
LEVEL001
 370
30
 100
AcDbLine
   6
CONTINUOUS
  62
7
  10
 1362.2000000000
  20
 1066.7000000000
  30
0.0
  11
 1376.6000000000
  21
 1066.7000000000
  31
0.0
   0
ARC
   5
338
 100
AcDbEntity
   8
LEVEL001
 370
30
   6
CONTINUOUS
  62
7
 100
AcDbCircle
  10
 1376.6000000000
  20
 1070.3000000000
  30
0.0
  40
 3.6000000000000
 100
AcDbArc
  50
 270.00000000000
  51
 90.000000000000
   0
LINE
   5
339
 100
AcDbEntity
   8
LEVEL001
 370
30
 100
AcDbLine
   6
CONTINUOUS
  62
7
  10
 1376.6000000000
  20
 1073.9000000000
  30
0.0
  11
 1362.2000000000
  21
 1073.9000000000
  31
0.0
   0
LINE
   5
33A
 100
AcDbEntity
   8
LEVEL001
 370
30
 100
AcDbLine
   6
CONTINUOUS
  62
7
  10
 1362.2000000000
  20
 1073.9000000000
  30
0.0
  11
 1362.2000000000
  21
 1066.7000000000
  31
0.0
   0
LINE
   5
33B
 100
AcDbEntity
   8
LEVEL001
 370
30
 100
AcDbLine
   6
CONTINUOUS
  62
7
  10
 1383.8000000000
  20
 1045.1000000000
  30
0.0
  11
 1412.6000000000
  21
 1088.3000000000
  31
0.0
   0
LINE
   5
33C
 100
AcDbEntity
   8
LEVEL001
 370
30
 100
AcDbLine
   6
CONTINUOUS
  62
7
  10
 1412.6000000000
  20
 1088.3000000000
  30
0.0
  11
 1448.6000000000
  21
 1088.3000000000
  31
0.0
   0
LINE
   5
33D
 100
AcDbEntity
   8
LEVEL001
 370
30
 100
AcDbLine
   6
CONTINUOUS
  62
7
  10
 1448.6000000000
  20
 1088.3000000000
  30
0.0
  11
 1448.6000000000
  21
 1059.5000000000
  31
0.0
   0
LINE
   5
33E
 100
AcDbEntity
   8
LEVEL001
 370
30
 100
AcDbLine
   6
CONTINUOUS
  62
7
  10
 1448.6000000000
  20
 1059.5000000000
  30
0.0
  11
 1470.2000000000
  21
 1059.5000000000
  31
0.0
   0
LINE
   5
33F
 100
AcDbEntity
   8
LEVEL001
 370
30
 100
AcDbLine
   6
CONTINUOUS
  62
7
  10
 1470.2000000000
  20
 1059.5000000000
  30
0.0
  11
 1470.2000000000
  21
 1073.9000000000
  31
0.0
   0
LINE
   5
340
 100
AcDbEntity
   8
LEVEL001
 370
30
 100
AcDbLine
   6
CONTINUOUS
  62
7
  10
 1470.2000000000
  20
 1073.9000000000
  30
0.0
  11
 1455.8000000000
  21
 1073.9000000000
  31
0.0
   0
LINE
   5
341
 100
AcDbEntity
   8
LEVEL001
 370
30
 100
AcDbLine
   6
CONTINUOUS
  62
7
  10
 1455.8000000000
  20
 1073.9000000000
  30
0.0
  11
 1455.8000000000
  21
 1088.3000000000
  31
0.0
   0
LINE
   5
342
 100
AcDbEntity
   8
LEVEL001
 370
30
 100
AcDbLine
   6
CONTINUOUS
  62
7
  10
 1455.8000000000
  20
 1088.3000000000
  30
0.0
  11
 1542.2000000000
  21
 1088.3000000000
  31
0.0
   0
LINE
   5
343
 100
AcDbEntity
   8
LEVEL001
 370
30
 100
AcDbLine
   6
CONTINUOUS
  62
7
  10
 1542.2000000000
  20
 1088.3000000000
  30
0.0
  11
 1542.2000000000
  21
 1073.9000000000
  31
0.0
   0
LINE
   5
344
 100
AcDbEntity
   8
LEVEL001
 370
30
 100
AcDbLine
   6
CONTINUOUS
  62
7
  10
 1542.2000000000
  20
 1073.9000000000
  30
0.0
  11
 1513.4000000000
  21
 1073.9000000000
  31
0.0
   0
LINE
   5
345
 100
AcDbEntity
   8
LEVEL001
 370
30
 100
AcDbLine
   6
CONTINUOUS
  62
7
  10
 1513.4000000000
  20
 1073.9000000000
  30
0.0
  11
 1513.4000000000
  21
 1070.3000000000
  31
0.0
   0
LINE
   5
346
 100
AcDbEntity
   8
LEVEL001
 370
30
 100
AcDbLine
   6
CONTINUOUS
  62
7
  10
 1513.4000000000
  20
 1070.3000000000
  30
0.0
  11
 1538.6000000000
  21
 1070.3000000000
  31
0.0
   0
LINE
   5
347
 100
AcDbEntity
   8
LEVEL001
 370
30
 100
AcDbLine
   6
CONTINUOUS
  62
7
  10
 1538.6000000000
  20
 1070.3000000000
  30
0.0
  11
 1538.6000000000
  21
 1063.1000000000
  31
0.0
   0
LINE
   5
348
 100
AcDbEntity
   8
LEVEL001
 370
30
 100
AcDbLine
   6
CONTINUOUS
  62
7
  10
 1538.6000000000
  20
 1063.1000000000
  30
0.0
  11
 1513.4000000000
  21
 1063.1000000000
  31
0.0
   0
LINE
   5
349
 100
AcDbEntity
   8
LEVEL001
 370
30
 100
AcDbLine
   6
CONTINUOUS
  62
7
  10
 1513.4000000000
  20
 1063.1000000000
  30
0.0
  11
 1513.4000000000
  21
 1059.5000000000
  31
0.0
   0
LINE
   5
34A
 100
AcDbEntity
   8
LEVEL001
 370
30
 100
AcDbLine
   6
CONTINUOUS
  62
7
  10
 1513.4000000000
  20
 1059.5000000000
  30
0.0
  11
 1542.2000000000
  21
 1059.5000000000
  31
0.0
   0
LINE
   5
34B
 100
AcDbEntity
   8
LEVEL001
 370
30
 100
AcDbLine
   6
CONTINUOUS
  62
7
  10
 1542.2000000000
  20
 1059.5000000000
  30
0.0
  11
 1542.2000000000
  21
 1045.1000000000
  31
0.0
   0
LINE
   5
34C
 100
AcDbEntity
   8
LEVEL001
 370
30
 100
AcDbLine
   6
CONTINUOUS
  62
7
  10
 1542.2000000000
  20
 1045.1000000000
  30
0.0
  11
 1499.0000000000
  21
 1045.1000000000
  31
0.0
   0
LINE
   5
34D
 100
AcDbEntity
   8
LEVEL001
 370
30
 100
AcDbLine
   6
CONTINUOUS
  62
7
  10
 1499.0000000000
  20
 1045.1000000000
  30
0.0
  11
 1499.0000000000
  21
 1073.9000000000
  31
0.0
   0
LINE
   5
34E
 100
AcDbEntity
   8
LEVEL001
 370
30
 100
AcDbLine
   6
CONTINUOUS
  62
7
  10
 1499.0000000000
  20
 1073.9000000000
  30
0.0
  11
 1484.6000000000
  21
 1073.9000000000
  31
0.0
   0
LINE
   5
34F
 100
AcDbEntity
   8
LEVEL001
 370
30
 100
AcDbLine
   6
CONTINUOUS
  62
7
  10
 1484.6000000000
  20
 1073.9000000000
  30
0.0
  11
 1484.6000000000
  21
 1045.1000000000
  31
0.0
   0
LINE
   5
350
 100
AcDbEntity
   8
LEVEL001
 370
30
 100
AcDbLine
   6
CONTINUOUS
  62
7
  10
 1484.6000000000
  20
 1045.1000000000
  30
0.0
  11
 1434.2000000000
  21
 1045.1000000000
  31
0.0
   0
LINE
   5
351
 100
AcDbEntity
   8
LEVEL001
 370
30
 100
AcDbLine
   6
CONTINUOUS
  62
7
  10
 1434.2000000000
  20
 1045.1000000000
  30
0.0
  11
 1434.2000000000
  21
 1088.3000000000
  31
0.0
   0
LINE
   5
352
 100
AcDbEntity
   8
LEVEL001
 370
30
 100
AcDbLine
   6
CONTINUOUS
  62
7
  10
 1434.2000000000
  20
 1088.3000000000
  30
0.0
  11
 1405.4000000000
  21
 1045.1000000000
  31
0.0
   0
LINE
   5
353
 100
AcDbEntity
   8
LEVEL001
 370
30
 100
AcDbLine
   6
CONTINUOUS
  62
7
  10
 1405.4000000000
  20
 1045.1000000000
  30
0.0
  11
 1383.8000000000
  21
 1045.1000000000
  31
0.0
   0
LINE
   5
354
 100
AcDbEntity
   8
LEVEL001
 370
30
 100
AcDbLine
   6
CONTINUOUS
  62
7
  10
 1429.4000000000
  20
 1072.4466769388
  30
0.0
  11
 1411.1688820408
  21
 1045.1000000000
  31
0.0
   0
LINE
   5
355
 100
AcDbEntity
   8
LEVEL001
 370
30
 100
AcDbLine
   6
CONTINUOUS
  62
7
  10
 1411.1688820408
  20
 1045.1000000000
  30
0.0
  11
 1429.4000000000
  21
 1045.1000000000
  31
0.0
   0
LINE
   5
356
 100
AcDbEntity
   8
LEVEL001
 370
30
 100
AcDbLine
   6
CONTINUOUS
  62
7
  10
 1429.4000000000
  20
 1045.1000000000
  30
0.0
  11
 1429.4000000000
  21
 1072.4466769388
  31
0.0
   0
ARC
   5
357
 100
AcDbEntity
   8
LEVEL001
 370
30
   6
CONTINUOUS
  62
7
 100
AcDbCircle
  10
 1563.8000000000
  20
 1066.7000000000
  30
0.0
  40
 21.600000000000
 100
AcDbArc
  50
 90.000000000000
  51
 270.00000000000
   0
ARC
   5
358
 100
AcDbEntity
   8
LEVEL001
 370
30
   6
CONTINUOUS
  62
7
 100
AcDbCircle
  10
 1563.8000000000
  20
 1066.7000000000
  30
0.0
  40
 7.2000000000000
 100
AcDbArc
  50
 90.000000000000
  51
 270.00000000000
   0
LINE
   5
359
 100
AcDbEntity
   8
LEVEL001
 370
30
 100
AcDbLine
   6
CONTINUOUS
  62
7
  10
 1563.8000000000
  20
 1088.3000000000
  30
0.0
  11
 1585.4000000000
  21
 1088.3000000000
  31
0.0
   0
LINE
   5
35A
 100
AcDbEntity
   8
LEVEL001
 370
30
 100
AcDbLine
   6
CONTINUOUS
  62
7
  10
 1585.4000000000
  20
 1088.3000000000
  30
0.0
  11
 1585.4000000000
  21
 1073.9000000000
  31
0.0
   0
LINE
   5
35B
 100
AcDbEntity
   8
LEVEL001
 370
30
 100
AcDbLine
   6
CONTINUOUS
  62
7
  10
 1585.4000000000
  20
 1073.9000000000
  30
0.0
  11
 1563.8000000000
  21
 1073.9000000000
  31
0.0
   0
LINE
   5
35C
 100
AcDbEntity
   8
LEVEL001
 370
30
 100
AcDbLine
   6
CONTINUOUS
  62
7
  10
 1347.8000000000
  20
 1088.3000000000
  30
0.0
  11
 1347.8000000000
  21
 1045.1000000000
  31
0.0
   0
LINE
   5
35D
 100
AcDbEntity
   8
LEVEL001
 370
30
 100
AcDbLine
   6
CONTINUOUS
  62
7
  10
 1347.8000000000
  20
 1045.1000000000
  30
0.0
  11
 1362.2000000000
  21
 1045.1000000000
  31
0.0
   0
LINE
   5
35E
 100
AcDbEntity
   8
LEVEL001
 370
30
 100
AcDbLine
   6
CONTINUOUS
  62
7
  10
 1362.2000000000
  20
 1045.1000000000
  30
0.0
  11
 1362.2000000000
  21
 1052.3000000000
  31
0.0
   0
LINE
   5
35F
 100
AcDbEntity
   8
LEVEL001
 370
30
 100
AcDbLine
   6
CONTINUOUS
  62
7
  10
 1362.2000000000
  20
 1052.3000000000
  30
0.0
  11
 1376.6000000000
  21
 1052.3000000000
  31
0.0
   0
ARC
   5
360
 100
AcDbEntity
   8
LEVEL001
 370
30
   6
CONTINUOUS
  62
7
 100
AcDbCircle
  10
 1376.6000000000
  20
 1070.3000000000
  30
0.0
  40
 18.000000000000
 100
AcDbArc
  50
 270.00000000000
  51
 90.000000000000
   0
LINE
   5
361
 100
AcDbEntity
   8
LEVEL001
 370
30
 100
AcDbLine
   6
CONTINUOUS
  62
7
  10
 1376.6000000000
  20
 1088.3000000000
  30
0.0
  11
 1347.8000000000
  21
 1088.3000000000
  31
0.0
   0
LINE
   5
362
 100
AcDbEntity
   8
LEVEL001
 370
30
 100
AcDbLine
   6
CONTINUOUS
  62
7
  10
 1362.2000000000
  20
 1073.9000000000
  30
0.0
  11
 1362.2000000000
  21
 1066.7000000000
  31
0.0
   0
LINE
   5
363
 100
AcDbEntity
   8
LEVEL001
 370
30
 100
AcDbLine
   6
CONTINUOUS
  62
7
  10
 1362.2000000000
  20
 1066.7000000000
  30
0.0
  11
 1376.6000000000
  21
 1066.7000000000
  31
0.0
   0
ARC
   5
364
 100
AcDbEntity
   8
LEVEL001
 370
30
   6
CONTINUOUS
  62
7
 100
AcDbCircle
  10
 1376.6000000000
  20
 1070.3000000000
  30
0.0
  40
 3.6000000000000
 100
AcDbArc
  50
 270.00000000000
  51
 90.000000000000
   0
LINE
   5
365
 100
AcDbEntity
   8
LEVEL001
 370
30
 100
AcDbLine
   6
CONTINUOUS
  62
7
  10
 1376.6000000000
  20
 1073.9000000000
  30
0.0
  11
 1362.2000000000
  21
 1073.9000000000
  31
0.0
   0
LINE
   5
366
 100
AcDbEntity
   8
LEVEL001
 370
30
 100
AcDbLine
   6
CONTINUOUS
  62
7
  10
 1412.6000000000
  20
 1088.3000000000
  30
0.0
  11
 1383.8000000000
  21
 1045.1000000000
  31
0.0
   0
LINE
   5
367
 100
AcDbEntity
   8
LEVEL001
 370
30
 100
AcDbLine
   6
CONTINUOUS
  62
7
  10
 1383.8000000000
  20
 1045.1000000000
  30
0.0
  11
 1405.4000000000
  21
 1045.1000000000
  31
0.0
   0
LINE
   5
368
 100
AcDbEntity
   8
LEVEL001
 370
30
 100
AcDbLine
   6
CONTINUOUS
  62
7
  10
 1405.4000000000
  20
 1045.1000000000
  30
0.0
  11
 1434.2000000000
  21
 1088.3000000000
  31
0.0
   0
LINE
   5
369
 100
AcDbEntity
   8
LEVEL001
 370
30
 100
AcDbLine
   6
CONTINUOUS
  62
7
  10
 1434.2000000000
  20
 1088.3000000000
  30
0.0
  11
 1412.6000000000
  21
 1088.3000000000
  31
0.0
   0
LINE
   5
36A
 100
AcDbEntity
   8
LEVEL001
 370
30
 100
AcDbLine
   6
CONTINUOUS
  62
7
  10
 1429.4000000000
  20
 1045.1000000000
  30
0.0
  11
 1429.4000000000
  21
 1072.4466769388
  31
0.0
   0
LINE
   5
36B
 100
AcDbEntity
   8
LEVEL001
 370
30
 100
AcDbLine
   6
CONTINUOUS
  62
7
  10
 1429.4000000000
  20
 1072.4466769388
  30
0.0
  11
 1411.1688820408
  21
 1045.1000000000
  31
0.0
   0
LINE
   5
36C
 100
AcDbEntity
   8
LEVEL001
 370
30
 100
AcDbLine
   6
CONTINUOUS
  62
7
  10
 1411.1688820408
  20
 1045.1000000000
  30
0.0
  11
 1429.4000000000
  21
 1045.1000000000
  31
0.0
   0
LINE
   5
36D
 100
AcDbEntity
   8
LEVEL001
 370
30
 100
AcDbLine
   6
CONTINUOUS
  62
7
  10
 1434.2000000000
  20
 1045.1000000000
  30
0.0
  11
 1484.6000000000
  21
 1045.1000000000
  31
0.0
   0
LINE
   5
36E
 100
AcDbEntity
   8
LEVEL001
 370
30
 100
AcDbLine
   6
CONTINUOUS
  62
7
  10
 1484.6000000000
  20
 1045.1000000000
  30
0.0
  11
 1484.6000000000
  21
 1073.9000000000
  31
0.0
   0
LINE
   5
36F
 100
AcDbEntity
   8
LEVEL001
 370
30
 100
AcDbLine
   6
CONTINUOUS
  62
7
  10
 1484.6000000000
  20
 1073.9000000000
  30
0.0
  11
 1499.0000000000
  21
 1073.9000000000
  31
0.0
   0
LINE
   5
370
 100
AcDbEntity
   8
LEVEL001
 370
30
 100
AcDbLine
   6
CONTINUOUS
  62
7
  10
 1499.0000000000
  20
 1073.9000000000
  30
0.0
  11
 1499.0000000000
  21
 1045.1000000000
  31
0.0
   0
LINE
   5
371
 100
AcDbEntity
   8
LEVEL001
 370
30
 100
AcDbLine
   6
CONTINUOUS
  62
7
  10
 1499.0000000000
  20
 1045.1000000000
  30
0.0
  11
 1542.2000000000
  21
 1045.1000000000
  31
0.0
   0
LINE
   5
372
 100
AcDbEntity
   8
LEVEL001
 370
30
 100
AcDbLine
   6
CONTINUOUS
  62
7
  10
 1542.2000000000
  20
 1045.1000000000
  30
0.0
  11
 1542.2000000000
  21
 1059.5000000000
  31
0.0
   0
LINE
   5
373
 100
AcDbEntity
   8
LEVEL001
 370
30
 100
AcDbLine
   6
CONTINUOUS
  62
7
  10
 1542.2000000000
  20
 1059.5000000000
  30
0.0
  11
 1513.4000000000
  21
 1059.5000000000
  31
0.0
   0
LINE
   5
374
 100
AcDbEntity
   8
LEVEL001
 370
30
 100
AcDbLine
   6
CONTINUOUS
  62
7
  10
 1513.4000000000
  20
 1059.5000000000
  30
0.0
  11
 1513.4000000000
  21
 1063.1000000000
  31
0.0
   0
LINE
   5
375
 100
AcDbEntity
   8
LEVEL001
 370
30
 100
AcDbLine
   6
CONTINUOUS
  62
7
  10
 1513.4000000000
  20
 1063.1000000000
  30
0.0
  11
 1538.6000000000
  21
 1063.1000000000
  31
0.0
   0
LINE
   5
376
 100
AcDbEntity
   8
LEVEL001
 370
30
 100
AcDbLine
   6
CONTINUOUS
  62
7
  10
 1538.6000000000
  20
 1063.1000000000
  30
0.0
  11
 1538.6000000000
  21
 1070.3000000000
  31
0.0
   0
LINE
   5
377
 100
AcDbEntity
   8
LEVEL001
 370
30
 100
AcDbLine
   6
CONTINUOUS
  62
7
  10
 1538.6000000000
  20
 1070.3000000000
  30
0.0
  11
 1513.4000000000
  21
 1070.3000000000
  31
0.0
   0
LINE
   5
378
 100
AcDbEntity
   8
LEVEL001
 370
30
 100
AcDbLine
   6
CONTINUOUS
  62
7
  10
 1513.4000000000
  20
 1070.3000000000
  30
0.0
  11
 1513.4000000000
  21
 1073.9000000000
  31
0.0
   0
LINE
   5
379
 100
AcDbEntity
   8
LEVEL001
 370
30
 100
AcDbLine
   6
CONTINUOUS
  62
7
  10
 1513.4000000000
  20
 1073.9000000000
  30
0.0
  11
 1542.2000000000
  21
 1073.9000000000
  31
0.0
   0
LINE
   5
37A
 100
AcDbEntity
   8
LEVEL001
 370
30
 100
AcDbLine
   6
CONTINUOUS
  62
7
  10
 1542.2000000000
  20
 1073.9000000000
  30
0.0
  11
 1542.2000000000
  21
 1088.3000000000
  31
0.0
   0
LINE
   5
37B
 100
AcDbEntity
   8
LEVEL001
 370
30
 100
AcDbLine
   6
CONTINUOUS
  62
7
  10
 1542.2000000000
  20
 1088.3000000000
  30
0.0
  11
 1455.8000000000
  21
 1088.3000000000
  31
0.0
   0
LINE
   5
37C
 100
AcDbEntity
   8
LEVEL001
 370
30
 100
AcDbLine
   6
CONTINUOUS
  62
7
  10
 1455.8000000000
  20
 1088.3000000000
  30
0.0
  11
 1455.8000000000
  21
 1073.9000000000
  31
0.0
   0
LINE
   5
37D
 100
AcDbEntity
   8
LEVEL001
 370
30
 100
AcDbLine
   6
CONTINUOUS
  62
7
  10
 1455.8000000000
  20
 1073.9000000000
  30
0.0
  11
 1470.2000000000
  21
 1073.9000000000
  31
0.0
   0
LINE
   5
37E
 100
AcDbEntity
   8
LEVEL001
 370
30
 100
AcDbLine
   6
CONTINUOUS
  62
7
  10
 1470.2000000000
  20
 1073.9000000000
  30
0.0
  11
 1470.2000000000
  21
 1059.5000000000
  31
0.0
   0
LINE
   5
37F
 100
AcDbEntity
   8
LEVEL001
 370
30
 100
AcDbLine
   6
CONTINUOUS
  62
7
  10
 1470.2000000000
  20
 1059.5000000000
  30
0.0
  11
 1448.6000000000
  21
 1059.5000000000
  31
0.0
   0
LINE
   5
380
 100
AcDbEntity
   8
LEVEL001
 370
30
 100
AcDbLine
   6
CONTINUOUS
  62
7
  10
 1448.6000000000
  20
 1059.5000000000
  30
0.0
  11
 1448.6000000000
  21
 1088.3000000000
  31
0.0
   0
LINE
   5
381
 100
AcDbEntity
   8
LEVEL001
 370
30
 100
AcDbLine
   6
CONTINUOUS
  62
7
  10
 1448.6000000000
  20
 1088.3000000000
  30
0.0
  11
 1434.2000000000
  21
 1088.3000000000
  31
0.0
   0
LINE
   5
382
 100
AcDbEntity
   8
LEVEL001
 370
30
 100
AcDbLine
   6
CONTINUOUS
  62
7
  10
 1434.2000000000
  20
 1088.3000000000
  30
0.0
  11
 1434.2000000000
  21
 1045.1000000000
  31
0.0
   0
LINE
   5
383
 100
AcDbEntity
   8
LEVEL001
 370
30
 100
AcDbLine
   6
CONTINUOUS
  62
7
  10
 1563.8000000000
  20
 1045.1000000000
  30
0.0
  11
 1585.4000000000
  21
 1045.1000000000
  31
0.0
   0
LINE
   5
384
 100
AcDbEntity
   8
LEVEL001
 370
30
 100
AcDbLine
   6
CONTINUOUS
  62
7
  10
 1585.4000000000
  20
 1045.1000000000
  30
0.0
  11
 1585.4000000000
  21
 1059.5000000000
  31
0.0
   0
LINE
   5
385
 100
AcDbEntity
   8
LEVEL001
 370
30
 100
AcDbLine
   6
CONTINUOUS
  62
7
  10
 1585.4000000000
  20
 1059.5000000000
  30
0.0
  11
 1563.8000000000
  21
 1059.5000000000
  31
0.0
   0
ARC
   5
386
 100
AcDbEntity
   8
LEVEL001
 370
30
   6
CONTINUOUS
  62
7
 100
AcDbCircle
  10
 1563.8000000000
  20
 1066.7000000000
  30
0.0
  40
 7.2000000000000
 100
AcDbArc
  50
 90.000000000000
  51
 270.00000000000
   0
LINE
   5
387
 100
AcDbEntity
   8
LEVEL001
 370
30
 100
AcDbLine
   6
CONTINUOUS
  62
7
  10
 1563.8000000000
  20
 1073.9000000000
  30
0.0
  11
 1585.4000000000
  21
 1073.9000000000
  31
0.0
   0
LINE
   5
388
 100
AcDbEntity
   8
LEVEL001
 370
30
 100
AcDbLine
   6
CONTINUOUS
  62
7
  10
 1585.4000000000
  20
 1073.9000000000
  30
0.0
  11
 1585.4000000000
  21
 1088.3000000000
  31
0.0
   0
LINE
   5
389
 100
AcDbEntity
   8
LEVEL001
 370
30
 100
AcDbLine
   6
CONTINUOUS
  62
7
  10
 1585.4000000000
  20
 1088.3000000000
  30
0.0
  11
 1563.8000000000
  21
 1088.3000000000
  31
0.0
   0
ARC
   5
38A
 100
AcDbEntity
   8
LEVEL001
 370
30
   6
CONTINUOUS
  62
7
 100
AcDbCircle
  10
 1563.8000000000
  20
 1066.7000000000
  30
0.0
  40
 21.600000000000
 100
AcDbArc
  50
 90.000000000000
  51
 270.00000000000
   0
MTEXT
   5
38C
 100
AcDbEntity
   8
LEVEL001
 370
30
  62
7
 100
AcDbMText
  10
 1347.8000000000
  20
 1095.5000000000
  30
0.0
  40
 15.000000000000
  41
0.0
  71
7
  72
1
   1
\T1.000000;ケージーパルテック株式会社
   7
GMM001
  44
 0.79999984000003
   0
LINE
   5
38D
 100
AcDbEntity
   8
LEVEL001
 370
30
 100
AcDbLine
   6
CONTINUOUS
  62
7
  10
 1333.4000000000
  20
 1054.7000000000
  30
0.0
  11
 1315.4000000000
  21
 1083.5000000000
  31
0.0
   0
LINE
   5
38E
 100
AcDbEntity
   8
LEVEL001
 370
30
 100
AcDbLine
   6
CONTINUOUS
  62
7
  10
 1315.4000000000
  20
 1083.5000000000
  30
0.0
  11
 1333.4000000000
  21
 1083.5000000000
  31
0.0
   0
LINE
   5
38F
 100
AcDbEntity
   8
LEVEL001
 370
30
 100
AcDbLine
   6
CONTINUOUS
  62
7
  10
 1333.4000000000
  20
 1083.5000000000
  30
0.0
  11
 1333.4000000000
  21
 1054.7000000000
  31
0.0
   0
LINE
   5
390
 100
AcDbEntity
   8
LEVEL001
 370
30
 100
AcDbLine
   6
CONTINUOUS
  62
7
  10
 1315.4000000000
  20
 1083.5000000000
  30
0.0
  11
 1333.4000000000
  21
 1054.7000000000
  31
0.0
   0
LINE
   5
391
 100
AcDbEntity
   8
LEVEL001
 370
30
 100
AcDbLine
   6
CONTINUOUS
  62
7
  10
 1333.4000000000
  20
 1054.7000000000
  30
0.0
  11
 1333.4000000000
  21
 1083.5000000000
  31
0.0
   0
LINE
   5
392
 100
AcDbEntity
   8
LEVEL001
 370
30
 100
AcDbLine
   6
CONTINUOUS
  62
7
  10
 1333.4000000000
  20
 1083.5000000000
  30
0.0
  11
 1315.4000000000
  21
 1083.5000000000
  31
0.0
   0
LINE
   5
393
 100
AcDbEntity
   8
LEVEL001
 370
30
 100
AcDbLine
   6
CONTINUOUS
  62
7
  10
 1276.2000000000
  20
 1121.9000000000
  30
0.0
  11
 1250.6000000000
  21
 1083.5000000000
  31
0.0
   0
LINE
   5
394
 100
AcDbEntity
   8
LEVEL001
 370
30
 100
AcDbLine
   6
CONTINUOUS
  62
7
  10
 1250.6000000000
  20
 1083.5000000000
  30
0.0
  11
 1276.2000000000
  21
 1045.1000000000
  31
0.0
   0
LINE
   5
395
 100
AcDbEntity
   8
LEVEL001
 370
30
 100
AcDbLine
   6
CONTINUOUS
  62
7
  10
 1297.8000000000
  20
 1045.1000000000
  30
0.0
  11
 1272.2000000000
  21
 1083.5000000000
  31
0.0
   0
LINE
   5
396
 100
AcDbEntity
   8
LEVEL001
 370
30
 100
AcDbLine
   6
CONTINUOUS
  62
7
  10
 1272.2000000000
  20
 1083.5000000000
  30
0.0
  11
 1297.8000000000
  21
 1121.9000000000
  31
0.0
   0
LINE
   5
397
 100
AcDbEntity
   8
LEVEL001
 370
30
 100
AcDbLine
   6
CONTINUOUS
  62
7
  10
 1308.6000000000
  20
 1121.9000000000
  30
0.0
  11
 1283.0000000000
  21
 1083.5000000000
  31
0.0
   0
LINE
   5
398
 100
AcDbEntity
   8
LEVEL001
 370
30
 100
AcDbLine
   6
CONTINUOUS
  62
7
  10
 1283.0000000000
  20
 1083.5000000000
  30
0.0
  11
 1308.6000000000
  21
 1045.1000000000
  31
0.0
   0
LINE
   5
399
 100
AcDbEntity
   8
LEVEL001
 370
30
 100
AcDbLine
   6
CONTINUOUS
  62
7
  10
 1330.2000000000
  20
 1045.1000000000
  30
0.0
  11
 1304.6000000000
  21
 1083.5000000000
  31
0.0
   0
LINE
   5
39A
 100
AcDbEntity
   8
LEVEL001
 370
30
 100
AcDbLine
   6
CONTINUOUS
  62
7
  10
 1304.6000000000
  20
 1083.5000000000
  30
0.0
  11
 1330.2000000000
  21
 1121.9000000000
  31
0.0
   0
LINE
   5
39B
 100
AcDbEntity
   8
LEVEL001
 370
30
 100
AcDbLine
   6
CONTINUOUS
  62
7
  10
 1276.2000000000
  20
 1045.1000000000
  30
0.0
  11
 1250.6000000000
  21
 1083.5000000000
  31
0.0
   0
LINE
   5
39C
 100
AcDbEntity
   8
LEVEL001
 370
30
 100
AcDbLine
   6
CONTINUOUS
  62
7
  10
 1250.6000000000
  20
 1083.5000000000
  30
0.0
  11
 1276.2000000000
  21
 1121.9000000000
  31
0.0
   0
LINE
   5
39D
 100
AcDbEntity
   8
LEVEL001
 370
30
 100
AcDbLine
   6
CONTINUOUS
  62
7
  10
 1276.2000000000
  20
 1121.9000000000
  30
0.0
  11
 1297.8000000000
  21
 1121.9000000000
  31
0.0
   0
LINE
   5
39E
 100
AcDbEntity
   8
LEVEL001
 370
30
 100
AcDbLine
   6
CONTINUOUS
  62
7
  10
 1297.8000000000
  20
 1121.9000000000
  30
0.0
  11
 1272.2000000000
  21
 1083.5000000000
  31
0.0
   0
LINE
   5
39F
 100
AcDbEntity
   8
LEVEL001
 370
30
 100
AcDbLine
   6
CONTINUOUS
  62
7
  10
 1272.2000000000
  20
 1083.5000000000
  30
0.0
  11
 1297.8000000000
  21
 1045.1000000000
  31
0.0
   0
LINE
   5
3A0
 100
AcDbEntity
   8
LEVEL001
 370
30
 100
AcDbLine
   6
CONTINUOUS
  62
7
  10
 1297.8000000000
  20
 1045.1000000000
  30
0.0
  11
 1276.2000000000
  21
 1045.1000000000
  31
0.0
   0
LINE
   5
3A1
 100
AcDbEntity
   8
LEVEL001
 370
30
 100
AcDbLine
   6
CONTINUOUS
  62
7
  10
 1308.6000000000
  20
 1045.1000000000
  30
0.0
  11
 1283.0000000000
  21
 1083.5000000000
  31
0.0
   0
LINE
   5
3A2
 100
AcDbEntity
   8
LEVEL001
 370
30
 100
AcDbLine
   6
CONTINUOUS
  62
7
  10
 1283.0000000000
  20
 1083.5000000000
  30
0.0
  11
 1308.6000000000
  21
 1121.9000000000
  31
0.0
   0
LINE
   5
3A3
 100
AcDbEntity
   8
LEVEL001
 370
30
 100
AcDbLine
   6
CONTINUOUS
  62
7
  10
 1308.6000000000
  20
 1121.9000000000
  30
0.0
  11
 1330.2000000000
  21
 1121.9000000000
  31
0.0
   0
LINE
   5
3A4
 100
AcDbEntity
   8
LEVEL001
 370
30
 100
AcDbLine
   6
CONTINUOUS
  62
7
  10
 1330.2000000000
  20
 1121.9000000000
  30
0.0
  11
 1304.6000000000
  21
 1083.5000000000
  31
0.0
   0
LINE
   5
3A5
 100
AcDbEntity
   8
LEVEL001
 370
30
 100
AcDbLine
   6
CONTINUOUS
  62
7
  10
 1304.6000000000
  20
 1083.5000000000
  30
0.0
  11
 1330.2000000000
  21
 1045.1000000000
  31
0.0
   0
LINE
   5
3A6
 100
AcDbEntity
   8
LEVEL001
 370
30
 100
AcDbLine
   6
CONTINUOUS
  62
7
  10
 1330.2000000000
  20
 1045.1000000000
  30
0.0
  11
 1308.6000000000
  21
 1045.1000000000
  31
0.0
   0
LINE
   5
3A7
 100
AcDbEntity
   8
LEVEL001
 370
30
 100
AcDbLine
   6
DOT
  62
7
  10
0.0
  20
0.0
  30
0.0
  11
 1680.0000000000
  21
0.0
  31
0.0
   0
LINE
   5
3A8
 100
AcDbEntity
   8
LEVEL001
 370
30
 100
AcDbLine
   6
DOT
  62
7
  10
 1680.0000000000
  20
0.0
  30
0.0
  11
 1680.0000000000
  21
 1188.0000000000
  31
0.0
   0
LINE
   5
3A9
 100
AcDbEntity
   8
LEVEL001
 370
30
 100
AcDbLine
   6
DOT
  62
7
  10
 1680.0000000000
  20
 1188.0000000000
  30
0.0
  11
0.0
  21
 1188.0000000000
  31
0.0
   0
LINE
   5
3AA
 100
AcDbEntity
   8
LEVEL001
 370
30
 100
AcDbLine
   6
DOT
  62
7
  10
0.0
  20
 1188.0000000000
  30
0.0
  11
0.0
  21
0.0
  31
0.0
   0
LINE
   5
3AB
 100
AcDbEntity
   8
LEVEL001
 370
40
 100
AcDbLine
   6
CONTINUOUS
  62
3
  10
 61.999999999800
  20
 1100.0000000000
  30
0.0
  11
 1217.9999999998
  21
 1100.0000000000
  31
0.0
   0
LINE
   5
3AC
 100
AcDbEntity
   8
LEVEL001
 370
40
 100
AcDbLine
   6
CONTINUOUS
  62
3
  10
 1217.9999999998
  20
 1027.0000000000
  30
0.0
  11
 1617.9999999998
  21
 1027.0000000000
  31
0.0
   0
LINE
   5
3AD
 100
AcDbEntity
   8
LEVEL001
 370
40
 100
AcDbLine
   6
CONTINUOUS
  62
3
  10
 1217.9999999998
  20
 947.00000000000
  30
0.0
  11
 1617.9999999998
  21
 947.00000000000
  31
0.0
   0
LINE
   5
3AE
 100
AcDbEntity
   8
LEVEL001
 370
40
 100
AcDbLine
   6
CONTINUOUS
  62
3
  10
 1217.9999999998
  20
 867.00000000000
  30
0.0
  11
 1617.9999999998
  21
 867.00000000000
  31
0.0
   0
LINE
   5
3AF
 100
AcDbEntity
   8
LEVEL001
 370
40
 100
AcDbLine
   6
CONTINUOUS
  62
3
  10
 1217.9999999998
  20
 288.00000000004
  30
0.0
  11
 1617.9999999998
  21
 288.00000000004
  31
0.0
   0
LINE
   5
3B0
 100
AcDbEntity
   8
LEVEL001
 370
40
 100
AcDbLine
   6
CONTINUOUS
  62
3
  10
 1217.9999999998
  20
 208.00000000004
  30
0.0
  11
 1617.9999999998
  21
 208.00000000004
  31
0.0
   0
LINE
   5
3B1
 100
AcDbEntity
   8
LEVEL001
 370
40
 100
AcDbLine
   6
CONTINUOUS
  62
3
  10
 1217.9999999998
  20
 128.00000000004
  30
0.0
  11
 1617.9999999998
  21
 128.00000000004
  31
0.0
   0
LINE
   5
3B2
 100
AcDbEntity
   8
LEVEL001
 370
40
 100
AcDbLine
   6
CONTINUOUS
  62
3
  10
 1417.9999999998
  20
 208.00000000004
  30
0.0
  11
 1417.9999999998
  21
 48.000000000040
  31
0.0
   0
LINE
   5
3B3
 100
AcDbEntity
   8
LEVEL001
 370
40
 100
AcDbLine
   6
CONTINUOUS
  62
3
  10
 1417.9999999998
  20
 154.66666666672
  30
0.0
  11
 1617.9999999998
  21
 154.66666666672
  31
0.0
   0
LINE
   5
3B4
 100
AcDbEntity
   8
LEVEL001
 370
40
 100
AcDbLine
   6
CONTINUOUS
  62
3
  10
 1417.9999999998
  20
 181.33333333338
  30
0.0
  11
 1617.9999999998
  21
 181.33333333338
  31
0.0
   0
LINE
   5
3B5
 100
AcDbEntity
   8
LEVEL001
 370
50
 100
AcDbLine
   6
CONTINUOUS
  62
4
  10
 1617.9999999998
  20
 1140.0000000000
  30
0.0
  11
 61.999999999800
  21
 1140.0000000000
  31
0.0
   0
LINE
   5
3B6
 100
AcDbEntity
   8
LEVEL001
 370
50
 100
AcDbLine
   6
CONTINUOUS
  62
4
  10
 1217.9999999998
  20
 1140.0000000000
  30
0.0
  11
 1217.9999999998
  21
 48.000000000040
  31
0.0
   0
LINE
   5
3B7
 100
AcDbEntity
   8
LEVEL001
 370
50
 100
AcDbLine
   6
CONTINUOUS
  62
4
  10
 1617.9999999998
  20
 48.000000000040
  30
0.0
  11
 1617.9999999998
  21
 1140.0000000000
  31
0.0
   0
LINE
   5
3B8
 100
AcDbEntity
   8
LEVEL001
 370
50
 100
AcDbLine
   6
CONTINUOUS
  62
4
  10
 61.999999999800
  20
 1140.0000000000
  30
0.0
  11
 61.999999999800
  21
 48.000000000040
  31
0.0
   0
LINE
   5
3B9
 100
AcDbEntity
   8
LEVEL001
 370
50
 100
AcDbLine
   6
CONTINUOUS
  62
4
  10
 61.999999999800
  20
 48.000000000040
  30
0.0
  11
 1617.9999999998
  21
 48.000000000040
  31
0.0
   0
HATCH
   5
3BA
 100
AcDbEntity
   8
LEVEL001
  62
1
 100
AcDbHatch
  10
0.0
  20
0.0
  30
0.0
 210
0.0
 220
0.0
 230
 1.0000000000000
   2
SOLID
  70
1
  71
1
  91
7
  92
1
  93
6
  72
1
  10
 1297.8000000000
  20
 1121.9000000000
  11
 1272.2000000000
  21
 1083.5000000000
  72
1
  10
 1272.2000000000
  20
 1083.5000000000
  11
 1297.8000000000
  21
 1045.1000000000
  72
1
  10
 1297.8000000000
  20
 1045.1000000000
  11
 1276.2000000000
  21
 1045.1000000000
  72
1
  10
 1276.2000000000
  20
 1045.1000000000
  11
 1250.6000000000
  21
 1083.5000000000
  72
1
  10
 1250.6000000000
  20
 1083.5000000000
  11
 1276.2000000000
  21
 1121.9000000000
  72
1
  10
 1276.2000000000
  20
 1121.9000000000
  11
 1297.8000000000
  21
 1121.9000000000
  97
1
 330

  92
16
  93
6
  72
1
  10
 1308.6000000000
  20
 1121.9000000000
  11
 1330.2000000000
  21
 1121.9000000000
  72
1
  10
 1330.2000000000
  20
 1121.9000000000
  11
 1304.6000000000
  21
 1083.5000000000
  72
1
  10
 1304.6000000000
  20
 1083.5000000000
  11
 1330.2000000000
  21
 1045.1000000000
  72
1
  10
 1330.2000000000
  20
 1045.1000000000
  11
 1308.6000000000
  21
 1045.1000000000
  72
1
  10
 1308.6000000000
  20
 1045.1000000000
  11
 1283.0000000000
  21
 1083.5000000000
  72
1
  10
 1283.0000000000
  20
 1083.5000000000
  11
 1308.6000000000
  21
 1121.9000000000
  97
1
 330

  92
16
  93
3
  72
1
  10
 1333.4000000000
  20
 1083.5000000000
  11
 1315.4000000000
  21
 1083.5000000000
  72
1
  10
 1315.4000000000
  20
 1083.5000000000
  11
 1333.4000000000
  21
 1054.7000000000
  72
1
  10
 1333.4000000000
  20
 1054.7000000000
  11
 1333.4000000000
  21
 1083.5000000000
  97
1
 330

  92
16
  93
6
  72
1
  10
 1347.8000000000
  20
 1088.3000000000
  11
 1376.6000000000
  21
 1088.3000000000
  72
2
  10
 1376.6000000000
  20
 1070.3000000000
  40
 18.000000000000
  50
 270.00000000000
  51
 90.000000000000
  73
0
  72
1
  10
 1376.6000000000
  20
 1052.3000000000
  11
 1362.2000000000
  21
 1052.3000000000
  72
1
  10
 1362.2000000000
  20
 1052.3000000000
  11
 1362.2000000000
  21
 1045.1000000000
  72
1
  10
 1362.2000000000
  20
 1045.1000000000
  11
 1347.8000000000
  21
 1045.1000000000
  72
1
  10
 1347.8000000000
  20
 1045.1000000000
  11
 1347.8000000000
  21
 1088.3000000000
  97
1
 330

  92
16
  93
4
  72
1
  10
 1376.6000000000
  20
 1073.9000000000
  11
 1362.2000000000
  21
 1073.9000000000
  72
1
  10
 1362.2000000000
  20
 1073.9000000000
  11
 1362.2000000000
  21
 1066.7000000000
  72
1
  10
 1362.2000000000
  20
 1066.7000000000
  11
 1376.6000000000
  21
 1066.7000000000
  72
2
  10
 1376.6000000000
  20
 1070.3000000000
  40
 3.6000000000000
  50
 270.00000000000
  51
 90.000000000000
  73
1
  97
1
 330

  92
16
  93
4
  72
1
  10
 1383.8000000000
  20
 1045.1000000000
  11
 1412.6000000000
  21
 1088.3000000000
  72
1
  10
 1412.6000000000
  20
 1088.3000000000
  11
 1434.2000000000
  21
 1088.3000000000
  72
1
  10
 1434.2000000000
  20
 1088.3000000000
  11
 1405.4000000000
  21
 1045.1000000000
  72
1
  10
 1405.4000000000
  20
 1045.1000000000
  11
 1383.8000000000
  21
 1045.1000000000
  97
1
 330

  92
16
  93
3
  72
1
  10
 1429.4000000000
  20
 1072.4466769388
  11
 1411.1688820408
  21
 1045.1000000000
  72
1
  10
 1411.1688820408
  20
 1045.1000000000
  11
 1429.4000000000
  21
 1045.1000000000
  72
1
  10
 1429.4000000000
  20
 1045.1000000000
  11
 1429.4000000000
  21
 1072.4466769388
  97
1
 330

  75
0
  76
1
  98
1
  10
0.0
  20
0.0
   0
HATCH
   5
3BB
 100
AcDbEntity
   8
LEVEL001
  62
1
 100
AcDbHatch
  10
0.0
  20
0.0
  30
0.0
 210
0.0
 220
0.0
 230
 1.0000000000000
   2
SOLID
  70
1
  71
1
  91
1
  92
1
  93
22
  72
1
  10
 1434.2000000000
  20
 1088.3000000000
  11
 1448.6000000000
  21
 1088.3000000000
  72
1
  10
 1448.6000000000
  20
 1088.3000000000
  11
 1448.6000000000
  21
 1059.5000000000
  72
1
  10
 1448.6000000000
  20
 1059.5000000000
  11
 1470.2000000000
  21
 1059.5000000000
  72
1
  10
 1470.2000000000
  20
 1059.5000000000
  11
 1470.2000000000
  21
 1073.9000000000
  72
1
  10
 1470.2000000000
  20
 1073.9000000000
  11
 1455.8000000000
  21
 1073.9000000000
  72
1
  10
 1455.8000000000
  20
 1073.9000000000
  11
 1455.8000000000
  21
 1088.3000000000
  72
1
  10
 1455.8000000000
  20
 1088.3000000000
  11
 1542.2000000000
  21
 1088.3000000000
  72
1
  10
 1542.2000000000
  20
 1088.3000000000
  11
 1542.2000000000
  21
 1073.9000000000
  72
1
  10
 1542.2000000000
  20
 1073.9000000000
  11
 1513.4000000000
  21
 1073.9000000000
  72
1
  10
 1513.4000000000
  20
 1073.9000000000
  11
 1513.4000000000
  21
 1070.3000000000
  72
1
  10
 1513.4000000000
  20
 1070.3000000000
  11
 1538.6000000000
  21
 1070.3000000000
  72
1
  10
 1538.6000000000
  20
 1070.3000000000
  11
 1538.6000000000
  21
 1063.1000000000
  72
1
  10
 1538.6000000000
  20
 1063.1000000000
  11
 1513.4000000000
  21
 1063.1000000000
  72
1
  10
 1513.4000000000
  20
 1063.1000000000
  11
 1513.4000000000
  21
 1059.5000000000
  72
1
  10
 1513.4000000000
  20
 1059.5000000000
  11
 1542.2000000000
  21
 1059.5000000000
  72
1
  10
 1542.2000000000
  20
 1059.5000000000
  11
 1542.2000000000
  21
 1045.1000000000
  72
1
  10
 1542.2000000000
  20
 1045.1000000000
  11
 1499.0000000000
  21
 1045.1000000000
  72
1
  10
 1499.0000000000
  20
 1045.1000000000
  11
 1499.0000000000
  21
 1073.9000000000
  72
1
  10
 1499.0000000000
  20
 1073.9000000000
  11
 1484.6000000000
  21
 1073.9000000000
  72
1
  10
 1484.6000000000
  20
 1073.9000000000
  11
 1484.6000000000
  21
 1045.1000000000
  72
1
  10
 1484.6000000000
  20
 1045.1000000000
  11
 1434.2000000000
  21
 1045.1000000000
  72
1
  10
 1434.2000000000
  20
 1045.1000000000
  11
 1434.2000000000
  21
 1088.3000000000
  97
1
 330

  75
0
  76
1
  98
1
  10
0.0
  20
0.0
   0
HATCH
   5
3BC
 100
AcDbEntity
   8
LEVEL001
  62
1
 100
AcDbHatch
  10
0.0
  20
0.0
  30
0.0
 210
0.0
 220
0.0
 230
 1.0000000000000
   2
SOLID
  70
1
  71
1
  91
1
  92
1
  93
8
  72
1
  10
 1585.4000000000
  20
 1088.3000000000
  11
 1563.8000000000
  21
 1088.3000000000
  72
2
  10
 1563.8000000000
  20
 1066.7000000000
  40
 21.600000000000
  50
 90.000000000000
  51
 270.00000000000
  73
1
  72
1
  10
 1563.8000000000
  20
 1045.1000000000
  11
 1585.4000000000
  21
 1045.1000000000
  72
1
  10
 1585.4000000000
  20
 1045.1000000000
  11
 1585.4000000000
  21
 1059.5000000000
  72
1
  10
 1585.4000000000
  20
 1059.5000000000
  11
 1563.8000000000
  21
 1059.5000000000
  72
2
  10
 1563.8000000000
  20
 1066.7000000000
  40
 7.2000000000000
  50
 90.000000000000
  51
 270.00000000000
  73
0
  72
1
  10
 1563.8000000000
  20
 1073.9000000000
  11
 1585.4000000000
  21
 1073.9000000000
  72
1
  10
 1585.4000000000
  20
 1073.9000000000
  11
 1585.4000000000
  21
 1088.3000000000
  97
1
 330

  75
0
  76
1
  98
1
  10
0.0
  20
0.0
   0
MTEXT
   5
3BE
 100
AcDbEntity
   8
LEVEL001
 370
15
  62
8
 100
AcDbMText
  10
 1243.1999999998
  20
 113.00000000004
  30
0.0
  40
 12.000000000000
  41
0.0
  71
5
  72
1
   1
\T1.000000;サイズ：
   7
GMM002
  44
 0.79999984000003
   0
MTEXT
   5
3C0
 100
AcDbEntity
   8
LEVEL001
 370
15
  62
8
 100
AcDbMText
  10
 1237.1999999998
  20
 193.00000000004
  30
0.0
  40
 12.000000000000
  41
0.0
  71
5
  72
1
   1
\T1.000000;縮尺：
   7
GMM002
  44
 0.79999984000003
   0
MTEXT
   5
3C2
 100
AcDbEntity
   8
LEVEL001
 370
15
  62
8
 100
AcDbMText
  10
 1249.1999999998
  20
 273.00000000004
  30
0.0
  40
 12.000000000000
  41
0.0
  71
5
  72
1
   1
\T1.000000;図面名称：
   7
GMM002
  44
 0.79999984000003
   0
MTEXT
   5
3C4
 100
AcDbEntity
   8
LEVEL001
 370
15
  62
8
 100
AcDbMText
  10
 1455.1999999998
  20
 113.00000000004
  30
0.0
  40
 12.000000000000
  41
0.0
  71
5
  72
1
   1
\T1.000000;ファイル名：
   7
GMM002
  44
 0.79999984000003
   0
MTEXT
   5
3C6
 100
AcDbEntity
   8
LEVEL001
 370
15
  62
8
 100
AcDbMText
  10
 1449.1999999998
  20
 194.66666666672
  30
0.0
  40
 11.200000000000
  41
0.0
  71
5
  72
1
   1
\T1.000000;作成日付：
   7
GMM003
  44
 0.79999984000003
   0
MTEXT
   5
3C8
 100
AcDbEntity
   8
LEVEL001
 370
15
  62
8
 100
AcDbMText
  10
 1449.1999999998
  20
 168.00000000004
  30
0.0
  40
 11.200000000000
  41
0.0
  71
5
  72
1
   1
\T1.000000;変更日付：
   7
GMM003
  44
 0.79999984000003
   0
MTEXT
   5
3CA
 100
AcDbEntity
   8
LEVEL001
 370
15
  62
8
 100
AcDbMText
  10
 1317.9999999998
  20
 73.000000000040
  30
0.0
  40
 15.000000000000
  41
0.0
  71
5
  72
1
   1
\T1.000000;Ａ３
   7
GMM002
  44
 0.79999984000003
   0
MTEXT
   5
3CC
 100
AcDbEntity
   8
LEVEL001
 370
15
  62
8
 100
AcDbMText
  10
 1237.1999999998
  20
 852.00000000000
  30
0.0
  40
 12.000000000000
  41
0.0
  71
5
  72
1
   1
\T1.000000;仕様：
   7
GMM002
  44
 0.79999984000003
   0
MTEXT
   5
3CE
 100
AcDbEntity
   8
LEVEL001
 370
15
  62
8
 100
AcDbMText
  10
 1237.1999999998
  20
 932.00000000000
  30
0.0
  40
 12.000000000000
  41
0.0
  71
5
  72
1
   1
\T1.000000;形式：
   7
GMM002
  44
 0.79999984000003
   0
MTEXT
   5
3D0
 100
AcDbEntity
   8
LEVEL001
 370
15
  62
8
 100
AcDbMText
  10
 1243.1999999998
  20
 1012.0000000000
  30
0.0
  40
 12.000000000000
  41
0.0
  71
5
  72
1
   1
\T1.000000;商品名：
   7
GMM002
  44
 0.79999984000003
   0
MTEXT
   5
3D2
 100
AcDbEntity
   8
LEVEL001
 370
15
  62
8
 100
AcDbMText
  10
 1387.5999999998
  20
 307.48321383605
  30
0.0
  40
 16.000000000000
  41
0.0
  71
5
  72
1
   1
\T1.000000;　※本製品は予告無しに変更する事があります。
   7
GMM002
  44
 0.79999984000003
   0
MTEXT
   5
3D4
 100
AcDbEntity
   8
LEVEL001
 370
15
  62
8
 100
AcDbMText
  10
 1289.9999999998
  20
 978.00000000000
  30
0.0
  40
 18.000000000000
  41
0.0
  71
7
  72
1
   1
\T1.000000;　フロアー金具コーナー部材
   7
GMM004
  44
 0.79999984000003
   0
MTEXT
   5
3D6
 100
AcDbEntity
   8
LEVEL001
 370
15
  62
8
 100
AcDbMText
  10
 1517.9999999998
  20
 80.333333333380
  30
0.0
  40
 10.000000000000
  41
0.0
  71
5
  72
1
   1
\T1.000000;フロアー金具コーナー部材－１
   7
GMM002
  44
 0.79999984000003
   0
LINE
   5
3D7
 100
AcDbEntity
   8
LEVEL001
 370
40
 100
AcDbLine
   6
CONTINUOUS
  62
3
  10
 61.999999999800
  20
 554.00000000002
  30
0.0
  11
 1217.9999999998
  21
 554.00000000002
  31
0.0
   0
LINE
   5
3D8
 100
AcDbEntity
   8
LEVEL001
 370
40
 100
AcDbLine
   6
CONTINUOUS
  62
3
  10
 61.999999999800
  20
 594.00000000002
  30
0.0
  11
 1217.9999999998
  21
 594.00000000002
  31
0.0
   0
LWPOLYLINE
   5
3D9
 100
AcDbEntity
   8
LEVEL001
 370
30
   6
CONTINUOUS
  62
7
 100
AcDbPolyline
  90
4
  70
1
  10
 83.455488621149
  20
 1032.3978580991
  10
 83.455488621149
  20
 1015.8580990629
  10
 159.79283801874
  20
 1015.8580990629
  10
 159.79283801874
  20
 1032.3978580991
   0
LWPOLYLINE
   5
3DA
 100
AcDbEntity
   8
LEVEL001
 370
30
   6
CONTINUOUS
  62
7
 100
AcDbPolyline
  90
4
  70
1
  10
 603.55946682511
  20
 1032.3978580991
  10
 603.55946682511
  20
 1015.8580990629
  10
 679.89681622270
  20
 1015.8580990629
  10
 679.89681622270
  20
 1032.3978580991
   0
LWPOLYLINE
   5
3DB
 100
AcDbEntity
   8
LEVEL001
 370
30
   6
CONTINUOUS
  62
7
 100
AcDbPolyline
  90
4
  70
1
  10
 83.455488621149
  20
 486.39785809908
  10
 83.455488621149
  20
 469.85809906294
  10
 159.79283801874
  20
 469.85809906294
  10
 159.79283801874
  20
 486.39785809908
   0
LWPOLYLINE
   5
3DC
 100
AcDbEntity
   8
LEVEL001
 370
30
   6
CONTINUOUS
  62
7
 100
AcDbPolyline
  90
4
  70
1
  10
 603.55946682511
  20
 486.39785809908
  10
 603.55946682511
  20
 469.85809906294
  10
 679.89681622270
  20
 469.85809906294
  10
 679.89681622270
  20
 486.39785809908
   0
MTEXT
   5
3DE
 100
AcDbEntity
   8
LEVEL001
 370
15
  62
8
 100
AcDbMText
  10
 1317.9999999998
  20
 153.00000000004
  30
0.0
  40
 15.000000000000
  41
0.0
  71
5
  72
1
   1
\T1.000000;Ｓ＝１：４
   7
GMM002
  44
 0.79999984000003
   0
MTEXT
   5
3E0
 100
AcDbEntity
   8
LEVEL001
 370
15
  62
8
 100
AcDbMText
  10
 246.78915662631
  20
 574.00000000002
  30
0.0
  40
 12.000000000000
  41
0.0
  71
5
  72
1
   1
\T1.000000;Ｓ３５ＣＲ（穴なし）
   7
GMM002
  44
 0.79999984000003
   0
MTEXT
   5
3E2
 100
AcDbEntity
   8
LEVEL001
 370
15
  62
8
 100
AcDbMText
  10
 63.199999999800
  20
 1120.0000000000
  30
0.0
  40
 10.000000000000
  41
0.0
  71
4
  72
1
   1
\W0.500000;\T1.000000; \W1.000000;\T1.000000;床押えアールコーナー
   7
GMM002
  44
 0.79999984000003
   0
MTEXT
   5
3E4
 100
AcDbEntity
   8
LEVEL001
 370
15
  62
8
 100
AcDbMText
  10
 63.199999999800
  20
 574.00000000002
  30
0.0
  40
 10.000000000000
  41
0.0
  71
4
  72
1
   1
\W0.500000;\T1.000000; \W1.000000;\T1.000000;床押えアールコーナー
   7
GMM002
  44
 0.79999984000003
   0
MTEXT
   5
3E6
 100
AcDbEntity
   8
LEVEL001
 370
15
  62
8
 100
AcDbMText
  10
 1417.9999999998
  20
 233.00000000004
  30
0.0
  40
 15.000000000000
  41
0.0
  71
5
  72
1
   1
\T1.000000;平面図・断面図
   7
GMM002
  44
 0.79999984000003
   0
DIMENSION
   5
3E7
 100
AcDbEntity
   8
LEVEL001
 370
15
   6
CONTINUOUS
  62
8
 100
AcDbDimension
   2
*D19
  10
 167.88295462028
  20
 1002.0071489535
  30
0.0
  11
 292.88295462028
  21
 1002.0071489535
  31
0.0
  70
0
   3
GMM001
 100
AcDbAlignedDimension
  13
 417.88295462028
  23
 954.86241211145
  33
0.0
  14
 167.88295462028
  24
 806.86241211145
  34
0.0
  50
 180.00000000000
 100
AcDbRotatedDimension
   0
LINE
   5
3E8
 100
AcDbEntity
   8
LEVEL001
 370
15
 100
AcDbLine
   6
DASHDOT
  62
8
  10
 417.88295462028
  20
 704.86241211145
  30
0.0
  11
 183.70633044265
  21
 939.03903628908
  31
0.0
   0
DIMENSION
   5
3E9
 100
AcDbEntity
   8
LEVEL001
 370
15
   6
CONTINUOUS
  62
8
 100
AcDbDimension
   2
*D20
  10
 202.88295462028
  20
 641.96875466091
  30
0.0
  11
 185.38295462028
  21
 641.96875466091
  31
0.0
  70
0
   3
GMM001
 100
AcDbAlignedDimension
  13
 167.88295462028
  23
 668.64835858021
  33
0.0
  14
 202.88295462028
  24
 674.76266397414
  34
0.0
 100
AcDbRotatedDimension
   0
DIMENSION
   5
3EA
 100
AcDbEntity
   8
LEVEL001
 370
15
   6
CONTINUOUS
  62
8
 100
AcDbDimension
   2
*D21
  10
 436.57253574658
  20
 954.86241211145
  30
0.0
  11
 436.57253574658
  21
 937.36241211145
  31
0.0
  70
0
   3
GMM001
 100
AcDbAlignedDimension
  13
 417.88295462028
  23
 919.86241211145
  33
0.0
  14
 417.88295462028
  24
 954.86241211145
  34
0.0
  50
 90.000000000000
 100
AcDbRotatedDimension
   0
LINE
   5
3EB
 100
AcDbEntity
   8
LEVEL001
 370
15
 100
AcDbLine
   6
DASHDOT
  62
8
  10
 387.38295462028
  20
 923.53467202141
  30
0.0
  11
 387.38295462028
  21
 939.19015220148
  31
0.0
   0
LINE
   5
3EC
 100
AcDbEntity
   8
LEVEL001
 370
15
 100
AcDbLine
   6
DASHDOT
  62
8
  10
 394.69301767429
  20
 931.36241211145
  30
0.0
  11
 380.07289156627
  21
 931.36241211145
  31
0.0
   0
LINE
   5
3ED
 100
AcDbEntity
   8
LEVEL001
 370
15
 100
AcDbLine
   6
DASHDOT
  62
8
  10
 261.13176146809
  20
 910.09019853738
  30
0.0
  11
 261.13176146809
  21
 925.74567871745
  31
0.0
   0
LINE
   5
3EE
 100
AcDbEntity
   8
LEVEL001
 370
15
 100
AcDbLine
   6
DASHDOT
  62
8
  10
 268.44182452210
  20
 917.91793862742
  30
0.0
  11
 253.82169841407
  21
 917.91793862742
  31
0.0
   0
LINE
   5
3EF
 100
AcDbEntity
   8
LEVEL001
 370
15
 100
AcDbLine
   6
DASHDOT
  62
8
  10
 204.82742810438
  20
 853.78586517373
  30
0.0
  11
 204.82742810438
  21
 869.44134535380
  31
0.0
   0
LINE
   5
3F0
 100
AcDbEntity
   8
LEVEL001
 370
15
 100
AcDbLine
   6
DASHDOT
  62
8
  10
 212.13749115839
  20
 861.61360526377
  30
0.0
  11
 197.51736505037
  21
 861.61360526377
  31
0.0
   0
LINE
   5
3F1
 100
AcDbEntity
   8
LEVEL001
 370
15
 100
AcDbLine
   6
DASHDOT
  62
8
  10
 191.38295462028
  20
 727.53467202141
  30
0.0
  11
 191.38295462028
  21
 743.19015220148
  31
0.0
   0
LINE
   5
3F2
 100
AcDbEntity
   8
LEVEL001
 370
15
 100
AcDbLine
   6
DASHDOT
  62
8
  10
 198.69301767429
  20
 735.36241211145
  30
0.0
  11
 184.07289156627
  21
 735.36241211145
  31
0.0
   0
DIMENSION
   5
3F3
 100
AcDbEntity
   8
LEVEL001
 370
15
   6
CONTINUOUS
  62
8
 100
AcDbDimension
   2
*D22
  10
 127.22948205028
  20
 704.86241211145
  30
0.0
  11
 127.22948205028
  21
 829.86241211145
  31
0.0
  70
0
   3
GMM001
 100
AcDbAlignedDimension
  13
 317.88295462028
  23
 954.86241211145
  33
0.0
  14
 167.88295462028
  24
 704.86241211145
  34
0.0
  50
 270.00000000000
 100
AcDbRotatedDimension
   0
DIMENSION
   5
3F4
 100
AcDbEntity
   8
LEVEL001
 370
15
   6
CONTINUOUS
  62
8
 100
AcDbDimension
   2
*D23
  10
 167.88295462028
  20
 456.00714895357
  30
0.0
  11
 292.88295462028
  21
 456.00714895357
  31
0.0
  70
0
   3
GMM001
 100
AcDbAlignedDimension
  13
 417.88295462028
  23
 408.86241211147
  33
0.0
  14
 167.88295462028
  24
 260.86241211147
  34
0.0
  50
 180.00000000000
 100
AcDbRotatedDimension
   0
LINE
   5
3F5
 100
AcDbEntity
   8
LEVEL001
 370
15
 100
AcDbLine
   6
DASHDOT
  62
8
  10
 417.88295462028
  20
 158.86241211147
  30
0.0
  11
 183.70633044265
  21
 393.03903628910
  31
0.0
   0
DIMENSION
   5
3F6
 100
AcDbEntity
   8
LEVEL001
 370
15
   6
CONTINUOUS
  62
8
 100
AcDbDimension
   2
*D24
  10
 202.88295462028
  20
 95.968754660932
  30
0.0
  11
 185.38295462028
  21
 95.968754660932
  31
0.0
  70
0
   3
GMM001
 100
AcDbAlignedDimension
  13
 167.88295462028
  23
 122.64835858023
  33
0.0
  14
 202.88295462028
  24
 128.76266397416
  34
0.0
 100
AcDbRotatedDimension
   0
DIMENSION
   5
3F7
 100
AcDbEntity
   8
LEVEL001
 370
15
   6
CONTINUOUS
  62
8
 100
AcDbDimension
   2
*D25
  10
 436.57253574658
  20
 408.86241211147
  30
0.0
  11
 436.57253574658
  21
 391.36241211147
  31
0.0
  70
0
   3
GMM001
 100
AcDbAlignedDimension
  13
 417.88295462028
  23
 373.86241211147
  33
0.0
  14
 417.88295462028
  24
 408.86241211147
  34
0.0
  50
 90.000000000000
 100
AcDbRotatedDimension
   0
DIMENSION
   5
3F8
 100
AcDbEntity
   8
LEVEL001
 370
15
   6
CONTINUOUS
  62
8
 100
AcDbDimension
   2
*D26
  10
 127.22948205028
  20
 158.86241211147
  30
0.0
  11
 127.22948205028
  21
 283.86241211147
  31
0.0
  70
0
   3
GMM001
 100
AcDbAlignedDimension
  13
 317.88295462028
  23
 408.86241211147
  33
0.0
  14
 167.88295462028
  24
 158.86241211147
  34
0.0
  50
 270.00000000000
 100
AcDbRotatedDimension
   0
DIMENSION
   5
3F9
 100
AcDbEntity
   8
LEVEL001
 370
15
   6
CONTINUOUS
  62
8
 100
AcDbDimension
   2
*D27
  10
 937.98693282424
  20
 1002.0071489535
  30
0.0
  11
 812.98693282424
  21
 1002.0071489535
  31
0.0
  70
0
   3
GMM001
 100
AcDbAlignedDimension
  13
 687.98693282424
  23
 954.86241211145
  33
0.0
  14
 937.98693282424
  24
 806.86241211145
  34
0.0
 100
AcDbRotatedDimension
   0
LINE
   5
3FA
 100
AcDbEntity
   8
LEVEL001
 370
15
 100
AcDbLine
   6
DASHDOT
  62
8
  10
 687.98693282424
  20
 704.86241211145
  30
0.0
  11
 922.16355700187
  21
 939.03903628908
  31
0.0
   0
DIMENSION
   5
3FB
 100
AcDbEntity
   8
LEVEL001
 370
15
   6
CONTINUOUS
  62
8
 100
AcDbDimension
   2
*D28
  10
 937.98693282424
  20
 641.96875466091
  30
0.0
  11
 920.48693282424
  21
 641.96875466091
  31
0.0
  70
0
   3
GMM001
 100
AcDbAlignedDimension
  13
 902.98693282424
  23
 668.64835858021
  33
0.0
  14
 937.98693282424
  24
 674.76266397414
  34
0.0
 100
AcDbRotatedDimension
   0
DIMENSION
   5
3FC
 100
AcDbEntity
   8
LEVEL001
 370
15
   6
CONTINUOUS
  62
8
 100
AcDbDimension
   2
*D29
  10
 669.48012048193
  20
 954.86241211145
  30
0.0
  11
 669.48012048193
  21
 937.36241211145
  31
0.0
  70
0
   3
GMM001
 100
AcDbAlignedDimension
  13
 687.98693282424
  23
 919.86241211145
  33
0.0
  14
 687.98693282424
  24
 954.86241211145
  34
0.0
  50
 90.000000000000
 100
AcDbRotatedDimension
   0
LINE
   5
3FD
 100
AcDbEntity
   8
LEVEL001
 370
15
 100
AcDbLine
   6
DASHDOT
  62
8
  10
 718.48693282424
  20
 935.53467202141
  30
0.0
  11
 718.48693282424
  21
 951.19015220148
  31
0.0
   0
LINE
   5
3FE
 100
AcDbEntity
   8
LEVEL001
 370
15
 100
AcDbLine
   6
DASHDOT
  62
8
  10
 711.17686977023
  20
 943.36241211145
  30
0.0
  11
 725.79699587825
  21
 943.36241211145
  31
0.0
   0
LINE
   5
3FF
 100
AcDbEntity
   8
LEVEL001
 370
15
 100
AcDbLine
   6
DASHDOT
  62
8
  10
 850.12163837030
  20
 920.81483346381
  30
0.0
  11
 850.12163837030
  21
 936.47031364387
  31
0.0
   0
LINE
   5
400
 100
AcDbEntity
   8
LEVEL001
 370
15
 100
AcDbLine
   6
DASHDOT
  62
8
  10
 842.81157531629
  20
 928.64257355384
  30
0.0
  11
 857.43170142431
  21
 928.64257355384
  31
0.0
   0
LINE
   5
401
 100
AcDbEntity
   8
LEVEL001
 370
15
 100
AcDbLine
   6
DASHDOT
  62
8
  10
 911.76709426654
  20
 859.16937756765
  30
0.0
  11
 911.76709426654
  21
 874.82485774771
  31
0.0
   0
LINE
   5
402
 100
AcDbEntity
   8
LEVEL001
 370
15
 100
AcDbLine
   6
DASHDOT
  62
8
  10
 904.45703121253
  20
 866.99711765768
  30
0.0
  11
 919.07715732055
  21
 866.99711765768
  31
0.0
   0
LINE
   5
403
 100
AcDbEntity
   8
LEVEL001
 370
15
 100
AcDbLine
   6
DASHDOT
  62
8
  10
 926.48693282424
  20
 727.53467202141
  30
0.0
  11
 926.48693282424
  21
 743.19015220148
  31
0.0
   0
LINE
   5
404
 100
AcDbEntity
   8
LEVEL001
 370
15
 100
AcDbLine
   6
DASHDOT
  62
8
  10
 919.17686977023
  20
 735.36241211145
  30
0.0
  11
 933.79699587825
  21
 735.36241211145
  31
0.0
   0
DIMENSION
   5
405
 100
AcDbEntity
   8
LEVEL001
 370
15
   6
CONTINUOUS
  62
8
 100
AcDbDimension
   2
*D30
  10
 966.89286014495
  20
 954.86241211145
  30
0.0
  11
 966.89286014495
  21
 829.86241211145
  31
0.0
  70
0
   3
GMM001
 100
AcDbAlignedDimension
  13
 937.98693282424
  23
 704.86241211145
  33
0.0
  14
 787.98693282424
  24
 954.86241211145
  34
0.0
  50
 90.000000000000
 100
AcDbRotatedDimension
   0
DIMENSION
   5
406
 100
AcDbEntity
   8
LEVEL001
 370
15
   6
CONTINUOUS
  62
8
 100
AcDbDimension
   2
*D31
  10
 937.98693282424
  20
 456.00714895357
  30
0.0
  11
 812.98693282424
  21
 456.00714895357
  31
0.0
  70
0
   3
GMM001
 100
AcDbAlignedDimension
  13
 687.98693282424
  23
 408.86241211147
  33
0.0
  14
 937.98693282424
  24
 260.86241211147
  34
0.0
 100
AcDbRotatedDimension
   0
LINE
   5
407
 100
AcDbEntity
   8
LEVEL001
 370
15
 100
AcDbLine
   6
DASHDOT
  62
8
  10
 687.98693282424
  20
 158.86241211147
  30
0.0
  11
 922.16355700187
  21
 393.03903628910
  31
0.0
   0
DIMENSION
   5
408
 100
AcDbEntity
   8
LEVEL001
 370
15
   6
CONTINUOUS
  62
8
 100
AcDbDimension
   2
*D32
  10
 937.98693282424
  20
 95.968754660932
  30
0.0
  11
 920.48693282424
  21
 95.968754660932
  31
0.0
  70
0
   3
GMM001
 100
AcDbAlignedDimension
  13
 902.98693282424
  23
 122.64835858023
  33
0.0
  14
 937.98693282424
  24
 128.76266397416
  34
0.0
 100
AcDbRotatedDimension
   0
DIMENSION
   5
409
 100
AcDbEntity
   8
LEVEL001
 370
15
   6
CONTINUOUS
  62
8
 100
AcDbDimension
   2
*D33
  10
 669.48012048193
  20
 408.86241211147
  30
0.0
  11
 669.48012048193
  21
 391.36241211147
  31
0.0
  70
0
   3
GMM001
 100
AcDbAlignedDimension
  13
 687.98693282424
  23
 373.86241211147
  33
0.0
  14
 687.98693282424
  24
 408.86241211147
  34
0.0
  50
 90.000000000000
 100
AcDbRotatedDimension
   0
DIMENSION
   5
40A
 100
AcDbEntity
   8
LEVEL001
 370
15
   6
CONTINUOUS
  62
8
 100
AcDbDimension
   2
*D34
  10
 966.89286014495
  20
 408.86241211147
  30
0.0
  11
 966.89286014495
  21
 283.86241211147
  31
0.0
  70
0
   3
GMM001
 100
AcDbAlignedDimension
  13
 937.98693282424
  23
 158.86241211147
  33
0.0
  14
 787.98693282424
  24
 408.86241211147
  34
0.0
  50
 90.000000000000
 100
AcDbRotatedDimension
   0
MTEXT
   5
40C
 100
AcDbEntity
   8
LEVEL001
 370
15
  62
8
 100
AcDbMText
  10
 246.78915662631
  20
 1120.0000000000
  30
0.0
  40
 12.000000000000
  41
0.0
  71
5
  72
1
   1
\T1.000000;Ｓ３５ＣＲＨ（穴付）
   7
GMM002
  44
 0.79999984000003
   0
MTEXT
   5
40E
 100
AcDbEntity
   8
LEVEL001
 370
15
  62
8
 100
AcDbMText
  10
 1548.8603382430
  20
 194.66666666672
  30
0.0
  40
 12.000000000000
  41
0.0
  71
5
  72
1
   1
\T1.000000;令和０５年０３月３０日
   7
GMM002
  44
 0.79999984000003
   0
MTEXT
   5
410
 100
AcDbEntity
   8
LEVEL001
 370
15
  62
8
 100
AcDbMText
  10
 1548.8603382430
  20
 168.00000000004
  30
0.0
  40
 12.000000000000
  41
0.0
  71
5
  72
1
   1
\T1.000000;令和　　年　　月　　日
   7
GMM002
  44
 0.79999984000003
   0
MTEXT
   5
412
 100
AcDbEntity
   8
LEVEL001
 370
15
  62
8
 100
AcDbMText
  10
 1548.8603382430
  20
 141.33333333338
  30
0.0
  40
 12.000000000000
  41
0.0
  71
5
  72
1
   1
\T1.000000;令和　　年　　月　　日
   7
GMM002
  44
 0.79999984000003
   0
MTEXT
   5
414
 100
AcDbEntity
   8
LEVEL001
 370
15
  62
8
 100
AcDbMText
  10
 71.999999999800
  20
 546.66666666682
  30
0.0
  40
 8.0000000000000
  41
0.0
  71
1
  72
1
   3
{\W0.500000;\T1.000000;･\W1.000000;\T1.000000;材質：ＳＵＳ４３０}\P{\W0.500000;\T1.000000;･\W1.000000;\T1.000000;仕上：ＨＬ}\P{\W0.500000;\T1.000000;･\W1.000000;\T1.000000;サイズ：２５０\W0.500000;\T1.000000;m/m\W1.000000;\T1.000000;×２５０\W0.50000
   1
0;\T1.000000;m/m}\P{\W0.500000;\T1.000000;･\W1.000000;\T1.000000;適応品番：Ｓ３５１２\W0.500000;\T1.000000;､\W1.000000;\T1.000000;Ｓ３５１２Ａ}
   7
GMM002
  44
 0.79999984000003
   0
MTEXT
   5
416
 100
AcDbEntity
   8
LEVEL001
 370
15
  62
8
 100
AcDbMText
  10
 71.999999999800
  20
 1092.6666666668
  30
0.0
  40
 8.0000000000000
  41
0.0
  71
1
  72
1
   3
{\W0.500000;\T1.000000;･\W1.000000;\T1.000000;材質：ＳＵＳ４３０}\P{\W0.500000;\T1.000000;･\W1.000000;\T1.000000;仕上：ＨＬ}\P{\W0.500000;\T1.000000;･\W1.000000;\T1.000000;サイズ：２５０\W0.500000;\T1.000000;m/m\W1.000000;\T1.000000;×２５０\W0.50000
   1
0;\T1.000000;m/m}\P{\W0.500000;\T1.000000;･\W1.000000;\T1.000000;適応品番：Ｓ３５１２\W0.500000;\T1.000000;､\W1.000000;\T1.000000;Ｓ３５１２Ａ}
   7
GMM002
  44
 0.79999984000003
   0
LINE
   5
417
 100
AcDbEntity
   8
LEVEL001
 370
20
 100
AcDbLine
   6
CONTINUOUS
  62
6
  10
 317.88295462028
  20
 942.86241211145
  30
0.0
  11
 417.88295462028
  21
 942.86241211145
  31
0.0
   0
LINE
   5
418
 100
AcDbEntity
   8
LEVEL001
 370
20
 100
AcDbLine
   6
CONTINUOUS
  62
6
  10
 179.88295462028
  20
 704.86241211145
  30
0.0
  11
 179.88295462028
  21
 804.86241211145
  31
0.0
   0
ARC
   5
419
 100
AcDbEntity
   8
LEVEL001
 370
20
   6
CONTINUOUS
  62
6
 100
AcDbCircle
  10
 317.88295462028
  20
 804.86241211145
  30
0.0
  40
 138.00000000000
 100
AcDbArc
  50
 90.000000000000
  51
 180.00000000000
   0
ARC
   5
41A
 100
AcDbEntity
   8
LEVEL001
 370
20
   6
CONTINUOUS
  62
6
 100
AcDbCircle
  10
 787.98693282424
  20
 804.86241211145
  30
0.0
  40
 127.00000000000
 100
AcDbArc
  50
0.0
  51
 90.000000000000
   0
LINE
   5
41B
 100
AcDbEntity
   8
LEVEL001
 370
20
 100
AcDbLine
   6
CONTINUOUS
  62
6
  10
 787.98693282424
  20
 931.86241211145
  30
0.0
  11
 687.98693282424
  21
 931.86241211145
  31
0.0
   0
LINE
   5
41C
 100
AcDbEntity
   8
LEVEL001
 370
20
 100
AcDbLine
   6
CONTINUOUS
  62
6
  10
 914.98693282424
  20
 704.86241211145
  30
0.0
  11
 914.98693282424
  21
 804.86241211145
  31
0.0
   0
CIRCLE
   5
41D
 100
AcDbEntity
   8
LEVEL001
 370
30
 100
AcDbCircle
   6
CONTINUOUS
  62
7
  10
 387.38295462028
  20
 931.36241211145
  30
0.0
  40
 2.5000000000000
   0
LINE
   5
41E
 100
AcDbEntity
   8
LEVEL001
 370
30
 100
AcDbLine
   6
CONTINUOUS
  62
7
  10
 202.88295462028
  20
 804.86241211145
  30
0.0
  11
 202.88295462028
  21
 704.86241211145
  31
0.0
   0
LINE
   5
41F
 100
AcDbEntity
   8
LEVEL001
 370
30
 100
AcDbLine
   6
CONTINUOUS
  62
7
  10
 202.88295462028
  20
 704.86241211145
  30
0.0
  11
 167.88295462028
  21
 704.86241211145
  31
0.0
   0
LINE
   5
420
 100
AcDbEntity
   8
LEVEL001
 370
30
 100
AcDbLine
   6
CONTINUOUS
  62
7
  10
 167.88295462028
  20
 704.86241211145
  30
0.0
  11
 167.88295462028
  21
 804.86241211145
  31
0.0
   0
LINE
   5
421
 100
AcDbEntity
   8
LEVEL001
 370
30
 100
AcDbLine
   6
CONTINUOUS
  62
7
  10
 317.88295462028
  20
 954.86241211145
  30
0.0
  11
 417.88295462028
  21
 954.86241211145
  31
0.0
   0
LINE
   5
422
 100
AcDbEntity
   8
LEVEL001
 370
30
 100
AcDbLine
   6
CONTINUOUS
  62
7
  10
 417.88295462028
  20
 954.86241211145
  30
0.0
  11
 417.88295462028
  21
 919.86241211145
  31
0.0
   0
LINE
   5
423
 100
AcDbEntity
   8
LEVEL001
 370
30
 100
AcDbLine
   6
CONTINUOUS
  62
7
  10
 417.88295462028
  20
 919.86241211145
  30
0.0
  11
 317.88295462028
  21
 919.86241211145
  31
0.0
   0
CIRCLE
   5
424
 100
AcDbEntity
   8
LEVEL001
 370
30
 100
AcDbCircle
   6
CONTINUOUS
  62
7
  10
 261.13176146809
  20
 917.91793862742
  30
0.0
  40
 2.5000000000000
   0
CIRCLE
   5
425
 100
AcDbEntity
   8
LEVEL001
 370
30
 100
AcDbCircle
   6
CONTINUOUS
  62
7
  10
 204.82742810438
  20
 861.61360526377
  30
0.0
  40
 2.5000000000000
   0
ARC
   5
426
 100
AcDbEntity
   8
LEVEL001
 370
30
   6
CONTINUOUS
  62
7
 100
AcDbCircle
  10
 317.88295462028
  20
 804.86241211145
  30
0.0
  40
 150.00000000000
 100
AcDbArc
  50
 90.000000000000
  51
 180.00000000000
   0
ARC
   5
427
 100
AcDbEntity
   8
LEVEL001
 370
30
   6
CONTINUOUS
  62
7
 100
AcDbCircle
  10
 317.88295462028
  20
 804.86241211145
  30
0.0
  40
 115.00000000000
 100
AcDbArc
  50
 90.000000000000
  51
 180.00000000000
   0
CIRCLE
   5
428
 100
AcDbEntity
   8
LEVEL001
 370
30
 100
AcDbCircle
   6
CONTINUOUS
  62
7
  10
 191.38295462028
  20
 735.36241211145
  30
0.0
  40
 2.5000000000000
   0
LINE
   5
429
 100
AcDbEntity
   8
LEVEL001
 370
30
 100
AcDbLine
   6
CONTINUOUS
  62
7
  10
 179.88295462028
  20
 678.76266397414
  30
0.0
  11
 167.88295462028
  21
 672.64835858021
  31
0.0
   0
LINE
   5
42A
 100
AcDbEntity
   8
LEVEL001
 370
30
 100
AcDbLine
   6
CONTINUOUS
  62
7
  10
 180.17104913118
  20
 677.56266397414
  30
0.0
  11
 168.42774321997
  21
 671.57915075118
  31
0.0
   0
LINE
   5
42B
 100
AcDbEntity
   8
LEVEL001
 370
30
 100
AcDbLine
   6
CONTINUOUS
  62
7
  10
 167.88295462028
  20
 672.64835858021
  30
0.0
  11
 168.42774321997
  21
 671.57915075118
  31
0.0
   0
LINE
   5
42C
 100
AcDbEntity
   8
LEVEL001
 370
30
 100
AcDbLine
   6
CONTINUOUS
  62
7
  10
 179.88295462028
  20
 678.76266397414
  30
0.0
  11
 202.88295462028
  21
 678.76266397414
  31
0.0
   0
LINE
   5
42D
 100
AcDbEntity
   8
LEVEL001
 370
30
 100
AcDbLine
   6
CONTINUOUS
  62
7
  10
 180.17104913118
  20
 677.56266397414
  30
0.0
  11
 202.88295462028
  21
 677.56266397414
  31
0.0
   0
LINE
   5
42E
 100
AcDbEntity
   8
LEVEL001
 370
30
 100
AcDbLine
   6
CONTINUOUS
  62
7
  10
 202.88295462028
  20
 678.76266397414
  30
0.0
  11
 202.88295462028
  21
 677.56266397414
  31
0.0
   0
LINE
   5
42F
 100
AcDbEntity
   8
LEVEL001
 370
30
 100
AcDbLine
   6
CONTINUOUS
  62
7
  10
 902.98693282424
  20
 804.86241211145
  30
0.0
  11
 902.98693282424
  21
 704.86241211145
  31
0.0
   0
LINE
   5
430
 100
AcDbEntity
   8
LEVEL001
 370
30
 100
AcDbLine
   6
CONTINUOUS
  62
7
  10
 902.98693282424
  20
 704.86241211145
  30
0.0
  11
 937.98693282424
  21
 704.86241211145
  31
0.0
   0
LINE
   5
431
 100
AcDbEntity
   8
LEVEL001
 370
30
 100
AcDbLine
   6
CONTINUOUS
  62
7
  10
 937.98693282424
  20
 704.86241211145
  30
0.0
  11
 937.98693282424
  21
 804.86241211145
  31
0.0
   0
LINE
   5
432
 100
AcDbEntity
   8
LEVEL001
 370
30
 100
AcDbLine
   6
CONTINUOUS
  62
7
  10
 787.98693282424
  20
 954.86241211145
  30
0.0
  11
 687.98693282424
  21
 954.86241211145
  31
0.0
   0
LINE
   5
433
 100
AcDbEntity
   8
LEVEL001
 370
30
 100
AcDbLine
   6
CONTINUOUS
  62
7
  10
 687.98693282424
  20
 954.86241211145
  30
0.0
  11
 687.98693282424
  21
 919.86241211145
  31
0.0
   0
LINE
   5
434
 100
AcDbEntity
   8
LEVEL001
 370
30
 100
AcDbLine
   6
CONTINUOUS
  62
7
  10
 687.98693282424
  20
 919.86241211145
  30
0.0
  11
 787.98693282424
  21
 919.86241211145
  31
0.0
   0
ARC
   5
435
 100
AcDbEntity
   8
LEVEL001
 370
30
   6
CONTINUOUS
  62
7
 100
AcDbCircle
  10
 787.98693282424
  20
 804.86241211145
  30
0.0
  40
 150.00000000000
 100
AcDbArc
  50
0.0
  51
 90.000000000000
   0
ARC
   5
436
 100
AcDbEntity
   8
LEVEL001
 370
30
   6
CONTINUOUS
  62
7
 100
AcDbCircle
  10
 787.98693282424
  20
 804.86241211145
  30
0.0
  40
 115.00000000000
 100
AcDbArc
  50
0.0
  51
 90.000000000000
   0
LINE
   5
437
 100
AcDbEntity
   8
LEVEL001
 370
30
 100
AcDbLine
   6
CONTINUOUS
  62
7
  10
 914.98693282424
  20
 678.76266397414
  30
0.0
  11
 902.98693282424
  21
 672.64835858021
  31
0.0
   0
LINE
   5
438
 100
AcDbEntity
   8
LEVEL001
 370
30
 100
AcDbLine
   6
CONTINUOUS
  62
7
  10
 915.27502733514
  20
 677.56266397414
  30
0.0
  11
 903.53172142393
  21
 671.57915075118
  31
0.0
   0
LINE
   5
439
 100
AcDbEntity
   8
LEVEL001
 370
30
 100
AcDbLine
   6
CONTINUOUS
  62
7
  10
 902.98693282424
  20
 672.64835858021
  30
0.0
  11
 903.53172142393
  21
 671.57915075118
  31
0.0
   0
LINE
   5
43A
 100
AcDbEntity
   8
LEVEL001
 370
30
 100
AcDbLine
   6
CONTINUOUS
  62
7
  10
 914.98693282424
  20
 678.76266397414
  30
0.0
  11
 937.98693282424
  21
 678.76266397414
  31
0.0
   0
LINE
   5
43B
 100
AcDbEntity
   8
LEVEL001
 370
30
 100
AcDbLine
   6
CONTINUOUS
  62
7
  10
 915.27502733514
  20
 677.56266397414
  30
0.0
  11
 937.98693282424
  21
 677.56266397414
  31
0.0
   0
LINE
   5
43C
 100
AcDbEntity
   8
LEVEL001
 370
30
 100
AcDbLine
   6
CONTINUOUS
  62
7
  10
 937.98693282424
  20
 678.76266397414
  30
0.0
  11
 937.98693282424
  21
 677.56266397414
  31
0.0
   0
CIRCLE
   5
43D
 100
AcDbEntity
   8
LEVEL001
 370
30
 100
AcDbCircle
   6
CONTINUOUS
  62
7
  10
 926.48693282424
  20
 735.36241211145
  30
0.0
  40
 2.5000000000000
   0
CIRCLE
   5
43E
 100
AcDbEntity
   8
LEVEL001
 370
30
 100
AcDbCircle
   6
CONTINUOUS
  62
7
  10
 911.76709426654
  20
 866.99711765768
  30
0.0
  40
 2.5000000000000
   0
CIRCLE
   5
43F
 100
AcDbEntity
   8
LEVEL001
 370
30
 100
AcDbCircle
   6
CONTINUOUS
  62
7
  10
 850.12163837030
  20
 928.64257355384
  30
0.0
  40
 2.5000000000000
   0
CIRCLE
   5
440
 100
AcDbEntity
   8
LEVEL001
 370
30
 100
AcDbCircle
   6
CONTINUOUS
  62
7
  10
 718.48693282424
  20
 943.36241211145
  30
0.0
  40
 2.5000000000000
   0
CIRCLE
   5
441
 100
AcDbEntity
   8
LEVEL001
 370
20
 100
AcDbCircle
   6
CONTINUOUS
  62
6
  10
 191.38295462028
  20
 735.36241211145
  30
0.0
  40
 3.5000000000000
   0
CIRCLE
   5
442
 100
AcDbEntity
   8
LEVEL001
 370
20
 100
AcDbCircle
   6
CONTINUOUS
  62
6
  10
 200.41129593519
  20
 744.21119764534
  30
0.0
  40
 3.5000000000000
   0
CIRCLE
   5
443
 100
AcDbEntity
   8
LEVEL001
 370
20
 100
AcDbCircle
   6
CONTINUOUS
  62
6
  10
 200.41129593519
  20
 744.21119764534
  30
0.0
  40
 3.5000000000000
   0
CIRCLE
   5
444
 100
AcDbEntity
   8
LEVEL001
 370
20
 100
AcDbCircle
   6
CONTINUOUS
  62
6
  10
 204.82742810438
  20
 861.61360526377
  30
0.0
  40
 3.5000000000000
   0
CIRCLE
   5
445
 100
AcDbEntity
   8
LEVEL001
 370
20
 100
AcDbCircle
   6
CONTINUOUS
  62
6
  10
 261.13176146809
  20
 917.91793862742
  30
0.0
  40
 3.5000000000000
   0
CIRCLE
   5
446
 100
AcDbEntity
   8
LEVEL001
 370
20
 100
AcDbCircle
   6
CONTINUOUS
  62
6
  10
 387.38295462028
  20
 931.36241211145
  30
0.0
  40
 3.5000000000000
   0
CIRCLE
   5
447
 100
AcDbEntity
   8
LEVEL001
 370
20
 100
AcDbCircle
   6
CONTINUOUS
  62
6
  10
 718.48693282424
  20
 943.36241211145
  30
0.0
  40
 3.5000000000000
   0
CIRCLE
   5
448
 100
AcDbEntity
   8
LEVEL001
 370
20
 100
AcDbCircle
   6
CONTINUOUS
  62
6
  10
 850.12163837030
  20
 928.64257355384
  30
0.0
  40
 3.5000000000000
   0
CIRCLE
   5
449
 100
AcDbEntity
   8
LEVEL001
 370
20
 100
AcDbCircle
   6
CONTINUOUS
  62
6
  10
 911.76709426654
  20
 866.99711765768
  30
0.0
  40
 3.5000000000000
   0
CIRCLE
   5
44A
 100
AcDbEntity
   8
LEVEL001
 370
20
 100
AcDbCircle
   6
CONTINUOUS
  62
6
  10
 926.48693282424
  20
 735.36241211145
  30
0.0
  40
 3.5000000000000
   0
LINE
   5
44B
 100
AcDbEntity
   8
LEVEL001
 370
20
 100
AcDbLine
   6
CONTINUOUS
  62
6
  10
 317.88295462028
  20
 396.86241211147
  30
0.0
  11
 417.88295462028
  21
 396.86241211147
  31
0.0
   0
LINE
   5
44C
 100
AcDbEntity
   8
LEVEL001
 370
20
 100
AcDbLine
   6
CONTINUOUS
  62
6
  10
 179.88295462028
  20
 158.86241211147
  30
0.0
  11
 179.88295462028
  21
 258.86241211147
  31
0.0
   0
ARC
   5
44D
 100
AcDbEntity
   8
LEVEL001
 370
20
   6
CONTINUOUS
  62
6
 100
AcDbCircle
  10
 317.88295462028
  20
 258.86241211147
  30
0.0
  40
 138.00000000000
 100
AcDbArc
  50
 90.000000000000
  51
 180.00000000000
   0
ARC
   5
44E
 100
AcDbEntity
   8
LEVEL001
 370
20
   6
CONTINUOUS
  62
6
 100
AcDbCircle
  10
 787.98693282424
  20
 258.86241211147
  30
0.0
  40
 127.00000000000
 100
AcDbArc
  50
0.0
  51
 90.000000000000
   0
LINE
   5
44F
 100
AcDbEntity
   8
LEVEL001
 370
20
 100
AcDbLine
   6
CONTINUOUS
  62
6
  10
 787.98693282424
  20
 385.86241211147
  30
0.0
  11
 687.98693282424
  21
 385.86241211147
  31
0.0
   0
LINE
   5
450
 100
AcDbEntity
   8
LEVEL001
 370
20
 100
AcDbLine
   6
CONTINUOUS
  62
6
  10
 914.98693282424
  20
 158.86241211147
  30
0.0
  11
 914.98693282424
  21
 258.86241211147
  31
0.0
   0
LINE
   5
451
 100
AcDbEntity
   8
LEVEL001
 370
30
 100
AcDbLine
   6
CONTINUOUS
  62
7
  10
 202.88295462028
  20
 258.86241211147
  30
0.0
  11
 202.88295462028
  21
 158.86241211147
  31
0.0
   0
LINE
   5
452
 100
AcDbEntity
   8
LEVEL001
 370
30
 100
AcDbLine
   6
CONTINUOUS
  62
7
  10
 202.88295462028
  20
 158.86241211147
  30
0.0
  11
 167.88295462028
  21
 158.86241211147
  31
0.0
   0
LINE
   5
453
 100
AcDbEntity
   8
LEVEL001
 370
30
 100
AcDbLine
   6
CONTINUOUS
  62
7
  10
 167.88295462028
  20
 158.86241211147
  30
0.0
  11
 167.88295462028
  21
 258.86241211147
  31
0.0
   0
LINE
   5
454
 100
AcDbEntity
   8
LEVEL001
 370
30
 100
AcDbLine
   6
CONTINUOUS
  62
7
  10
 317.88295462028
  20
 408.86241211147
  30
0.0
  11
 417.88295462028
  21
 408.86241211147
  31
0.0
   0
LINE
   5
455
 100
AcDbEntity
   8
LEVEL001
 370
30
 100
AcDbLine
   6
CONTINUOUS
  62
7
  10
 417.88295462028
  20
 408.86241211147
  30
0.0
  11
 417.88295462028
  21
 373.86241211147
  31
0.0
   0
LINE
   5
456
 100
AcDbEntity
   8
LEVEL001
 370
30
 100
AcDbLine
   6
CONTINUOUS
  62
7
  10
 417.88295462028
  20
 373.86241211147
  30
0.0
  11
 317.88295462028
  21
 373.86241211147
  31
0.0
   0
ARC
   5
457
 100
AcDbEntity
   8
LEVEL001
 370
30
   6
CONTINUOUS
  62
7
 100
AcDbCircle
  10
 317.88295462028
  20
 258.86241211147
  30
0.0
  40
 150.00000000000
 100
AcDbArc
  50
 90.000000000000
  51
 180.00000000000
   0
ARC
   5
458
 100
AcDbEntity
   8
LEVEL001
 370
30
   6
CONTINUOUS
  62
7
 100
AcDbCircle
  10
 317.88295462028
  20
 258.86241211147
  30
0.0
  40
 115.00000000000
 100
AcDbArc
  50
 90.000000000000
  51
 180.00000000000
   0
LINE
   5
459
 100
AcDbEntity
   8
LEVEL001
 370
30
 100
AcDbLine
   6
CONTINUOUS
  62
7
  10
 179.88295462028
  20
 132.76266397416
  30
0.0
  11
 167.88295462028
  21
 126.64835858023
  31
0.0
   0
LINE
   5
45A
 100
AcDbEntity
   8
LEVEL001
 370
30
 100
AcDbLine
   6
CONTINUOUS
  62
7
  10
 180.17104913118
  20
 131.56266397416
  30
0.0
  11
 168.42774321997
  21
 125.57915075120
  31
0.0
   0
LINE
   5
45B
 100
AcDbEntity
   8
LEVEL001
 370
30
 100
AcDbLine
   6
CONTINUOUS
  62
7
  10
 167.88295462028
  20
 126.64835858023
  30
0.0
  11
 168.42774321997
  21
 125.57915075120
  31
0.0
   0
LINE
   5
45C
 100
AcDbEntity
   8
LEVEL001
 370
30
 100
AcDbLine
   6
CONTINUOUS
  62
7
  10
 179.88295462028
  20
 132.76266397416
  30
0.0
  11
 202.88295462028
  21
 132.76266397416
  31
0.0
   0
LINE
   5
45D
 100
AcDbEntity
   8
LEVEL001
 370
30
 100
AcDbLine
   6
CONTINUOUS
  62
7
  10
 180.17104913118
  20
 131.56266397416
  30
0.0
  11
 202.88295462028
  21
 131.56266397416
  31
0.0
   0
LINE
   5
45E
 100
AcDbEntity
   8
LEVEL001
 370
30
 100
AcDbLine
   6
CONTINUOUS
  62
7
  10
 202.88295462028
  20
 132.76266397416
  30
0.0
  11
 202.88295462028
  21
 131.56266397416
  31
0.0
   0
LINE
   5
45F
 100
AcDbEntity
   8
LEVEL001
 370
30
 100
AcDbLine
   6
CONTINUOUS
  62
7
  10
 902.98693282424
  20
 258.86241211147
  30
0.0
  11
 902.98693282424
  21
 158.86241211147
  31
0.0
   0
LINE
   5
460
 100
AcDbEntity
   8
LEVEL001
 370
30
 100
AcDbLine
   6
CONTINUOUS
  62
7
  10
 902.98693282424
  20
 158.86241211147
  30
0.0
  11
 937.98693282424
  21
 158.86241211147
  31
0.0
   0
LINE
   5
461
 100
AcDbEntity
   8
LEVEL001
 370
30
 100
AcDbLine
   6
CONTINUOUS
  62
7
  10
 937.98693282424
  20
 158.86241211147
  30
0.0
  11
 937.98693282424
  21
 258.86241211147
  31
0.0
   0
LINE
   5
462
 100
AcDbEntity
   8
LEVEL001
 370
30
 100
AcDbLine
   6
CONTINUOUS
  62
7
  10
 787.98693282424
  20
 408.86241211147
  30
0.0
  11
 687.98693282424
  21
 408.86241211147
  31
0.0
   0
LINE
   5
463
 100
AcDbEntity
   8
LEVEL001
 370
30
 100
AcDbLine
   6
CONTINUOUS
  62
7
  10
 687.98693282424
  20
 408.86241211147
  30
0.0
  11
 687.98693282424
  21
 373.86241211147
  31
0.0
   0
LINE
   5
464
 100
AcDbEntity
   8
LEVEL001
 370
30
 100
AcDbLine
   6
CONTINUOUS
  62
7
  10
 687.98693282424
  20
 373.86241211147
  30
0.0
  11
 787.98693282424
  21
 373.86241211147
  31
0.0
   0
ARC
   5
465
 100
AcDbEntity
   8
LEVEL001
 370
30
   6
CONTINUOUS
  62
7
 100
AcDbCircle
  10
 787.98693282424
  20
 258.86241211147
  30
0.0
  40
 150.00000000000
 100
AcDbArc
  50
0.0
  51
 90.000000000000
   0
ARC
   5
466
 100
AcDbEntity
   8
LEVEL001
 370
30
   6
CONTINUOUS
  62
7
 100
AcDbCircle
  10
 787.98693282424
  20
 258.86241211147
  30
0.0
  40
 115.00000000000
 100
AcDbArc
  50
0.0
  51
 90.000000000000
   0
LINE
   5
467
 100
AcDbEntity
   8
LEVEL001
 370
30
 100
AcDbLine
   6
CONTINUOUS
  62
7
  10
 914.98693282424
  20
 132.76266397416
  30
0.0
  11
 902.98693282424
  21
 126.64835858023
  31
0.0
   0
LINE
   5
468
 100
AcDbEntity
   8
LEVEL001
 370
30
 100
AcDbLine
   6
CONTINUOUS
  62
7
  10
 915.27502733514
  20
 131.56266397416
  30
0.0
  11
 903.53172142393
  21
 125.57915075120
  31
0.0
   0
LINE
   5
469
 100
AcDbEntity
   8
LEVEL001
 370
30
 100
AcDbLine
   6
CONTINUOUS
  62
7
  10
 902.98693282424
  20
 126.64835858023
  30
0.0
  11
 903.53172142393
  21
 125.57915075120
  31
0.0
   0
LINE
   5
46A
 100
AcDbEntity
   8
LEVEL001
 370
30
 100
AcDbLine
   6
CONTINUOUS
  62
7
  10
 914.98693282424
  20
 132.76266397416
  30
0.0
  11
 937.98693282424
  21
 132.76266397416
  31
0.0
   0
LINE
   5
46B
 100
AcDbEntity
   8
LEVEL001
 370
30
 100
AcDbLine
   6
CONTINUOUS
  62
7
  10
 915.27502733514
  20
 131.56266397416
  30
0.0
  11
 937.98693282424
  21
 131.56266397416
  31
0.0
   0
LINE
   5
46C
 100
AcDbEntity
   8
LEVEL001
 370
30
 100
AcDbLine
   6
CONTINUOUS
  62
7
  10
 937.98693282424
  20
 132.76266397416
  30
0.0
  11
 937.98693282424
  21
 131.56266397416
  31
0.0
   0
MTEXT
   5
46E
 100
AcDbEntity
   8
LEVEL001
 370
15
  62
8
 100
AcDbMText
  10
 1417.9999999998
  20
 907.00000000000
  30
0.0
  40
 16.000000000000
  41
0.0
  71
5
  72
1
   1
\W1.000000;\T1.000000;部材①（Ｓ３５ＣＲＨ\W0.500000;\T1.000000;/\W1.000000;\T1.000000;Ｓ３５ＣＲ）
   7
GMM002
  44
 0.79999984000003
   0
MTEXT
   5
470
 100
AcDbEntity
   8
LEVEL001
 370
15
  62
8
 100
AcDbMText
  10
 121.62416331994
  20
 1024.1279785810
  30
0.0
  40
 12.000000000000
  41
0.0
  71
5
  72
1
   1
\T1.000000;出　隅
   7
GMM002
  44
 0.79999984000003
   0
MTEXT
   5
472
 100
AcDbEntity
   8
LEVEL001
 370
15
  62
8
 100
AcDbMText
  10
 641.72814152391
  20
 1024.1279785810
  30
0.0
  40
 12.000000000000
  41
0.0
  71
5
  72
1
   1
\T1.000000;入　隅
   7
GMM002
  44
 0.79999984000003
   0
MTEXT
   5
474
 100
AcDbEntity
   8
LEVEL001
 370
15
  62
8
 100
AcDbMText
  10
 121.62416331994
  20
 478.12797858101
  30
0.0
  40
 12.000000000000
  41
0.0
  71
5
  72
1
   1
\T1.000000;出　隅
   7
GMM002
  44
 0.79999984000003
   0
MTEXT
   5
476
 100
AcDbEntity
   8
LEVEL001
 370
15
  62
8
 100
AcDbMText
  10
 641.72814152391
  20
 478.12797858101
  30
0.0
  40
 12.000000000000
  41
0.0
  71
5
  72
1
   1
\T1.000000;入　隅
   7
GMM002
  44
 0.79999984000003
   0
LEADER
   5
477
 100
AcDbEntity
   8
LEVEL001
 370
15
   6
CONTINUOUS
  62
8
 100
AcDbLeader
   3
GMM002
  73
0
  74
0
  75
0
  40
 10.000000000000
  41
 100.00000000000
  76
2
  10
 387.38295462028
  20
 927.86241211145
  30
0.0
  10
 406.92052168861
  20
 891.94844175190
  30
0.0
  77
8
 340
478
 213
0.0
 223
-4.0000000000000
 233
0.0
   0
MTEXT
   5
478
 102
{ACAD_REACTORS
 330
477
 102
}
 100
AcDbEntity
   8
LEVEL001
 370
15
  62
8
 100
AcDbMText
  10
 406.92052168861
  20
 895.94844175190
  30
0.0
  40
 10.000000000000
  41
0.0
  71
7
  72
1
   1
\A1;４－下穴%%c５／皿%%c７
   7
GMM002
   0
LEADER
   5
479
 100
AcDbEntity
   8
LEVEL001
 370
15
   6
CONTINUOUS
  62
8
 100
AcDbLeader
   3
GMM002
  73
0
  74
1
  75
0
  40
 10.000000000000
  41
 100.00000000000
  76
2
  10
 718.48693282424
  20
 939.86241211145
  30
0.0
  10
 691.83668429646
  20
 891.94844175190
  30
0.0
  77
8
 340
47A
 213
0.0
 223
-4.0000000000001
 233
0.0
   0
MTEXT
   5
47A
 102
{ACAD_REACTORS
 330
479
 102
}
 100
AcDbEntity
   8
LEVEL001
 370
15
  62
8
 100
AcDbMText
  10
 591.83668429646
  20
 895.94844175190
  30
0.0
  40
 10.000000000000
  41
0.0
  71
7
  72
1
   1
\A1;４－下穴%%c５／皿%%c７
   7
GMM002
   0
MTEXT
   5
47C
 100
AcDbEntity
   8
LEVEL001
 370
15
  62
8
 100
AcDbMText
  10
 1277.9999999998
  20
 831.66666666680
  30
0.0
  40
 14.000000000000
  41
0.0
  71
1
  72
1
   1
{\W0.500000;\T1.000000;･\W1.000000;\T1.000000;ステンレス：ＳＵＳ３０４}\P{\W0.500000;\T1.000000; }\P{\W0.500000;\T1.000000; \W1.000000;\T1.000000;仕上げ：ＨＬ}
   7
GMM002
  44
 0.79999984000003
   0
ENDSEC
  0
SECTION
  2
OBJECTS
  0
DICTIONARY
  5
C
100
AcDbDictionary
  3
ACAD_GROUP
350
D
  3
ACAD_MLINESTYLE
350
1B
  3
DWGPROPS
350
1C
  0
DICTIONARY
  5
D
102
{ACAD_REACTORS
330
C
102
}
100
AcDbDictionary
  0
DICTIONARY
  5
1B
102
{ACAD_REACTORS
330
C
102
}
100
AcDbDictionary
  3
STANDARD
350
1D
  0
MLINESTYLE
  5
1D
102
{ACAD_REACTORS
330
1B
102
}
100
AcDbMlineStyle
  2
STANDARD
 70
     0
  3

 62
   256
 51
90.0
 52
90.0
 71
     2
 49
0.5
 62
   256
  6
BYLAYER
 49
-0.5
 62
   256
  6
BYLAYER
   0
XRECORD
   5
1C
 102
{ACAD_REACTORS
 330
C
 102
}
 330
C
 100
AcDbXrecord
 280
1
   1
DWGPROPS COOKIE
   2
 
   3
 
   4
 
   6
 
   7
00000000.DRW
   8
 
   9

 300
 = 
 301
 = 
 302
 = 
 303
 = 
 304
 = 
 305
 = 
 306
 = 
 307
 = 
 308
 = 
 309
 = 
  40
0.0
  41
 2460114.5000000
  42
 2460114.5000000
   1

  90
10
   0
ENDSEC
   0
EOF
