   0
SECTION
   2
HEADER
   9
$ACADVER
   1
AC1015
   9
$DWGCODEPAGE
   3
ANSI_932
   9
$LIMMIN
  10
0.0
  20
0.0
   9
$LIMMAX
  10
 840.00000000000
  20
 594.00000000000
   9
$EXTMIN
  10
0.0
  20
0.0
  30
0.0
   9
$EXTMAX
  10
 840.00000000000
  20
 594.00000000000
  30
0.0
   9
$LTSCALE
  40
 16.800000000000
   9
$HANDSEED
   5
51E
   0
ENDSEC
   0
SECTION
   2
TABLES
  0
TABLE
  2
VPORT
  5
8
100
AcDbSymbolTable
 70
     1
  0
VPORT
  5
51D
100
AcDbSymbolTableRecord
100
AcDbViewportTableRecord
  2
*ACTIVE
 70
     0
 10
0.0
 20
0.0
 11
1.0
 21
1.0
  12
 420.00000000000
  22
 297.00000000000
 13
0.0
 23
0.0
 14
1.0
 24
1.0
 15
0.0
 25
0.0
 16
0.0
 26
0.0
 36
1.0
 17
0.0
 27
0.0
 37
0.0
  40
 840.00000000000
  41
 1.4787878787879
 42
50.0
 43
0.0
 44
0.0
 50
0.0
 51
0.0
 71
     0
 72
   100
 73
     1
 74
     1
 75
     0
 76
     0
 77
     0
 78
     0
  0
ENDTAB
  0
TABLE
  2
LTYPE
  5
5
100
AcDbSymbolTable
 70
    25
  0
LTYPE
  5
12
100
AcDbSymbolTableRecord
100
AcDbLinetypeTableRecord
  2
BYBLOCK
 70
     0
  3

 72
    65
 73
     0
 40
0.0
  0
LTYPE
  5
13
100
AcDbSymbolTableRecord
100
AcDbLinetypeTableRecord
  2
BYLAYER
 70
     0
  3

 72
    65
 73
     0
 40
0.0
  0
LTYPE
  5
14
100
AcDbSymbolTableRecord
100
AcDbLinetypeTableRecord
  2
CONTINUOUS
 70
     0
  3
Solid line
 72
    65
 73
     0
 40
0.0
  0
LTYPE
  5
20
100
AcDbSymbolTableRecord
100
AcDbLinetypeTableRecord
  2
BORDER
 70
     0
  3
__ __ . __ __ . __ __ . __ __ . __ __ . __ __ .
 72
    65
 73
     6
 40
1.75
 49
0.5
 74
     0
 49
-0.25
 74
     0
 49
0.5
 74
     0
 49
-0.25
 74
     0
 49
0.0
 74
     0
 49
-0.25
 74
     0
  0
LTYPE
  5
21
100
AcDbSymbolTableRecord
100
AcDbLinetypeTableRecord
  2
BORDER2
 70
     0
  3
__.__.__.__.__.__.__.__.__.__.__.__.__.__.__.__
 72
    65
 73
     6
 40
0.875
 49
0.25
 74
     0
 49
-0.125
 74
     0
 49
0.25
 74
     0
 49
-0.125
 74
     0
 49
0.0
 74
     0
 49
-0.125
 74
     0
  0
LTYPE
  5
22
100
AcDbSymbolTableRecord
100
AcDbLinetypeTableRecord
  2
BORDERX2
 70
     0
  3
____  ____  .  ____  ____  .  ____  ____  .  __
 72
    65
 73
     6
 40
3.5
 49
1.0
 74
     0
 49
-0.5
 74
     0
 49
1.0
 74
     0
 49
-0.5
 74
     0
 49
0.0
 74
     0
 49
-0.5
 74
     0
  0
LTYPE
  5
23
100
AcDbSymbolTableRecord
100
AcDbLinetypeTableRecord
  2
CENTER
 70
     0
  3
____ _ ____ _ ____ _ ____ _ ____ _ ____ _ ____ 
 72
    65
 73
     4
 40
2.0
 49
1.25
 74
     0
 49
-0.25
 74
     0
 49
0.25
 74
     0
 49
-0.25
 74
     0
  0
LTYPE
  5
24
100
AcDbSymbolTableRecord
100
AcDbLinetypeTableRecord
  2
CENTER2
 70
     0
  3
___ _ ___ _ ___ _ ___ _ ___ _ ___ _ ___ _ ___ _
 72
    65
 73
     4
 40
1.125
 49
0.75
 74
     0
 49
-0.125
 74
     0
 49
0.125
 74
     0
 49
-0.125
 74
     0
  0
LTYPE
  5
25
100
AcDbSymbolTableRecord
100
AcDbLinetypeTableRecord
  2
CENTERX2
 70
     0
  3
________  __  ________  __  ________  __  _____
 72
    65
 73
     4
 40
4.0
 49
2.5
 74
     0
 49
-0.5
 74
     0
 49
0.5
 74
     0
 49
-0.5
 74
     0
  0
LTYPE
  5
26
100
AcDbSymbolTableRecord
100
AcDbLinetypeTableRecord
  2
DASHDOT
 70
     0
  3
__ . __ . __ . __ . __ . __ . __ . __ . __ . __
 72
    65
 73
     4
 40
1.0
 49
0.5
 74
     0
 49
-0.25
 74
     0
 49
0.0
 74
     0
 49
-0.25
 74
     0
  0
LTYPE
  5
27
100
AcDbSymbolTableRecord
100
AcDbLinetypeTableRecord
  2
DASHDOT2
 70
     0
  3
_._._._._._._._._._._._._._._._._._._._._._._._
 72
    65
 73
     4
 40
0.5
 49
0.25
 74
     0
 49
-0.125
 74
     0
 49
0.0
 74
     0
 49
-0.125
 74
     0
  0
LTYPE
  5
28
100
AcDbSymbolTableRecord
100
AcDbLinetypeTableRecord
  2
DASHDOTX2
 70
     0
  3
____  .  ____  .  ____  .  ____  .  ____  .  __
 72
    65
 73
     4
 40
2.0
 49
1.0
 74
     0
 49
-0.5
 74
     0
 49
0.0
 74
     0
 49
-0.5
 74
     0
  0
LTYPE
  5
29
100
AcDbSymbolTableRecord
100
AcDbLinetypeTableRecord
  2
DASHED
 70
     0
  3
__ __ __ __ __ __ __ __ __ __ __ __ __ __ __ __
 72
    65
 73
     2
 40
0.75
 49
0.5
 74
     0
 49
-0.25
 74
     0
  0
LTYPE
  5
2A
100
AcDbSymbolTableRecord
100
AcDbLinetypeTableRecord
  2
DASHED2
 70
     0
  3
_ _ _ _ _ _ _ _ _ _ _ _ _ _ _ _ _ _ _ _ _ _ _ _
 72
    65
 73
     2
 40
0.375
 49
0.25
 74
     0
 49
-0.125
 74
     0
  0
LTYPE
  5
2B
100
AcDbSymbolTableRecord
100
AcDbLinetypeTableRecord
  2
DASHEDX2
 70
     0
  3
____  ____  ____  ____  ____  ____  ____  ____ 
 72
    65
 73
     2
 40
1.5
 49
1.0
 74
     0
 49
-0.5
 74
     0
  0
LTYPE
  5
2C
100
AcDbSymbolTableRecord
100
AcDbLinetypeTableRecord
  2
DIVIDE
 70
     0
  3
____ . . ____ . . ____ . . ____ . . ____ . . __
 72
    65
 73
     6
 40
1.25
 49
0.5
 74
     0
 49
-0.25
 74
     0
 49
0.0
 74
     0
 49
-0.25
 74
     0
 49
0.0
 74
     0
 49
-0.25
 74
     0
  0
LTYPE
  5
2D
100
AcDbSymbolTableRecord
100
AcDbLinetypeTableRecord
  2
DIVIDE2
 70
     0
  3
__..__..__..__..__..__..__..__..__..__..__..__.
 72
    65
 73
     6
 40
0.625
 49
0.25
 74
     0
 49
-0.125
 74
     0
 49
0.0
 74
     0
 49
-0.125
 74
     0
 49
0.0
 74
     0
 49
-0.125
 74
     0
  0
LTYPE
  5
2E
100
AcDbSymbolTableRecord
100
AcDbLinetypeTableRecord
  2
DIVIDEX2
 70
     0
  3
________  .  .  ________  .  .  ________  .  . 
 72
    65
 73
     6
 40
2.5
 49
1.0
 74
     0
 49
-0.5
 74
     0
 49
0.0
 74
     0
 49
-0.5
 74
     0
 49
0.0
 74
     0
 49
-0.5
 74
     0
  0
LTYPE
  5
2F
100
AcDbSymbolTableRecord
100
AcDbLinetypeTableRecord
  2
DOT
 70
     0
  3
. . . . . . . . . . . . . . . . . . . . . . . .
 72
    65
 73
     2
 40
0.25
 49
0.0
 74
     0
 49
-0.25
 74
     0
  0
LTYPE
  5
30
100
AcDbSymbolTableRecord
100
AcDbLinetypeTableRecord
  2
DOT2
 70
     0
  3
...............................................
 72
    65
 73
     2
 40
0.125
 49
0.0
 74
     0
 49
-0.125
 74
     0
  0
LTYPE
  5
31
100
AcDbSymbolTableRecord
100
AcDbLinetypeTableRecord
  2
DOTX2
 70
     0
  3
.  .  .  .  .  .  .  .  .  .  .  .  .  .  .  . 
 72
    65
 73
     2
 40
0.5
 49
0.0
 74
     0
 49
-0.5
 74
     0
  0
LTYPE
  5
32
100
AcDbSymbolTableRecord
100
AcDbLinetypeTableRecord
  2
HIDDEN
 70
     0
  3
__ __ __ __ __ __ __ __ __ __ __ __ __ __ __ __
 72
    65
 73
     2
 40
0.375
 49
0.25
 74
     0
 49
-0.125
 74
     0
  0
LTYPE
  5
33
100
AcDbSymbolTableRecord
100
AcDbLinetypeTableRecord
  2
HIDDEN2
 70
     0
  3
_ _ _ _ _ _ _ _ _ _ _ _ _ _ _ _ _ _ _ _ _ _ _ _
 72
    65
 73
     2
 40
0.1875
 49
0.125
 74
     0
 49
-0.0625
 74
     0
  0
LTYPE
  5
34
100
AcDbSymbolTableRecord
100
AcDbLinetypeTableRecord
  2
HIDDENX2
 70
     0
  3
____ ____ ____ ____ ____ ____ ____ ____ ____ __
 72
    65
 73
     2
 40
0.75
 49
0.5
 74
     0
 49
-0.25
 74
     0
  0
LTYPE
  5
35
100
AcDbSymbolTableRecord
100
AcDbLinetypeTableRecord
  2
PHANTOM
 70
     0
  3
______  __  __  ______  __  __  ______  __  __ 
 72
    65
 73
     6
 40
2.5
 49
1.25
 74
     0
 49
-0.25
 74
     0
 49
0.25
 74
     0
 49
-0.25
 74
     0
 49
0.25
 74
     0
 49
-0.25
 74
     0
  0
LTYPE
  5
36
100
AcDbSymbolTableRecord
100
AcDbLinetypeTableRecord
  2
PHANTOM2
 70
     0
  3
___ _ _ ___ _ _ ___ _ _ ___ _ _ ___ _ _ ___ _ _
 72
    65
 73
     6
 40
1.25
 49
0.625
 74
     0
 49
-0.125
 74
     0
 49
0.125
 74
     0
 49
-0.125
 74
     0
 49
0.125
 74
     0
 49
-0.125
 74
     0
  0
LTYPE
  5
37
100
AcDbSymbolTableRecord
100
AcDbLinetypeTableRecord
  2
PHANTOMX2
 70
     0
  3
____________    ____    ____    ____________   
 72
    65
 73
     6
 40
5.0
 49
2.5
 74
     0
 49
-0.5
 74
     0
 49
0.5
 74
     0
 49
-0.5
 74
     0
 49
0.5
 74
     0
 49
-0.5
 74
     0
  0
ENDTAB
   0
TABLE
   2
LAYER
   5
2
 100
AcDbSymbolTable
  70
3
   0
LAYER
   5
E
 100
AcDbSymbolTableRecord
 100
AcDbLayerTableRecord
   2
0
  70
0
  62
7
   6
CONTINUOUS
 390
30
   0
LAYER
   5
39
 100
AcDbSymbolTableRecord
 100
AcDbLayerTableRecord
   2
LEVEL001
  70
0
  62
7
   6
CONTINUOUS
 390
30
   0
LAYER
   5
3A
 100
AcDbSymbolTableRecord
 100
AcDbLayerTableRecord
   2
LEVEL002
  70
0
  62
7
   6
CONTINUOUS
 390
30
   0
ENDTAB
  0
TABLE
  2
STYLE
  5
3
100
AcDbSymbolTable
  70
5
  0
STYLE
  5
F
100
AcDbSymbolTableRecord
100
AcDbTextStyleTableRecord
  2
STANDARD
 70
     0
 40
0.0
 41
1.0
 50
0.0
 71
     0
 42
0.2
  3
TXT
  4
BIGFONT
  0
STYLE
  5
38
100
AcDbSymbolTableRecord
100
AcDbTextStyleTableRecord
  2
STANDARD1
 70
     4
 40
0.0
 41
1.0
 50
0.0
 71
     0
 42
0.2
  3
TXT
  4
BIGFONT
   0
STYLE
   5
3B
 100
AcDbSymbolTableRecord
 100
AcDbTextStyleTableRecord
   2
GMM001
  70
0
  40
0.0
  41
 1.0000000000000
  50
0.0
  71
     0
  42
1.0
   3
txt.shx
   4
bigfont.shx
   0
STYLE
   5
3C
 100
AcDbSymbolTableRecord
 100
AcDbTextStyleTableRecord
   2
GMM002
  70
0
  40
0.0
  41
 1.0714285714286
  50
0.0
  71
     0
  42
1.0
   3
txt.shx
   4
bigfont.shx
   0
STYLE
   5
3D
 100
AcDbSymbolTableRecord
 100
AcDbTextStyleTableRecord
   2
GMM003
  70
0
  40
0.0
  41
 0.80000000000000
  50
0.0
  71
     0
  42
1.0
   3
txt.shx
   4
bigfont.shx
   0
ENDTAB
  0
TABLE
  2
VIEW
  5
6
100
AcDbSymbolTable
 70
     0
  0
ENDTAB
  0
TABLE
  2
UCS
  5
7
100
AcDbSymbolTable
 70
     0
  0
ENDTAB
  0
TABLE
  2
APPID
  5
9
100
AcDbSymbolTable
 70
     1
  0
APPID
  5
10
100
AcDbSymbolTableRecord
100
AcDbRegAppTableRecord
  2
ACAD
 70
     0
  0
ENDTAB
   0
TABLE
   2
DIMSTYLE
   5
A
 100
AcDbSymbolTable
  70
7
 100
AcDbDimStyleTable
  0
DIMSTYLE
105
1D
100
AcDbSymbolTableRecord
100
AcDbDimStyleTableRecord
  2
STANDARD
 70
     0
  3

  4

  5

  6

  7

 40
1.0
 41
0.18
 42
0.0625
 43
0.38
 44
0.18
 45
0.0
 46
0.0
 47
0.0
 48
0.0
140
0.18
141
0.09
142
0.0
143
25.4
144
1.0
145
0.0
146
1.0
147
0.09
 71
     0
 72
     0
 73
     1
 74
     1
 75
     0
 76
     0
 77
     0
 78
     0
170
     0
171
     2
172
     0
173
     0
174
     0
175
     0
176
     0
177
     0
178
     0
270
     2
271
     4
272
     4
273
     2
274
     2
340
F
275
     0
280
     0
281
     0
282
     0
283
     1
284
     0
285
     0
286
     0
287
     3
288
     0
   0
DIMSTYLE
 105
3E
 100
AcDbSymbolTableRecord
 100
AcDbDimStyleTableRecord
   2
GMM001
  70
0
   3

   4

   5

   6

   7

  40
 1.0000000000000
  41
 3.0000000000000
  42
 2.0000000000000
  43
 16.000000000000
  44
 2.0000000000000
  45
0.0
  46
0.0
  47
0.0
  48
0.0
 140
 4.0000000000000
 141
 2.0000000000000
 142
0.0
 143
 0.39400000000000E-1
 144
 1.0000000000000
 145
0.0
 146
 1.2500000000000
 147
 1.0000000000000
  71
0
  72
0
  73
0
  74
0
  75
0
  76
0
  77
3
  78
8
 170
0
 171
2
 172
1
 173
1
 174
0
 175
0
 176
8
 177
8
 178
8
 270
2
 271
6
 272
0
 273
2
 274
2
 340
3B
 275
1
 280
0
 281
0
 282
0
 283
1
 284
0
 285
0
 286
0
 287
3
 288
0
   0
DIMSTYLE
 105
3F
 100
AcDbSymbolTableRecord
 100
AcDbDimStyleTableRecord
   2
GMM002
  70
0
   3

   4

   5

   6

   7

  40
 1.0000000000000
  41
 3.0000000000000
  42
 2.0000000000000
  43
 16.000000000000
  44
 2.0000000000000
  45
0.0
  46
0.0
  47
0.0
  48
0.0
 140
 4.0000000000000
 141
 2.0000000000000
 142
0.0
 143
 0.39400000000000E-1
 144
 1.0000000000000
 145
0.0
 146
 1.2500000000000
 147
0.0
  71
0
  72
0
  73
0
  74
0
  75
0
  76
0
  77
1
  78
8
 170
0
 171
2
 172
1
 173
1
 174
0
 175
0
 176
8
 177
8
 178
8
 270
2
 271
6
 272
0
 273
2
 274
2
 340
3B
 275
1
 280
0
 281
0
 282
0
 283
1
 284
0
 285
0
 286
0
 287
3
 288
0
   0
DIMSTYLE
 105
40
 100
AcDbSymbolTableRecord
 100
AcDbDimStyleTableRecord
   2
GMM003
  70
0
   3

   4

   5

   6

   7

  40
 1.0000000000000
  41
 3.0000000000000
  42
 2.0000000000000
  43
 16.000000000000
  44
 2.0000000000000
  45
0.0
  46
0.0
  47
0.0
  48
0.0
 140
 4.0000000000000
 141
 2.0000000000000
 142
0.0
 143
 0.39400000000000E-1
 144
 1.0000000000000
 145
0.0
 146
 1.2500000000000
 147
 0.93690670445017
  71
0
  72
0
  73
0
  74
0
  75
0
  76
0
  77
3
  78
8
 170
0
 171
2
 172
1
 173
1
 174
0
 175
0
 176
8
 177
8
 178
8
 270
2
 271
6
 272
0
 273
2
 274
2
 340
3B
 275
1
 280
0
 281
0
 282
0
 283
1
 284
0
 285
0
 286
0
 287
3
 288
1
   0
DIMSTYLE
 105
41
 100
AcDbSymbolTableRecord
 100
AcDbDimStyleTableRecord
   2
GMM004
  70
0
   3

   4

   5

   6

   7

  40
 1.0000000000000
  41
 3.0000000000000
  42
 2.0000000000000
  43
 16.000000000000
  44
 2.0000000000000
  45
0.0
  46
0.0
  47
0.0
  48
0.0
 140
 4.0000000000000
 141
 2.0000000000000
 142
0.0
 143
 0.39400000000000E-1
 144
 1.0000000000000
 145
0.0
 146
 1.2500000000000
 147
 1.0787187950899
  71
0
  72
0
  73
0
  74
0
  75
0
  76
0
  77
3
  78
8
 170
0
 171
2
 172
1
 173
1
 174
0
 175
0
 176
8
 177
8
 178
8
 270
2
 271
6
 272
0
 273
2
 274
2
 340
3B
 275
1
 280
0
 281
0
 282
0
 283
1
 284
0
 285
0
 286
0
 287
3
 288
1
   0
DIMSTYLE
 105
42
 100
AcDbSymbolTableRecord
 100
AcDbDimStyleTableRecord
   2
GMM005
  70
0
   3

   4

   5

   6

   7

  40
 1.0000000000000
  41
 3.0000000000000
  42
 2.0000000000000
  43
 16.000000000000
  44
 2.0000000000000
  45
0.0
  46
0.0
  47
0.0
  48
0.0
 140
 4.0000000000000
 141
 2.0000000000000
 142
0.0
 143
 0.39400000000000E-1
 144
 1.0000000000000
 145
0.0
 146
 1.2500000000000
 147
 1.0396916721175
  71
0
  72
0
  73
0
  74
0
  75
0
  76
0
  77
3
  78
8
 170
0
 171
2
 172
1
 173
1
 174
0
 175
0
 176
8
 177
8
 178
8
 270
2
 271
6
 272
0
 273
2
 274
2
 340
3B
 275
1
 280
0
 281
0
 282
0
 283
1
 284
0
 285
0
 286
0
 287
3
 288
1
   0
ENDTAB
  0
TABLE
  2
BLOCK_RECORD
  5
1
100
AcDbSymbolTable
 70
     0
  0
BLOCK_RECORD
  5
18
100
AcDbSymbolTableRecord
100
AcDbBlockTableRecord
  2
*MODEL_SPACE
  0
BLOCK_RECORD
  5
15
100
AcDbSymbolTableRecord
100
AcDbBlockTableRecord
  2
*PAPER_SPACE
   0
BLOCK_RECORD
   5
43
 100
AcDbSymbolTableRecord
 100
AcDbBlockTableRecord
   2
*D1
   0
BLOCK_RECORD
   5
44
 100
AcDbSymbolTableRecord
 100
AcDbBlockTableRecord
   2
*D2
   0
BLOCK_RECORD
   5
45
 100
AcDbSymbolTableRecord
 100
AcDbBlockTableRecord
   2
*D3
   0
BLOCK_RECORD
   5
46
 100
AcDbSymbolTableRecord
 100
AcDbBlockTableRecord
   2
*D4
   0
BLOCK_RECORD
   5
47
 100
AcDbSymbolTableRecord
 100
AcDbBlockTableRecord
   2
*D5
   0
BLOCK_RECORD
   5
48
 100
AcDbSymbolTableRecord
 100
AcDbBlockTableRecord
   2
*D6
   0
BLOCK_RECORD
   5
49
 100
AcDbSymbolTableRecord
 100
AcDbBlockTableRecord
   2
*D7
   0
BLOCK_RECORD
   5
4A
 100
AcDbSymbolTableRecord
 100
AcDbBlockTableRecord
   2
*D8
   0
BLOCK_RECORD
   5
4B
 100
AcDbSymbolTableRecord
 100
AcDbBlockTableRecord
   2
*D9
   0
BLOCK_RECORD
   5
4C
 100
AcDbSymbolTableRecord
 100
AcDbBlockTableRecord
   2
*D10
   0
BLOCK_RECORD
   5
4D
 100
AcDbSymbolTableRecord
 100
AcDbBlockTableRecord
   2
*D11
   0
BLOCK_RECORD
   5
4E
 100
AcDbSymbolTableRecord
 100
AcDbBlockTableRecord
   2
*D12
   0
BLOCK_RECORD
   5
4F
 100
AcDbSymbolTableRecord
 100
AcDbBlockTableRecord
   2
*D13
   0
BLOCK_RECORD
   5
50
 100
AcDbSymbolTableRecord
 100
AcDbBlockTableRecord
   2
*D14
   0
BLOCK_RECORD
   5
51
 100
AcDbSymbolTableRecord
 100
AcDbBlockTableRecord
   2
*D15
   0
BLOCK_RECORD
   5
52
 100
AcDbSymbolTableRecord
 100
AcDbBlockTableRecord
   2
*D16
   0
BLOCK_RECORD
   5
53
 100
AcDbSymbolTableRecord
 100
AcDbBlockTableRecord
   2
*D17
   0
BLOCK_RECORD
   5
54
 100
AcDbSymbolTableRecord
 100
AcDbBlockTableRecord
   2
*D18
   0
BLOCK_RECORD
   5
55
 100
AcDbSymbolTableRecord
 100
AcDbBlockTableRecord
   2
*D23
   0
BLOCK_RECORD
   5
56
 100
AcDbSymbolTableRecord
 100
AcDbBlockTableRecord
   2
*D24
   0
BLOCK_RECORD
   5
57
 100
AcDbSymbolTableRecord
 100
AcDbBlockTableRecord
   2
*D25
   0
BLOCK_RECORD
   5
58
 100
AcDbSymbolTableRecord
 100
AcDbBlockTableRecord
   2
*D26
   0
BLOCK_RECORD
   5
59
 100
AcDbSymbolTableRecord
 100
AcDbBlockTableRecord
   2
*D27
   0
BLOCK_RECORD
   5
5A
 100
AcDbSymbolTableRecord
 100
AcDbBlockTableRecord
   2
*D28
   0
BLOCK_RECORD
   5
5B
 100
AcDbSymbolTableRecord
 100
AcDbBlockTableRecord
   2
*D29
   0
BLOCK_RECORD
   5
5C
 100
AcDbSymbolTableRecord
 100
AcDbBlockTableRecord
   2
*D30
   0
BLOCK_RECORD
   5
5D
 100
AcDbSymbolTableRecord
 100
AcDbBlockTableRecord
   2
*D31
   0
BLOCK_RECORD
   5
5E
 100
AcDbSymbolTableRecord
 100
AcDbBlockTableRecord
   2
*D32
   0
BLOCK_RECORD
   5
5F
 100
AcDbSymbolTableRecord
 100
AcDbBlockTableRecord
   2
*D33
   0
BLOCK_RECORD
   5
60
 100
AcDbSymbolTableRecord
 100
AcDbBlockTableRecord
   2
*D34
   0
BLOCK_RECORD
   5
61
 100
AcDbSymbolTableRecord
 100
AcDbBlockTableRecord
   2
*D35
   0
BLOCK_RECORD
   5
62
 100
AcDbSymbolTableRecord
 100
AcDbBlockTableRecord
   2
*D36
   0
BLOCK_RECORD
   5
63
 100
AcDbSymbolTableRecord
 100
AcDbBlockTableRecord
   2
*D37
   0
BLOCK_RECORD
   5
64
 100
AcDbSymbolTableRecord
 100
AcDbBlockTableRecord
   2
*D38
   0
BLOCK_RECORD
   5
65
 100
AcDbSymbolTableRecord
 100
AcDbBlockTableRecord
   2
*D39
   0
BLOCK_RECORD
   5
66
 100
AcDbSymbolTableRecord
 100
AcDbBlockTableRecord
   2
*D40
   0
BLOCK_RECORD
   5
67
 100
AcDbSymbolTableRecord
 100
AcDbBlockTableRecord
   2
*D41
   0
BLOCK_RECORD
   5
68
 100
AcDbSymbolTableRecord
 100
AcDbBlockTableRecord
   2
*D42
   0
BLOCK_RECORD
   5
69
 100
AcDbSymbolTableRecord
 100
AcDbBlockTableRecord
   2
*D43
   0
BLOCK_RECORD
   5
6A
 100
AcDbSymbolTableRecord
 100
AcDbBlockTableRecord
   2
*D44
   0
BLOCK_RECORD
   5
6B
 100
AcDbSymbolTableRecord
 100
AcDbBlockTableRecord
   2
*D45
   0
BLOCK_RECORD
   5
6C
 100
AcDbSymbolTableRecord
 100
AcDbBlockTableRecord
   2
*D46
   0
BLOCK_RECORD
   5
6D
 100
AcDbSymbolTableRecord
 100
AcDbBlockTableRecord
   2
*D47
   0
BLOCK_RECORD
   5
6E
 100
AcDbSymbolTableRecord
 100
AcDbBlockTableRecord
   2
*D48
   0
BLOCK_RECORD
   5
6F
 100
AcDbSymbolTableRecord
 100
AcDbBlockTableRecord
   2
*D49
   0
BLOCK_RECORD
   5
70
 100
AcDbSymbolTableRecord
 100
AcDbBlockTableRecord
   2
*D50
   0
BLOCK_RECORD
   5
71
 100
AcDbSymbolTableRecord
 100
AcDbBlockTableRecord
   2
*D51
   0
BLOCK_RECORD
   5
72
 100
AcDbSymbolTableRecord
 100
AcDbBlockTableRecord
   2
*D52
   0
BLOCK_RECORD
   5
73
 100
AcDbSymbolTableRecord
 100
AcDbBlockTableRecord
   2
*D53
   0
BLOCK_RECORD
   5
74
 100
AcDbSymbolTableRecord
 100
AcDbBlockTableRecord
   2
*D54
   0
BLOCK_RECORD
   5
75
 100
AcDbSymbolTableRecord
 100
AcDbBlockTableRecord
   2
*D55
   0
BLOCK_RECORD
   5
76
 100
AcDbSymbolTableRecord
 100
AcDbBlockTableRecord
   2
*D57
   0
BLOCK_RECORD
   5
77
 100
AcDbSymbolTableRecord
 100
AcDbBlockTableRecord
   2
_ARCHTICK
   0
BLOCK_RECORD
   5
78
 100
AcDbSymbolTableRecord
 100
AcDbBlockTableRecord
   2
_BOXBLANK
   0
BLOCK_RECORD
   5
79
 100
AcDbSymbolTableRecord
 100
AcDbBlockTableRecord
   2
_BOXFILLED
   0
BLOCK_RECORD
   5
7A
 100
AcDbSymbolTableRecord
 100
AcDbBlockTableRecord
   2
_CLOSED
   0
BLOCK_RECORD
   5
7B
 100
AcDbSymbolTableRecord
 100
AcDbBlockTableRecord
   2
_CLOSEDBLANK
   0
BLOCK_RECORD
   5
7C
 100
AcDbSymbolTableRecord
 100
AcDbBlockTableRecord
   2
_DATUMBLANK
   0
BLOCK_RECORD
   5
7D
 100
AcDbSymbolTableRecord
 100
AcDbBlockTableRecord
   2
_DATUMFILLED
   0
BLOCK_RECORD
   5
7E
 100
AcDbSymbolTableRecord
 100
AcDbBlockTableRecord
   2
_DOT
   0
BLOCK_RECORD
   5
7F
 100
AcDbSymbolTableRecord
 100
AcDbBlockTableRecord
   2
_DOTBLANK
   0
BLOCK_RECORD
   5
80
 100
AcDbSymbolTableRecord
 100
AcDbBlockTableRecord
   2
_DOTSMALL
   0
BLOCK_RECORD
   5
81
 100
AcDbSymbolTableRecord
 100
AcDbBlockTableRecord
   2
_INTEGRAL
   0
BLOCK_RECORD
   5
82
 100
AcDbSymbolTableRecord
 100
AcDbBlockTableRecord
   2
_NONE
   0
BLOCK_RECORD
   5
83
 100
AcDbSymbolTableRecord
 100
AcDbBlockTableRecord
   2
_OBLIQUE
   0
BLOCK_RECORD
   5
84
 100
AcDbSymbolTableRecord
 100
AcDbBlockTableRecord
   2
_OPEN
   0
BLOCK_RECORD
   5
85
 100
AcDbSymbolTableRecord
 100
AcDbBlockTableRecord
   2
_OPEN30
   0
BLOCK_RECORD
   5
86
 100
AcDbSymbolTableRecord
 100
AcDbBlockTableRecord
   2
_OPEN90
   0
BLOCK_RECORD
   5
87
 100
AcDbSymbolTableRecord
 100
AcDbBlockTableRecord
   2
_ORIGIN
   0
ENDTAB
   0
ENDSEC
  0
SECTION
  2
BLOCKS
  0
BLOCK
  5
19
100
AcDbEntity
  8
0
100
AcDbBlockBegin
  2
*MODEL_SPACE
 70
     0
 10
0.0
 20
0.0
 30
0.0
  3
*MODEL_SPACE
  1

  0
ENDBLK
  5
1A
100
AcDbEntity
  8
0
100
AcDbBlockEnd
  0
BLOCK
  5
16
100
AcDbEntity
 67
     1
  8
0
100
AcDbBlockBegin
  2
*PAPER_SPACE
 70
     0
 10
0.0
 20
0.0
 30
0.0
  3
*PAPER_SPACE
  1

  0
ENDBLK
  5
17
100
AcDbEntity
 67
     1
  8
0
100
AcDbBlockEnd
   0
BLOCK
   5
88
 100
AcDbEntity
   8
0
 100
AcDbBlockBegin
   2
_ARCHTICK
  70
0
  10
0.0
  20
0.0
  30
0.0
   3
_ARCHTICK
   0
POLYLINE
   5
89
 100
AcDbEntity
   8
0
 370
-2
   6
BYBLOCK
  62
0
 100
AcDb2dPolyline
  66
1
  10
0.0
  20
0.0
  30
0.0
  70
1
  40
 0.15000000000000
  41
 0.15000000000000
   0
VERTEX
   5
8A
 100
AcDbEntity
   8
0
   6
BYBLOCK
  62
0
 100
AcDbVertex
 100
AcDb2dVertex
  10
-0.50000000000000
  20
-0.50000000000000
  30
0.0
  40
 0.15000000000000
  41
 0.15000000000000
   0
VERTEX
   5
8B
 100
AcDbEntity
   8
0
   6
BYBLOCK
  62
0
 100
AcDbVertex
 100
AcDb2dVertex
  10
 0.50000000000000
  20
 0.50000000000000
  30
0.0
  40
 0.15000000000000
  41
 0.15000000000000
   0
SEQEND
   5
8C
 100
AcDbEntity
   8
0
   6
BYBLOCK
  62
0
   0
ENDBLK
   5
8D
 100
AcDbEntity
   8
0
 100
AcDbBlockEnd
   0
BLOCK
   5
8E
 100
AcDbEntity
   8
0
 100
AcDbBlockBegin
   2
_OBLIQUE
  70
0
  10
0.0
  20
0.0
  30
0.0
   3
_OBLIQUE
   0
LINE
   5
8F
 100
AcDbEntity
   8
0
 370
-2
 100
AcDbLine
   6
BYBLOCK
  62
0
  10
-0.50000000000000
  20
-0.50000000000000
  30
0.0
  11
 0.50000000000000
  21
 0.50000000000000
  31
0.0
   0
ENDBLK
   5
90
 100
AcDbEntity
   8
0
 100
AcDbBlockEnd
   0
BLOCK
   5
91
 100
AcDbEntity
   8
0
 100
AcDbBlockBegin
   2
_BOXBLANK
  70
0
  10
0.0
  20
0.0
  30
0.0
   3
_BOXBLANK
   0
LINE
   5
92
 100
AcDbEntity
   8
0
 370
-2
 100
AcDbLine
   6
BYBLOCK
  62
0
  10
-0.50000000000000
  20
-0.50000000000000
  30
0.0
  11
 0.50000000000000
  21
-0.50000000000000
  31
0.0
   0
LINE
   5
93
 100
AcDbEntity
   8
0
 370
-2
 100
AcDbLine
   6
BYBLOCK
  62
0
  10
 0.50000000000000
  20
-0.50000000000000
  30
0.0
  11
 0.50000000000000
  21
 0.50000000000000
  31
0.0
   0
LINE
   5
94
 100
AcDbEntity
   8
0
 370
-2
 100
AcDbLine
   6
BYBLOCK
  62
0
  10
 0.50000000000000
  20
 0.50000000000000
  30
0.0
  11
-0.50000000000000
  21
 0.50000000000000
  31
0.0
   0
LINE
   5
95
 100
AcDbEntity
   8
0
 370
-2
 100
AcDbLine
   6
BYBLOCK
  62
0
  10
-0.50000000000000
  20
 0.50000000000000
  30
0.0
  11
-0.50000000000000
  21
-0.50000000000000
  31
0.0
   0
LINE
   5
96
 100
AcDbEntity
   8
0
 370
-2
 100
AcDbLine
   6
BYBLOCK
  62
0
  10
-0.50000000000000
  20
0.0
  30
0.0
  11
-1.0000000000000
  21
0.0
  31
0.0
   0
ENDBLK
   5
97
 100
AcDbEntity
   8
0
 100
AcDbBlockEnd
   0
BLOCK
   5
98
 100
AcDbEntity
   8
0
 100
AcDbBlockBegin
   2
_BOXFILLED
  70
0
  10
0.0
  20
0.0
  30
0.0
   3
_BOXFILLED
   0
SOLID
   5
99
 100
AcDbEntity
   8
0
 100
AcDbTrace
   6
BYBLOCK
  62
0
  10
-0.50000000000000
  20
 0.50000000000000
  30
0.0
  11
 0.50000000000000
  21
 0.50000000000000
  31
0.0
  12
-0.50000000000000
  22
-0.50000000000000
  32
0.0
  13
 0.50000000000000
  23
-0.50000000000000
  33
0.0
   0
LINE
   5
9A
 100
AcDbEntity
   8
0
 370
-2
 100
AcDbLine
   6
BYBLOCK
  62
0
  10
-0.50000000000000
  20
0.0
  30
0.0
  11
-1.0000000000000
  21
0.0
  31
0.0
   0
ENDBLK
   5
9B
 100
AcDbEntity
   8
0
 100
AcDbBlockEnd
   0
BLOCK
   5
9C
 100
AcDbEntity
   8
0
 100
AcDbBlockBegin
   2
_CLOSED
  70
0
  10
0.0
  20
0.0
  30
0.0
   3
_CLOSED
   0
LINE
   5
9D
 100
AcDbEntity
   8
0
 370
-2
 100
AcDbLine
   6
BYBLOCK
  62
0
  10
-1.0000000000000
  20
 0.16666666666667
  30
0.0
  11
0.0
  21
0.0
  31
0.0
   0
LINE
   5
9E
 100
AcDbEntity
   8
0
 370
-2
 100
AcDbLine
   6
BYBLOCK
  62
0
  10
0.0
  20
0.0
  30
0.0
  11
-1.0000000000000
  21
-0.16666666666667
  31
0.0
   0
LINE
   5
9F
 100
AcDbEntity
   8
0
 370
-2
 100
AcDbLine
   6
BYBLOCK
  62
0
  10
-1.0000000000000
  20
 0.16666666666667
  30
0.0
  11
-1.0000000000000
  21
-0.16666666666667
  31
0.0
   0
LINE
   5
A0
 100
AcDbEntity
   8
0
 370
-2
 100
AcDbLine
   6
BYBLOCK
  62
0
  10
0.0
  20
0.0
  30
0.0
  11
-1.0000000000000
  21
0.0
  31
0.0
   0
ENDBLK
   5
A1
 100
AcDbEntity
   8
0
 100
AcDbBlockEnd
   0
BLOCK
   5
A2
 100
AcDbEntity
   8
0
 100
AcDbBlockBegin
   2
_OPEN
  70
0
  10
0.0
  20
0.0
  30
0.0
   3
_OPEN
   0
LINE
   5
A3
 100
AcDbEntity
   8
0
 370
-2
 100
AcDbLine
   6
BYBLOCK
  62
0
  10
-1.0000000000000
  20
 0.16666666666667
  30
0.0
  11
0.0
  21
0.0
  31
0.0
   0
LINE
   5
A4
 100
AcDbEntity
   8
0
 370
-2
 100
AcDbLine
   6
BYBLOCK
  62
0
  10
0.0
  20
0.0
  30
0.0
  11
-1.0000000000000
  21
-0.16666666666667
  31
0.0
   0
LINE
   5
A5
 100
AcDbEntity
   8
0
 370
-2
 100
AcDbLine
   6
BYBLOCK
  62
0
  10
0.0
  20
0.0
  30
0.0
  11
-1.0000000000000
  21
0.0
  31
0.0
   0
ENDBLK
   5
A6
 100
AcDbEntity
   8
0
 100
AcDbBlockEnd
   0
BLOCK
   5
A7
 100
AcDbEntity
   8
0
 100
AcDbBlockBegin
   2
_OPEN30
  70
0
  10
0.0
  20
0.0
  30
0.0
   3
_OPEN30
   0
LINE
   5
A8
 100
AcDbEntity
   8
0
 370
-2
 100
AcDbLine
   6
BYBLOCK
  62
0
  10
-1.0000000000000
  20
 0.26794919243110
  30
0.0
  11
0.0
  21
0.0
  31
0.0
   0
LINE
   5
A9
 100
AcDbEntity
   8
0
 370
-2
 100
AcDbLine
   6
BYBLOCK
  62
0
  10
0.0
  20
0.0
  30
0.0
  11
-1.0000000000000
  21
-0.26794919243110
  31
0.0
   0
LINE
   5
AA
 100
AcDbEntity
   8
0
 370
-2
 100
AcDbLine
   6
BYBLOCK
  62
0
  10
0.0
  20
0.0
  30
0.0
  11
-1.0000000000000
  21
0.0
  31
0.0
   0
ENDBLK
   5
AB
 100
AcDbEntity
   8
0
 100
AcDbBlockEnd
   0
BLOCK
   5
AC
 100
AcDbEntity
   8
0
 100
AcDbBlockBegin
   2
_OPEN90
  70
0
  10
0.0
  20
0.0
  30
0.0
   3
_OPEN90
   0
LINE
   5
AD
 100
AcDbEntity
   8
0
 370
-2
 100
AcDbLine
   6
BYBLOCK
  62
0
  10
-0.50000000000000
  20
 0.50000000000000
  30
0.0
  11
0.0
  21
0.0
  31
0.0
   0
LINE
   5
AE
 100
AcDbEntity
   8
0
 370
-2
 100
AcDbLine
   6
BYBLOCK
  62
0
  10
0.0
  20
0.0
  30
0.0
  11
-0.50000000000000
  21
-0.50000000000000
  31
0.0
   0
LINE
   5
AF
 100
AcDbEntity
   8
0
 370
-2
 100
AcDbLine
   6
BYBLOCK
  62
0
  10
0.0
  20
0.0
  30
0.0
  11
-1.0000000000000
  21
0.0
  31
0.0
   0
ENDBLK
   5
B0
 100
AcDbEntity
   8
0
 100
AcDbBlockEnd
   0
BLOCK
   5
B1
 100
AcDbEntity
   8
0
 100
AcDbBlockBegin
   2
_CLOSEDBLANK
  70
0
  10
0.0
  20
0.0
  30
0.0
   3
_CLOSEDBLANK
   0
LINE
   5
B2
 100
AcDbEntity
   8
0
 370
-2
 100
AcDbLine
   6
BYBLOCK
  62
0
  10
-1.0000000000000
  20
 0.16666666666667
  30
0.0
  11
0.0
  21
0.0
  31
0.0
   0
LINE
   5
B3
 100
AcDbEntity
   8
0
 370
-2
 100
AcDbLine
   6
BYBLOCK
  62
0
  10
0.0
  20
0.0
  30
0.0
  11
-1.0000000000000
  21
-0.16666666666667
  31
0.0
   0
LINE
   5
B4
 100
AcDbEntity
   8
0
 370
-2
 100
AcDbLine
   6
BYBLOCK
  62
0
  10
-1.0000000000000
  20
 0.16666666666667
  30
0.0
  11
-1.0000000000000
  21
-0.16666666666667
  31
0.0
   0
ENDBLK
   5
B5
 100
AcDbEntity
   8
0
 100
AcDbBlockEnd
   0
BLOCK
   5
B6
 100
AcDbEntity
   8
0
 100
AcDbBlockBegin
   2
_DOT
  70
0
  10
0.0
  20
0.0
  30
0.0
   3
_DOT
   0
POLYLINE
   5
B7
 100
AcDbEntity
   8
0
 370
-2
   6
BYBLOCK
  62
0
 100
AcDb2dPolyline
  66
1
  10
0.0
  20
0.0
  30
0.0
  70
1
  40
 0.50000000000000
  41
 0.50000000000000
   0
VERTEX
   5
B8
 100
AcDbEntity
   8
0
   6
BYBLOCK
  62
0
 100
AcDbVertex
 100
AcDb2dVertex
  10
-0.25000000000000
  20
0.0
  30
0.0
  42
 1.0000000000000
  40
 0.50000000000000
  41
 0.50000000000000
   0
VERTEX
   5
B9
 100
AcDbEntity
   8
0
   6
BYBLOCK
  62
0
 100
AcDbVertex
 100
AcDb2dVertex
  10
 0.25000000000000
  20
0.0
  30
0.0
  42
 1.0000000000000
  40
 0.50000000000000
  41
 0.50000000000000
   0
SEQEND
   5
BA
 100
AcDbEntity
   8
0
   6
BYBLOCK
  62
0
   0
LINE
   5
BB
 100
AcDbEntity
   8
0
 370
-2
 100
AcDbLine
   6
BYBLOCK
  62
0
  10
-0.50000000000000
  20
0.0
  30
0.0
  11
-1.0000000000000
  21
0.0
  31
0.0
   0
ENDBLK
   5
BC
 100
AcDbEntity
   8
0
 100
AcDbBlockEnd
   0
BLOCK
   5
BD
 100
AcDbEntity
   8
0
 100
AcDbBlockBegin
   2
_DOTSMALL
  70
0
  10
0.0
  20
0.0
  30
0.0
   3
_DOTSMALL
   0
POLYLINE
   5
BE
 100
AcDbEntity
   8
0
 370
-2
   6
BYBLOCK
  62
0
 100
AcDb2dPolyline
  66
1
  10
0.0
  20
0.0
  30
0.0
  70
1
  40
 0.50000000000000
  41
 0.50000000000000
   0
VERTEX
   5
BF
 100
AcDbEntity
   8
0
   6
BYBLOCK
  62
0
 100
AcDbVertex
 100
AcDb2dVertex
  10
-0.62500000000000E-1
  20
0.0
  30
0.0
  42
 1.0000000000000
  40
 0.50000000000000
  41
 0.50000000000000
   0
VERTEX
   5
C0
 100
AcDbEntity
   8
0
   6
BYBLOCK
  62
0
 100
AcDbVertex
 100
AcDb2dVertex
  10
 0.62500000000000E-1
  20
0.0
  30
0.0
  42
 1.0000000000000
  40
 0.50000000000000
  41
 0.50000000000000
   0
SEQEND
   5
C1
 100
AcDbEntity
   8
0
   6
BYBLOCK
  62
0
   0
ENDBLK
   5
C2
 100
AcDbEntity
   8
0
 100
AcDbBlockEnd
   0
BLOCK
   5
C3
 100
AcDbEntity
   8
0
 100
AcDbBlockBegin
   2
_DATUMBLANK
  70
0
  10
0.0
  20
0.0
  30
0.0
   3
_DATUMBLANK
   0
LINE
   5
C4
 100
AcDbEntity
   8
0
 370
-2
 100
AcDbLine
   6
BYBLOCK
  62
0
  10
0.0
  20
 0.57735027000000
  30
0.0
  11
-1.0000000000000
  21
0.0
  31
0.0
   0
LINE
   5
C5
 100
AcDbEntity
   8
0
 370
-2
 100
AcDbLine
   6
BYBLOCK
  62
0
  10
-1.0000000000000
  20
0.0
  30
0.0
  11
0.0
  21
-0.57735027000000
  31
0.0
   0
LINE
   5
C6
 100
AcDbEntity
   8
0
 370
-2
 100
AcDbLine
   6
BYBLOCK
  62
0
  10
0.0
  20
-0.57735027000000
  30
0.0
  11
0.0
  21
 0.57735027000000
  31
0.0
   0
ENDBLK
   5
C7
 100
AcDbEntity
   8
0
 100
AcDbBlockEnd
   0
BLOCK
   5
C8
 100
AcDbEntity
   8
0
 100
AcDbBlockBegin
   2
_DATUMFILLED
  70
0
  10
0.0
  20
0.0
  30
0.0
   3
_DATUMFILLED
   0
SOLID
   5
C9
 100
AcDbEntity
   8
0
 100
AcDbTrace
   6
BYBLOCK
  62
0
  10
0.0
  20
 0.57735027000000
  30
0.0
  11
-1.0000000000000
  21
0.0
  31
0.0
  12
0.0
  22
-0.57735027000000
  32
0.0
  13
0.0
  23
-0.57735027000000
  33
0.0
   0
ENDBLK
   5
CA
 100
AcDbEntity
   8
0
 100
AcDbBlockEnd
   0
BLOCK
   5
CB
 100
AcDbEntity
   8
0
 100
AcDbBlockBegin
   2
_ORIGIN
  70
0
  10
0.0
  20
0.0
  30
0.0
   3
_ORIGIN
   0
CIRCLE
   5
CC
 100
AcDbEntity
   8
0
 370
-2
 100
AcDbCircle
   6
BYBLOCK
  62
0
  10
0.0
  20
0.0
  30
0.0
  40
 0.50000000000000
   0
LINE
   5
CD
 100
AcDbEntity
   8
0
 370
-2
 100
AcDbLine
   6
BYBLOCK
  62
0
  10
0.0
  20
0.0
  30
0.0
  11
-1.0000000000000
  21
0.0
  31
0.0
   0
ENDBLK
   5
CE
 100
AcDbEntity
   8
0
 100
AcDbBlockEnd
   0
BLOCK
   5
CF
 100
AcDbEntity
   8
0
 100
AcDbBlockBegin
   2
_NONE
  70
0
  10
0.0
  20
0.0
  30
0.0
   3
_NONE
   0
CIRCLE
   5
D0
 100
AcDbEntity
   8
0
 370
-2
 100
AcDbCircle
   6
BYBLOCK
  62
0
  10
0.0
  20
0.0
  30
0.0
  40
 0.25000000000000
   0
ENDBLK
   5
D1
 100
AcDbEntity
   8
0
 100
AcDbBlockEnd
   0
BLOCK
   5
D2
 100
AcDbEntity
   8
0
 100
AcDbBlockBegin
   2
_DOTBLANK
  70
0
  10
0.0
  20
0.0
  30
0.0
   3
_DOTBLANK
   0
CIRCLE
   5
D3
 100
AcDbEntity
   8
0
 370
-2
 100
AcDbCircle
   6
BYBLOCK
  62
0
  10
0.0
  20
0.0
  30
0.0
  40
 0.50000000000000
   0
LINE
   5
D4
 100
AcDbEntity
   8
0
 370
-2
 100
AcDbLine
   6
BYBLOCK
  62
0
  10
-0.50000000000000
  20
0.0
  30
0.0
  11
-1.0000000000000
  21
0.0
  31
0.0
   0
ENDBLK
   5
D5
 100
AcDbEntity
   8
0
 100
AcDbBlockEnd
   0
BLOCK
   5
D6
 100
AcDbEntity
   8
0
 100
AcDbBlockBegin
   2
_INTEGRAL
  70
0
  10
0.0
  20
0.0
  30
0.0
   3
_INTEGRAL
   0
ARC
   5
D7
 100
AcDbEntity
   8
0
 370
-2
   6
BYBLOCK
  62
0
 100
AcDbCircle
  10
 0.44488800000000
  20
-0.91335000000000E-1
  30
0.0
  40
 0.45416700000000
 100
AcDbArc
  50
 102.00000000000
  51
 168.00000000000
   0
ARC
   5
D8
 100
AcDbEntity
   8
0
 370
-2
   6
BYBLOCK
  62
0
 100
AcDbCircle
  10
-0.44488800000000
  20
 0.91335000000000E-1
  30
0.0
  40
 0.45416700000000
 100
AcDbArc
  50
 282.00000000000
  51
 348.00000000000
   0
ENDBLK
   5
D9
 100
AcDbEntity
   8
0
 100
AcDbBlockEnd
   0
BLOCK
   5
DA
 100
AcDbEntity
   8
0
 100
AcDbBlockBegin
   2
*D1
  70
65
  10
0.0
  20
0.0
  30
0.0
   3
*D1
   0
LINE
   5
DB
 100
AcDbEntity
   8
LEVEL001
 370
15
 100
AcDbLine
   6
CONTINUOUS
  62
8
  10
 53.249999999900
  20
 345.53356191406
  30
0.0
  11
 53.249999999900
  21
 362.03356191406
  31
0.0
   0
LINE
   5
DC
 100
AcDbEntity
   8
LEVEL001
 370
15
 100
AcDbLine
   6
CONTINUOUS
  62
8
  10
 53.249999999900
  20
 360.03356191406
  30
0.0
  11
 69.249999999900
  21
 360.03356191406
  31
0.0
   0
LINE
   5
DD
 100
AcDbEntity
   8
LEVEL001
 370
15
 100
AcDbLine
   6
CONTINUOUS
  62
8
  10
 85.249999999900
  20
 360.03356191406
  30
0.0
  11
 69.249999999900
  21
 360.03356191406
  31
0.0
   0
SOLID
   5
DE
 100
AcDbEntity
   8
LEVEL001
 100
AcDbTrace
   6
CONTINUOUS
  62
8
  10
 53.249999999900
  20
 360.03356191406
  30
0.0
  11
 56.249999999900
  21
 359.50458097194
  31
0.0
  12
 56.249999999900
  22
 360.56254285619
  32
0.0
  13
 56.249999999900
  23
 360.56254285619
  33
0.0
   0
SOLID
   5
DF
 100
AcDbEntity
   8
LEVEL001
 100
AcDbTrace
   6
CONTINUOUS
  62
8
  10
 85.249999999900
  20
 360.03356191406
  30
0.0
  11
 82.249999999900
  21
 360.56254285619
  31
0.0
  12
 82.249999999900
  22
 359.50458097194
  32
0.0
  13
 82.249999999900
  23
 359.50458097194
  33
0.0
   0
MTEXT
   5
E0
 100
AcDbEntity
   8
LEVEL001
 370
15
  62
8
 100
AcDbMText
  10
 69.249999999900
  20
 361.03356191406
  30
0.0
  40
 4.0000000000000
  41
0.0
  71
8
  72
1
   1
\A1;32
   7
GMM001
   0
ENDBLK
   5
E1
 100
AcDbEntity
   8
0
 100
AcDbBlockEnd
   0
BLOCK
   5
E2
 100
AcDbEntity
   8
0
 100
AcDbBlockBegin
   2
*D2
  70
65
  10
0.0
  20
0.0
  30
0.0
   3
*D2
   0
LINE
   5
E3
 100
AcDbEntity
   8
LEVEL001
 370
15
 100
AcDbLine
   6
CONTINUOUS
  62
8
  10
 85.249999999900
  20
 351.00254426150
  30
0.0
  11
 85.249999999900
  21
 362.03356191406
  31
0.0
   0
LINE
   5
E4
 100
AcDbEntity
   8
LEVEL001
 370
15
 100
AcDbLine
   6
CONTINUOUS
  62
8
  10
 85.249999999900
  20
 360.03356191406
  30
0.0
  11
 103.24999999990
  21
 360.03356191406
  31
0.0
   0
LINE
   5
E5
 100
AcDbEntity
   8
LEVEL001
 370
15
 100
AcDbLine
   6
CONTINUOUS
  62
8
  10
 121.24999999990
  20
 360.03356191406
  30
0.0
  11
 103.24999999990
  21
 360.03356191406
  31
0.0
   0
SOLID
   5
E6
 100
AcDbEntity
   8
LEVEL001
 100
AcDbTrace
   6
CONTINUOUS
  62
8
  10
 85.249999999900
  20
 360.03356191406
  30
0.0
  11
 88.249999999900
  21
 359.50458097194
  31
0.0
  12
 88.249999999900
  22
 360.56254285619
  32
0.0
  13
 88.249999999900
  23
 360.56254285619
  33
0.0
   0
SOLID
   5
E7
 100
AcDbEntity
   8
LEVEL001
 100
AcDbTrace
   6
CONTINUOUS
  62
8
  10
 121.24999999990
  20
 360.03356191406
  30
0.0
  11
 118.24999999990
  21
 360.56254285619
  31
0.0
  12
 118.24999999990
  22
 359.50458097194
  32
0.0
  13
 118.24999999990
  23
 359.50458097194
  33
0.0
   0
MTEXT
   5
E8
 100
AcDbEntity
   8
LEVEL001
 370
15
  62
8
 100
AcDbMText
  10
 103.24999999990
  20
 361.03356191406
  30
0.0
  40
 4.0000000000000
  41
0.0
  71
8
  72
1
   1
\A1;36
   7
GMM001
   0
ENDBLK
   5
E9
 100
AcDbEntity
   8
0
 100
AcDbBlockEnd
   0
BLOCK
   5
EA
 100
AcDbEntity
   8
0
 100
AcDbBlockBegin
   2
*D3
  70
65
  10
0.0
  20
0.0
  30
0.0
   3
*D3
   0
LINE
   5
EB
 100
AcDbEntity
   8
LEVEL001
 370
15
 100
AcDbLine
   6
CONTINUOUS
  62
8
  10
 121.24999999990
  20
 351.00254426150
  30
0.0
  11
 121.24999999990
  21
 362.03356191406
  31
0.0
   0
LINE
   5
EC
 100
AcDbEntity
   8
LEVEL001
 370
15
 100
AcDbLine
   6
CONTINUOUS
  62
8
  10
 153.24999999990
  20
 345.53356191406
  30
0.0
  11
 153.24999999990
  21
 362.03356191406
  31
0.0
   0
LINE
   5
ED
 100
AcDbEntity
   8
LEVEL001
 370
15
 100
AcDbLine
   6
CONTINUOUS
  62
8
  10
 121.24999999990
  20
 360.03356191406
  30
0.0
  11
 137.24999999990
  21
 360.03356191406
  31
0.0
   0
LINE
   5
EE
 100
AcDbEntity
   8
LEVEL001
 370
15
 100
AcDbLine
   6
CONTINUOUS
  62
8
  10
 153.24999999990
  20
 360.03356191406
  30
0.0
  11
 137.24999999990
  21
 360.03356191406
  31
0.0
   0
SOLID
   5
EF
 100
AcDbEntity
   8
LEVEL001
 100
AcDbTrace
   6
CONTINUOUS
  62
8
  10
 121.24999999990
  20
 360.03356191406
  30
0.0
  11
 124.24999999990
  21
 359.50458097194
  31
0.0
  12
 124.24999999990
  22
 360.56254285619
  32
0.0
  13
 124.24999999990
  23
 360.56254285619
  33
0.0
   0
SOLID
   5
F0
 100
AcDbEntity
   8
LEVEL001
 100
AcDbTrace
   6
CONTINUOUS
  62
8
  10
 153.24999999990
  20
 360.03356191406
  30
0.0
  11
 150.24999999990
  21
 360.56254285619
  31
0.0
  12
 150.24999999990
  22
 359.50458097194
  32
0.0
  13
 150.24999999990
  23
 359.50458097194
  33
0.0
   0
MTEXT
   5
F1
 100
AcDbEntity
   8
LEVEL001
 370
15
  62
8
 100
AcDbMText
  10
 137.24999999990
  20
 361.03356191406
  30
0.0
  40
 4.0000000000000
  41
0.0
  71
8
  72
1
   1
\A1;32
   7
GMM001
   0
ENDBLK
   5
F2
 100
AcDbEntity
   8
0
 100
AcDbBlockEnd
   0
BLOCK
   5
F3
 100
AcDbEntity
   8
0
 100
AcDbBlockBegin
   2
*D4
  70
65
  10
0.0
  20
0.0
  30
0.0
   3
*D4
   0
LINE
   5
F4
 100
AcDbEntity
   8
LEVEL001
 370
15
 100
AcDbLine
   6
CONTINUOUS
  62
8
  10
 53.249999999900
  20
 362.03356191406
  30
0.0
  11
 53.249999999900
  21
 372.03356191406
  31
0.0
   0
LINE
   5
F5
 100
AcDbEntity
   8
LEVEL001
 370
15
 100
AcDbLine
   6
CONTINUOUS
  62
8
  10
 153.24999999990
  20
 362.03356191406
  30
0.0
  11
 153.24999999990
  21
 372.03356191406
  31
0.0
   0
LINE
   5
F6
 100
AcDbEntity
   8
LEVEL001
 370
15
 100
AcDbLine
   6
CONTINUOUS
  62
8
  10
 53.249999999900
  20
 370.03356191406
  30
0.0
  11
 103.24999999990
  21
 370.03356191406
  31
0.0
   0
LINE
   5
F7
 100
AcDbEntity
   8
LEVEL001
 370
15
 100
AcDbLine
   6
CONTINUOUS
  62
8
  10
 153.24999999990
  20
 370.03356191406
  30
0.0
  11
 103.24999999990
  21
 370.03356191406
  31
0.0
   0
SOLID
   5
F8
 100
AcDbEntity
   8
LEVEL001
 100
AcDbTrace
   6
CONTINUOUS
  62
8
  10
 53.249999999900
  20
 370.03356191406
  30
0.0
  11
 56.249999999900
  21
 369.50458097194
  31
0.0
  12
 56.249999999900
  22
 370.56254285619
  32
0.0
  13
 56.249999999900
  23
 370.56254285619
  33
0.0
   0
SOLID
   5
F9
 100
AcDbEntity
   8
LEVEL001
 100
AcDbTrace
   6
CONTINUOUS
  62
8
  10
 153.24999999990
  20
 370.03356191406
  30
0.0
  11
 150.24999999990
  21
 370.56254285619
  31
0.0
  12
 150.24999999990
  22
 369.50458097194
  32
0.0
  13
 150.24999999990
  23
 369.50458097194
  33
0.0
   0
MTEXT
   5
FA
 100
AcDbEntity
   8
LEVEL001
 370
15
  62
8
 100
AcDbMText
  10
 103.24999999990
  20
 371.03356191406
  30
0.0
  40
 4.0000000000000
  41
0.0
  71
8
  72
1
   1
\A1;100
   7
GMM001
   0
ENDBLK
   5
FB
 100
AcDbEntity
   8
0
 100
AcDbBlockEnd
   0
BLOCK
   5
FC
 100
AcDbEntity
   8
0
 100
AcDbBlockBegin
   2
*D5
  70
65
  10
0.0
  20
0.0
  30
0.0
   3
*D5
   0
LINE
   5
FD
 100
AcDbEntity
   8
LEVEL001
 370
15
 100
AcDbLine
   6
CONTINUOUS
  62
8
  10
 197.74999999990
  20
 345.53356191406
  30
0.0
  11
 197.74999999990
  21
 362.03356191406
  31
0.0
   0
LINE
   5
FE
 100
AcDbEntity
   8
LEVEL001
 370
15
 100
AcDbLine
   6
CONTINUOUS
  62
8
  10
 197.74999999990
  20
 360.03356191406
  30
0.0
  11
 212.99999999990
  21
 360.03356191406
  31
0.0
   0
LINE
   5
FF
 100
AcDbEntity
   8
LEVEL001
 370
15
 100
AcDbLine
   6
CONTINUOUS
  62
8
  10
 228.24999999990
  20
 360.03356191406
  30
0.0
  11
 212.99999999990
  21
 360.03356191406
  31
0.0
   0
SOLID
   5
100
 100
AcDbEntity
   8
LEVEL001
 100
AcDbTrace
   6
CONTINUOUS
  62
8
  10
 197.74999999990
  20
 360.03356191406
  30
0.0
  11
 200.74999999990
  21
 359.50458097194
  31
0.0
  12
 200.74999999990
  22
 360.56254285619
  32
0.0
  13
 200.74999999990
  23
 360.56254285619
  33
0.0
   0
SOLID
   5
101
 100
AcDbEntity
   8
LEVEL001
 100
AcDbTrace
   6
CONTINUOUS
  62
8
  10
 228.24999999990
  20
 360.03356191406
  30
0.0
  11
 225.24999999990
  21
 360.56254285619
  31
0.0
  12
 225.24999999990
  22
 359.50458097194
  32
0.0
  13
 225.24999999990
  23
 359.50458097194
  33
0.0
   0
MTEXT
   5
102
 100
AcDbEntity
   8
LEVEL001
 370
15
  62
8
 100
AcDbMText
  10
 212.99999999990
  20
 361.03356191406
  30
0.0
  40
 4.0000000000000
  41
0.0
  71
8
  72
1
   1
\A1;30.5
   7
GMM001
   0
ENDBLK
   5
103
 100
AcDbEntity
   8
0
 100
AcDbBlockEnd
   0
BLOCK
   5
104
 100
AcDbEntity
   8
0
 100
AcDbBlockBegin
   2
*D6
  70
65
  10
0.0
  20
0.0
  30
0.0
   3
*D6
   0
LINE
   5
105
 100
AcDbEntity
   8
LEVEL001
 370
15
 100
AcDbLine
   6
CONTINUOUS
  62
8
  10
 228.24999999990
  20
 351.00254426150
  30
0.0
  11
 228.24999999990
  21
 362.03356191406
  31
0.0
   0
LINE
   5
106
 100
AcDbEntity
   8
LEVEL001
 370
15
 100
AcDbLine
   6
CONTINUOUS
  62
8
  10
 228.24999999990
  20
 360.03356191406
  30
0.0
  11
 247.74999999990
  21
 360.03356191406
  31
0.0
   0
LINE
   5
107
 100
AcDbEntity
   8
LEVEL001
 370
15
 100
AcDbLine
   6
CONTINUOUS
  62
8
  10
 267.24999999990
  20
 360.03356191406
  30
0.0
  11
 247.74999999990
  21
 360.03356191406
  31
0.0
   0
SOLID
   5
108
 100
AcDbEntity
   8
LEVEL001
 100
AcDbTrace
   6
CONTINUOUS
  62
8
  10
 228.24999999990
  20
 360.03356191406
  30
0.0
  11
 231.24999999990
  21
 359.50458097194
  31
0.0
  12
 231.24999999990
  22
 360.56254285619
  32
0.0
  13
 231.24999999990
  23
 360.56254285619
  33
0.0
   0
SOLID
   5
109
 100
AcDbEntity
   8
LEVEL001
 100
AcDbTrace
   6
CONTINUOUS
  62
8
  10
 267.24999999990
  20
 360.03356191406
  30
0.0
  11
 264.24999999990
  21
 360.56254285619
  31
0.0
  12
 264.24999999990
  22
 359.50458097194
  32
0.0
  13
 264.24999999990
  23
 359.50458097194
  33
0.0
   0
MTEXT
   5
10A
 100
AcDbEntity
   8
LEVEL001
 370
15
  62
8
 100
AcDbMText
  10
 247.74999999990
  20
 361.03356191406
  30
0.0
  40
 4.0000000000000
  41
0.0
  71
8
  72
1
   1
\A1;39
   7
GMM001
   0
ENDBLK
   5
10B
 100
AcDbEntity
   8
0
 100
AcDbBlockEnd
   0
BLOCK
   5
10C
 100
AcDbEntity
   8
0
 100
AcDbBlockBegin
   2
*D7
  70
65
  10
0.0
  20
0.0
  30
0.0
   3
*D7
   0
LINE
   5
10D
 100
AcDbEntity
   8
LEVEL001
 370
15
 100
AcDbLine
   6
CONTINUOUS
  62
8
  10
 267.24999999990
  20
 351.00254426150
  30
0.0
  11
 267.24999999990
  21
 362.03356191406
  31
0.0
   0
LINE
   5
10E
 100
AcDbEntity
   8
LEVEL001
 370
15
 100
AcDbLine
   6
CONTINUOUS
  62
8
  10
 297.74999999990
  20
 345.53356191406
  30
0.0
  11
 297.74999999990
  21
 362.03356191406
  31
0.0
   0
LINE
   5
10F
 100
AcDbEntity
   8
LEVEL001
 370
15
 100
AcDbLine
   6
CONTINUOUS
  62
8
  10
 267.24999999990
  20
 360.03356191406
  30
0.0
  11
 282.49999999990
  21
 360.03356191406
  31
0.0
   0
LINE
   5
110
 100
AcDbEntity
   8
LEVEL001
 370
15
 100
AcDbLine
   6
CONTINUOUS
  62
8
  10
 297.74999999990
  20
 360.03356191406
  30
0.0
  11
 282.49999999990
  21
 360.03356191406
  31
0.0
   0
SOLID
   5
111
 100
AcDbEntity
   8
LEVEL001
 100
AcDbTrace
   6
CONTINUOUS
  62
8
  10
 267.24999999990
  20
 360.03356191406
  30
0.0
  11
 270.24999999990
  21
 359.50458097194
  31
0.0
  12
 270.24999999990
  22
 360.56254285619
  32
0.0
  13
 270.24999999990
  23
 360.56254285619
  33
0.0
   0
SOLID
   5
112
 100
AcDbEntity
   8
LEVEL001
 100
AcDbTrace
   6
CONTINUOUS
  62
8
  10
 297.74999999990
  20
 360.03356191406
  30
0.0
  11
 294.74999999990
  21
 360.56254285619
  31
0.0
  12
 294.74999999990
  22
 359.50458097194
  32
0.0
  13
 294.74999999990
  23
 359.50458097194
  33
0.0
   0
MTEXT
   5
113
 100
AcDbEntity
   8
LEVEL001
 370
15
  62
8
 100
AcDbMText
  10
 282.49999999990
  20
 361.03356191406
  30
0.0
  40
 4.0000000000000
  41
0.0
  71
8
  72
1
   1
\A1;30.5
   7
GMM001
   0
ENDBLK
   5
114
 100
AcDbEntity
   8
0
 100
AcDbBlockEnd
   0
BLOCK
   5
115
 100
AcDbEntity
   8
0
 100
AcDbBlockBegin
   2
*D8
  70
65
  10
0.0
  20
0.0
  30
0.0
   3
*D8
   0
LINE
   5
116
 100
AcDbEntity
   8
LEVEL001
 370
15
 100
AcDbLine
   6
CONTINUOUS
  62
8
  10
 197.74999999990
  20
 362.03356191406
  30
0.0
  11
 197.74999999990
  21
 372.03356191406
  31
0.0
   0
LINE
   5
117
 100
AcDbEntity
   8
LEVEL001
 370
15
 100
AcDbLine
   6
CONTINUOUS
  62
8
  10
 297.74999999990
  20
 362.03356191406
  30
0.0
  11
 297.74999999990
  21
 372.03356191406
  31
0.0
   0
LINE
   5
118
 100
AcDbEntity
   8
LEVEL001
 370
15
 100
AcDbLine
   6
CONTINUOUS
  62
8
  10
 197.74999999990
  20
 370.03356191406
  30
0.0
  11
 247.74999999990
  21
 370.03356191406
  31
0.0
   0
LINE
   5
119
 100
AcDbEntity
   8
LEVEL001
 370
15
 100
AcDbLine
   6
CONTINUOUS
  62
8
  10
 297.74999999990
  20
 370.03356191406
  30
0.0
  11
 247.74999999990
  21
 370.03356191406
  31
0.0
   0
SOLID
   5
11A
 100
AcDbEntity
   8
LEVEL001
 100
AcDbTrace
   6
CONTINUOUS
  62
8
  10
 197.74999999990
  20
 370.03356191406
  30
0.0
  11
 200.74999999990
  21
 369.50458097194
  31
0.0
  12
 200.74999999990
  22
 370.56254285619
  32
0.0
  13
 200.74999999990
  23
 370.56254285619
  33
0.0
   0
SOLID
   5
11B
 100
AcDbEntity
   8
LEVEL001
 100
AcDbTrace
   6
CONTINUOUS
  62
8
  10
 297.74999999990
  20
 370.03356191406
  30
0.0
  11
 294.74999999990
  21
 370.56254285619
  31
0.0
  12
 294.74999999990
  22
 369.50458097194
  32
0.0
  13
 294.74999999990
  23
 369.50458097194
  33
0.0
   0
MTEXT
   5
11C
 100
AcDbEntity
   8
LEVEL001
 370
15
  62
8
 100
AcDbMText
  10
 247.74999999990
  20
 371.03356191406
  30
0.0
  40
 4.0000000000000
  41
0.0
  71
8
  72
1
   1
\A1;100
   7
GMM001
   0
ENDBLK
   5
11D
 100
AcDbEntity
   8
0
 100
AcDbBlockEnd
   0
BLOCK
   5
11E
 100
AcDbEntity
   8
0
 100
AcDbBlockBegin
   2
*D9
  70
65
  10
0.0
  20
0.0
  30
0.0
   3
*D9
   0
LINE
   5
11F
 100
AcDbEntity
   8
LEVEL001
 370
15
 100
AcDbLine
   6
CONTINUOUS
  62
8
  10
 342.24999999990
  20
 345.53356191406
  30
0.0
  11
 342.24999999990
  21
 362.03356191406
  31
0.0
   0
LINE
   5
120
 100
AcDbEntity
   8
LEVEL001
 370
15
 100
AcDbLine
   6
CONTINUOUS
  62
8
  10
 342.24999999990
  20
 360.03356191406
  30
0.0
  11
 356.49999999990
  21
 360.03356191406
  31
0.0
   0
LINE
   5
121
 100
AcDbEntity
   8
LEVEL001
 370
15
 100
AcDbLine
   6
CONTINUOUS
  62
8
  10
 370.74999999990
  20
 360.03356191406
  30
0.0
  11
 356.49999999990
  21
 360.03356191406
  31
0.0
   0
SOLID
   5
122
 100
AcDbEntity
   8
LEVEL001
 100
AcDbTrace
   6
CONTINUOUS
  62
8
  10
 342.24999999990
  20
 360.03356191406
  30
0.0
  11
 345.24999999990
  21
 359.50458097194
  31
0.0
  12
 345.24999999990
  22
 360.56254285619
  32
0.0
  13
 345.24999999990
  23
 360.56254285619
  33
0.0
   0
SOLID
   5
123
 100
AcDbEntity
   8
LEVEL001
 100
AcDbTrace
   6
CONTINUOUS
  62
8
  10
 370.74999999990
  20
 360.03356191406
  30
0.0
  11
 367.74999999990
  21
 360.56254285619
  31
0.0
  12
 367.74999999990
  22
 359.50458097194
  32
0.0
  13
 367.74999999990
  23
 359.50458097194
  33
0.0
   0
MTEXT
   5
124
 100
AcDbEntity
   8
LEVEL001
 370
15
  62
8
 100
AcDbMText
  10
 356.49999999990
  20
 361.03356191406
  30
0.0
  40
 4.0000000000000
  41
0.0
  71
8
  72
1
   1
\A1;28.5
   7
GMM001
   0
ENDBLK
   5
125
 100
AcDbEntity
   8
0
 100
AcDbBlockEnd
   0
BLOCK
   5
126
 100
AcDbEntity
   8
0
 100
AcDbBlockBegin
   2
*D10
  70
65
  10
0.0
  20
0.0
  30
0.0
   3
*D10
   0
LINE
   5
127
 100
AcDbEntity
   8
LEVEL001
 370
15
 100
AcDbLine
   6
CONTINUOUS
  62
8
  10
 370.74999999990
  20
 351.00254426150
  30
0.0
  11
 370.74999999990
  21
 362.03356191406
  31
0.0
   0
LINE
   5
128
 100
AcDbEntity
   8
LEVEL001
 370
15
 100
AcDbLine
   6
CONTINUOUS
  62
8
  10
 370.74999999990
  20
 360.03356191406
  30
0.0
  11
 392.24999999990
  21
 360.03356191406
  31
0.0
   0
LINE
   5
129
 100
AcDbEntity
   8
LEVEL001
 370
15
 100
AcDbLine
   6
CONTINUOUS
  62
8
  10
 413.74999999990
  20
 360.03356191406
  30
0.0
  11
 392.24999999990
  21
 360.03356191406
  31
0.0
   0
SOLID
   5
12A
 100
AcDbEntity
   8
LEVEL001
 100
AcDbTrace
   6
CONTINUOUS
  62
8
  10
 370.74999999990
  20
 360.03356191406
  30
0.0
  11
 373.74999999990
  21
 359.50458097194
  31
0.0
  12
 373.74999999990
  22
 360.56254285619
  32
0.0
  13
 373.74999999990
  23
 360.56254285619
  33
0.0
   0
SOLID
   5
12B
 100
AcDbEntity
   8
LEVEL001
 100
AcDbTrace
   6
CONTINUOUS
  62
8
  10
 413.74999999990
  20
 360.03356191406
  30
0.0
  11
 410.74999999990
  21
 360.56254285619
  31
0.0
  12
 410.74999999990
  22
 359.50458097194
  32
0.0
  13
 410.74999999990
  23
 359.50458097194
  33
0.0
   0
MTEXT
   5
12C
 100
AcDbEntity
   8
LEVEL001
 370
15
  62
8
 100
AcDbMText
  10
 392.24999999990
  20
 361.03356191406
  30
0.0
  40
 4.0000000000000
  41
0.0
  71
8
  72
1
   1
\A1;43
   7
GMM001
   0
ENDBLK
   5
12D
 100
AcDbEntity
   8
0
 100
AcDbBlockEnd
   0
BLOCK
   5
12E
 100
AcDbEntity
   8
0
 100
AcDbBlockBegin
   2
*D11
  70
65
  10
0.0
  20
0.0
  30
0.0
   3
*D11
   0
LINE
   5
12F
 100
AcDbEntity
   8
LEVEL001
 370
15
 100
AcDbLine
   6
CONTINUOUS
  62
8
  10
 413.74999999990
  20
 351.00254426150
  30
0.0
  11
 413.74999999990
  21
 362.03356191406
  31
0.0
   0
LINE
   5
130
 100
AcDbEntity
   8
LEVEL001
 370
15
 100
AcDbLine
   6
CONTINUOUS
  62
8
  10
 442.24999999990
  20
 345.53356191406
  30
0.0
  11
 442.24999999990
  21
 362.03356191406
  31
0.0
   0
LINE
   5
131
 100
AcDbEntity
   8
LEVEL001
 370
15
 100
AcDbLine
   6
CONTINUOUS
  62
8
  10
 413.74999999990
  20
 360.03356191406
  30
0.0
  11
 427.99999999990
  21
 360.03356191406
  31
0.0
   0
LINE
   5
132
 100
AcDbEntity
   8
LEVEL001
 370
15
 100
AcDbLine
   6
CONTINUOUS
  62
8
  10
 442.24999999990
  20
 360.03356191406
  30
0.0
  11
 427.99999999990
  21
 360.03356191406
  31
0.0
   0
SOLID
   5
133
 100
AcDbEntity
   8
LEVEL001
 100
AcDbTrace
   6
CONTINUOUS
  62
8
  10
 413.74999999990
  20
 360.03356191406
  30
0.0
  11
 416.74999999990
  21
 359.50458097194
  31
0.0
  12
 416.74999999990
  22
 360.56254285619
  32
0.0
  13
 416.74999999990
  23
 360.56254285619
  33
0.0
   0
SOLID
   5
134
 100
AcDbEntity
   8
LEVEL001
 100
AcDbTrace
   6
CONTINUOUS
  62
8
  10
 442.24999999990
  20
 360.03356191406
  30
0.0
  11
 439.24999999990
  21
 360.56254285619
  31
0.0
  12
 439.24999999990
  22
 359.50458097194
  32
0.0
  13
 439.24999999990
  23
 359.50458097194
  33
0.0
   0
MTEXT
   5
135
 100
AcDbEntity
   8
LEVEL001
 370
15
  62
8
 100
AcDbMText
  10
 427.99999999990
  20
 361.03356191406
  30
0.0
  40
 4.0000000000000
  41
0.0
  71
8
  72
1
   1
\A1;28.5
   7
GMM001
   0
ENDBLK
   5
136
 100
AcDbEntity
   8
0
 100
AcDbBlockEnd
   0
BLOCK
   5
137
 100
AcDbEntity
   8
0
 100
AcDbBlockBegin
   2
*D12
  70
65
  10
0.0
  20
0.0
  30
0.0
   3
*D12
   0
LINE
   5
138
 100
AcDbEntity
   8
LEVEL001
 370
15
 100
AcDbLine
   6
CONTINUOUS
  62
8
  10
 342.24999999990
  20
 362.03356191406
  30
0.0
  11
 342.24999999990
  21
 372.03356191406
  31
0.0
   0
LINE
   5
139
 100
AcDbEntity
   8
LEVEL001
 370
15
 100
AcDbLine
   6
CONTINUOUS
  62
8
  10
 442.24999999990
  20
 362.03356191406
  30
0.0
  11
 442.24999999990
  21
 372.03356191406
  31
0.0
   0
LINE
   5
13A
 100
AcDbEntity
   8
LEVEL001
 370
15
 100
AcDbLine
   6
CONTINUOUS
  62
8
  10
 342.24999999990
  20
 370.03356191406
  30
0.0
  11
 392.24999999990
  21
 370.03356191406
  31
0.0
   0
LINE
   5
13B
 100
AcDbEntity
   8
LEVEL001
 370
15
 100
AcDbLine
   6
CONTINUOUS
  62
8
  10
 442.24999999990
  20
 370.03356191406
  30
0.0
  11
 392.24999999990
  21
 370.03356191406
  31
0.0
   0
SOLID
   5
13C
 100
AcDbEntity
   8
LEVEL001
 100
AcDbTrace
   6
CONTINUOUS
  62
8
  10
 342.24999999990
  20
 370.03356191406
  30
0.0
  11
 345.24999999990
  21
 369.50458097194
  31
0.0
  12
 345.24999999990
  22
 370.56254285619
  32
0.0
  13
 345.24999999990
  23
 370.56254285619
  33
0.0
   0
SOLID
   5
13D
 100
AcDbEntity
   8
LEVEL001
 100
AcDbTrace
   6
CONTINUOUS
  62
8
  10
 442.24999999990
  20
 370.03356191406
  30
0.0
  11
 439.24999999990
  21
 370.56254285619
  31
0.0
  12
 439.24999999990
  22
 369.50458097194
  32
0.0
  13
 439.24999999990
  23
 369.50458097194
  33
0.0
   0
MTEXT
   5
13E
 100
AcDbEntity
   8
LEVEL001
 370
15
  62
8
 100
AcDbMText
  10
 392.24999999990
  20
 371.03356191406
  30
0.0
  40
 4.0000000000000
  41
0.0
  71
8
  72
1
   1
\A1;100
   7
GMM001
   0
ENDBLK
   5
13F
 100
AcDbEntity
   8
0
 100
AcDbBlockEnd
   0
BLOCK
   5
140
 100
AcDbEntity
   8
0
 100
AcDbBlockBegin
   2
*D13
  70
65
  10
0.0
  20
0.0
  30
0.0
   3
*D13
   0
LINE
   5
141
 100
AcDbEntity
   8
LEVEL001
 370
15
 100
AcDbLine
   6
CONTINUOUS
  62
8
  10
 51.249999999900
  20
 322.53356191406
  30
0.0
  11
 41.249999999900
  21
 322.53356191406
  31
0.0
   0
LINE
   5
142
 100
AcDbEntity
   8
LEVEL001
 370
15
 100
AcDbLine
   6
CONTINUOUS
  62
8
  10
 52.749999999900
  20
 342.53356191406
  30
0.0
  11
 41.249999999900
  21
 342.53356191406
  31
0.0
   0
LINE
   5
143
 100
AcDbEntity
   8
LEVEL001
 370
15
 100
AcDbLine
   6
CONTINUOUS
  62
8
  10
 43.249999999900
  20
 322.53356191406
  30
0.0
  11
 43.249999999900
  21
 332.53356191406
  31
0.0
   0
LINE
   5
144
 100
AcDbEntity
   8
LEVEL001
 370
15
 100
AcDbLine
   6
CONTINUOUS
  62
8
  10
 43.249999999900
  20
 342.53356191406
  30
0.0
  11
 43.249999999900
  21
 332.53356191406
  31
0.0
   0
SOLID
   5
145
 100
AcDbEntity
   8
LEVEL001
 100
AcDbTrace
   6
CONTINUOUS
  62
8
  10
 43.249999999900
  20
 322.53356191406
  30
0.0
  11
 43.778980942025
  21
 325.53356191406
  31
0.0
  12
 42.721019057775
  22
 325.53356191406
  32
0.0
  13
 42.721019057775
  23
 325.53356191406
  33
0.0
   0
SOLID
   5
146
 100
AcDbEntity
   8
LEVEL001
 100
AcDbTrace
   6
CONTINUOUS
  62
8
  10
 43.249999999900
  20
 342.53356191406
  30
0.0
  11
 42.721019057775
  21
 339.53356191406
  31
0.0
  12
 43.778980942025
  22
 339.53356191406
  32
0.0
  13
 43.778980942025
  23
 339.53356191406
  33
0.0
   0
MTEXT
   5
147
 100
AcDbEntity
   8
LEVEL001
 370
15
  62
8
 100
AcDbMText
  10
 42.249999999900
  20
 332.53356191406
  30
0.0
  40
 4.0000000000000
  41
0.0
  71
8
  72
1
   1
\A1;20
   7
GMM001
  11
0.0
  21
 1.0000000000000
  31
0.0
   0
ENDBLK
   5
148
 100
AcDbEntity
   8
0
 100
AcDbBlockEnd
   0
BLOCK
   5
149
 100
AcDbEntity
   8
0
 100
AcDbBlockBegin
   2
*D14
  70
65
  10
0.0
  20
0.0
  30
0.0
   3
*D14
   0
LINE
   5
14A
 100
AcDbEntity
   8
LEVEL001
 370
15
 100
AcDbLine
   6
CONTINUOUS
  62
8
  10
 195.74999999990
  20
 322.53356191406
  30
0.0
  11
 185.74999999990
  21
 322.53356191406
  31
0.0
   0
LINE
   5
14B
 100
AcDbEntity
   8
LEVEL001
 370
15
 100
AcDbLine
   6
CONTINUOUS
  62
8
  10
 197.24999999990
  20
 342.53356191406
  30
0.0
  11
 185.74999999990
  21
 342.53356191406
  31
0.0
   0
LINE
   5
14C
 100
AcDbEntity
   8
LEVEL001
 370
15
 100
AcDbLine
   6
CONTINUOUS
  62
8
  10
 187.74999999990
  20
 322.53356191406
  30
0.0
  11
 187.74999999990
  21
 332.53356191406
  31
0.0
   0
LINE
   5
14D
 100
AcDbEntity
   8
LEVEL001
 370
15
 100
AcDbLine
   6
CONTINUOUS
  62
8
  10
 187.74999999990
  20
 342.53356191406
  30
0.0
  11
 187.74999999990
  21
 332.53356191406
  31
0.0
   0
SOLID
   5
14E
 100
AcDbEntity
   8
LEVEL001
 100
AcDbTrace
   6
CONTINUOUS
  62
8
  10
 187.74999999990
  20
 322.53356191406
  30
0.0
  11
 188.27898094203
  21
 325.53356191406
  31
0.0
  12
 187.22101905777
  22
 325.53356191406
  32
0.0
  13
 187.22101905777
  23
 325.53356191406
  33
0.0
   0
SOLID
   5
14F
 100
AcDbEntity
   8
LEVEL001
 100
AcDbTrace
   6
CONTINUOUS
  62
8
  10
 187.74999999990
  20
 342.53356191406
  30
0.0
  11
 187.22101905777
  21
 339.53356191406
  31
0.0
  12
 188.27898094203
  22
 339.53356191406
  32
0.0
  13
 188.27898094203
  23
 339.53356191406
  33
0.0
   0
MTEXT
   5
150
 100
AcDbEntity
   8
LEVEL001
 370
15
  62
8
 100
AcDbMText
  10
 186.74999999990
  20
 332.53356191406
  30
0.0
  40
 4.0000000000000
  41
0.0
  71
8
  72
1
   1
\A1;20
   7
GMM001
  11
0.0
  21
 1.0000000000000
  31
0.0
   0
ENDBLK
   5
151
 100
AcDbEntity
   8
0
 100
AcDbBlockEnd
   0
BLOCK
   5
152
 100
AcDbEntity
   8
0
 100
AcDbBlockBegin
   2
*D15
  70
65
  10
0.0
  20
0.0
  30
0.0
   3
*D15
   0
LINE
   5
153
 100
AcDbEntity
   8
LEVEL001
 370
15
 100
AcDbLine
   6
CONTINUOUS
  62
8
  10
 340.24999999990
  20
 322.53356191406
  30
0.0
  11
 330.24999999990
  21
 322.53356191406
  31
0.0
   0
LINE
   5
154
 100
AcDbEntity
   8
LEVEL001
 370
15
 100
AcDbLine
   6
CONTINUOUS
  62
8
  10
 341.74999999990
  20
 342.53356191406
  30
0.0
  11
 330.24999999990
  21
 342.53356191406
  31
0.0
   0
LINE
   5
155
 100
AcDbEntity
   8
LEVEL001
 370
15
 100
AcDbLine
   6
CONTINUOUS
  62
8
  10
 332.24999999990
  20
 322.53356191406
  30
0.0
  11
 332.24999999990
  21
 332.53356191406
  31
0.0
   0
LINE
   5
156
 100
AcDbEntity
   8
LEVEL001
 370
15
 100
AcDbLine
   6
CONTINUOUS
  62
8
  10
 332.24999999990
  20
 342.53356191406
  30
0.0
  11
 332.24999999990
  21
 332.53356191406
  31
0.0
   0
SOLID
   5
157
 100
AcDbEntity
   8
LEVEL001
 100
AcDbTrace
   6
CONTINUOUS
  62
8
  10
 332.24999999990
  20
 322.53356191406
  30
0.0
  11
 332.77898094203
  21
 325.53356191406
  31
0.0
  12
 331.72101905777
  22
 325.53356191406
  32
0.0
  13
 331.72101905777
  23
 325.53356191406
  33
0.0
   0
SOLID
   5
158
 100
AcDbEntity
   8
LEVEL001
 100
AcDbTrace
   6
CONTINUOUS
  62
8
  10
 332.24999999990
  20
 342.53356191406
  30
0.0
  11
 331.72101905777
  21
 339.53356191406
  31
0.0
  12
 332.77898094203
  22
 339.53356191406
  32
0.0
  13
 332.77898094203
  23
 339.53356191406
  33
0.0
   0
MTEXT
   5
159
 100
AcDbEntity
   8
LEVEL001
 370
15
  62
8
 100
AcDbMText
  10
 331.24999999990
  20
 332.53356191406
  30
0.0
  40
 4.0000000000000
  41
0.0
  71
8
  72
1
   1
\A1;20
   7
GMM001
  11
0.0
  21
 1.0000000000000
  31
0.0
   0
ENDBLK
   5
15A
 100
AcDbEntity
   8
0
 100
AcDbBlockEnd
   0
BLOCK
   5
15B
 100
AcDbEntity
   8
0
 100
AcDbBlockBegin
   2
*D16
  70
65
  10
0.0
  20
0.0
  30
0.0
   3
*D16
   0
LINE
   5
15C
 100
AcDbEntity
   8
LEVEL001
 370
15
 100
AcDbLine
   6
CONTINUOUS
  62
8
  10
 76.249999999900
  20
 459.03356191404
  30
0.0
  11
 66.249999999900
  21
 459.03356191404
  31
0.0
   0
LINE
   5
15D
 100
AcDbEntity
   8
LEVEL001
 370
15
 100
AcDbLine
   6
CONTINUOUS
  62
8
  10
 77.749999999900
  20
 479.03356191404
  30
0.0
  11
 66.249999999900
  21
 479.03356191404
  31
0.0
   0
LINE
   5
15E
 100
AcDbEntity
   8
LEVEL001
 370
15
 100
AcDbLine
   6
CONTINUOUS
  62
8
  10
 68.249999999900
  20
 459.03356191404
  30
0.0
  11
 68.249999999900
  21
 469.03356191404
  31
0.0
   0
LINE
   5
15F
 100
AcDbEntity
   8
LEVEL001
 370
15
 100
AcDbLine
   6
CONTINUOUS
  62
8
  10
 68.249999999900
  20
 479.03356191404
  30
0.0
  11
 68.249999999900
  21
 469.03356191404
  31
0.0
   0
SOLID
   5
160
 100
AcDbEntity
   8
LEVEL001
 100
AcDbTrace
   6
CONTINUOUS
  62
8
  10
 68.249999999900
  20
 459.03356191404
  30
0.0
  11
 68.778980942025
  21
 462.03356191404
  31
0.0
  12
 67.721019057775
  22
 462.03356191404
  32
0.0
  13
 67.721019057775
  23
 462.03356191404
  33
0.0
   0
SOLID
   5
161
 100
AcDbEntity
   8
LEVEL001
 100
AcDbTrace
   6
CONTINUOUS
  62
8
  10
 68.249999999900
  20
 479.03356191404
  30
0.0
  11
 67.721019057775
  21
 476.03356191404
  31
0.0
  12
 68.778980942025
  22
 476.03356191404
  32
0.0
  13
 68.778980942025
  23
 476.03356191404
  33
0.0
   0
MTEXT
   5
162
 100
AcDbEntity
   8
LEVEL001
 370
15
  62
8
 100
AcDbMText
  10
 67.249999999900
  20
 469.03356191404
  30
0.0
  40
 4.0000000000000
  41
0.0
  71
8
  72
1
   1
\A1;20
   7
GMM001
  11
0.0
  21
 1.0000000000000
  31
0.0
   0
ENDBLK
   5
163
 100
AcDbEntity
   8
0
 100
AcDbBlockEnd
   0
BLOCK
   5
164
 100
AcDbEntity
   8
0
 100
AcDbBlockBegin
   2
*D17
  70
65
  10
0.0
  20
0.0
  30
0.0
   3
*D17
   0
LINE
   5
165
 100
AcDbEntity
   8
LEVEL001
 370
15
 100
AcDbLine
   6
CONTINUOUS
  62
8
  10
 78.249999999900
  20
 479.53356191404
  30
0.0
  11
 78.249999999900
  21
 491.03356191404
  31
0.0
   0
LINE
   5
166
 100
AcDbEntity
   8
LEVEL001
 370
15
 100
AcDbLine
   6
CONTINUOUS
  62
8
  10
 103.24999999990
  20
 485.73303420455
  30
0.0
  11
 103.24999999990
  21
 491.03356191404
  31
0.0
   0
LINE
   5
167
 100
AcDbEntity
   8
LEVEL001
 370
15
 100
AcDbLine
   6
CONTINUOUS
  62
8
  10
 78.249999999900
  20
 489.03356191404
  30
0.0
  11
 90.749999999900
  21
 489.03356191404
  31
0.0
   0
LINE
   5
168
 100
AcDbEntity
   8
LEVEL001
 370
15
 100
AcDbLine
   6
CONTINUOUS
  62
8
  10
 103.24999999990
  20
 489.03356191404
  30
0.0
  11
 90.749999999900
  21
 489.03356191404
  31
0.0
   0
SOLID
   5
169
 100
AcDbEntity
   8
LEVEL001
 100
AcDbTrace
   6
CONTINUOUS
  62
8
  10
 78.249999999900
  20
 489.03356191404
  30
0.0
  11
 81.249999999900
  21
 488.50458097192
  31
0.0
  12
 81.249999999900
  22
 489.56254285617
  32
0.0
  13
 81.249999999900
  23
 489.56254285617
  33
0.0
   0
SOLID
   5
16A
 100
AcDbEntity
   8
LEVEL001
 100
AcDbTrace
   6
CONTINUOUS
  62
8
  10
 103.24999999990
  20
 489.03356191404
  30
0.0
  11
 100.24999999990
  21
 489.56254285617
  31
0.0
  12
 100.24999999990
  22
 488.50458097192
  32
0.0
  13
 100.24999999990
  23
 488.50458097192
  33
0.0
   0
MTEXT
   5
16B
 100
AcDbEntity
   8
LEVEL001
 370
15
  62
8
 100
AcDbMText
  10
 90.749999999900
  20
 490.03356191404
  30
0.0
  40
 4.0000000000000
  41
0.0
  71
8
  72
1
   1
\A1;25
   7
GMM001
   0
ENDBLK
   5
16C
 100
AcDbEntity
   8
0
 100
AcDbBlockEnd
   0
BLOCK
   5
16D
 100
AcDbEntity
   8
0
 100
AcDbBlockBegin
   2
*D18
  70
65
  10
0.0
  20
0.0
  30
0.0
   3
*D18
   0
LINE
   5
16E
 100
AcDbEntity
   8
LEVEL001
 370
15
 100
AcDbLine
   6
CONTINUOUS
  62
8
  10
 78.249999999900
  20
 491.03356191404
  30
0.0
  11
 78.249999999900
  21
 501.03356191404
  31
0.0
   0
LINE
   5
16F
 100
AcDbEntity
   8
LEVEL001
 370
15
 100
AcDbLine
   6
CONTINUOUS
  62
8
  10
 128.24999999990
  20
 479.53356191404
  30
0.0
  11
 128.24999999990
  21
 501.03356191404
  31
0.0
   0
LINE
   5
170
 100
AcDbEntity
   8
LEVEL001
 370
15
 100
AcDbLine
   6
CONTINUOUS
  62
8
  10
 78.249999999900
  20
 499.03356191404
  30
0.0
  11
 103.24999999990
  21
 499.03356191404
  31
0.0
   0
LINE
   5
171
 100
AcDbEntity
   8
LEVEL001
 370
15
 100
AcDbLine
   6
CONTINUOUS
  62
8
  10
 128.24999999990
  20
 499.03356191404
  30
0.0
  11
 103.24999999990
  21
 499.03356191404
  31
0.0
   0
SOLID
   5
172
 100
AcDbEntity
   8
LEVEL001
 100
AcDbTrace
   6
CONTINUOUS
  62
8
  10
 78.249999999900
  20
 499.03356191404
  30
0.0
  11
 81.249999999900
  21
 498.50458097192
  31
0.0
  12
 81.249999999900
  22
 499.56254285617
  32
0.0
  13
 81.249999999900
  23
 499.56254285617
  33
0.0
   0
SOLID
   5
173
 100
AcDbEntity
   8
LEVEL001
 100
AcDbTrace
   6
CONTINUOUS
  62
8
  10
 128.24999999990
  20
 499.03356191404
  30
0.0
  11
 125.24999999990
  21
 499.56254285617
  31
0.0
  12
 125.24999999990
  22
 498.50458097192
  32
0.0
  13
 125.24999999990
  23
 498.50458097192
  33
0.0
   0
MTEXT
   5
174
 100
AcDbEntity
   8
LEVEL001
 370
15
  62
8
 100
AcDbMText
  10
 103.24999999990
  20
 500.03356191404
  30
0.0
  40
 4.0000000000000
  41
0.0
  71
8
  72
1
   1
\A1;50
   7
GMM001
   0
ENDBLK
   5
175
 100
AcDbEntity
   8
0
 100
AcDbBlockEnd
   0
BLOCK
   5
176
 100
AcDbEntity
   8
0
 100
AcDbBlockBegin
   2
*D23
  70
65
  10
0.0
  20
0.0
  30
0.0
   3
*D23
   0
LINE
   5
177
 100
AcDbEntity
   8
LEVEL001
 370
15
 100
AcDbLine
   6
CONTINUOUS
  62
8
  10
 105.24999999990
  20
 475.43356191404
  30
0.0
  11
 140.24999999990
  21
 475.43356191404
  31
0.0
   0
LINE
   5
178
 100
AcDbEntity
   8
LEVEL001
 370
15
 100
AcDbLine
   6
CONTINUOUS
  62
8
  10
 128.74999999990
  20
 479.03356191404
  30
0.0
  11
 140.24999999990
  21
 479.03356191404
  31
0.0
   0
LINE
   5
179
 100
AcDbEntity
   8
LEVEL001
 370
15
 100
AcDbLine
   6
CONTINUOUS
  62
8
  10
 138.24999999990
  20
 471.68356191404
  30
0.0
  11
 138.24999999990
  21
 477.23356191404
  31
0.0
   0
LINE
   5
17A
 100
AcDbEntity
   8
LEVEL001
 370
15
 100
AcDbLine
   6
CONTINUOUS
  62
8
  10
 138.24999999990
  20
 489.61547422474
  30
0.0
  11
 138.24999999990
  21
 477.23356191404
  31
0.0
   0
SOLID
   5
17B
 100
AcDbEntity
   8
LEVEL001
 100
AcDbTrace
   6
CONTINUOUS
  62
8
  10
 138.24999999990
  20
 475.43356191404
  30
0.0
  11
 137.72101905778
  21
 472.43356191404
  31
0.0
  12
 138.77898094203
  22
 472.43356191404
  32
0.0
  13
 138.77898094203
  23
 472.43356191404
  33
0.0
   0
SOLID
   5
17C
 100
AcDbEntity
   8
LEVEL001
 100
AcDbTrace
   6
CONTINUOUS
  62
8
  10
 138.24999999990
  20
 479.03356191404
  30
0.0
  11
 138.77898094203
  21
 482.03356191404
  31
0.0
  12
 137.72101905778
  22
 482.03356191404
  32
0.0
  13
 137.72101905778
  23
 482.03356191404
  33
0.0
   0
MTEXT
   5
17D
 100
AcDbEntity
   8
LEVEL001
 370
15
  62
8
 100
AcDbMText
  10
 137.31309329545
  20
 481.11547422474
  30
0.0
  40
 4.0000000000000
  41
0.0
  71
7
  72
1
   1
\A1;3.6
   7
GMM001
  11
0.0
  21
 1.0000000000000
  31
0.0
   0
ENDBLK
   5
17E
 100
AcDbEntity
   8
0
 100
AcDbBlockEnd
   0
BLOCK
   5
17F
 100
AcDbEntity
   8
0
 100
AcDbBlockBegin
   2
*D24
  70
65
  10
0.0
  20
0.0
  30
0.0
   3
*D24
   0
LINE
   5
180
 100
AcDbEntity
   8
LEVEL001
 370
15
 100
AcDbLine
   6
CONTINUOUS
  62
8
  10
 123.24999999990
  20
 338.93356191406
  30
0.0
  11
 165.24999999990
  21
 338.93356191406
  31
0.0
   0
LINE
   5
181
 100
AcDbEntity
   8
LEVEL001
 370
15
 100
AcDbLine
   6
CONTINUOUS
  62
8
  10
 153.74999999990
  20
 342.53356191406
  30
0.0
  11
 165.24999999990
  21
 342.53356191406
  31
0.0
   0
LINE
   5
182
 100
AcDbEntity
   8
LEVEL001
 370
15
 100
AcDbLine
   6
CONTINUOUS
  62
8
  10
 163.24999999990
  20
 335.18356191406
  30
0.0
  11
 163.24999999990
  21
 340.73356191406
  31
0.0
   0
LINE
   5
183
 100
AcDbEntity
   8
LEVEL001
 370
15
 100
AcDbLine
   6
CONTINUOUS
  62
8
  10
 163.24999999990
  20
 353.61220702466
  30
0.0
  11
 163.24999999990
  21
 340.73356191406
  31
0.0
   0
SOLID
   5
184
 100
AcDbEntity
   8
LEVEL001
 100
AcDbTrace
   6
CONTINUOUS
  62
8
  10
 163.24999999990
  20
 338.93356191406
  30
0.0
  11
 162.72101905777
  21
 335.93356191406
  31
0.0
  12
 163.77898094203
  22
 335.93356191406
  32
0.0
  13
 163.77898094203
  23
 335.93356191406
  33
0.0
   0
SOLID
   5
185
 100
AcDbEntity
   8
LEVEL001
 100
AcDbTrace
   6
CONTINUOUS
  62
8
  10
 163.24999999990
  20
 342.53356191406
  30
0.0
  11
 163.77898094203
  21
 345.53356191406
  31
0.0
  12
 162.72101905777
  22
 345.53356191406
  32
0.0
  13
 162.72101905777
  23
 345.53356191406
  33
0.0
   0
MTEXT
   5
186
 100
AcDbEntity
   8
LEVEL001
 370
15
  62
8
 100
AcDbMText
  10
 162.17128120481
  20
 345.11220702466
  30
0.0
  40
 4.0000000000000
  41
0.0
  71
7
  72
1
   1
\A1;3.6
   7
GMM001
  11
0.0
  21
 1.0000000000000
  31
0.0
   0
ENDBLK
   5
187
 100
AcDbEntity
   8
0
 100
AcDbBlockEnd
   0
BLOCK
   5
188
 100
AcDbEntity
   8
0
 100
AcDbBlockBegin
   2
*D25
  70
65
  10
0.0
  20
0.0
  30
0.0
   3
*D25
   0
LINE
   5
189
 100
AcDbEntity
   8
LEVEL001
 370
15
 100
AcDbLine
   6
CONTINUOUS
  62
8
  10
 415.74999999990
  20
 338.93356191406
  30
0.0
  11
 454.24999999990
  21
 338.93356191406
  31
0.0
   0
LINE
   5
18A
 100
AcDbEntity
   8
LEVEL001
 370
15
 100
AcDbLine
   6
CONTINUOUS
  62
8
  10
 442.74999999990
  20
 342.53356191406
  30
0.0
  11
 454.24999999990
  21
 342.53356191406
  31
0.0
   0
LINE
   5
18B
 100
AcDbEntity
   8
LEVEL001
 370
15
 100
AcDbLine
   6
CONTINUOUS
  62
8
  10
 452.24999999990
  20
 335.18356191406
  30
0.0
  11
 452.24999999990
  21
 340.73356191406
  31
0.0
   0
LINE
   5
18C
 100
AcDbEntity
   8
LEVEL001
 370
15
 100
AcDbLine
   6
CONTINUOUS
  62
8
  10
 452.24999999990
  20
 353.61220702466
  30
0.0
  11
 452.24999999990
  21
 340.73356191406
  31
0.0
   0
SOLID
   5
18D
 100
AcDbEntity
   8
LEVEL001
 100
AcDbTrace
   6
CONTINUOUS
  62
8
  10
 452.24999999990
  20
 338.93356191406
  30
0.0
  11
 451.72101905777
  21
 335.93356191406
  31
0.0
  12
 452.77898094203
  22
 335.93356191406
  32
0.0
  13
 452.77898094203
  23
 335.93356191406
  33
0.0
   0
SOLID
   5
18E
 100
AcDbEntity
   8
LEVEL001
 100
AcDbTrace
   6
CONTINUOUS
  62
8
  10
 452.24999999990
  20
 342.53356191406
  30
0.0
  11
 452.77898094203
  21
 345.53356191406
  31
0.0
  12
 451.72101905777
  22
 345.53356191406
  32
0.0
  13
 451.72101905777
  23
 345.53356191406
  33
0.0
   0
MTEXT
   5
18F
 100
AcDbEntity
   8
LEVEL001
 370
15
  62
8
 100
AcDbMText
  10
 451.17128120481
  20
 345.11220702466
  30
0.0
  40
 4.0000000000000
  41
0.0
  71
7
  72
1
   1
\A1;3.6
   7
GMM001
  11
0.0
  21
 1.0000000000000
  31
0.0
   0
ENDBLK
   5
190
 100
AcDbEntity
   8
0
 100
AcDbBlockEnd
   0
BLOCK
   5
191
 100
AcDbEntity
   8
0
 100
AcDbBlockBegin
   2
*D26
  70
65
  10
0.0
  20
0.0
  30
0.0
   3
*D26
   0
LINE
   5
192
 100
AcDbEntity
   8
LEVEL001
 370
15
 100
AcDbLine
   6
CONTINUOUS
  62
8
  10
 269.24999999990
  20
 338.93356191406
  30
0.0
  11
 309.74999999990
  21
 338.93356191406
  31
0.0
   0
LINE
   5
193
 100
AcDbEntity
   8
LEVEL001
 370
15
 100
AcDbLine
   6
CONTINUOUS
  62
8
  10
 298.24999999990
  20
 342.53356191406
  30
0.0
  11
 309.74999999990
  21
 342.53356191406
  31
0.0
   0
LINE
   5
194
 100
AcDbEntity
   8
LEVEL001
 370
15
 100
AcDbLine
   6
CONTINUOUS
  62
8
  10
 307.74999999990
  20
 335.18356191406
  30
0.0
  11
 307.74999999990
  21
 340.73356191406
  31
0.0
   0
LINE
   5
195
 100
AcDbEntity
   8
LEVEL001
 370
15
 100
AcDbLine
   6
CONTINUOUS
  62
8
  10
 307.74999999990
  20
 353.61220702466
  30
0.0
  11
 307.74999999990
  21
 340.73356191406
  31
0.0
   0
SOLID
   5
196
 100
AcDbEntity
   8
LEVEL001
 100
AcDbTrace
   6
CONTINUOUS
  62
8
  10
 307.74999999990
  20
 338.93356191406
  30
0.0
  11
 307.22101905777
  21
 335.93356191406
  31
0.0
  12
 308.27898094203
  22
 335.93356191406
  32
0.0
  13
 308.27898094203
  23
 335.93356191406
  33
0.0
   0
SOLID
   5
197
 100
AcDbEntity
   8
LEVEL001
 100
AcDbTrace
   6
CONTINUOUS
  62
8
  10
 307.74999999990
  20
 342.53356191406
  30
0.0
  11
 308.27898094203
  21
 345.53356191406
  31
0.0
  12
 307.22101905777
  22
 345.53356191406
  32
0.0
  13
 307.22101905777
  23
 345.53356191406
  33
0.0
   0
MTEXT
   5
198
 100
AcDbEntity
   8
LEVEL001
 370
15
  62
8
 100
AcDbMText
  10
 306.67128120481
  20
 345.11220702466
  30
0.0
  40
 4.0000000000000
  41
0.0
  71
7
  72
1
   1
\A1;3.6
   7
GMM001
  11
0.0
  21
 1.0000000000000
  31
0.0
   0
ENDBLK
   5
199
 100
AcDbEntity
   8
0
 100
AcDbBlockEnd
   0
BLOCK
   5
19A
 100
AcDbEntity
   8
0
 100
AcDbBlockBegin
   2
*D27
  70
65
  10
0.0
  20
0.0
  30
0.0
   3
*D27
   0
LINE
   5
19B
 100
AcDbEntity
   8
LEVEL001
 370
15
 100
AcDbLine
   6
CONTINUOUS
  62
8
  10
 53.249999999900
  20
 72.533561914080
  30
0.0
  11
 53.249999999900
  21
 89.033561914080
  31
0.0
   0
LINE
   5
19C
 100
AcDbEntity
   8
LEVEL001
 370
15
 100
AcDbLine
   6
CONTINUOUS
  62
8
  10
 53.249999999900
  20
 87.033561914080
  30
0.0
  11
 69.249999999900
  21
 87.033561914080
  31
0.0
   0
LINE
   5
19D
 100
AcDbEntity
   8
LEVEL001
 370
15
 100
AcDbLine
   6
CONTINUOUS
  62
8
  10
 85.249999999900
  20
 87.033561914080
  30
0.0
  11
 69.249999999900
  21
 87.033561914080
  31
0.0
   0
SOLID
   5
19E
 100
AcDbEntity
   8
LEVEL001
 100
AcDbTrace
   6
CONTINUOUS
  62
8
  10
 53.249999999900
  20
 87.033561914080
  30
0.0
  11
 56.249999999900
  21
 86.504580971955
  31
0.0
  12
 56.249999999900
  22
 87.562542856206
  32
0.0
  13
 56.249999999900
  23
 87.562542856206
  33
0.0
   0
SOLID
   5
19F
 100
AcDbEntity
   8
LEVEL001
 100
AcDbTrace
   6
CONTINUOUS
  62
8
  10
 85.249999999900
  20
 87.033561914080
  30
0.0
  11
 82.249999999900
  21
 87.562542856206
  31
0.0
  12
 82.249999999900
  22
 86.504580971955
  32
0.0
  13
 82.249999999900
  23
 86.504580971955
  33
0.0
   0
MTEXT
   5
1A0
 100
AcDbEntity
   8
LEVEL001
 370
15
  62
8
 100
AcDbMText
  10
 69.249999999900
  20
 88.033561914080
  30
0.0
  40
 4.0000000000000
  41
0.0
  71
8
  72
1
   1
\A1;32
   7
GMM001
   0
ENDBLK
   5
1A1
 100
AcDbEntity
   8
0
 100
AcDbBlockEnd
   0
BLOCK
   5
1A2
 100
AcDbEntity
   8
0
 100
AcDbBlockBegin
   2
*D28
  70
65
  10
0.0
  20
0.0
  30
0.0
   3
*D28
   0
LINE
   5
1A3
 100
AcDbEntity
   8
LEVEL001
 370
15
 100
AcDbLine
   6
CONTINUOUS
  62
8
  10
 85.249999999900
  20
 78.002544261520
  30
0.0
  11
 85.249999999900
  21
 89.033561914080
  31
0.0
   0
LINE
   5
1A4
 100
AcDbEntity
   8
LEVEL001
 370
15
 100
AcDbLine
   6
CONTINUOUS
  62
8
  10
 85.249999999900
  20
 87.033561914080
  30
0.0
  11
 103.24999999990
  21
 87.033561914080
  31
0.0
   0
LINE
   5
1A5
 100
AcDbEntity
   8
LEVEL001
 370
15
 100
AcDbLine
   6
CONTINUOUS
  62
8
  10
 121.24999999990
  20
 87.033561914080
  30
0.0
  11
 103.24999999990
  21
 87.033561914080
  31
0.0
   0
SOLID
   5
1A6
 100
AcDbEntity
   8
LEVEL001
 100
AcDbTrace
   6
CONTINUOUS
  62
8
  10
 85.249999999900
  20
 87.033561914080
  30
0.0
  11
 88.249999999900
  21
 86.504580971955
  31
0.0
  12
 88.249999999900
  22
 87.562542856206
  32
0.0
  13
 88.249999999900
  23
 87.562542856206
  33
0.0
   0
SOLID
   5
1A7
 100
AcDbEntity
   8
LEVEL001
 100
AcDbTrace
   6
CONTINUOUS
  62
8
  10
 121.24999999990
  20
 87.033561914080
  30
0.0
  11
 118.24999999990
  21
 87.562542856206
  31
0.0
  12
 118.24999999990
  22
 86.504580971955
  32
0.0
  13
 118.24999999990
  23
 86.504580971955
  33
0.0
   0
MTEXT
   5
1A8
 100
AcDbEntity
   8
LEVEL001
 370
15
  62
8
 100
AcDbMText
  10
 103.24999999990
  20
 88.033561914080
  30
0.0
  40
 4.0000000000000
  41
0.0
  71
8
  72
1
   1
\A1;36
   7
GMM001
   0
ENDBLK
   5
1A9
 100
AcDbEntity
   8
0
 100
AcDbBlockEnd
   0
BLOCK
   5
1AA
 100
AcDbEntity
   8
0
 100
AcDbBlockBegin
   2
*D29
  70
65
  10
0.0
  20
0.0
  30
0.0
   3
*D29
   0
LINE
   5
1AB
 100
AcDbEntity
   8
LEVEL001
 370
15
 100
AcDbLine
   6
CONTINUOUS
  62
8
  10
 121.24999999990
  20
 78.002544261520
  30
0.0
  11
 121.24999999990
  21
 89.033561914080
  31
0.0
   0
LINE
   5
1AC
 100
AcDbEntity
   8
LEVEL001
 370
15
 100
AcDbLine
   6
CONTINUOUS
  62
8
  10
 153.24999999990
  20
 72.533561914080
  30
0.0
  11
 153.24999999990
  21
 89.033561914080
  31
0.0
   0
LINE
   5
1AD
 100
AcDbEntity
   8
LEVEL001
 370
15
 100
AcDbLine
   6
CONTINUOUS
  62
8
  10
 121.24999999990
  20
 87.033561914080
  30
0.0
  11
 137.24999999990
  21
 87.033561914080
  31
0.0
   0
LINE
   5
1AE
 100
AcDbEntity
   8
LEVEL001
 370
15
 100
AcDbLine
   6
CONTINUOUS
  62
8
  10
 153.24999999990
  20
 87.033561914080
  30
0.0
  11
 137.24999999990
  21
 87.033561914080
  31
0.0
   0
SOLID
   5
1AF
 100
AcDbEntity
   8
LEVEL001
 100
AcDbTrace
   6
CONTINUOUS
  62
8
  10
 121.24999999990
  20
 87.033561914080
  30
0.0
  11
 124.24999999990
  21
 86.504580971955
  31
0.0
  12
 124.24999999990
  22
 87.562542856206
  32
0.0
  13
 124.24999999990
  23
 87.562542856206
  33
0.0
   0
SOLID
   5
1B0
 100
AcDbEntity
   8
LEVEL001
 100
AcDbTrace
   6
CONTINUOUS
  62
8
  10
 153.24999999990
  20
 87.033561914080
  30
0.0
  11
 150.24999999990
  21
 87.562542856206
  31
0.0
  12
 150.24999999990
  22
 86.504580971955
  32
0.0
  13
 150.24999999990
  23
 86.504580971955
  33
0.0
   0
MTEXT
   5
1B1
 100
AcDbEntity
   8
LEVEL001
 370
15
  62
8
 100
AcDbMText
  10
 137.24999999990
  20
 88.033561914080
  30
0.0
  40
 4.0000000000000
  41
0.0
  71
8
  72
1
   1
\A1;32
   7
GMM001
   0
ENDBLK
   5
1B2
 100
AcDbEntity
   8
0
 100
AcDbBlockEnd
   0
BLOCK
   5
1B3
 100
AcDbEntity
   8
0
 100
AcDbBlockBegin
   2
*D30
  70
65
  10
0.0
  20
0.0
  30
0.0
   3
*D30
   0
LINE
   5
1B4
 100
AcDbEntity
   8
LEVEL001
 370
15
 100
AcDbLine
   6
CONTINUOUS
  62
8
  10
 53.249999999900
  20
 89.033561914080
  30
0.0
  11
 53.249999999900
  21
 99.033561914080
  31
0.0
   0
LINE
   5
1B5
 100
AcDbEntity
   8
LEVEL001
 370
15
 100
AcDbLine
   6
CONTINUOUS
  62
8
  10
 153.24999999990
  20
 89.033561914080
  30
0.0
  11
 153.24999999990
  21
 99.033561914080
  31
0.0
   0
LINE
   5
1B6
 100
AcDbEntity
   8
LEVEL001
 370
15
 100
AcDbLine
   6
CONTINUOUS
  62
8
  10
 53.249999999900
  20
 97.033561914080
  30
0.0
  11
 103.24999999990
  21
 97.033561914080
  31
0.0
   0
LINE
   5
1B7
 100
AcDbEntity
   8
LEVEL001
 370
15
 100
AcDbLine
   6
CONTINUOUS
  62
8
  10
 153.24999999990
  20
 97.033561914080
  30
0.0
  11
 103.24999999990
  21
 97.033561914080
  31
0.0
   0
SOLID
   5
1B8
 100
AcDbEntity
   8
LEVEL001
 100
AcDbTrace
   6
CONTINUOUS
  62
8
  10
 53.249999999900
  20
 97.033561914080
  30
0.0
  11
 56.249999999900
  21
 96.504580971955
  31
0.0
  12
 56.249999999900
  22
 97.562542856206
  32
0.0
  13
 56.249999999900
  23
 97.562542856206
  33
0.0
   0
SOLID
   5
1B9
 100
AcDbEntity
   8
LEVEL001
 100
AcDbTrace
   6
CONTINUOUS
  62
8
  10
 153.24999999990
  20
 97.033561914080
  30
0.0
  11
 150.24999999990
  21
 97.562542856206
  31
0.0
  12
 150.24999999990
  22
 96.504580971955
  32
0.0
  13
 150.24999999990
  23
 96.504580971955
  33
0.0
   0
MTEXT
   5
1BA
 100
AcDbEntity
   8
LEVEL001
 370
15
  62
8
 100
AcDbMText
  10
 103.24999999990
  20
 98.033561914080
  30
0.0
  40
 4.0000000000000
  41
0.0
  71
8
  72
1
   1
\A1;100
   7
GMM001
   0
ENDBLK
   5
1BB
 100
AcDbEntity
   8
0
 100
AcDbBlockEnd
   0
BLOCK
   5
1BC
 100
AcDbEntity
   8
0
 100
AcDbBlockBegin
   2
*D31
  70
65
  10
0.0
  20
0.0
  30
0.0
   3
*D31
   0
LINE
   5
1BD
 100
AcDbEntity
   8
LEVEL001
 370
15
 100
AcDbLine
   6
CONTINUOUS
  62
8
  10
 51.249999999900
  20
 49.533561914080
  30
0.0
  11
 41.249999999900
  21
 49.533561914080
  31
0.0
   0
LINE
   5
1BE
 100
AcDbEntity
   8
LEVEL001
 370
15
 100
AcDbLine
   6
CONTINUOUS
  62
8
  10
 52.749999999900
  20
 69.533561914080
  30
0.0
  11
 41.249999999900
  21
 69.533561914080
  31
0.0
   0
LINE
   5
1BF
 100
AcDbEntity
   8
LEVEL001
 370
15
 100
AcDbLine
   6
CONTINUOUS
  62
8
  10
 43.249999999900
  20
 49.533561914080
  30
0.0
  11
 43.249999999900
  21
 59.533561914080
  31
0.0
   0
LINE
   5
1C0
 100
AcDbEntity
   8
LEVEL001
 370
15
 100
AcDbLine
   6
CONTINUOUS
  62
8
  10
 43.249999999900
  20
 69.533561914080
  30
0.0
  11
 43.249999999900
  21
 59.533561914080
  31
0.0
   0
SOLID
   5
1C1
 100
AcDbEntity
   8
LEVEL001
 100
AcDbTrace
   6
CONTINUOUS
  62
8
  10
 43.249999999900
  20
 49.533561914080
  30
0.0
  11
 43.778980942025
  21
 52.533561914080
  31
0.0
  12
 42.721019057775
  22
 52.533561914080
  32
0.0
  13
 42.721019057775
  23
 52.533561914080
  33
0.0
   0
SOLID
   5
1C2
 100
AcDbEntity
   8
LEVEL001
 100
AcDbTrace
   6
CONTINUOUS
  62
8
  10
 43.249999999900
  20
 69.533561914080
  30
0.0
  11
 42.721019057775
  21
 66.533561914080
  31
0.0
  12
 43.778980942025
  22
 66.533561914080
  32
0.0
  13
 43.778980942025
  23
 66.533561914080
  33
0.0
   0
MTEXT
   5
1C3
 100
AcDbEntity
   8
LEVEL001
 370
15
  62
8
 100
AcDbMText
  10
 42.249999999900
  20
 59.533561914080
  30
0.0
  40
 4.0000000000000
  41
0.0
  71
8
  72
1
   1
\A1;20
   7
GMM001
  11
0.0
  21
 1.0000000000000
  31
0.0
   0
ENDBLK
   5
1C4
 100
AcDbEntity
   8
0
 100
AcDbBlockEnd
   0
BLOCK
   5
1C5
 100
AcDbEntity
   8
0
 100
AcDbBlockBegin
   2
*D32
  70
65
  10
0.0
  20
0.0
  30
0.0
   3
*D32
   0
LINE
   5
1C6
 100
AcDbEntity
   8
LEVEL001
 370
15
 100
AcDbLine
   6
CONTINUOUS
  62
8
  10
 123.24999999990
  20
 65.933561914080
  30
0.0
  11
 165.24999999990
  21
 65.933561914080
  31
0.0
   0
LINE
   5
1C7
 100
AcDbEntity
   8
LEVEL001
 370
15
 100
AcDbLine
   6
CONTINUOUS
  62
8
  10
 153.74999999990
  20
 69.533561914080
  30
0.0
  11
 165.24999999990
  21
 69.533561914080
  31
0.0
   0
LINE
   5
1C8
 100
AcDbEntity
   8
LEVEL001
 370
15
 100
AcDbLine
   6
CONTINUOUS
  62
8
  10
 163.24999999990
  20
 62.183561914080
  30
0.0
  11
 163.24999999990
  21
 67.733561914080
  31
0.0
   0
LINE
   5
1C9
 100
AcDbEntity
   8
LEVEL001
 370
15
 100
AcDbLine
   6
CONTINUOUS
  62
8
  10
 163.24999999990
  20
 80.612207024684
  30
0.0
  11
 163.24999999990
  21
 67.733561914080
  31
0.0
   0
SOLID
   5
1CA
 100
AcDbEntity
   8
LEVEL001
 100
AcDbTrace
   6
CONTINUOUS
  62
8
  10
 163.24999999990
  20
 65.933561914080
  30
0.0
  11
 162.72101905777
  21
 62.933561914080
  31
0.0
  12
 163.77898094203
  22
 62.933561914080
  32
0.0
  13
 163.77898094203
  23
 62.933561914080
  33
0.0
   0
SOLID
   5
1CB
 100
AcDbEntity
   8
LEVEL001
 100
AcDbTrace
   6
CONTINUOUS
  62
8
  10
 163.24999999990
  20
 69.533561914080
  30
0.0
  11
 163.77898094203
  21
 72.533561914080
  31
0.0
  12
 162.72101905777
  22
 72.533561914080
  32
0.0
  13
 162.72101905777
  23
 72.533561914080
  33
0.0
   0
MTEXT
   5
1CC
 100
AcDbEntity
   8
LEVEL001
 370
15
  62
8
 100
AcDbMText
  10
 162.17128120481
  20
 72.112207024684
  30
0.0
  40
 4.0000000000000
  41
0.0
  71
7
  72
1
   1
\A1;3.6
   7
GMM001
  11
0.0
  21
 1.0000000000000
  31
0.0
   0
ENDBLK
   5
1CD
 100
AcDbEntity
   8
0
 100
AcDbBlockEnd
   0
BLOCK
   5
1CE
 100
AcDbEntity
   8
0
 100
AcDbBlockBegin
   2
*D33
  70
65
  10
0.0
  20
0.0
  30
0.0
   3
*D33
   0
LINE
   5
1CF
 100
AcDbEntity
   8
LEVEL001
 370
15
 100
AcDbLine
   6
CONTINUOUS
  62
8
  10
 197.74999999990
  20
 72.533561914080
  30
0.0
  11
 197.74999999990
  21
 89.033561914080
  31
0.0
   0
LINE
   5
1D0
 100
AcDbEntity
   8
LEVEL001
 370
15
 100
AcDbLine
   6
CONTINUOUS
  62
8
  10
 197.74999999990
  20
 87.033561914080
  30
0.0
  11
 212.99999999990
  21
 87.033561914080
  31
0.0
   0
LINE
   5
1D1
 100
AcDbEntity
   8
LEVEL001
 370
15
 100
AcDbLine
   6
CONTINUOUS
  62
8
  10
 228.24999999990
  20
 87.033561914080
  30
0.0
  11
 212.99999999990
  21
 87.033561914080
  31
0.0
   0
SOLID
   5
1D2
 100
AcDbEntity
   8
LEVEL001
 100
AcDbTrace
   6
CONTINUOUS
  62
8
  10
 197.74999999990
  20
 87.033561914080
  30
0.0
  11
 200.74999999990
  21
 86.504580971955
  31
0.0
  12
 200.74999999990
  22
 87.562542856206
  32
0.0
  13
 200.74999999990
  23
 87.562542856206
  33
0.0
   0
SOLID
   5
1D3
 100
AcDbEntity
   8
LEVEL001
 100
AcDbTrace
   6
CONTINUOUS
  62
8
  10
 228.24999999990
  20
 87.033561914080
  30
0.0
  11
 225.24999999990
  21
 87.562542856206
  31
0.0
  12
 225.24999999990
  22
 86.504580971955
  32
0.0
  13
 225.24999999990
  23
 86.504580971955
  33
0.0
   0
MTEXT
   5
1D4
 100
AcDbEntity
   8
LEVEL001
 370
15
  62
8
 100
AcDbMText
  10
 212.99999999990
  20
 88.033561914080
  30
0.0
  40
 4.0000000000000
  41
0.0
  71
8
  72
1
   1
\A1;30.5
   7
GMM001
   0
ENDBLK
   5
1D5
 100
AcDbEntity
   8
0
 100
AcDbBlockEnd
   0
BLOCK
   5
1D6
 100
AcDbEntity
   8
0
 100
AcDbBlockBegin
   2
*D34
  70
65
  10
0.0
  20
0.0
  30
0.0
   3
*D34
   0
LINE
   5
1D7
 100
AcDbEntity
   8
LEVEL001
 370
15
 100
AcDbLine
   6
CONTINUOUS
  62
8
  10
 228.24999999990
  20
 78.002544261520
  30
0.0
  11
 228.24999999990
  21
 89.033561914080
  31
0.0
   0
LINE
   5
1D8
 100
AcDbEntity
   8
LEVEL001
 370
15
 100
AcDbLine
   6
CONTINUOUS
  62
8
  10
 228.24999999990
  20
 87.033561914080
  30
0.0
  11
 247.74999999990
  21
 87.033561914080
  31
0.0
   0
LINE
   5
1D9
 100
AcDbEntity
   8
LEVEL001
 370
15
 100
AcDbLine
   6
CONTINUOUS
  62
8
  10
 267.24999999990
  20
 87.033561914080
  30
0.0
  11
 247.74999999990
  21
 87.033561914080
  31
0.0
   0
SOLID
   5
1DA
 100
AcDbEntity
   8
LEVEL001
 100
AcDbTrace
   6
CONTINUOUS
  62
8
  10
 228.24999999990
  20
 87.033561914080
  30
0.0
  11
 231.24999999990
  21
 86.504580971955
  31
0.0
  12
 231.24999999990
  22
 87.562542856206
  32
0.0
  13
 231.24999999990
  23
 87.562542856206
  33
0.0
   0
SOLID
   5
1DB
 100
AcDbEntity
   8
LEVEL001
 100
AcDbTrace
   6
CONTINUOUS
  62
8
  10
 267.24999999990
  20
 87.033561914080
  30
0.0
  11
 264.24999999990
  21
 87.562542856206
  31
0.0
  12
 264.24999999990
  22
 86.504580971955
  32
0.0
  13
 264.24999999990
  23
 86.504580971955
  33
0.0
   0
MTEXT
   5
1DC
 100
AcDbEntity
   8
LEVEL001
 370
15
  62
8
 100
AcDbMText
  10
 247.74999999990
  20
 88.033561914080
  30
0.0
  40
 4.0000000000000
  41
0.0
  71
8
  72
1
   1
\A1;39
   7
GMM001
   0
ENDBLK
   5
1DD
 100
AcDbEntity
   8
0
 100
AcDbBlockEnd
   0
BLOCK
   5
1DE
 100
AcDbEntity
   8
0
 100
AcDbBlockBegin
   2
*D35
  70
65
  10
0.0
  20
0.0
  30
0.0
   3
*D35
   0
LINE
   5
1DF
 100
AcDbEntity
   8
LEVEL001
 370
15
 100
AcDbLine
   6
CONTINUOUS
  62
8
  10
 267.24999999990
  20
 78.002544261520
  30
0.0
  11
 267.24999999990
  21
 89.033561914080
  31
0.0
   0
LINE
   5
1E0
 100
AcDbEntity
   8
LEVEL001
 370
15
 100
AcDbLine
   6
CONTINUOUS
  62
8
  10
 297.74999999990
  20
 72.533561914080
  30
0.0
  11
 297.74999999990
  21
 89.033561914080
  31
0.0
   0
LINE
   5
1E1
 100
AcDbEntity
   8
LEVEL001
 370
15
 100
AcDbLine
   6
CONTINUOUS
  62
8
  10
 267.24999999990
  20
 87.033561914080
  30
0.0
  11
 282.49999999990
  21
 87.033561914080
  31
0.0
   0
LINE
   5
1E2
 100
AcDbEntity
   8
LEVEL001
 370
15
 100
AcDbLine
   6
CONTINUOUS
  62
8
  10
 297.74999999990
  20
 87.033561914080
  30
0.0
  11
 282.49999999990
  21
 87.033561914080
  31
0.0
   0
SOLID
   5
1E3
 100
AcDbEntity
   8
LEVEL001
 100
AcDbTrace
   6
CONTINUOUS
  62
8
  10
 267.24999999990
  20
 87.033561914080
  30
0.0
  11
 270.24999999990
  21
 86.504580971955
  31
0.0
  12
 270.24999999990
  22
 87.562542856206
  32
0.0
  13
 270.24999999990
  23
 87.562542856206
  33
0.0
   0
SOLID
   5
1E4
 100
AcDbEntity
   8
LEVEL001
 100
AcDbTrace
   6
CONTINUOUS
  62
8
  10
 297.74999999990
  20
 87.033561914080
  30
0.0
  11
 294.74999999990
  21
 87.562542856206
  31
0.0
  12
 294.74999999990
  22
 86.504580971955
  32
0.0
  13
 294.74999999990
  23
 86.504580971955
  33
0.0
   0
MTEXT
   5
1E5
 100
AcDbEntity
   8
LEVEL001
 370
15
  62
8
 100
AcDbMText
  10
 282.49999999990
  20
 88.033561914080
  30
0.0
  40
 4.0000000000000
  41
0.0
  71
8
  72
1
   1
\A1;30.5
   7
GMM001
   0
ENDBLK
   5
1E6
 100
AcDbEntity
   8
0
 100
AcDbBlockEnd
   0
BLOCK
   5
1E7
 100
AcDbEntity
   8
0
 100
AcDbBlockBegin
   2
*D36
  70
65
  10
0.0
  20
0.0
  30
0.0
   3
*D36
   0
LINE
   5
1E8
 100
AcDbEntity
   8
LEVEL001
 370
15
 100
AcDbLine
   6
CONTINUOUS
  62
8
  10
 197.74999999990
  20
 89.033561914080
  30
0.0
  11
 197.74999999990
  21
 99.033561914080
  31
0.0
   0
LINE
   5
1E9
 100
AcDbEntity
   8
LEVEL001
 370
15
 100
AcDbLine
   6
CONTINUOUS
  62
8
  10
 297.74999999990
  20
 89.033561914080
  30
0.0
  11
 297.74999999990
  21
 99.033561914080
  31
0.0
   0
LINE
   5
1EA
 100
AcDbEntity
   8
LEVEL001
 370
15
 100
AcDbLine
   6
CONTINUOUS
  62
8
  10
 197.74999999990
  20
 97.033561914080
  30
0.0
  11
 247.74999999990
  21
 97.033561914080
  31
0.0
   0
LINE
   5
1EB
 100
AcDbEntity
   8
LEVEL001
 370
15
 100
AcDbLine
   6
CONTINUOUS
  62
8
  10
 297.74999999990
  20
 97.033561914080
  30
0.0
  11
 247.74999999990
  21
 97.033561914080
  31
0.0
   0
SOLID
   5
1EC
 100
AcDbEntity
   8
LEVEL001
 100
AcDbTrace
   6
CONTINUOUS
  62
8
  10
 197.74999999990
  20
 97.033561914080
  30
0.0
  11
 200.74999999990
  21
 96.504580971955
  31
0.0
  12
 200.74999999990
  22
 97.562542856206
  32
0.0
  13
 200.74999999990
  23
 97.562542856206
  33
0.0
   0
SOLID
   5
1ED
 100
AcDbEntity
   8
LEVEL001
 100
AcDbTrace
   6
CONTINUOUS
  62
8
  10
 297.74999999990
  20
 97.033561914080
  30
0.0
  11
 294.74999999990
  21
 97.562542856206
  31
0.0
  12
 294.74999999990
  22
 96.504580971955
  32
0.0
  13
 294.74999999990
  23
 96.504580971955
  33
0.0
   0
MTEXT
   5
1EE
 100
AcDbEntity
   8
LEVEL001
 370
15
  62
8
 100
AcDbMText
  10
 247.74999999990
  20
 98.033561914080
  30
0.0
  40
 4.0000000000000
  41
0.0
  71
8
  72
1
   1
\A1;100
   7
GMM001
   0
ENDBLK
   5
1EF
 100
AcDbEntity
   8
0
 100
AcDbBlockEnd
   0
BLOCK
   5
1F0
 100
AcDbEntity
   8
0
 100
AcDbBlockBegin
   2
*D37
  70
65
  10
0.0
  20
0.0
  30
0.0
   3
*D37
   0
LINE
   5
1F1
 100
AcDbEntity
   8
LEVEL001
 370
15
 100
AcDbLine
   6
CONTINUOUS
  62
8
  10
 195.74999999990
  20
 49.533561914080
  30
0.0
  11
 185.74999999990
  21
 49.533561914080
  31
0.0
   0
LINE
   5
1F2
 100
AcDbEntity
   8
LEVEL001
 370
15
 100
AcDbLine
   6
CONTINUOUS
  62
8
  10
 197.24999999990
  20
 69.533561914080
  30
0.0
  11
 185.74999999990
  21
 69.533561914080
  31
0.0
   0
LINE
   5
1F3
 100
AcDbEntity
   8
LEVEL001
 370
15
 100
AcDbLine
   6
CONTINUOUS
  62
8
  10
 187.74999999990
  20
 49.533561914080
  30
0.0
  11
 187.74999999990
  21
 59.533561914080
  31
0.0
   0
LINE
   5
1F4
 100
AcDbEntity
   8
LEVEL001
 370
15
 100
AcDbLine
   6
CONTINUOUS
  62
8
  10
 187.74999999990
  20
 69.533561914080
  30
0.0
  11
 187.74999999990
  21
 59.533561914080
  31
0.0
   0
SOLID
   5
1F5
 100
AcDbEntity
   8
LEVEL001
 100
AcDbTrace
   6
CONTINUOUS
  62
8
  10
 187.74999999990
  20
 49.533561914080
  30
0.0
  11
 188.27898094203
  21
 52.533561914080
  31
0.0
  12
 187.22101905777
  22
 52.533561914080
  32
0.0
  13
 187.22101905777
  23
 52.533561914080
  33
0.0
   0
SOLID
   5
1F6
 100
AcDbEntity
   8
LEVEL001
 100
AcDbTrace
   6
CONTINUOUS
  62
8
  10
 187.74999999990
  20
 69.533561914080
  30
0.0
  11
 187.22101905777
  21
 66.533561914080
  31
0.0
  12
 188.27898094203
  22
 66.533561914080
  32
0.0
  13
 188.27898094203
  23
 66.533561914080
  33
0.0
   0
MTEXT
   5
1F7
 100
AcDbEntity
   8
LEVEL001
 370
15
  62
8
 100
AcDbMText
  10
 186.74999999990
  20
 59.533561914080
  30
0.0
  40
 4.0000000000000
  41
0.0
  71
8
  72
1
   1
\A1;20
   7
GMM001
  11
0.0
  21
 1.0000000000000
  31
0.0
   0
ENDBLK
   5
1F8
 100
AcDbEntity
   8
0
 100
AcDbBlockEnd
   0
BLOCK
   5
1F9
 100
AcDbEntity
   8
0
 100
AcDbBlockBegin
   2
*D38
  70
65
  10
0.0
  20
0.0
  30
0.0
   3
*D38
   0
LINE
   5
1FA
 100
AcDbEntity
   8
LEVEL001
 370
15
 100
AcDbLine
   6
CONTINUOUS
  62
8
  10
 269.24999999990
  20
 65.933561914080
  30
0.0
  11
 309.74999999990
  21
 65.933561914080
  31
0.0
   0
LINE
   5
1FB
 100
AcDbEntity
   8
LEVEL001
 370
15
 100
AcDbLine
   6
CONTINUOUS
  62
8
  10
 298.24999999990
  20
 69.533561914080
  30
0.0
  11
 309.74999999990
  21
 69.533561914080
  31
0.0
   0
LINE
   5
1FC
 100
AcDbEntity
   8
LEVEL001
 370
15
 100
AcDbLine
   6
CONTINUOUS
  62
8
  10
 307.74999999990
  20
 62.183561914080
  30
0.0
  11
 307.74999999990
  21
 67.733561914080
  31
0.0
   0
LINE
   5
1FD
 100
AcDbEntity
   8
LEVEL001
 370
15
 100
AcDbLine
   6
CONTINUOUS
  62
8
  10
 307.74999999990
  20
 80.612207024684
  30
0.0
  11
 307.74999999990
  21
 67.733561914080
  31
0.0
   0
SOLID
   5
1FE
 100
AcDbEntity
   8
LEVEL001
 100
AcDbTrace
   6
CONTINUOUS
  62
8
  10
 307.74999999990
  20
 65.933561914080
  30
0.0
  11
 307.22101905777
  21
 62.933561914080
  31
0.0
  12
 308.27898094203
  22
 62.933561914080
  32
0.0
  13
 308.27898094203
  23
 62.933561914080
  33
0.0
   0
SOLID
   5
1FF
 100
AcDbEntity
   8
LEVEL001
 100
AcDbTrace
   6
CONTINUOUS
  62
8
  10
 307.74999999990
  20
 69.533561914080
  30
0.0
  11
 308.27898094203
  21
 72.533561914080
  31
0.0
  12
 307.22101905777
  22
 72.533561914080
  32
0.0
  13
 307.22101905777
  23
 72.533561914080
  33
0.0
   0
MTEXT
   5
200
 100
AcDbEntity
   8
LEVEL001
 370
15
  62
8
 100
AcDbMText
  10
 306.67128120481
  20
 72.112207024684
  30
0.0
  40
 4.0000000000000
  41
0.0
  71
7
  72
1
   1
\A1;3.6
   7
GMM001
  11
0.0
  21
 1.0000000000000
  31
0.0
   0
ENDBLK
   5
201
 100
AcDbEntity
   8
0
 100
AcDbBlockEnd
   0
BLOCK
   5
202
 100
AcDbEntity
   8
0
 100
AcDbBlockBegin
   2
*D39
  70
65
  10
0.0
  20
0.0
  30
0.0
   3
*D39
   0
LINE
   5
203
 100
AcDbEntity
   8
LEVEL001
 370
15
 100
AcDbLine
   6
CONTINUOUS
  62
8
  10
 342.24999999990
  20
 72.533561914080
  30
0.0
  11
 342.24999999990
  21
 89.033561914080
  31
0.0
   0
LINE
   5
204
 100
AcDbEntity
   8
LEVEL001
 370
15
 100
AcDbLine
   6
CONTINUOUS
  62
8
  10
 342.24999999990
  20
 87.033561914080
  30
0.0
  11
 356.49999999990
  21
 87.033561914080
  31
0.0
   0
LINE
   5
205
 100
AcDbEntity
   8
LEVEL001
 370
15
 100
AcDbLine
   6
CONTINUOUS
  62
8
  10
 370.74999999990
  20
 87.033561914080
  30
0.0
  11
 356.49999999990
  21
 87.033561914080
  31
0.0
   0
SOLID
   5
206
 100
AcDbEntity
   8
LEVEL001
 100
AcDbTrace
   6
CONTINUOUS
  62
8
  10
 342.24999999990
  20
 87.033561914080
  30
0.0
  11
 345.24999999990
  21
 86.504580971955
  31
0.0
  12
 345.24999999990
  22
 87.562542856206
  32
0.0
  13
 345.24999999990
  23
 87.562542856206
  33
0.0
   0
SOLID
   5
207
 100
AcDbEntity
   8
LEVEL001
 100
AcDbTrace
   6
CONTINUOUS
  62
8
  10
 370.74999999990
  20
 87.033561914080
  30
0.0
  11
 367.74999999990
  21
 87.562542856206
  31
0.0
  12
 367.74999999990
  22
 86.504580971955
  32
0.0
  13
 367.74999999990
  23
 86.504580971955
  33
0.0
   0
MTEXT
   5
208
 100
AcDbEntity
   8
LEVEL001
 370
15
  62
8
 100
AcDbMText
  10
 356.49999999990
  20
 88.033561914080
  30
0.0
  40
 4.0000000000000
  41
0.0
  71
8
  72
1
   1
\A1;28.5
   7
GMM001
   0
ENDBLK
   5
209
 100
AcDbEntity
   8
0
 100
AcDbBlockEnd
   0
BLOCK
   5
20A
 100
AcDbEntity
   8
0
 100
AcDbBlockBegin
   2
*D40
  70
65
  10
0.0
  20
0.0
  30
0.0
   3
*D40
   0
LINE
   5
20B
 100
AcDbEntity
   8
LEVEL001
 370
15
 100
AcDbLine
   6
CONTINUOUS
  62
8
  10
 370.74999999990
  20
 78.002544261520
  30
0.0
  11
 370.74999999990
  21
 89.033561914080
  31
0.0
   0
LINE
   5
20C
 100
AcDbEntity
   8
LEVEL001
 370
15
 100
AcDbLine
   6
CONTINUOUS
  62
8
  10
 370.74999999990
  20
 87.033561914080
  30
0.0
  11
 392.24999999990
  21
 87.033561914080
  31
0.0
   0
LINE
   5
20D
 100
AcDbEntity
   8
LEVEL001
 370
15
 100
AcDbLine
   6
CONTINUOUS
  62
8
  10
 413.74999999990
  20
 87.033561914080
  30
0.0
  11
 392.24999999990
  21
 87.033561914080
  31
0.0
   0
SOLID
   5
20E
 100
AcDbEntity
   8
LEVEL001
 100
AcDbTrace
   6
CONTINUOUS
  62
8
  10
 370.74999999990
  20
 87.033561914080
  30
0.0
  11
 373.74999999990
  21
 86.504580971955
  31
0.0
  12
 373.74999999990
  22
 87.562542856206
  32
0.0
  13
 373.74999999990
  23
 87.562542856206
  33
0.0
   0
SOLID
   5
20F
 100
AcDbEntity
   8
LEVEL001
 100
AcDbTrace
   6
CONTINUOUS
  62
8
  10
 413.74999999990
  20
 87.033561914080
  30
0.0
  11
 410.74999999990
  21
 87.562542856206
  31
0.0
  12
 410.74999999990
  22
 86.504580971955
  32
0.0
  13
 410.74999999990
  23
 86.504580971955
  33
0.0
   0
MTEXT
   5
210
 100
AcDbEntity
   8
LEVEL001
 370
15
  62
8
 100
AcDbMText
  10
 392.24999999990
  20
 88.033561914080
  30
0.0
  40
 4.0000000000000
  41
0.0
  71
8
  72
1
   1
\A1;43
   7
GMM001
   0
ENDBLK
   5
211
 100
AcDbEntity
   8
0
 100
AcDbBlockEnd
   0
BLOCK
   5
212
 100
AcDbEntity
   8
0
 100
AcDbBlockBegin
   2
*D41
  70
65
  10
0.0
  20
0.0
  30
0.0
   3
*D41
   0
LINE
   5
213
 100
AcDbEntity
   8
LEVEL001
 370
15
 100
AcDbLine
   6
CONTINUOUS
  62
8
  10
 413.74999999990
  20
 78.002544261520
  30
0.0
  11
 413.74999999990
  21
 89.033561914080
  31
0.0
   0
LINE
   5
214
 100
AcDbEntity
   8
LEVEL001
 370
15
 100
AcDbLine
   6
CONTINUOUS
  62
8
  10
 442.24999999990
  20
 72.533561914080
  30
0.0
  11
 442.24999999990
  21
 89.033561914080
  31
0.0
   0
LINE
   5
215
 100
AcDbEntity
   8
LEVEL001
 370
15
 100
AcDbLine
   6
CONTINUOUS
  62
8
  10
 413.74999999990
  20
 87.033561914080
  30
0.0
  11
 427.99999999990
  21
 87.033561914080
  31
0.0
   0
LINE
   5
216
 100
AcDbEntity
   8
LEVEL001
 370
15
 100
AcDbLine
   6
CONTINUOUS
  62
8
  10
 442.24999999990
  20
 87.033561914080
  30
0.0
  11
 427.99999999990
  21
 87.033561914080
  31
0.0
   0
SOLID
   5
217
 100
AcDbEntity
   8
LEVEL001
 100
AcDbTrace
   6
CONTINUOUS
  62
8
  10
 413.74999999990
  20
 87.033561914080
  30
0.0
  11
 416.74999999990
  21
 86.504580971955
  31
0.0
  12
 416.74999999990
  22
 87.562542856206
  32
0.0
  13
 416.74999999990
  23
 87.562542856206
  33
0.0
   0
SOLID
   5
218
 100
AcDbEntity
   8
LEVEL001
 100
AcDbTrace
   6
CONTINUOUS
  62
8
  10
 442.24999999990
  20
 87.033561914080
  30
0.0
  11
 439.24999999990
  21
 87.562542856206
  31
0.0
  12
 439.24999999990
  22
 86.504580971955
  32
0.0
  13
 439.24999999990
  23
 86.504580971955
  33
0.0
   0
MTEXT
   5
219
 100
AcDbEntity
   8
LEVEL001
 370
15
  62
8
 100
AcDbMText
  10
 427.99999999990
  20
 88.033561914080
  30
0.0
  40
 4.0000000000000
  41
0.0
  71
8
  72
1
   1
\A1;28.5
   7
GMM001
   0
ENDBLK
   5
21A
 100
AcDbEntity
   8
0
 100
AcDbBlockEnd
   0
BLOCK
   5
21B
 100
AcDbEntity
   8
0
 100
AcDbBlockBegin
   2
*D42
  70
65
  10
0.0
  20
0.0
  30
0.0
   3
*D42
   0
LINE
   5
21C
 100
AcDbEntity
   8
LEVEL001
 370
15
 100
AcDbLine
   6
CONTINUOUS
  62
8
  10
 342.24999999990
  20
 89.033561914080
  30
0.0
  11
 342.24999999990
  21
 99.033561914080
  31
0.0
   0
LINE
   5
21D
 100
AcDbEntity
   8
LEVEL001
 370
15
 100
AcDbLine
   6
CONTINUOUS
  62
8
  10
 442.24999999990
  20
 89.033561914080
  30
0.0
  11
 442.24999999990
  21
 99.033561914080
  31
0.0
   0
LINE
   5
21E
 100
AcDbEntity
   8
LEVEL001
 370
15
 100
AcDbLine
   6
CONTINUOUS
  62
8
  10
 342.24999999990
  20
 97.033561914080
  30
0.0
  11
 392.24999999990
  21
 97.033561914080
  31
0.0
   0
LINE
   5
21F
 100
AcDbEntity
   8
LEVEL001
 370
15
 100
AcDbLine
   6
CONTINUOUS
  62
8
  10
 442.24999999990
  20
 97.033561914080
  30
0.0
  11
 392.24999999990
  21
 97.033561914080
  31
0.0
   0
SOLID
   5
220
 100
AcDbEntity
   8
LEVEL001
 100
AcDbTrace
   6
CONTINUOUS
  62
8
  10
 342.24999999990
  20
 97.033561914080
  30
0.0
  11
 345.24999999990
  21
 96.504580971955
  31
0.0
  12
 345.24999999990
  22
 97.562542856206
  32
0.0
  13
 345.24999999990
  23
 97.562542856206
  33
0.0
   0
SOLID
   5
221
 100
AcDbEntity
   8
LEVEL001
 100
AcDbTrace
   6
CONTINUOUS
  62
8
  10
 442.24999999990
  20
 97.033561914080
  30
0.0
  11
 439.24999999990
  21
 97.562542856206
  31
0.0
  12
 439.24999999990
  22
 96.504580971955
  32
0.0
  13
 439.24999999990
  23
 96.504580971955
  33
0.0
   0
MTEXT
   5
222
 100
AcDbEntity
   8
LEVEL001
 370
15
  62
8
 100
AcDbMText
  10
 392.24999999990
  20
 98.033561914080
  30
0.0
  40
 4.0000000000000
  41
0.0
  71
8
  72
1
   1
\A1;100
   7
GMM001
   0
ENDBLK
   5
223
 100
AcDbEntity
   8
0
 100
AcDbBlockEnd
   0
BLOCK
   5
224
 100
AcDbEntity
   8
0
 100
AcDbBlockBegin
   2
*D43
  70
65
  10
0.0
  20
0.0
  30
0.0
   3
*D43
   0
LINE
   5
225
 100
AcDbEntity
   8
LEVEL001
 370
15
 100
AcDbLine
   6
CONTINUOUS
  62
8
  10
 340.24999999990
  20
 49.533561914080
  30
0.0
  11
 330.24999999990
  21
 49.533561914080
  31
0.0
   0
LINE
   5
226
 100
AcDbEntity
   8
LEVEL001
 370
15
 100
AcDbLine
   6
CONTINUOUS
  62
8
  10
 341.74999999990
  20
 69.533561914080
  30
0.0
  11
 330.24999999990
  21
 69.533561914080
  31
0.0
   0
LINE
   5
227
 100
AcDbEntity
   8
LEVEL001
 370
15
 100
AcDbLine
   6
CONTINUOUS
  62
8
  10
 332.24999999990
  20
 49.533561914080
  30
0.0
  11
 332.24999999990
  21
 59.533561914080
  31
0.0
   0
LINE
   5
228
 100
AcDbEntity
   8
LEVEL001
 370
15
 100
AcDbLine
   6
CONTINUOUS
  62
8
  10
 332.24999999990
  20
 69.533561914080
  30
0.0
  11
 332.24999999990
  21
 59.533561914080
  31
0.0
   0
SOLID
   5
229
 100
AcDbEntity
   8
LEVEL001
 100
AcDbTrace
   6
CONTINUOUS
  62
8
  10
 332.24999999990
  20
 49.533561914080
  30
0.0
  11
 332.77898094203
  21
 52.533561914080
  31
0.0
  12
 331.72101905777
  22
 52.533561914080
  32
0.0
  13
 331.72101905777
  23
 52.533561914080
  33
0.0
   0
SOLID
   5
22A
 100
AcDbEntity
   8
LEVEL001
 100
AcDbTrace
   6
CONTINUOUS
  62
8
  10
 332.24999999990
  20
 69.533561914080
  30
0.0
  11
 331.72101905777
  21
 66.533561914080
  31
0.0
  12
 332.77898094203
  22
 66.533561914080
  32
0.0
  13
 332.77898094203
  23
 66.533561914080
  33
0.0
   0
MTEXT
   5
22B
 100
AcDbEntity
   8
LEVEL001
 370
15
  62
8
 100
AcDbMText
  10
 331.24999999990
  20
 59.533561914080
  30
0.0
  40
 4.0000000000000
  41
0.0
  71
8
  72
1
   1
\A1;20
   7
GMM001
  11
0.0
  21
 1.0000000000000
  31
0.0
   0
ENDBLK
   5
22C
 100
AcDbEntity
   8
0
 100
AcDbBlockEnd
   0
BLOCK
   5
22D
 100
AcDbEntity
   8
0
 100
AcDbBlockBegin
   2
*D44
  70
65
  10
0.0
  20
0.0
  30
0.0
   3
*D44
   0
LINE
   5
22E
 100
AcDbEntity
   8
LEVEL001
 370
15
 100
AcDbLine
   6
CONTINUOUS
  62
8
  10
 415.74999999990
  20
 65.933561914080
  30
0.0
  11
 454.24999999990
  21
 65.933561914080
  31
0.0
   0
LINE
   5
22F
 100
AcDbEntity
   8
LEVEL001
 370
15
 100
AcDbLine
   6
CONTINUOUS
  62
8
  10
 442.74999999990
  20
 69.533561914080
  30
0.0
  11
 454.24999999990
  21
 69.533561914080
  31
0.0
   0
LINE
   5
230
 100
AcDbEntity
   8
LEVEL001
 370
15
 100
AcDbLine
   6
CONTINUOUS
  62
8
  10
 452.24999999990
  20
 62.183561914080
  30
0.0
  11
 452.24999999990
  21
 67.733561914080
  31
0.0
   0
LINE
   5
231
 100
AcDbEntity
   8
LEVEL001
 370
15
 100
AcDbLine
   6
CONTINUOUS
  62
8
  10
 452.24999999990
  20
 80.612207024684
  30
0.0
  11
 452.24999999990
  21
 67.733561914080
  31
0.0
   0
SOLID
   5
232
 100
AcDbEntity
   8
LEVEL001
 100
AcDbTrace
   6
CONTINUOUS
  62
8
  10
 452.24999999990
  20
 65.933561914080
  30
0.0
  11
 451.72101905777
  21
 62.933561914080
  31
0.0
  12
 452.77898094203
  22
 62.933561914080
  32
0.0
  13
 452.77898094203
  23
 62.933561914080
  33
0.0
   0
SOLID
   5
233
 100
AcDbEntity
   8
LEVEL001
 100
AcDbTrace
   6
CONTINUOUS
  62
8
  10
 452.24999999990
  20
 69.533561914080
  30
0.0
  11
 452.77898094203
  21
 72.533561914080
  31
0.0
  12
 451.72101905777
  22
 72.533561914080
  32
0.0
  13
 451.72101905777
  23
 72.533561914080
  33
0.0
   0
MTEXT
   5
234
 100
AcDbEntity
   8
LEVEL001
 370
15
  62
8
 100
AcDbMText
  10
 451.17128120481
  20
 72.112207024684
  30
0.0
  40
 4.0000000000000
  41
0.0
  71
7
  72
1
   1
\A1;3.6
   7
GMM001
  11
0.0
  21
 1.0000000000000
  31
0.0
   0
ENDBLK
   5
235
 100
AcDbEntity
   8
0
 100
AcDbBlockEnd
   0
BLOCK
   5
236
 100
AcDbEntity
   8
0
 100
AcDbBlockBegin
   2
*D45
  70
65
  10
0.0
  20
0.0
  30
0.0
   3
*D45
   0
LINE
   5
237
 100
AcDbEntity
   8
LEVEL001
 370
15
 100
AcDbLine
   6
CONTINUOUS
  62
8
  10
 76.249999999900
  20
 186.03356191406
  30
0.0
  11
 66.249999999900
  21
 186.03356191406
  31
0.0
   0
LINE
   5
238
 100
AcDbEntity
   8
LEVEL001
 370
15
 100
AcDbLine
   6
CONTINUOUS
  62
8
  10
 77.749999999900
  20
 206.03356191406
  30
0.0
  11
 66.249999999900
  21
 206.03356191406
  31
0.0
   0
LINE
   5
239
 100
AcDbEntity
   8
LEVEL001
 370
15
 100
AcDbLine
   6
CONTINUOUS
  62
8
  10
 68.249999999900
  20
 186.03356191406
  30
0.0
  11
 68.249999999900
  21
 196.03356191406
  31
0.0
   0
LINE
   5
23A
 100
AcDbEntity
   8
LEVEL001
 370
15
 100
AcDbLine
   6
CONTINUOUS
  62
8
  10
 68.249999999900
  20
 206.03356191406
  30
0.0
  11
 68.249999999900
  21
 196.03356191406
  31
0.0
   0
SOLID
   5
23B
 100
AcDbEntity
   8
LEVEL001
 100
AcDbTrace
   6
CONTINUOUS
  62
8
  10
 68.249999999900
  20
 186.03356191406
  30
0.0
  11
 68.778980942025
  21
 189.03356191406
  31
0.0
  12
 67.721019057775
  22
 189.03356191406
  32
0.0
  13
 67.721019057775
  23
 189.03356191406
  33
0.0
   0
SOLID
   5
23C
 100
AcDbEntity
   8
LEVEL001
 100
AcDbTrace
   6
CONTINUOUS
  62
8
  10
 68.249999999900
  20
 206.03356191406
  30
0.0
  11
 67.721019057775
  21
 203.03356191406
  31
0.0
  12
 68.778980942025
  22
 203.03356191406
  32
0.0
  13
 68.778980942025
  23
 203.03356191406
  33
0.0
   0
MTEXT
   5
23D
 100
AcDbEntity
   8
LEVEL001
 370
15
  62
8
 100
AcDbMText
  10
 67.249999999900
  20
 196.03356191406
  30
0.0
  40
 4.0000000000000
  41
0.0
  71
8
  72
1
   1
\A1;20
   7
GMM001
  11
0.0
  21
 1.0000000000000
  31
0.0
   0
ENDBLK
   5
23E
 100
AcDbEntity
   8
0
 100
AcDbBlockEnd
   0
BLOCK
   5
23F
 100
AcDbEntity
   8
0
 100
AcDbBlockBegin
   2
*D46
  70
65
  10
0.0
  20
0.0
  30
0.0
   3
*D46
   0
LINE
   5
240
 100
AcDbEntity
   8
LEVEL001
 370
15
 100
AcDbLine
   6
CONTINUOUS
  62
8
  10
 78.249999999900
  20
 206.53356191406
  30
0.0
  11
 78.249999999900
  21
 218.03356191406
  31
0.0
   0
LINE
   5
241
 100
AcDbEntity
   8
LEVEL001
 370
15
 100
AcDbLine
   6
CONTINUOUS
  62
8
  10
 103.24999999990
  20
 212.73303420457
  30
0.0
  11
 103.24999999990
  21
 218.03356191406
  31
0.0
   0
LINE
   5
242
 100
AcDbEntity
   8
LEVEL001
 370
15
 100
AcDbLine
   6
CONTINUOUS
  62
8
  10
 78.249999999900
  20
 216.03356191406
  30
0.0
  11
 90.749999999900
  21
 216.03356191406
  31
0.0
   0
LINE
   5
243
 100
AcDbEntity
   8
LEVEL001
 370
15
 100
AcDbLine
   6
CONTINUOUS
  62
8
  10
 103.24999999990
  20
 216.03356191406
  30
0.0
  11
 90.749999999900
  21
 216.03356191406
  31
0.0
   0
SOLID
   5
244
 100
AcDbEntity
   8
LEVEL001
 100
AcDbTrace
   6
CONTINUOUS
  62
8
  10
 78.249999999900
  20
 216.03356191406
  30
0.0
  11
 81.249999999900
  21
 215.50458097194
  31
0.0
  12
 81.249999999900
  22
 216.56254285619
  32
0.0
  13
 81.249999999900
  23
 216.56254285619
  33
0.0
   0
SOLID
   5
245
 100
AcDbEntity
   8
LEVEL001
 100
AcDbTrace
   6
CONTINUOUS
  62
8
  10
 103.24999999990
  20
 216.03356191406
  30
0.0
  11
 100.24999999990
  21
 216.56254285619
  31
0.0
  12
 100.24999999990
  22
 215.50458097194
  32
0.0
  13
 100.24999999990
  23
 215.50458097194
  33
0.0
   0
MTEXT
   5
246
 100
AcDbEntity
   8
LEVEL001
 370
15
  62
8
 100
AcDbMText
  10
 90.749999999900
  20
 217.03356191406
  30
0.0
  40
 4.0000000000000
  41
0.0
  71
8
  72
1
   1
\A1;25
   7
GMM001
   0
ENDBLK
   5
247
 100
AcDbEntity
   8
0
 100
AcDbBlockEnd
   0
BLOCK
   5
248
 100
AcDbEntity
   8
0
 100
AcDbBlockBegin
   2
*D47
  70
65
  10
0.0
  20
0.0
  30
0.0
   3
*D47
   0
LINE
   5
249
 100
AcDbEntity
   8
LEVEL001
 370
15
 100
AcDbLine
   6
CONTINUOUS
  62
8
  10
 78.249999999900
  20
 218.03356191406
  30
0.0
  11
 78.249999999900
  21
 228.03356191406
  31
0.0
   0
LINE
   5
24A
 100
AcDbEntity
   8
LEVEL001
 370
15
 100
AcDbLine
   6
CONTINUOUS
  62
8
  10
 128.24999999990
  20
 206.53356191406
  30
0.0
  11
 128.24999999990
  21
 228.03356191406
  31
0.0
   0
LINE
   5
24B
 100
AcDbEntity
   8
LEVEL001
 370
15
 100
AcDbLine
   6
CONTINUOUS
  62
8
  10
 78.249999999900
  20
 226.03356191406
  30
0.0
  11
 103.24999999990
  21
 226.03356191406
  31
0.0
   0
LINE
   5
24C
 100
AcDbEntity
   8
LEVEL001
 370
15
 100
AcDbLine
   6
CONTINUOUS
  62
8
  10
 128.24999999990
  20
 226.03356191406
  30
0.0
  11
 103.24999999990
  21
 226.03356191406
  31
0.0
   0
SOLID
   5
24D
 100
AcDbEntity
   8
LEVEL001
 100
AcDbTrace
   6
CONTINUOUS
  62
8
  10
 78.249999999900
  20
 226.03356191406
  30
0.0
  11
 81.249999999900
  21
 225.50458097194
  31
0.0
  12
 81.249999999900
  22
 226.56254285619
  32
0.0
  13
 81.249999999900
  23
 226.56254285619
  33
0.0
   0
SOLID
   5
24E
 100
AcDbEntity
   8
LEVEL001
 100
AcDbTrace
   6
CONTINUOUS
  62
8
  10
 128.24999999990
  20
 226.03356191406
  30
0.0
  11
 125.24999999990
  21
 226.56254285619
  31
0.0
  12
 125.24999999990
  22
 225.50458097194
  32
0.0
  13
 125.24999999990
  23
 225.50458097194
  33
0.0
   0
MTEXT
   5
24F
 100
AcDbEntity
   8
LEVEL001
 370
15
  62
8
 100
AcDbMText
  10
 103.24999999990
  20
 227.03356191406
  30
0.0
  40
 4.0000000000000
  41
0.0
  71
8
  72
1
   1
\A1;50
   7
GMM001
   0
ENDBLK
   5
250
 100
AcDbEntity
   8
0
 100
AcDbBlockEnd
   0
BLOCK
   5
251
 100
AcDbEntity
   8
0
 100
AcDbBlockBegin
   2
*D48
  70
65
  10
0.0
  20
0.0
  30
0.0
   3
*D48
   0
LINE
   5
252
 100
AcDbEntity
   8
LEVEL001
 370
15
 100
AcDbLine
   6
CONTINUOUS
  62
8
  10
 105.24999999990
  20
 202.43356191406
  30
0.0
  11
 140.24999999990
  21
 202.43356191406
  31
0.0
   0
LINE
   5
253
 100
AcDbEntity
   8
LEVEL001
 370
15
 100
AcDbLine
   6
CONTINUOUS
  62
8
  10
 128.74999999990
  20
 206.03356191406
  30
0.0
  11
 140.24999999990
  21
 206.03356191406
  31
0.0
   0
LINE
   5
254
 100
AcDbEntity
   8
LEVEL001
 370
15
 100
AcDbLine
   6
CONTINUOUS
  62
8
  10
 138.24999999990
  20
 198.68356191406
  30
0.0
  11
 138.24999999990
  21
 204.23356191406
  31
0.0
   0
LINE
   5
255
 100
AcDbEntity
   8
LEVEL001
 370
15
 100
AcDbLine
   6
CONTINUOUS
  62
8
  10
 138.24999999990
  20
 216.61547422476
  30
0.0
  11
 138.24999999990
  21
 204.23356191406
  31
0.0
   0
SOLID
   5
256
 100
AcDbEntity
   8
LEVEL001
 100
AcDbTrace
   6
CONTINUOUS
  62
8
  10
 138.24999999990
  20
 202.43356191406
  30
0.0
  11
 137.72101905778
  21
 199.43356191406
  31
0.0
  12
 138.77898094203
  22
 199.43356191406
  32
0.0
  13
 138.77898094203
  23
 199.43356191406
  33
0.0
   0
SOLID
   5
257
 100
AcDbEntity
   8
LEVEL001
 100
AcDbTrace
   6
CONTINUOUS
  62
8
  10
 138.24999999990
  20
 206.03356191406
  30
0.0
  11
 138.77898094203
  21
 209.03356191406
  31
0.0
  12
 137.72101905778
  22
 209.03356191406
  32
0.0
  13
 137.72101905778
  23
 209.03356191406
  33
0.0
   0
MTEXT
   5
258
 100
AcDbEntity
   8
LEVEL001
 370
15
  62
8
 100
AcDbMText
  10
 137.31309329545
  20
 208.11547422476
  30
0.0
  40
 4.0000000000000
  41
0.0
  71
7
  72
1
   1
\A1;3.6
   7
GMM001
  11
0.0
  21
 1.0000000000000
  31
0.0
   0
ENDBLK
   5
259
 100
AcDbEntity
   8
0
 100
AcDbBlockEnd
   0
BLOCK
   5
25A
 100
AcDbEntity
   8
0
 100
AcDbBlockBegin
   2
*D49
  70
65
  10
0.0
  20
0.0
  30
0.0
   3
*D49
   0
LINE
   5
25B
 100
AcDbEntity
   8
LEVEL001
 370
15
 100
AcDbLine
   6
CONTINUOUS
  62
8
  10
 195.74999999990
  20
 186.03356191406
  30
0.0
  11
 185.74999999990
  21
 186.03356191406
  31
0.0
   0
LINE
   5
25C
 100
AcDbEntity
   8
LEVEL001
 370
15
 100
AcDbLine
   6
CONTINUOUS
  62
8
  10
 197.24999999990
  20
 206.03356191406
  30
0.0
  11
 185.74999999990
  21
 206.03356191406
  31
0.0
   0
LINE
   5
25D
 100
AcDbEntity
   8
LEVEL001
 370
15
 100
AcDbLine
   6
CONTINUOUS
  62
8
  10
 187.74999999990
  20
 186.03356191406
  30
0.0
  11
 187.74999999990
  21
 196.03356191406
  31
0.0
   0
LINE
   5
25E
 100
AcDbEntity
   8
LEVEL001
 370
15
 100
AcDbLine
   6
CONTINUOUS
  62
8
  10
 187.74999999990
  20
 206.03356191406
  30
0.0
  11
 187.74999999990
  21
 196.03356191406
  31
0.0
   0
SOLID
   5
25F
 100
AcDbEntity
   8
LEVEL001
 100
AcDbTrace
   6
CONTINUOUS
  62
8
  10
 187.74999999990
  20
 186.03356191406
  30
0.0
  11
 188.27898094203
  21
 189.03356191406
  31
0.0
  12
 187.22101905777
  22
 189.03356191406
  32
0.0
  13
 187.22101905777
  23
 189.03356191406
  33
0.0
   0
SOLID
   5
260
 100
AcDbEntity
   8
LEVEL001
 100
AcDbTrace
   6
CONTINUOUS
  62
8
  10
 187.74999999990
  20
 206.03356191406
  30
0.0
  11
 187.22101905777
  21
 203.03356191406
  31
0.0
  12
 188.27898094203
  22
 203.03356191406
  32
0.0
  13
 188.27898094203
  23
 203.03356191406
  33
0.0
   0
MTEXT
   5
261
 100
AcDbEntity
   8
LEVEL001
 370
15
  62
8
 100
AcDbMText
  10
 186.74999999990
  20
 196.03356191406
  30
0.0
  40
 4.0000000000000
  41
0.0
  71
8
  72
1
   1
\A1;20
   7
GMM001
  11
0.0
  21
 1.0000000000000
  31
0.0
   0
ENDBLK
   5
262
 100
AcDbEntity
   8
0
 100
AcDbBlockEnd
   0
BLOCK
   5
263
 100
AcDbEntity
   8
0
 100
AcDbBlockBegin
   2
*D50
  70
65
  10
0.0
  20
0.0
  30
0.0
   3
*D50
   0
LINE
   5
264
 100
AcDbEntity
   8
LEVEL001
 370
15
 100
AcDbLine
   6
CONTINUOUS
  62
8
  10
 197.74999999990
  20
 206.53356191406
  30
0.0
  11
 197.74999999990
  21
 218.03356191406
  31
0.0
   0
LINE
   5
265
 100
AcDbEntity
   8
LEVEL001
 370
15
 100
AcDbLine
   6
CONTINUOUS
  62
8
  10
 226.24999999990
  20
 211.72468243048
  30
0.0
  11
 226.24999999990
  21
 218.03356191406
  31
0.0
   0
LINE
   5
266
 100
AcDbEntity
   8
LEVEL001
 370
15
 100
AcDbLine
   6
CONTINUOUS
  62
8
  10
 197.74999999990
  20
 216.03356191406
  30
0.0
  11
 211.99999999990
  21
 216.03356191406
  31
0.0
   0
LINE
   5
267
 100
AcDbEntity
   8
LEVEL001
 370
15
 100
AcDbLine
   6
CONTINUOUS
  62
8
  10
 226.24999999990
  20
 216.03356191406
  30
0.0
  11
 211.99999999990
  21
 216.03356191406
  31
0.0
   0
SOLID
   5
268
 100
AcDbEntity
   8
LEVEL001
 100
AcDbTrace
   6
CONTINUOUS
  62
8
  10
 197.74999999990
  20
 216.03356191406
  30
0.0
  11
 200.74999999990
  21
 215.50458097194
  31
0.0
  12
 200.74999999990
  22
 216.56254285619
  32
0.0
  13
 200.74999999990
  23
 216.56254285619
  33
0.0
   0
SOLID
   5
269
 100
AcDbEntity
   8
LEVEL001
 100
AcDbTrace
   6
CONTINUOUS
  62
8
  10
 226.24999999990
  20
 216.03356191406
  30
0.0
  11
 223.24999999990
  21
 216.56254285619
  31
0.0
  12
 223.24999999990
  22
 215.50458097194
  32
0.0
  13
 223.24999999990
  23
 215.50458097194
  33
0.0
   0
MTEXT
   5
26A
 100
AcDbEntity
   8
LEVEL001
 370
15
  62
8
 100
AcDbMText
  10
 211.99999999990
  20
 217.03356191406
  30
0.0
  40
 4.0000000000000
  41
0.0
  71
8
  72
1
   1
\A1;28.5
   7
GMM001
   0
ENDBLK
   5
26B
 100
AcDbEntity
   8
0
 100
AcDbBlockEnd
   0
BLOCK
   5
26C
 100
AcDbEntity
   8
0
 100
AcDbBlockBegin
   2
*D51
  70
65
  10
0.0
  20
0.0
  30
0.0
   3
*D51
   0
LINE
   5
26D
 100
AcDbEntity
   8
LEVEL001
 370
15
 100
AcDbLine
   6
CONTINUOUS
  62
8
  10
 197.74999999990
  20
 218.03356191406
  30
0.0
  11
 197.74999999990
  21
 228.03356191406
  31
0.0
   0
LINE
   5
26E
 100
AcDbEntity
   8
LEVEL001
 370
15
 100
AcDbLine
   6
CONTINUOUS
  62
8
  10
 297.74999999990
  20
 206.53356191406
  30
0.0
  11
 297.74999999990
  21
 228.03356191406
  31
0.0
   0
LINE
   5
26F
 100
AcDbEntity
   8
LEVEL001
 370
15
 100
AcDbLine
   6
CONTINUOUS
  62
8
  10
 197.74999999990
  20
 226.03356191406
  30
0.0
  11
 247.74999999990
  21
 226.03356191406
  31
0.0
   0
LINE
   5
270
 100
AcDbEntity
   8
LEVEL001
 370
15
 100
AcDbLine
   6
CONTINUOUS
  62
8
  10
 297.74999999990
  20
 226.03356191406
  30
0.0
  11
 247.74999999990
  21
 226.03356191406
  31
0.0
   0
SOLID
   5
271
 100
AcDbEntity
   8
LEVEL001
 100
AcDbTrace
   6
CONTINUOUS
  62
8
  10
 197.74999999990
  20
 226.03356191406
  30
0.0
  11
 200.74999999990
  21
 225.50458097194
  31
0.0
  12
 200.74999999990
  22
 226.56254285619
  32
0.0
  13
 200.74999999990
  23
 226.56254285619
  33
0.0
   0
SOLID
   5
272
 100
AcDbEntity
   8
LEVEL001
 100
AcDbTrace
   6
CONTINUOUS
  62
8
  10
 297.74999999990
  20
 226.03356191406
  30
0.0
  11
 294.74999999990
  21
 226.56254285619
  31
0.0
  12
 294.74999999990
  22
 225.50458097194
  32
0.0
  13
 294.74999999990
  23
 225.50458097194
  33
0.0
   0
MTEXT
   5
273
 100
AcDbEntity
   8
LEVEL001
 370
15
  62
8
 100
AcDbMText
  10
 247.74999999990
  20
 227.03356191406
  30
0.0
  40
 4.0000000000000
  41
0.0
  71
8
  72
1
   1
\A1;100
   7
GMM001
   0
ENDBLK
   5
274
 100
AcDbEntity
   8
0
 100
AcDbBlockEnd
   0
BLOCK
   5
275
 100
AcDbEntity
   8
0
 100
AcDbBlockBegin
   2
*D52
  70
65
  10
0.0
  20
0.0
  30
0.0
   3
*D52
   0
LINE
   5
276
 100
AcDbEntity
   8
LEVEL001
 370
15
 100
AcDbLine
   6
CONTINUOUS
  62
8
  10
 228.24999999990
  20
 202.43356191406
  30
0.0
  11
 240.53877098501
  21
 202.43356191406
  31
0.0
   0
LINE
   5
277
 100
AcDbEntity
   8
LEVEL001
 370
15
 100
AcDbLine
   6
CONTINUOUS
  62
8
  10
 238.53877098501
  20
 198.68356191406
  30
0.0
  11
 238.53877098501
  21
 204.23356191406
  31
0.0
   0
LINE
   5
278
 100
AcDbEntity
   8
LEVEL001
 370
15
 100
AcDbLine
   6
CONTINUOUS
  62
8
  10
 238.53877098501
  20
 216.31596000712
  30
0.0
  11
 238.53877098501
  21
 204.23356191406
  31
0.0
   0
SOLID
   5
279
 100
AcDbEntity
   8
LEVEL001
 100
AcDbTrace
   6
CONTINUOUS
  62
8
  10
 238.53877098501
  20
 202.43356191406
  30
0.0
  11
 238.00979004289
  21
 199.43356191406
  31
0.0
  12
 239.06775192714
  22
 199.43356191406
  32
0.0
  13
 239.06775192714
  23
 199.43356191406
  33
0.0
   0
SOLID
   5
27A
 100
AcDbEntity
   8
LEVEL001
 100
AcDbTrace
   6
CONTINUOUS
  62
8
  10
 238.53877098501
  20
 206.03356191406
  30
0.0
  11
 239.06775192714
  21
 209.03356191406
  31
0.0
  12
 238.00979004289
  22
 209.03356191406
  32
0.0
  13
 238.00979004289
  23
 209.03356191406
  33
0.0
   0
MTEXT
   5
27B
 100
AcDbEntity
   8
LEVEL001
 370
15
  62
8
 100
AcDbMText
  10
 237.49907931290
  20
 207.81596000712
  30
0.0
  40
 4.0000000000000
  41
0.0
  71
7
  72
1
   1
\A1;3.6
   7
GMM001
  11
0.0
  21
 1.0000000000000
  31
0.0
   0
ENDBLK
   5
27C
 100
AcDbEntity
   8
0
 100
AcDbBlockEnd
   0
BLOCK
   5
27D
 100
AcDbEntity
   8
0
 100
AcDbBlockBegin
   2
*D53
  70
65
  10
0.0
  20
0.0
  30
0.0
   3
*D53
   0
LINE
   5
27E
 100
AcDbEntity
   8
LEVEL001
 370
15
 100
AcDbLine
   6
CONTINUOUS
  62
8
  10
 195.74999999990
  20
 459.03356191404
  30
0.0
  11
 185.74999999990
  21
 459.03356191404
  31
0.0
   0
LINE
   5
27F
 100
AcDbEntity
   8
LEVEL001
 370
15
 100
AcDbLine
   6
CONTINUOUS
  62
8
  10
 197.24999999990
  20
 479.03356191404
  30
0.0
  11
 185.74999999990
  21
 479.03356191404
  31
0.0
   0
LINE
   5
280
 100
AcDbEntity
   8
LEVEL001
 370
15
 100
AcDbLine
   6
CONTINUOUS
  62
8
  10
 187.74999999990
  20
 459.03356191404
  30
0.0
  11
 187.74999999990
  21
 469.03356191404
  31
0.0
   0
LINE
   5
281
 100
AcDbEntity
   8
LEVEL001
 370
15
 100
AcDbLine
   6
CONTINUOUS
  62
8
  10
 187.74999999990
  20
 479.03356191404
  30
0.0
  11
 187.74999999990
  21
 469.03356191404
  31
0.0
   0
SOLID
   5
282
 100
AcDbEntity
   8
LEVEL001
 100
AcDbTrace
   6
CONTINUOUS
  62
8
  10
 187.74999999990
  20
 459.03356191404
  30
0.0
  11
 188.27898094203
  21
 462.03356191404
  31
0.0
  12
 187.22101905777
  22
 462.03356191404
  32
0.0
  13
 187.22101905777
  23
 462.03356191404
  33
0.0
   0
SOLID
   5
283
 100
AcDbEntity
   8
LEVEL001
 100
AcDbTrace
   6
CONTINUOUS
  62
8
  10
 187.74999999990
  20
 479.03356191404
  30
0.0
  11
 187.22101905777
  21
 476.03356191404
  31
0.0
  12
 188.27898094203
  22
 476.03356191404
  32
0.0
  13
 188.27898094203
  23
 476.03356191404
  33
0.0
   0
MTEXT
   5
284
 100
AcDbEntity
   8
LEVEL001
 370
15
  62
8
 100
AcDbMText
  10
 186.74999999990
  20
 469.03356191404
  30
0.0
  40
 4.0000000000000
  41
0.0
  71
8
  72
1
   1
\A1;20
   7
GMM001
  11
0.0
  21
 1.0000000000000
  31
0.0
   0
ENDBLK
   5
285
 100
AcDbEntity
   8
0
 100
AcDbBlockEnd
   0
BLOCK
   5
286
 100
AcDbEntity
   8
0
 100
AcDbBlockBegin
   2
*D54
  70
65
  10
0.0
  20
0.0
  30
0.0
   3
*D54
   0
LINE
   5
287
 100
AcDbEntity
   8
LEVEL001
 370
15
 100
AcDbLine
   6
CONTINUOUS
  62
8
  10
 197.74999999990
  20
 479.53356191404
  30
0.0
  11
 197.74999999990
  21
 491.03356191404
  31
0.0
   0
LINE
   5
288
 100
AcDbEntity
   8
LEVEL001
 370
15
 100
AcDbLine
   6
CONTINUOUS
  62
8
  10
 226.24999999990
  20
 484.72468243046
  30
0.0
  11
 226.24999999990
  21
 491.03356191404
  31
0.0
   0
LINE
   5
289
 100
AcDbEntity
   8
LEVEL001
 370
15
 100
AcDbLine
   6
CONTINUOUS
  62
8
  10
 197.74999999990
  20
 489.03356191404
  30
0.0
  11
 211.99999999990
  21
 489.03356191404
  31
0.0
   0
LINE
   5
28A
 100
AcDbEntity
   8
LEVEL001
 370
15
 100
AcDbLine
   6
CONTINUOUS
  62
8
  10
 226.24999999990
  20
 489.03356191404
  30
0.0
  11
 211.99999999990
  21
 489.03356191404
  31
0.0
   0
SOLID
   5
28B
 100
AcDbEntity
   8
LEVEL001
 100
AcDbTrace
   6
CONTINUOUS
  62
8
  10
 197.74999999990
  20
 489.03356191404
  30
0.0
  11
 200.74999999990
  21
 488.50458097192
  31
0.0
  12
 200.74999999990
  22
 489.56254285617
  32
0.0
  13
 200.74999999990
  23
 489.56254285617
  33
0.0
   0
SOLID
   5
28C
 100
AcDbEntity
   8
LEVEL001
 100
AcDbTrace
   6
CONTINUOUS
  62
8
  10
 226.24999999990
  20
 489.03356191404
  30
0.0
  11
 223.24999999990
  21
 489.56254285617
  31
0.0
  12
 223.24999999990
  22
 488.50458097192
  32
0.0
  13
 223.24999999990
  23
 488.50458097192
  33
0.0
   0
MTEXT
   5
28D
 100
AcDbEntity
   8
LEVEL001
 370
15
  62
8
 100
AcDbMText
  10
 211.99999999990
  20
 490.03356191404
  30
0.0
  40
 4.0000000000000
  41
0.0
  71
8
  72
1
   1
\A1;28.5
   7
GMM001
   0
ENDBLK
   5
28E
 100
AcDbEntity
   8
0
 100
AcDbBlockEnd
   0
BLOCK
   5
28F
 100
AcDbEntity
   8
0
 100
AcDbBlockBegin
   2
*D55
  70
65
  10
0.0
  20
0.0
  30
0.0
   3
*D55
   0
LINE
   5
290
 100
AcDbEntity
   8
LEVEL001
 370
15
 100
AcDbLine
   6
CONTINUOUS
  62
8
  10
 197.74999999990
  20
 491.03356191404
  30
0.0
  11
 197.74999999990
  21
 501.03356191404
  31
0.0
   0
LINE
   5
291
 100
AcDbEntity
   8
LEVEL001
 370
15
 100
AcDbLine
   6
CONTINUOUS
  62
8
  10
 297.74999999990
  20
 479.53356191404
  30
0.0
  11
 297.74999999990
  21
 501.03356191404
  31
0.0
   0
LINE
   5
292
 100
AcDbEntity
   8
LEVEL001
 370
15
 100
AcDbLine
   6
CONTINUOUS
  62
8
  10
 197.74999999990
  20
 499.03356191404
  30
0.0
  11
 247.74999999990
  21
 499.03356191404
  31
0.0
   0
LINE
   5
293
 100
AcDbEntity
   8
LEVEL001
 370
15
 100
AcDbLine
   6
CONTINUOUS
  62
8
  10
 297.74999999990
  20
 499.03356191404
  30
0.0
  11
 247.74999999990
  21
 499.03356191404
  31
0.0
   0
SOLID
   5
294
 100
AcDbEntity
   8
LEVEL001
 100
AcDbTrace
   6
CONTINUOUS
  62
8
  10
 197.74999999990
  20
 499.03356191404
  30
0.0
  11
 200.74999999990
  21
 498.50458097192
  31
0.0
  12
 200.74999999990
  22
 499.56254285617
  32
0.0
  13
 200.74999999990
  23
 499.56254285617
  33
0.0
   0
SOLID
   5
295
 100
AcDbEntity
   8
LEVEL001
 100
AcDbTrace
   6
CONTINUOUS
  62
8
  10
 297.74999999990
  20
 499.03356191404
  30
0.0
  11
 294.74999999990
  21
 499.56254285617
  31
0.0
  12
 294.74999999990
  22
 498.50458097192
  32
0.0
  13
 294.74999999990
  23
 498.50458097192
  33
0.0
   0
MTEXT
   5
296
 100
AcDbEntity
   8
LEVEL001
 370
15
  62
8
 100
AcDbMText
  10
 247.74999999990
  20
 500.03356191404
  30
0.0
  40
 4.0000000000000
  41
0.0
  71
8
  72
1
   1
\A1;100
   7
GMM001
   0
ENDBLK
   5
297
 100
AcDbEntity
   8
0
 100
AcDbBlockEnd
   0
BLOCK
   5
298
 100
AcDbEntity
   8
0
 100
AcDbBlockBegin
   2
*D57
  70
65
  10
0.0
  20
0.0
  30
0.0
   3
*D57
   0
LINE
   5
299
 100
AcDbEntity
   8
LEVEL001
 370
15
 100
AcDbLine
   6
CONTINUOUS
  62
8
  10
 228.24999999990
  20
 475.43356191404
  30
0.0
  11
 240.53877098501
  21
 475.43356191404
  31
0.0
   0
LINE
   5
29A
 100
AcDbEntity
   8
LEVEL001
 370
15
 100
AcDbLine
   6
CONTINUOUS
  62
8
  10
 238.53877098501
  20
 471.68356191404
  30
0.0
  11
 238.53877098501
  21
 477.23356191404
  31
0.0
   0
LINE
   5
29B
 100
AcDbEntity
   8
LEVEL001
 370
15
 100
AcDbLine
   6
CONTINUOUS
  62
8
  10
 238.53877098501
  20
 489.31596000710
  30
0.0
  11
 238.53877098501
  21
 477.23356191404
  31
0.0
   0
SOLID
   5
29C
 100
AcDbEntity
   8
LEVEL001
 100
AcDbTrace
   6
CONTINUOUS
  62
8
  10
 238.53877098501
  20
 475.43356191404
  30
0.0
  11
 238.00979004289
  21
 472.43356191404
  31
0.0
  12
 239.06775192714
  22
 472.43356191404
  32
0.0
  13
 239.06775192714
  23
 472.43356191404
  33
0.0
   0
SOLID
   5
29D
 100
AcDbEntity
   8
LEVEL001
 100
AcDbTrace
   6
CONTINUOUS
  62
8
  10
 238.53877098501
  20
 479.03356191404
  30
0.0
  11
 239.06775192714
  21
 482.03356191404
  31
0.0
  12
 238.00979004289
  22
 482.03356191404
  32
0.0
  13
 238.00979004289
  23
 482.03356191404
  33
0.0
   0
MTEXT
   5
29E
 100
AcDbEntity
   8
LEVEL001
 370
15
  62
8
 100
AcDbMText
  10
 237.49907931290
  20
 480.81596000710
  30
0.0
  40
 4.0000000000000
  41
0.0
  71
7
  72
1
   1
\A1;3.6
   7
GMM001
  11
0.0
  21
 1.0000000000000
  31
0.0
   0
ENDBLK
   5
29F
 100
AcDbEntity
   8
0
 100
AcDbBlockEnd
   0
ENDSEC
   0
SECTION
   2
ENTITIES
   0
LINE
   5
2A0
 100
AcDbEntity
   8
LEVEL001
 370
30
 100
AcDbLine
   6
DOT
  62
7
  10
0.0
  20
0.0
  30
0.0
  11
 840.00000000000
  21
0.0
  31
0.0
   0
LINE
   5
2A1
 100
AcDbEntity
   8
LEVEL001
 370
30
 100
AcDbLine
   6
DOT
  62
7
  10
 840.00000000000
  20
0.0
  30
0.0
  11
 840.00000000000
  21
 594.00000000000
  31
0.0
   0
LINE
   5
2A2
 100
AcDbEntity
   8
LEVEL001
 370
30
 100
AcDbLine
   6
DOT
  62
7
  10
 840.00000000000
  20
 594.00000000000
  30
0.0
  11
0.0
  21
 594.00000000000
  31
0.0
   0
LINE
   5
2A3
 100
AcDbEntity
   8
LEVEL001
 370
30
 100
AcDbLine
   6
DOT
  62
7
  10
0.0
  20
 594.00000000000
  30
0.0
  11
0.0
  21
0.0
  31
0.0
   0
LINE
   5
2A4
 100
AcDbEntity
   8
LEVEL002
 370
40
 100
AcDbLine
   6
CONTINUOUS
  62
3
  10
 30.999999999900
  20
 433.50000000000
  30
0.0
  11
 608.99999999990
  21
 433.50000000000
  31
0.0
   0
LINE
   5
2A5
 100
AcDbEntity
   8
LEVEL002
 370
40
 100
AcDbLine
   6
CONTINUOUS
  62
3
  10
 30.999999999900
  20
 550.00000000000
  30
0.0
  11
 608.99999999990
  21
 550.00000000000
  31
0.0
   0
LINE
   5
2A6
 100
AcDbEntity
   8
LEVEL002
 370
40
 100
AcDbLine
   6
CONTINUOUS
  62
3
  10
 30.999999999900
  20
 413.50000000000
  30
0.0
  11
 608.99999999990
  21
 413.50000000000
  31
0.0
   0
LINE
   5
2A7
 100
AcDbEntity
   8
LEVEL002
 370
40
 100
AcDbLine
   6
CONTINUOUS
  62
3
  10
 608.99999999990
  20
 513.50000000000
  30
0.0
  11
 808.99999999990
  21
 513.50000000000
  31
0.0
   0
LINE
   5
2A8
 100
AcDbEntity
   8
LEVEL002
 370
40
 100
AcDbLine
   6
CONTINUOUS
  62
3
  10
 608.99999999990
  20
 473.50000000000
  30
0.0
  11
 808.99999999990
  21
 473.50000000000
  31
0.0
   0
LINE
   5
2A9
 100
AcDbEntity
   8
LEVEL002
 370
40
 100
AcDbLine
   6
CONTINUOUS
  62
3
  10
 608.99999999990
  20
 433.50000000000
  30
0.0
  11
 808.99999999990
  21
 433.50000000000
  31
0.0
   0
LINE
   5
2AA
 100
AcDbEntity
   8
LEVEL002
 370
40
 100
AcDbLine
   6
CONTINUOUS
  62
3
  10
 464.49999999990
  20
 570.00000000000
  30
0.0
  11
 464.49999999990
  21
 24.000000000020
  31
0.0
   0
LINE
   5
2AB
 100
AcDbEntity
   8
LEVEL002
 370
40
 100
AcDbLine
   6
CONTINUOUS
  62
3
  10
 319.99999999990
  20
 570.00000000000
  30
0.0
  11
 319.99999999990
  21
 24.000000000020
  31
0.0
   0
LINE
   5
2AC
 100
AcDbEntity
   8
LEVEL002
 370
40
 100
AcDbLine
   6
CONTINUOUS
  62
3
  10
 175.49999999990
  20
 570.00000000000
  30
0.0
  11
 175.49999999990
  21
 24.000000000020
  31
0.0
   0
LINE
   5
2AD
 100
AcDbEntity
   8
LEVEL002
 370
40
 100
AcDbLine
   6
CONTINUOUS
  62
3
  10
 30.999999999900
  20
 297.00000000002
  30
0.0
  11
 608.99999999990
  21
 297.00000000002
  31
0.0
   0
LINE
   5
2AE
 100
AcDbEntity
   8
LEVEL002
 370
40
 100
AcDbLine
   6
CONTINUOUS
  62
3
  10
 30.999999999900
  20
 277.00000000002
  30
0.0
  11
 608.99999999990
  21
 277.00000000002
  31
0.0
   0
LINE
   5
2AF
 100
AcDbEntity
   8
LEVEL002
 370
40
 100
AcDbLine
   6
CONTINUOUS
  62
3
  10
 30.999999999900
  20
 160.50000000002
  30
0.0
  11
 608.99999999990
  21
 160.50000000002
  31
0.0
   0
LINE
   5
2B0
 100
AcDbEntity
   8
LEVEL002
 370
40
 100
AcDbLine
   6
CONTINUOUS
  62
3
  10
 30.999999999900
  20
 140.50000000002
  30
0.0
  11
 608.99999999990
  21
 140.50000000002
  31
0.0
   0
LINE
   5
2B1
 100
AcDbEntity
   8
LEVEL002
 370
40
 100
AcDbLine
   6
CONTINUOUS
  62
3
  10
 608.99999999990
  20
 144.00000000002
  30
0.0
  11
 808.99999999990
  21
 144.00000000002
  31
0.0
   0
LINE
   5
2B2
 100
AcDbEntity
   8
LEVEL002
 370
40
 100
AcDbLine
   6
CONTINUOUS
  62
3
  10
 608.99999999990
  20
 104.00000000002
  30
0.0
  11
 808.99999999990
  21
 104.00000000002
  31
0.0
   0
LINE
   5
2B3
 100
AcDbEntity
   8
LEVEL002
 370
40
 100
AcDbLine
   6
CONTINUOUS
  62
3
  10
 608.99999999990
  20
 64.000000000020
  30
0.0
  11
 808.99999999990
  21
 64.000000000020
  31
0.0
   0
LINE
   5
2B4
 100
AcDbEntity
   8
LEVEL002
 370
40
 100
AcDbLine
   6
CONTINUOUS
  62
3
  10
 708.99999999990
  20
 104.00000000002
  30
0.0
  11
 708.99999999990
  21
 24.000000000020
  31
0.0
   0
LINE
   5
2B5
 100
AcDbEntity
   8
LEVEL002
 370
40
 100
AcDbLine
   6
CONTINUOUS
  62
3
  10
 708.99999999990
  20
 77.333333333360
  30
0.0
  11
 808.99999999990
  21
 77.333333333360
  31
0.0
   0
LINE
   5
2B6
 100
AcDbEntity
   8
LEVEL002
 370
40
 100
AcDbLine
   6
CONTINUOUS
  62
3
  10
 708.99999999990
  20
 90.666666666690
  30
0.0
  11
 808.99999999990
  21
 90.666666666690
  31
0.0
   0
LINE
   5
2B7
 100
AcDbEntity
   8
LEVEL002
 370
50
 100
AcDbLine
   6
CONTINUOUS
  62
4
  10
 808.99999999990
  20
 570.00000000000
  30
0.0
  11
 30.999999999900
  21
 570.00000000000
  31
0.0
   0
LINE
   5
2B8
 100
AcDbEntity
   8
LEVEL002
 370
50
 100
AcDbLine
   6
CONTINUOUS
  62
4
  10
 608.99999999990
  20
 570.00000000000
  30
0.0
  11
 608.99999999990
  21
 24.000000000020
  31
0.0
   0
LINE
   5
2B9
 100
AcDbEntity
   8
LEVEL002
 370
50
 100
AcDbLine
   6
CONTINUOUS
  62
4
  10
 808.99999999990
  20
 24.000000000020
  30
0.0
  11
 808.99999999990
  21
 570.00000000000
  31
0.0
   0
LINE
   5
2BA
 100
AcDbEntity
   8
LEVEL002
 370
50
 100
AcDbLine
   6
CONTINUOUS
  62
4
  10
 30.999999999900
  20
 570.00000000000
  30
0.0
  11
 30.999999999900
  21
 24.000000000020
  31
0.0
   0
LINE
   5
2BB
 100
AcDbEntity
   8
LEVEL002
 370
50
 100
AcDbLine
   6
CONTINUOUS
  62
4
  10
 30.999999999900
  20
 24.000000000020
  30
0.0
  11
 808.99999999990
  21
 24.000000000020
  31
0.0
   0
HATCH
   5
2BC
 100
AcDbEntity
   8
LEVEL001
  62
1
 100
AcDbHatch
  10
0.0
  20
0.0
  30
0.0
 210
0.0
 220
0.0
 230
 1.0000000000000
   2
SOLID
  70
1
  71
1
  91
7
  92
1
  93
6
  72
1
  10
 648.90000000000
  20
 560.95000000000
  11
 636.10000000000
  21
 541.75000000000
  72
1
  10
 636.10000000000
  20
 541.75000000000
  11
 648.90000000000
  21
 522.55000000000
  72
1
  10
 648.90000000000
  20
 522.55000000000
  11
 638.10000000000
  21
 522.55000000000
  72
1
  10
 638.10000000000
  20
 522.55000000000
  11
 625.30000000000
  21
 541.75000000000
  72
1
  10
 625.30000000000
  20
 541.75000000000
  11
 638.10000000000
  21
 560.95000000000
  72
1
  10
 638.10000000000
  20
 560.95000000000
  11
 648.90000000000
  21
 560.95000000000
  97
1
 330

  92
16
  93
6
  72
1
  10
 654.30000000000
  20
 560.95000000000
  11
 665.10000000000
  21
 560.95000000000
  72
1
  10
 665.10000000000
  20
 560.95000000000
  11
 652.30000000000
  21
 541.75000000000
  72
1
  10
 652.30000000000
  20
 541.75000000000
  11
 665.10000000000
  21
 522.55000000000
  72
1
  10
 665.10000000000
  20
 522.55000000000
  11
 654.30000000000
  21
 522.55000000000
  72
1
  10
 654.30000000000
  20
 522.55000000000
  11
 641.50000000000
  21
 541.75000000000
  72
1
  10
 641.50000000000
  20
 541.75000000000
  11
 654.30000000000
  21
 560.95000000000
  97
1
 330

  92
16
  93
3
  72
1
  10
 666.70000000000
  20
 541.75000000000
  11
 657.70000000000
  21
 541.75000000000
  72
1
  10
 657.70000000000
  20
 541.75000000000
  11
 666.70000000000
  21
 527.35000000000
  72
1
  10
 666.70000000000
  20
 527.35000000000
  11
 666.70000000000
  21
 541.75000000000
  97
1
 330

  92
16
  93
6
  72
1
  10
 673.90000000000
  20
 544.15000000000
  11
 688.30000000000
  21
 544.15000000000
  72
2
  10
 688.30000000000
  20
 535.15000000000
  40
 9.0000000000000
  50
 270.00000000000
  51
 90.000000000000
  73
0
  72
1
  10
 688.30000000000
  20
 526.15000000000
  11
 681.10000000000
  21
 526.15000000000
  72
1
  10
 681.10000000000
  20
 526.15000000000
  11
 681.10000000000
  21
 522.55000000000
  72
1
  10
 681.10000000000
  20
 522.55000000000
  11
 673.90000000000
  21
 522.55000000000
  72
1
  10
 673.90000000000
  20
 522.55000000000
  11
 673.90000000000
  21
 544.15000000000
  97
1
 330

  92
16
  93
4
  72
1
  10
 688.30000000000
  20
 536.95000000000
  11
 681.10000000000
  21
 536.95000000000
  72
1
  10
 681.10000000000
  20
 536.95000000000
  11
 681.10000000000
  21
 533.35000000000
  72
1
  10
 681.10000000000
  20
 533.35000000000
  11
 688.30000000000
  21
 533.35000000000
  72
2
  10
 688.30000000000
  20
 535.15000000000
  40
 1.8000000000000
  50
 270.00000000000
  51
 90.000000000000
  73
1
  97
1
 330

  92
16
  93
4
  72
1
  10
 691.90000000000
  20
 522.55000000000
  11
 706.30000000000
  21
 544.15000000000
  72
1
  10
 706.30000000000
  20
 544.15000000000
  11
 717.10000000000
  21
 544.15000000000
  72
1
  10
 717.10000000000
  20
 544.15000000000
  11
 702.70000000000
  21
 522.55000000000
  72
1
  10
 702.70000000000
  20
 522.55000000000
  11
 691.90000000000
  21
 522.55000000000
  97
1
 330

  92
16
  93
3
  72
1
  10
 714.70000000000
  20
 536.22333846940
  11
 705.58444102040
  21
 522.55000000000
  72
1
  10
 705.58444102040
  20
 522.55000000000
  11
 714.70000000000
  21
 522.55000000000
  72
1
  10
 714.70000000000
  20
 522.55000000000
  11
 714.70000000000
  21
 536.22333846940
  97
1
 330

  75
0
  76
1
  98
1
  10
0.0
  20
0.0
   0
HATCH
   5
2BD
 100
AcDbEntity
   8
LEVEL001
  62
1
 100
AcDbHatch
  10
0.0
  20
0.0
  30
0.0
 210
0.0
 220
0.0
 230
 1.0000000000000
   2
SOLID
  70
1
  71
1
  91
1
  92
1
  93
22
  72
1
  10
 717.10000000000
  20
 544.15000000000
  11
 724.30000000000
  21
 544.15000000000
  72
1
  10
 724.30000000000
  20
 544.15000000000
  11
 724.30000000000
  21
 529.75000000000
  72
1
  10
 724.30000000000
  20
 529.75000000000
  11
 735.10000000000
  21
 529.75000000000
  72
1
  10
 735.10000000000
  20
 529.75000000000
  11
 735.10000000000
  21
 536.95000000000
  72
1
  10
 735.10000000000
  20
 536.95000000000
  11
 727.90000000000
  21
 536.95000000000
  72
1
  10
 727.90000000000
  20
 536.95000000000
  11
 727.90000000000
  21
 544.15000000000
  72
1
  10
 727.90000000000
  20
 544.15000000000
  11
 771.10000000000
  21
 544.15000000000
  72
1
  10
 771.10000000000
  20
 544.15000000000
  11
 771.10000000000
  21
 536.95000000000
  72
1
  10
 771.10000000000
  20
 536.95000000000
  11
 756.70000000000
  21
 536.95000000000
  72
1
  10
 756.70000000000
  20
 536.95000000000
  11
 756.70000000000
  21
 535.15000000000
  72
1
  10
 756.70000000000
  20
 535.15000000000
  11
 769.30000000000
  21
 535.15000000000
  72
1
  10
 769.30000000000
  20
 535.15000000000
  11
 769.30000000000
  21
 531.55000000000
  72
1
  10
 769.30000000000
  20
 531.55000000000
  11
 756.70000000000
  21
 531.55000000000
  72
1
  10
 756.70000000000
  20
 531.55000000000
  11
 756.70000000000
  21
 529.75000000000
  72
1
  10
 756.70000000000
  20
 529.75000000000
  11
 771.10000000000
  21
 529.75000000000
  72
1
  10
 771.10000000000
  20
 529.75000000000
  11
 771.10000000000
  21
 522.55000000000
  72
1
  10
 771.10000000000
  20
 522.55000000000
  11
 749.50000000000
  21
 522.55000000000
  72
1
  10
 749.50000000000
  20
 522.55000000000
  11
 749.50000000000
  21
 536.95000000000
  72
1
  10
 749.50000000000
  20
 536.95000000000
  11
 742.30000000000
  21
 536.95000000000
  72
1
  10
 742.30000000000
  20
 536.95000000000
  11
 742.30000000000
  21
 522.55000000000
  72
1
  10
 742.30000000000
  20
 522.55000000000
  11
 717.10000000000
  21
 522.55000000000
  72
1
  10
 717.10000000000
  20
 522.55000000000
  11
 717.10000000000
  21
 544.15000000000
  97
1
 330

  75
0
  76
1
  98
1
  10
0.0
  20
0.0
   0
HATCH
   5
2BE
 100
AcDbEntity
   8
LEVEL001
  62
1
 100
AcDbHatch
  10
0.0
  20
0.0
  30
0.0
 210
0.0
 220
0.0
 230
 1.0000000000000
   2
SOLID
  70
1
  71
1
  91
1
  92
1
  93
8
  72
1
  10
 792.70000000000
  20
 544.15000000000
  11
 781.90000000000
  21
 544.15000000000
  72
2
  10
 781.90000000000
  20
 533.35000000000
  40
 10.800000000000
  50
 90.000000000000
  51
 270.00000000000
  73
1
  72
1
  10
 781.90000000000
  20
 522.55000000000
  11
 792.70000000000
  21
 522.55000000000
  72
1
  10
 792.70000000000
  20
 522.55000000000
  11
 792.70000000000
  21
 529.75000000000
  72
1
  10
 792.70000000000
  20
 529.75000000000
  11
 781.90000000000
  21
 529.75000000000
  72
2
  10
 781.90000000000
  20
 533.35000000000
  40
 3.6000000000000
  50
 90.000000000000
  51
 270.00000000000
  73
0
  72
1
  10
 781.90000000000
  20
 536.95000000000
  11
 792.70000000000
  21
 536.95000000000
  72
1
  10
 792.70000000000
  20
 536.95000000000
  11
 792.70000000000
  21
 544.15000000000
  97
1
 330

  75
0
  76
1
  98
1
  10
0.0
  20
0.0
   0
LINE
   5
2BF
 100
AcDbEntity
   8
LEVEL002
 370
30
 100
AcDbLine
   6
CONTINUOUS
  62
7
  10
 79.749999999900
  20
 479.03356191404
  30
0.0
  11
 97.249999999900
  21
 479.03356191404
  31
0.0
   0
LINE
   5
2C0
 100
AcDbEntity
   8
LEVEL002
 370
30
 100
AcDbLine
   6
CONTINUOUS
  62
7
  10
 109.24999999990
  20
 479.03356191404
  30
0.0
  11
 126.74999999990
  21
 479.03356191404
  31
0.0
   0
LINE
   5
2C1
 100
AcDbEntity
   8
LEVEL002
 370
30
 100
AcDbLine
   6
CONTINUOUS
  62
7
  10
 79.749999999900
  20
 478.03356191404
  30
0.0
  11
 97.249999999897
  21
 478.03356191404
  31
0.0
   0
LINE
   5
2C2
 100
AcDbEntity
   8
LEVEL002
 370
30
 100
AcDbLine
   6
CONTINUOUS
  62
7
  10
 109.24999999990
  20
 478.03356191404
  30
0.0
  11
 126.74999999990
  21
 478.03356191404
  31
0.0
   0
ARC
   5
2C3
 100
AcDbEntity
   8
LEVEL002
 370
30
   6
CONTINUOUS
  62
7
 100
AcDbCircle
  10
 126.74999999990
  20
 477.53356191404
  30
0.0
  40
 1.5000000000000
 100
AcDbArc
  50
0.0
  51
 90.000000000000
   0
ARC
   5
2C4
 100
AcDbEntity
   8
LEVEL002
 370
30
   6
CONTINUOUS
  62
7
 100
AcDbCircle
  10
 126.74999999990
  20
 477.53356191405
  30
0.0
  40
 0.50000000000000
 100
AcDbArc
  50
0.0
  51
 90.000000000000
   0
ARC
   5
2C5
 100
AcDbEntity
   8
LEVEL002
 370
30
   6
CONTINUOUS
  62
7
 100
AcDbCircle
  10
 79.749999999900
  20
 477.53356191404
  30
0.0
  40
 1.5000000000000
 100
AcDbArc
  50
 89.999999999965
  51
 180.00000000000
   0
ARC
   5
2C6
 100
AcDbEntity
   8
LEVEL002
 370
30
   6
CONTINUOUS
  62
7
 100
AcDbCircle
  10
 79.749999999900
  20
 477.53356191404
  30
0.0
  40
 0.50000000000000
 100
AcDbArc
  50
 90.000000000000
  51
 180.00000000021
   0
LINE
   5
2C7
 100
AcDbEntity
   8
LEVEL002
 370
30
 100
AcDbLine
   6
CONTINUOUS
  62
7
  10
 78.249999999900
  20
 459.03356191404
  30
0.0
  11
 79.249999999900
  21
 459.03356191404
  31
0.0
   0
LINE
   5
2C8
 100
AcDbEntity
   8
LEVEL002
 370
30
 100
AcDbLine
   6
CONTINUOUS
  62
7
  10
 127.24999999990
  20
 459.03356191404
  30
0.0
  11
 128.24999999990
  21
 459.03356191404
  31
0.0
   0
LINE
   5
2C9
 100
AcDbEntity
   8
LEVEL002
 370
30
 100
AcDbLine
   6
CONTINUOUS
  62
7
  10
 78.249999999900
  20
 459.03356191404
  30
0.0
  11
 78.249999999900
  21
 477.53356191404
  31
0.0
   0
LINE
   5
2CA
 100
AcDbEntity
   8
LEVEL002
 370
30
 100
AcDbLine
   6
CONTINUOUS
  62
7
  10
 79.249999999900
  20
 477.53356191404
  30
0.0
  11
 79.249999999900
  21
 459.03356191404
  31
0.0
   0
LINE
   5
2CB
 100
AcDbEntity
   8
LEVEL002
 370
30
 100
AcDbLine
   6
CONTINUOUS
  62
7
  10
 128.24999999990
  20
 459.03356191404
  30
0.0
  11
 128.24999999990
  21
 477.53356191404
  31
0.0
   0
LINE
   5
2CC
 100
AcDbEntity
   8
LEVEL002
 370
30
 100
AcDbLine
   6
CONTINUOUS
  62
7
  10
 127.24999999990
  20
 477.53356191404
  30
0.0
  11
 127.24999999990
  21
 459.03356191404
  31
0.0
   0
ARC
   5
2CD
 100
AcDbEntity
   8
LEVEL002
 370
30
   6
CONTINUOUS
  62
7
 100
AcDbCircle
  10
 151.74999999990
  20
 341.03356191406
  30
0.0
  40
 1.5000000000000
 100
AcDbArc
  50
0.0
  51
 90.000000000000
   0
ARC
   5
2CE
 100
AcDbEntity
   8
LEVEL002
 370
30
   6
CONTINUOUS
  62
7
 100
AcDbCircle
  10
 151.74999999990
  20
 341.03356191406
  30
0.0
  40
 0.50000000000000
 100
AcDbArc
  50
0.0
  51
 90.000000000000
   0
ARC
   5
2CF
 100
AcDbEntity
   8
LEVEL002
 370
30
   6
CONTINUOUS
  62
7
 100
AcDbCircle
  10
 54.749999999900
  20
 341.03356191406
  30
0.0
  40
 1.5000000000000
 100
AcDbArc
  50
 90.000000000000
  51
 180.00000000000
   0
ARC
   5
2D0
 100
AcDbEntity
   8
LEVEL002
 370
30
   6
CONTINUOUS
  62
7
 100
AcDbCircle
  10
 54.749999999890
  20
 341.03356191406
  30
0.0
  40
 0.50000000000000
 100
AcDbArc
  50
 90.000000000000
  51
 180.00000000029
   0
LINE
   5
2D1
 100
AcDbEntity
   8
LEVEL002
 370
30
 100
AcDbLine
   6
CONTINUOUS
  62
7
  10
 53.249999999900
  20
 322.53356191406
  30
0.0
  11
 54.249999999900
  21
 322.53356191406
  31
0.0
   0
LINE
   5
2D2
 100
AcDbEntity
   8
LEVEL002
 370
30
 100
AcDbLine
   6
CONTINUOUS
  62
7
  10
 152.24999999990
  20
 322.53356191406
  30
0.0
  11
 153.24999999990
  21
 322.53356191406
  31
0.0
   0
LINE
   5
2D3
 100
AcDbEntity
   8
LEVEL002
 370
30
 100
AcDbLine
   6
CONTINUOUS
  62
7
  10
 53.249999999900
  20
 322.53356191406
  30
0.0
  11
 53.249999999900
  21
 341.03356191406
  31
0.0
   0
LINE
   5
2D4
 100
AcDbEntity
   8
LEVEL002
 370
30
 100
AcDbLine
   6
CONTINUOUS
  62
7
  10
 54.249999999900
  20
 341.03356191406
  30
0.0
  11
 54.249999999900
  21
 322.53356191406
  31
0.0
   0
LINE
   5
2D5
 100
AcDbEntity
   8
LEVEL002
 370
30
 100
AcDbLine
   6
CONTINUOUS
  62
7
  10
 152.24999999990
  20
 341.03356191406
  30
0.0
  11
 152.24999999990
  21
 322.53356191406
  31
0.0
   0
LINE
   5
2D6
 100
AcDbEntity
   8
LEVEL002
 370
30
 100
AcDbLine
   6
CONTINUOUS
  62
7
  10
 153.24999999990
  20
 322.53356191406
  30
0.0
  11
 153.24999999990
  21
 341.03356191406
  31
0.0
   0
ARC
   5
2D7
 100
AcDbEntity
   8
LEVEL002
 370
30
   6
CONTINUOUS
  62
7
 100
AcDbCircle
  10
 296.24999999990
  20
 341.03356191406
  30
0.0
  40
 1.5000000000000
 100
AcDbArc
  50
0.0
  51
 90.000000000000
   0
ARC
   5
2D8
 100
AcDbEntity
   8
LEVEL002
 370
30
   6
CONTINUOUS
  62
7
 100
AcDbCircle
  10
 296.24999999990
  20
 341.03356191406
  30
0.0
  40
 0.50000000000000
 100
AcDbArc
  50
0.0
  51
 90.000000000000
   0
ARC
   5
2D9
 100
AcDbEntity
   8
LEVEL002
 370
30
   6
CONTINUOUS
  62
7
 100
AcDbCircle
  10
 199.24999999990
  20
 341.03356191406
  30
0.0
  40
 1.5000000000000
 100
AcDbArc
  50
 90.000000000000
  51
 180.00000000000
   0
ARC
   5
2DA
 100
AcDbEntity
   8
LEVEL002
 370
30
   6
CONTINUOUS
  62
7
 100
AcDbCircle
  10
 199.24999999989
  20
 341.03356191406
  30
0.0
  40
 0.50000000000000
 100
AcDbArc
  50
 90.000000000000
  51
 180.00000000029
   0
LINE
   5
2DB
 100
AcDbEntity
   8
LEVEL002
 370
30
 100
AcDbLine
   6
CONTINUOUS
  62
7
  10
 197.74999999990
  20
 322.53356191406
  30
0.0
  11
 198.74999999990
  21
 322.53356191406
  31
0.0
   0
LINE
   5
2DC
 100
AcDbEntity
   8
LEVEL002
 370
30
 100
AcDbLine
   6
CONTINUOUS
  62
7
  10
 296.74999999990
  20
 322.53356191406
  30
0.0
  11
 297.74999999990
  21
 322.53356191406
  31
0.0
   0
LINE
   5
2DD
 100
AcDbEntity
   8
LEVEL002
 370
30
 100
AcDbLine
   6
CONTINUOUS
  62
7
  10
 197.74999999990
  20
 322.53356191406
  30
0.0
  11
 197.74999999990
  21
 341.03356191406
  31
0.0
   0
LINE
   5
2DE
 100
AcDbEntity
   8
LEVEL002
 370
30
 100
AcDbLine
   6
CONTINUOUS
  62
7
  10
 198.74999999990
  20
 341.03356191406
  30
0.0
  11
 198.74999999990
  21
 322.53356191406
  31
0.0
   0
LINE
   5
2DF
 100
AcDbEntity
   8
LEVEL002
 370
30
 100
AcDbLine
   6
CONTINUOUS
  62
7
  10
 296.74999999990
  20
 341.03356191406
  30
0.0
  11
 296.74999999990
  21
 322.53356191406
  31
0.0
   0
LINE
   5
2E0
 100
AcDbEntity
   8
LEVEL002
 370
30
 100
AcDbLine
   6
CONTINUOUS
  62
7
  10
 297.74999999990
  20
 322.53356191406
  30
0.0
  11
 297.74999999990
  21
 341.03356191406
  31
0.0
   0
ARC
   5
2E1
 100
AcDbEntity
   8
LEVEL002
 370
30
   6
CONTINUOUS
  62
7
 100
AcDbCircle
  10
 440.74999999990
  20
 341.03356191406
  30
0.0
  40
 1.5000000000000
 100
AcDbArc
  50
0.0
  51
 90.000000000000
   0
ARC
   5
2E2
 100
AcDbEntity
   8
LEVEL002
 370
30
   6
CONTINUOUS
  62
7
 100
AcDbCircle
  10
 440.74999999990
  20
 341.03356191406
  30
0.0
  40
 0.50000000000000
 100
AcDbArc
  50
0.0
  51
 90.000000000000
   0
ARC
   5
2E3
 100
AcDbEntity
   8
LEVEL002
 370
30
   6
CONTINUOUS
  62
7
 100
AcDbCircle
  10
 343.74999999990
  20
 341.03356191406
  30
0.0
  40
 1.5000000000000
 100
AcDbArc
  50
 90.000000000000
  51
 180.00000000000
   0
ARC
   5
2E4
 100
AcDbEntity
   8
LEVEL002
 370
30
   6
CONTINUOUS
  62
7
 100
AcDbCircle
  10
 343.74999999989
  20
 341.03356191406
  30
0.0
  40
 0.50000000000000
 100
AcDbArc
  50
 90.000000000000
  51
 180.00000000029
   0
LINE
   5
2E5
 100
AcDbEntity
   8
LEVEL002
 370
30
 100
AcDbLine
   6
CONTINUOUS
  62
7
  10
 342.24999999990
  20
 322.53356191406
  30
0.0
  11
 343.24999999990
  21
 322.53356191406
  31
0.0
   0
LINE
   5
2E6
 100
AcDbEntity
   8
LEVEL002
 370
30
 100
AcDbLine
   6
CONTINUOUS
  62
7
  10
 441.24999999990
  20
 322.53356191406
  30
0.0
  11
 442.24999999990
  21
 322.53356191406
  31
0.0
   0
LINE
   5
2E7
 100
AcDbEntity
   8
LEVEL002
 370
30
 100
AcDbLine
   6
CONTINUOUS
  62
7
  10
 342.24999999990
  20
 322.53356191406
  30
0.0
  11
 342.24999999990
  21
 341.03356191406
  31
0.0
   0
LINE
   5
2E8
 100
AcDbEntity
   8
LEVEL002
 370
30
 100
AcDbLine
   6
CONTINUOUS
  62
7
  10
 343.24999999990
  20
 341.03356191406
  30
0.0
  11
 343.24999999990
  21
 322.53356191406
  31
0.0
   0
LINE
   5
2E9
 100
AcDbEntity
   8
LEVEL002
 370
30
 100
AcDbLine
   6
CONTINUOUS
  62
7
  10
 441.24999999990
  20
 341.03356191406
  30
0.0
  11
 441.24999999990
  21
 322.53356191406
  31
0.0
   0
LINE
   5
2EA
 100
AcDbEntity
   8
LEVEL002
 370
30
 100
AcDbLine
   6
CONTINUOUS
  62
7
  10
 442.24999999990
  20
 322.53356191406
  30
0.0
  11
 442.24999999990
  21
 341.03356191406
  31
0.0
   0
LINE
   5
2EB
 100
AcDbEntity
   8
LEVEL002
 370
15
 100
AcDbLine
   6
DASHDOT
  62
8
  10
 103.24999999990
  20
 454.33408962353
  30
0.0
  11
 103.24999999990
  21
 483.73303420455
  31
0.0
   0
LINE
   5
2EC
 100
AcDbEntity
   8
LEVEL002
 370
15
 100
AcDbLine
   6
DASHDOT
  62
8
  10
 85.249999999900
  20
 332.58355899145
  30
0.0
  11
 85.249999999900
  21
 349.00254426150
  31
0.0
   0
LINE
   5
2ED
 100
AcDbEntity
   8
LEVEL002
 370
15
 100
AcDbLine
   6
DASHDOT
  62
8
  10
 103.24999999990
  20
 308.92725784579
  30
0.0
  11
 103.24999999990
  21
 349.54264246117
  31
0.0
   0
LINE
   5
2EE
 100
AcDbEntity
   8
LEVEL002
 370
15
 100
AcDbLine
   6
DASHDOT
  62
8
  10
 121.24999999990
  20
 332.58355899145
  30
0.0
  11
 121.24999999990
  21
 349.00254426150
  31
0.0
   0
LINE
   5
2EF
 100
AcDbEntity
   8
LEVEL002
 370
15
 100
AcDbLine
   6
DASHDOT
  62
8
  10
 247.74999999990
  20
 308.92725784579
  30
0.0
  11
 247.74999999990
  21
 349.54264246117
  31
0.0
   0
LINE
   5
2F0
 100
AcDbEntity
   8
LEVEL002
 370
15
 100
AcDbLine
   6
DASHDOT
  62
8
  10
 228.24999999990
  20
 332.58355899145
  30
0.0
  11
 228.24999999990
  21
 349.00254426150
  31
0.0
   0
LINE
   5
2F1
 100
AcDbEntity
   8
LEVEL002
 370
15
 100
AcDbLine
   6
DASHDOT
  62
8
  10
 267.24999999990
  20
 332.58355899145
  30
0.0
  11
 267.24999999990
  21
 349.00254426150
  31
0.0
   0
LINE
   5
2F2
 100
AcDbEntity
   8
LEVEL002
 370
15
 100
AcDbLine
   6
DASHDOT
  62
8
  10
 392.24999999990
  20
 308.92725784579
  30
0.0
  11
 392.24999999990
  21
 349.54264246117
  31
0.0
   0
LINE
   5
2F3
 100
AcDbEntity
   8
LEVEL002
 370
15
 100
AcDbLine
   6
DASHDOT
  62
8
  10
 370.74999999990
  20
 332.58355899145
  30
0.0
  11
 370.74999999990
  21
 349.00254426150
  31
0.0
   0
LINE
   5
2F4
 100
AcDbEntity
   8
LEVEL002
 370
15
 100
AcDbLine
   6
DASHDOT
  62
8
  10
 413.74999999990
  20
 332.58355899145
  30
0.0
  11
 413.74999999990
  21
 349.00254426150
  31
0.0
   0
LINE
   5
2F5
 100
AcDbEntity
   8
LEVEL001
 370
30
 100
AcDbLine
   6
CONTINUOUS
  62
7
  10
 98.082703861891
  20
 478.78120139651
  30
0.0
  11
 102.97243204590
  21
 475.51768208655
  31
0.0
   0
LINE
   5
2F6
 100
AcDbEntity
   8
LEVEL001
 370
30
 100
AcDbLine
   6
CONTINUOUS
  62
7
  10
 97.527567953899
  20
 477.94944174153
  30
0.0
  11
 102.41729613791
  21
 474.68592243157
  31
0.0
   0
LINE
   5
2F7
 100
AcDbEntity
   8
LEVEL001
 370
30
 100
AcDbLine
   6
CONTINUOUS
  62
7
  10
 103.52756795390
  20
 475.51768208655
  30
0.0
  11
 108.41729613791
  21
 478.78120139651
  31
0.0
   0
LINE
   5
2F8
 100
AcDbEntity
   8
LEVEL001
 370
30
 100
AcDbLine
   6
CONTINUOUS
  62
7
  10
 104.08270386189
  20
 474.68592243157
  30
0.0
  11
 108.97243204590
  21
 477.94944174153
  31
0.0
   0
ARC
   5
2F9
 100
AcDbEntity
   8
LEVEL002
 370
30
   6
CONTINUOUS
  62
7
 100
AcDbCircle
  10
 103.24999999990
  20
 475.93356191404
  30
0.0
  40
 1.5000000000000
 100
AcDbArc
  50
 236.27992370417
  51
 303.72007629583
   0
ARC
   5
2FA
 100
AcDbEntity
   8
LEVEL002
 370
30
   6
CONTINUOUS
  62
7
 100
AcDbCircle
  10
 103.24999999990
  20
 475.93356191404
  30
0.0
  40
 0.50000000000000
 100
AcDbArc
  50
 236.27992370417
  51
 303.72007629583
   0
ARC
   5
2FB
 100
AcDbEntity
   8
LEVEL002
 370
30
   6
CONTINUOUS
  62
7
 100
AcDbCircle
  10
 109.24999999990
  20
 477.53356191404
  30
0.0
  40
 1.5000000000000
 100
AcDbArc
  50
 90.000000000010
  51
 123.72007629585
   0
ARC
   5
2FC
 100
AcDbEntity
   8
LEVEL002
 370
30
   6
CONTINUOUS
  62
7
 100
AcDbCircle
  10
 109.24999999990
  20
 477.53356191404
  30
0.0
  40
 0.50000000000000
 100
AcDbArc
  50
 90.000000000028
  51
 123.72007629586
   0
ARC
   5
2FD
 100
AcDbEntity
   8
LEVEL002
 370
30
   6
CONTINUOUS
  62
7
 100
AcDbCircle
  10
 97.249999999901
  20
 477.53356191404
  30
0.0
  40
 0.50000000000000
 100
AcDbArc
  50
 56.279923704184
  51
 90.000000000428
   0
ARC
   5
2FE
 100
AcDbEntity
   8
LEVEL002
 370
30
   6
CONTINUOUS
  62
7
 100
AcDbCircle
  10
 97.249999999899
  20
 477.53356191404
  30
0.0
  40
 1.5000000000000
 100
AcDbArc
  50
 56.279923704183
  51
 89.999999999950
   0
LINE
   5
2FF
 100
AcDbEntity
   8
LEVEL001
 370
30
 100
AcDbLine
   6
CONTINUOUS
  62
7
  10
 80.082703861890
  20
 342.28120139653
  30
0.0
  11
 84.972432045903
  21
 339.01768208657
  31
0.0
   0
LINE
   5
300
 100
AcDbEntity
   8
LEVEL001
 370
30
 100
AcDbLine
   6
CONTINUOUS
  62
7
  10
 79.527567953897
  20
 341.44944174155
  30
0.0
  11
 84.417296137907
  21
 338.18592243159
  31
0.0
   0
LINE
   5
301
 100
AcDbEntity
   8
LEVEL001
 370
30
 100
AcDbLine
   6
CONTINUOUS
  62
7
  10
 85.527567953898
  20
 339.01768208657
  30
0.0
  11
 90.417296137905
  21
 342.28120139653
  31
0.0
   0
LINE
   5
302
 100
AcDbEntity
   8
LEVEL001
 370
30
 100
AcDbLine
   6
CONTINUOUS
  62
7
  10
 86.082703861893
  20
 338.18592243159
  30
0.0
  11
 90.972432045900
  21
 341.44944174155
  31
0.0
   0
ARC
   5
303
 100
AcDbEntity
   8
LEVEL002
 370
30
   6
CONTINUOUS
  62
7
 100
AcDbCircle
  10
 85.249999999900
  20
 339.43356191406
  30
0.0
  40
 1.5000000000000
 100
AcDbArc
  50
 236.27992370417
  51
 303.72007629583
   0
ARC
   5
304
 100
AcDbEntity
   8
LEVEL002
 370
30
   6
CONTINUOUS
  62
7
 100
AcDbCircle
  10
 85.249999999900
  20
 339.43356191406
  30
0.0
  40
 0.50000000000000
 100
AcDbArc
  50
 236.27992370417
  51
 303.72007629583
   0
ARC
   5
305
 100
AcDbEntity
   8
LEVEL002
 370
30
   6
CONTINUOUS
  62
7
 100
AcDbCircle
  10
 91.249999999898
  20
 341.03356191406
  30
0.0
  40
 1.5000000000000
 100
AcDbArc
  50
 90.000000000010
  51
 123.72007629585
   0
ARC
   5
306
 100
AcDbEntity
   8
LEVEL002
 370
30
   6
CONTINUOUS
  62
7
 100
AcDbCircle
  10
 91.249999999898
  20
 341.03356191406
  30
0.0
  40
 0.50000000000000
 100
AcDbArc
  50
 90.000000000028
  51
 123.72007629586
   0
ARC
   5
307
 100
AcDbEntity
   8
LEVEL002
 370
30
   6
CONTINUOUS
  62
7
 100
AcDbCircle
  10
 79.249999999898
  20
 341.03356191406
  30
0.0
  40
 1.5000000000000
 100
AcDbArc
  50
 56.279923704183
  51
 89.999999999950
   0
ARC
   5
308
 100
AcDbEntity
   8
LEVEL002
 370
30
   6
CONTINUOUS
  62
7
 100
AcDbCircle
  10
 79.249999999900
  20
 341.03356191406
  30
0.0
  40
 0.50000000000000
 100
AcDbArc
  50
 56.279923704184
  51
 90.000000000428
   0
LINE
   5
309
 100
AcDbEntity
   8
LEVEL001
 370
30
 100
AcDbLine
   6
CONTINUOUS
  62
7
  10
 116.08270386189
  20
 342.28120139653
  30
0.0
  11
 120.97243204590
  21
 339.01768208657
  31
0.0
   0
LINE
   5
30A
 100
AcDbEntity
   8
LEVEL001
 370
30
 100
AcDbLine
   6
CONTINUOUS
  62
7
  10
 115.52756795390
  20
 341.44944174155
  30
0.0
  11
 120.41729613791
  21
 338.18592243159
  31
0.0
   0
LINE
   5
30B
 100
AcDbEntity
   8
LEVEL001
 370
30
 100
AcDbLine
   6
CONTINUOUS
  62
7
  10
 121.52756795390
  20
 339.01768208657
  30
0.0
  11
 126.41729613791
  21
 342.28120139653
  31
0.0
   0
LINE
   5
30C
 100
AcDbEntity
   8
LEVEL001
 370
30
 100
AcDbLine
   6
CONTINUOUS
  62
7
  10
 122.08270386189
  20
 338.18592243159
  30
0.0
  11
 126.97243204590
  21
 341.44944174155
  31
0.0
   0
ARC
   5
30D
 100
AcDbEntity
   8
LEVEL002
 370
30
   6
CONTINUOUS
  62
7
 100
AcDbCircle
  10
 121.24999999990
  20
 339.43356191406
  30
0.0
  40
 1.5000000000000
 100
AcDbArc
  50
 236.27992370417
  51
 303.72007629583
   0
ARC
   5
30E
 100
AcDbEntity
   8
LEVEL002
 370
30
   6
CONTINUOUS
  62
7
 100
AcDbCircle
  10
 121.24999999990
  20
 339.43356191406
  30
0.0
  40
 0.50000000000000
 100
AcDbArc
  50
 236.27992370417
  51
 303.72007629583
   0
ARC
   5
30F
 100
AcDbEntity
   8
LEVEL002
 370
30
   6
CONTINUOUS
  62
7
 100
AcDbCircle
  10
 127.24999999990
  20
 341.03356191406
  30
0.0
  40
 1.5000000000000
 100
AcDbArc
  50
 90.000000000010
  51
 123.72007629585
   0
ARC
   5
310
 100
AcDbEntity
   8
LEVEL002
 370
30
   6
CONTINUOUS
  62
7
 100
AcDbCircle
  10
 127.24999999990
  20
 341.03356191406
  30
0.0
  40
 0.50000000000000
 100
AcDbArc
  50
 90.000000000028
  51
 123.72007629586
   0
ARC
   5
311
 100
AcDbEntity
   8
LEVEL002
 370
30
   6
CONTINUOUS
  62
7
 100
AcDbCircle
  10
 115.24999999990
  20
 341.03356191406
  30
0.0
  40
 1.5000000000000
 100
AcDbArc
  50
 56.279923704183
  51
 89.999999999950
   0
ARC
   5
312
 100
AcDbEntity
   8
LEVEL002
 370
30
   6
CONTINUOUS
  62
7
 100
AcDbCircle
  10
 115.24999999990
  20
 341.03356191406
  30
0.0
  40
 0.50000000000000
 100
AcDbArc
  50
 56.279923704184
  51
 90.000000000428
   0
LINE
   5
313
 100
AcDbEntity
   8
LEVEL001
 370
30
 100
AcDbLine
   6
CONTINUOUS
  62
7
  10
 223.08270386189
  20
 342.28120139653
  30
0.0
  11
 227.97243204590
  21
 339.01768208657
  31
0.0
   0
LINE
   5
314
 100
AcDbEntity
   8
LEVEL001
 370
30
 100
AcDbLine
   6
CONTINUOUS
  62
7
  10
 222.52756795390
  20
 341.44944174155
  30
0.0
  11
 227.41729613791
  21
 338.18592243159
  31
0.0
   0
LINE
   5
315
 100
AcDbEntity
   8
LEVEL001
 370
30
 100
AcDbLine
   6
CONTINUOUS
  62
7
  10
 228.52756795390
  20
 339.01768208657
  30
0.0
  11
 233.41729613791
  21
 342.28120139653
  31
0.0
   0
LINE
   5
316
 100
AcDbEntity
   8
LEVEL001
 370
30
 100
AcDbLine
   6
CONTINUOUS
  62
7
  10
 229.08270386189
  20
 338.18592243159
  30
0.0
  11
 233.97243204590
  21
 341.44944174155
  31
0.0
   0
ARC
   5
317
 100
AcDbEntity
   8
LEVEL002
 370
30
   6
CONTINUOUS
  62
7
 100
AcDbCircle
  10
 228.24999999990
  20
 339.43356191406
  30
0.0
  40
 1.5000000000000
 100
AcDbArc
  50
 236.27992370417
  51
 303.72007629583
   0
ARC
   5
318
 100
AcDbEntity
   8
LEVEL002
 370
30
   6
CONTINUOUS
  62
7
 100
AcDbCircle
  10
 228.24999999990
  20
 339.43356191406
  30
0.0
  40
 0.50000000000000
 100
AcDbArc
  50
 236.27992370417
  51
 303.72007629583
   0
ARC
   5
319
 100
AcDbEntity
   8
LEVEL002
 370
30
   6
CONTINUOUS
  62
7
 100
AcDbCircle
  10
 234.24999999990
  20
 341.03356191406
  30
0.0
  40
 1.5000000000000
 100
AcDbArc
  50
 90.000000000007
  51
 123.72007629585
   0
ARC
   5
31A
 100
AcDbEntity
   8
LEVEL002
 370
30
   6
CONTINUOUS
  62
7
 100
AcDbCircle
  10
 234.24999999990
  20
 341.03356191406
  30
0.0
  40
 0.50000000000000
 100
AcDbArc
  50
 90.000000000029
  51
 123.72007629586
   0
ARC
   5
31B
 100
AcDbEntity
   8
LEVEL002
 370
30
   6
CONTINUOUS
  62
7
 100
AcDbCircle
  10
 222.24999999990
  20
 341.03356191406
  30
0.0
  40
 1.5000000000000
 100
AcDbArc
  50
 56.279923704183
  51
 89.999999999950
   0
ARC
   5
31C
 100
AcDbEntity
   8
LEVEL002
 370
30
   6
CONTINUOUS
  62
7
 100
AcDbCircle
  10
 222.24999999990
  20
 341.03356191406
  30
0.0
  40
 0.50000000000000
 100
AcDbArc
  50
 56.279923704182
  51
 90.000000000427
   0
LINE
   5
31D
 100
AcDbEntity
   8
LEVEL001
 370
30
 100
AcDbLine
   6
CONTINUOUS
  62
7
  10
 262.08270386189
  20
 342.28120139653
  30
0.0
  11
 266.97243204590
  21
 339.01768208657
  31
0.0
   0
LINE
   5
31E
 100
AcDbEntity
   8
LEVEL001
 370
30
 100
AcDbLine
   6
CONTINUOUS
  62
7
  10
 261.52756795390
  20
 341.44944174155
  30
0.0
  11
 266.41729613791
  21
 338.18592243159
  31
0.0
   0
LINE
   5
31F
 100
AcDbEntity
   8
LEVEL001
 370
30
 100
AcDbLine
   6
CONTINUOUS
  62
7
  10
 267.52756795390
  20
 339.01768208657
  30
0.0
  11
 272.41729613791
  21
 342.28120139653
  31
0.0
   0
LINE
   5
320
 100
AcDbEntity
   8
LEVEL001
 370
30
 100
AcDbLine
   6
CONTINUOUS
  62
7
  10
 268.08270386189
  20
 338.18592243159
  30
0.0
  11
 272.97243204590
  21
 341.44944174155
  31
0.0
   0
ARC
   5
321
 100
AcDbEntity
   8
LEVEL002
 370
30
   6
CONTINUOUS
  62
7
 100
AcDbCircle
  10
 267.24999999990
  20
 339.43356191406
  30
0.0
  40
 1.5000000000000
 100
AcDbArc
  50
 236.27992370417
  51
 303.72007629583
   0
ARC
   5
322
 100
AcDbEntity
   8
LEVEL002
 370
30
   6
CONTINUOUS
  62
7
 100
AcDbCircle
  10
 267.24999999990
  20
 339.43356191406
  30
0.0
  40
 0.50000000000000
 100
AcDbArc
  50
 236.27992370417
  51
 303.72007629583
   0
ARC
   5
323
 100
AcDbEntity
   8
LEVEL002
 370
30
   6
CONTINUOUS
  62
7
 100
AcDbCircle
  10
 273.24999999990
  20
 341.03356191406
  30
0.0
  40
 1.5000000000000
 100
AcDbArc
  50
 90.000000000007
  51
 123.72007629585
   0
ARC
   5
324
 100
AcDbEntity
   8
LEVEL002
 370
30
   6
CONTINUOUS
  62
7
 100
AcDbCircle
  10
 273.24999999990
  20
 341.03356191406
  30
0.0
  40
 0.50000000000000
 100
AcDbArc
  50
 90.000000000026
  51
 123.72007629586
   0
ARC
   5
325
 100
AcDbEntity
   8
LEVEL002
 370
30
   6
CONTINUOUS
  62
7
 100
AcDbCircle
  10
 261.24999999990
  20
 341.03356191406
  30
0.0
  40
 1.5000000000000
 100
AcDbArc
  50
 56.279923704183
  51
 89.999999999950
   0
ARC
   5
326
 100
AcDbEntity
   8
LEVEL002
 370
30
   6
CONTINUOUS
  62
7
 100
AcDbCircle
  10
 261.24999999990
  20
 341.03356191406
  30
0.0
  40
 0.50000000000000
 100
AcDbArc
  50
 56.279923704185
  51
 90.000000000430
   0
LINE
   5
327
 100
AcDbEntity
   8
LEVEL001
 370
30
 100
AcDbLine
   6
CONTINUOUS
  62
7
  10
 365.58270386189
  20
 342.28120139653
  30
0.0
  11
 370.47243204590
  21
 339.01768208657
  31
0.0
   0
LINE
   5
328
 100
AcDbEntity
   8
LEVEL001
 370
30
 100
AcDbLine
   6
CONTINUOUS
  62
7
  10
 365.02756795390
  20
 341.44944174155
  30
0.0
  11
 369.91729613791
  21
 338.18592243159
  31
0.0
   0
LINE
   5
329
 100
AcDbEntity
   8
LEVEL001
 370
30
 100
AcDbLine
   6
CONTINUOUS
  62
7
  10
 371.02756795390
  20
 339.01768208657
  30
0.0
  11
 375.91729613791
  21
 342.28120139653
  31
0.0
   0
LINE
   5
32A
 100
AcDbEntity
   8
LEVEL001
 370
30
 100
AcDbLine
   6
CONTINUOUS
  62
7
  10
 371.58270386189
  20
 338.18592243159
  30
0.0
  11
 376.47243204590
  21
 341.44944174155
  31
0.0
   0
ARC
   5
32B
 100
AcDbEntity
   8
LEVEL002
 370
30
   6
CONTINUOUS
  62
7
 100
AcDbCircle
  10
 370.74999999990
  20
 339.43356191406
  30
0.0
  40
 1.5000000000000
 100
AcDbArc
  50
 236.27992370417
  51
 303.72007629583
   0
ARC
   5
32C
 100
AcDbEntity
   8
LEVEL002
 370
30
   6
CONTINUOUS
  62
7
 100
AcDbCircle
  10
 370.74999999990
  20
 339.43356191406
  30
0.0
  40
 0.50000000000000
 100
AcDbArc
  50
 236.27992370417
  51
 303.72007629583
   0
ARC
   5
32D
 100
AcDbEntity
   8
LEVEL002
 370
30
   6
CONTINUOUS
  62
7
 100
AcDbCircle
  10
 376.74999999990
  20
 341.03356191406
  30
0.0
  40
 1.5000000000000
 100
AcDbArc
  50
 90.000000000009
  51
 123.72007629585
   0
ARC
   5
32E
 100
AcDbEntity
   8
LEVEL002
 370
30
   6
CONTINUOUS
  62
7
 100
AcDbCircle
  10
 376.74999999990
  20
 341.03356191406
  30
0.0
  40
 0.50000000000000
 100
AcDbArc
  50
 90.000000000026
  51
 123.72007629586
   0
ARC
   5
32F
 100
AcDbEntity
   8
LEVEL002
 370
30
   6
CONTINUOUS
  62
7
 100
AcDbCircle
  10
 364.74999999990
  20
 341.03356191406
  30
0.0
  40
 1.5000000000000
 100
AcDbArc
  50
 56.279923704183
  51
 89.999999999950
   0
ARC
   5
330
 100
AcDbEntity
   8
LEVEL002
 370
30
   6
CONTINUOUS
  62
7
 100
AcDbCircle
  10
 364.74999999990
  20
 341.03356191406
  30
0.0
  40
 0.50000000000000
 100
AcDbArc
  50
 56.279923704185
  51
 90.000000000436
   0
LINE
   5
331
 100
AcDbEntity
   8
LEVEL001
 370
30
 100
AcDbLine
   6
CONTINUOUS
  62
7
  10
 408.58270386189
  20
 342.28120139653
  30
0.0
  11
 413.47243204590
  21
 339.01768208657
  31
0.0
   0
LINE
   5
332
 100
AcDbEntity
   8
LEVEL001
 370
30
 100
AcDbLine
   6
CONTINUOUS
  62
7
  10
 408.02756795390
  20
 341.44944174155
  30
0.0
  11
 412.91729613791
  21
 338.18592243159
  31
0.0
   0
LINE
   5
333
 100
AcDbEntity
   8
LEVEL001
 370
30
 100
AcDbLine
   6
CONTINUOUS
  62
7
  10
 414.02756795390
  20
 339.01768208657
  30
0.0
  11
 418.91729613791
  21
 342.28120139653
  31
0.0
   0
LINE
   5
334
 100
AcDbEntity
   8
LEVEL001
 370
30
 100
AcDbLine
   6
CONTINUOUS
  62
7
  10
 414.58270386189
  20
 338.18592243159
  30
0.0
  11
 419.47243204590
  21
 341.44944174155
  31
0.0
   0
ARC
   5
335
 100
AcDbEntity
   8
LEVEL002
 370
30
   6
CONTINUOUS
  62
7
 100
AcDbCircle
  10
 413.74999999990
  20
 339.43356191406
  30
0.0
  40
 1.5000000000000
 100
AcDbArc
  50
 236.27992370417
  51
 303.72007629583
   0
ARC
   5
336
 100
AcDbEntity
   8
LEVEL002
 370
30
   6
CONTINUOUS
  62
7
 100
AcDbCircle
  10
 413.74999999990
  20
 339.43356191406
  30
0.0
  40
 0.50000000000000
 100
AcDbArc
  50
 236.27992370417
  51
 303.72007629583
   0
ARC
   5
337
 100
AcDbEntity
   8
LEVEL002
 370
30
   6
CONTINUOUS
  62
7
 100
AcDbCircle
  10
 419.74999999990
  20
 341.03356191406
  30
0.0
  40
 1.5000000000000
 100
AcDbArc
  50
 90.000000000009
  51
 123.72007629585
   0
ARC
   5
338
 100
AcDbEntity
   8
LEVEL002
 370
30
   6
CONTINUOUS
  62
7
 100
AcDbCircle
  10
 419.74999999990
  20
 341.03356191406
  30
0.0
  40
 0.50000000000000
 100
AcDbArc
  50
 90.000000000026
  51
 123.72007629586
   0
ARC
   5
339
 100
AcDbEntity
   8
LEVEL002
 370
30
   6
CONTINUOUS
  62
7
 100
AcDbCircle
  10
 407.74999999990
  20
 341.03356191406
  30
0.0
  40
 1.5000000000000
 100
AcDbArc
  50
 56.279923704183
  51
 89.999999999950
   0
ARC
   5
33A
 100
AcDbEntity
   8
LEVEL002
 370
30
   6
CONTINUOUS
  62
7
 100
AcDbCircle
  10
 407.74999999990
  20
 341.03356191406
  30
0.0
  40
 0.50000000000000
 100
AcDbArc
  50
 56.279923704185
  51
 90.000000000436
   0
DIMENSION
   5
33B
 100
AcDbEntity
   8
LEVEL001
 370
15
   6
CONTINUOUS
  62
8
 100
AcDbDimension
   2
*D1
  10
 85.249999999900
  20
 360.03356191406
  30
0.0
  11
 69.249999999900
  21
 360.03356191406
  31
0.0
  70
0
   3
GMM001
 100
AcDbAlignedDimension
  13
 53.249999999900
  23
 343.53356191406
  33
0.0
  14
 85.249999999900
  24
 349.00254426150
  34
0.0
 100
AcDbRotatedDimension
   0
DIMENSION
   5
33C
 100
AcDbEntity
   8
LEVEL001
 370
15
   6
CONTINUOUS
  62
8
 100
AcDbDimension
   2
*D2
  10
 121.24999999990
  20
 360.03356191406
  30
0.0
  11
 103.24999999990
  21
 360.03356191406
  31
0.0
  70
0
   3
GMM001
 100
AcDbAlignedDimension
  13
 85.249999999900
  23
 349.00254426150
  33
0.0
  14
 121.24999999990
  24
 349.00254426150
  34
0.0
 100
AcDbRotatedDimension
   0
DIMENSION
   5
33D
 100
AcDbEntity
   8
LEVEL001
 370
15
   6
CONTINUOUS
  62
8
 100
AcDbDimension
   2
*D3
  10
 153.24999999990
  20
 360.03356191406
  30
0.0
  11
 137.24999999990
  21
 360.03356191406
  31
0.0
  70
0
   3
GMM001
 100
AcDbAlignedDimension
  13
 121.24999999990
  23
 349.00254426150
  33
0.0
  14
 153.24999999990
  24
 343.53356191406
  34
0.0
 100
AcDbRotatedDimension
   0
DIMENSION
   5
33E
 100
AcDbEntity
   8
LEVEL001
 370
15
   6
CONTINUOUS
  62
8
 100
AcDbDimension
   2
*D4
  10
 153.24999999990
  20
 370.03356191406
  30
0.0
  11
 103.24999999990
  21
 370.03356191406
  31
0.0
  70
0
   3
GMM001
 100
AcDbAlignedDimension
  13
 53.249999999900
  23
 360.03356191406
  33
0.0
  14
 153.24999999990
  24
 360.03356191406
  34
0.0
 100
AcDbRotatedDimension
   0
DIMENSION
   5
33F
 100
AcDbEntity
   8
LEVEL001
 370
15
   6
CONTINUOUS
  62
8
 100
AcDbDimension
   2
*D5
  10
 228.24999999990
  20
 360.03356191406
  30
0.0
  11
 212.99999999990
  21
 360.03356191406
  31
0.0
  70
0
   3
GMM001
 100
AcDbAlignedDimension
  13
 197.74999999990
  23
 343.53356191406
  33
0.0
  14
 228.24999999990
  24
 349.00254426150
  34
0.0
 100
AcDbRotatedDimension
   0
DIMENSION
   5
340
 100
AcDbEntity
   8
LEVEL001
 370
15
   6
CONTINUOUS
  62
8
 100
AcDbDimension
   2
*D6
  10
 267.24999999990
  20
 360.03356191406
  30
0.0
  11
 247.74999999990
  21
 360.03356191406
  31
0.0
  70
0
   3
GMM001
 100
AcDbAlignedDimension
  13
 228.24999999990
  23
 349.00254426150
  33
0.0
  14
 267.24999999990
  24
 349.00254426150
  34
0.0
 100
AcDbRotatedDimension
   0
DIMENSION
   5
341
 100
AcDbEntity
   8
LEVEL001
 370
15
   6
CONTINUOUS
  62
8
 100
AcDbDimension
   2
*D7
  10
 297.74999999990
  20
 360.03356191406
  30
0.0
  11
 282.49999999990
  21
 360.03356191406
  31
0.0
  70
0
   3
GMM001
 100
AcDbAlignedDimension
  13
 267.24999999990
  23
 349.00254426150
  33
0.0
  14
 297.74999999990
  24
 343.53356191406
  34
0.0
 100
AcDbRotatedDimension
   0
DIMENSION
   5
342
 100
AcDbEntity
   8
LEVEL001
 370
15
   6
CONTINUOUS
  62
8
 100
AcDbDimension
   2
*D8
  10
 297.74999999990
  20
 370.03356191406
  30
0.0
  11
 247.74999999990
  21
 370.03356191406
  31
0.0
  70
0
   3
GMM001
 100
AcDbAlignedDimension
  13
 197.74999999990
  23
 360.03356191406
  33
0.0
  14
 297.74999999990
  24
 360.03356191406
  34
0.0
 100
AcDbRotatedDimension
   0
DIMENSION
   5
343
 100
AcDbEntity
   8
LEVEL001
 370
15
   6
CONTINUOUS
  62
8
 100
AcDbDimension
   2
*D9
  10
 370.74999999990
  20
 360.03356191406
  30
0.0
  11
 356.49999999990
  21
 360.03356191406
  31
0.0
  70
0
   3
GMM001
 100
AcDbAlignedDimension
  13
 342.24999999990
  23
 343.53356191406
  33
0.0
  14
 370.74999999990
  24
 349.00254426150
  34
0.0
 100
AcDbRotatedDimension
   0
DIMENSION
   5
344
 100
AcDbEntity
   8
LEVEL001
 370
15
   6
CONTINUOUS
  62
8
 100
AcDbDimension
   2
*D10
  10
 413.74999999990
  20
 360.03356191406
  30
0.0
  11
 392.24999999990
  21
 360.03356191406
  31
0.0
  70
0
   3
GMM001
 100
AcDbAlignedDimension
  13
 370.74999999990
  23
 349.00254426150
  33
0.0
  14
 413.74999999990
  24
 349.00254426150
  34
0.0
 100
AcDbRotatedDimension
   0
DIMENSION
   5
345
 100
AcDbEntity
   8
LEVEL001
 370
15
   6
CONTINUOUS
  62
8
 100
AcDbDimension
   2
*D11
  10
 442.24999999990
  20
 360.03356191406
  30
0.0
  11
 427.99999999990
  21
 360.03356191406
  31
0.0
  70
0
   3
GMM001
 100
AcDbAlignedDimension
  13
 413.74999999990
  23
 349.00254426150
  33
0.0
  14
 442.24999999990
  24
 343.53356191406
  34
0.0
 100
AcDbRotatedDimension
   0
DIMENSION
   5
346
 100
AcDbEntity
   8
LEVEL001
 370
15
   6
CONTINUOUS
  62
8
 100
AcDbDimension
   2
*D12
  10
 442.24999999990
  20
 370.03356191406
  30
0.0
  11
 392.24999999990
  21
 370.03356191406
  31
0.0
  70
0
   3
GMM001
 100
AcDbAlignedDimension
  13
 342.24999999990
  23
 360.03356191406
  33
0.0
  14
 442.24999999990
  24
 360.03356191406
  34
0.0
 100
AcDbRotatedDimension
   0
DIMENSION
   5
347
 100
AcDbEntity
   8
LEVEL001
 370
15
   6
CONTINUOUS
  62
8
 100
AcDbDimension
   2
*D13
  10
 43.249999999900
  20
 342.53356191406
  30
0.0
  11
 43.249999999900
  21
 332.53356191406
  31
0.0
  70
0
   3
GMM001
 100
AcDbAlignedDimension
  13
 53.249999999900
  23
 322.53356191406
  33
0.0
  14
 54.749999999900
  24
 342.53356191406
  34
0.0
  50
 90.000000000000
 100
AcDbRotatedDimension
   0
DIMENSION
   5
348
 100
AcDbEntity
   8
LEVEL001
 370
15
   6
CONTINUOUS
  62
8
 100
AcDbDimension
   2
*D14
  10
 187.74999999990
  20
 342.53356191406
  30
0.0
  11
 187.74999999990
  21
 332.53356191406
  31
0.0
  70
0
   3
GMM001
 100
AcDbAlignedDimension
  13
 197.74999999990
  23
 322.53356191406
  33
0.0
  14
 199.24999999990
  24
 342.53356191406
  34
0.0
  50
 90.000000000000
 100
AcDbRotatedDimension
   0
DIMENSION
   5
349
 100
AcDbEntity
   8
LEVEL001
 370
15
   6
CONTINUOUS
  62
8
 100
AcDbDimension
   2
*D15
  10
 332.24999999990
  20
 342.53356191406
  30
0.0
  11
 332.24999999990
  21
 332.53356191406
  31
0.0
  70
0
   3
GMM001
 100
AcDbAlignedDimension
  13
 342.24999999990
  23
 322.53356191406
  33
0.0
  14
 343.74999999990
  24
 342.53356191406
  34
0.0
  50
 90.000000000000
 100
AcDbRotatedDimension
   0
DIMENSION
   5
34A
 100
AcDbEntity
   8
LEVEL001
 370
15
   6
CONTINUOUS
  62
8
 100
AcDbDimension
   2
*D16
  10
 68.249999999900
  20
 479.03356191404
  30
0.0
  11
 68.249999999900
  21
 469.03356191404
  31
0.0
  70
0
   3
GMM001
 100
AcDbAlignedDimension
  13
 78.249999999900
  23
 459.03356191404
  33
0.0
  14
 79.749999999900
  24
 479.03356191404
  34
0.0
  50
 90.000000000000
 100
AcDbRotatedDimension
   0
DIMENSION
   5
34B
 100
AcDbEntity
   8
LEVEL001
 370
15
   6
CONTINUOUS
  62
8
 100
AcDbDimension
   2
*D17
  10
 103.24999999990
  20
 489.03356191404
  30
0.0
  11
 90.749999999900
  21
 489.03356191404
  31
0.0
  70
0
   3
GMM001
 100
AcDbAlignedDimension
  13
 78.249999999900
  23
 477.53356191404
  33
0.0
  14
 103.24999999990
  24
 483.73303420455
  34
0.0
 100
AcDbRotatedDimension
   0
DIMENSION
   5
34C
 100
AcDbEntity
   8
LEVEL001
 370
15
   6
CONTINUOUS
  62
8
 100
AcDbDimension
   2
*D18
  10
 128.24999999990
  20
 499.03356191404
  30
0.0
  11
 103.24999999990
  21
 499.03356191404
  31
0.0
  70
0
   3
GMM001
 100
AcDbAlignedDimension
  13
 78.249999999900
  23
 489.03356191404
  33
0.0
  14
 128.24999999990
  24
 477.53356191404
  34
0.0
 100
AcDbRotatedDimension
   0
LEADER
   5
34D
 100
AcDbEntity
   8
LEVEL001
 370
15
   6
CONTINUOUS
  62
8
 100
AcDbLeader
   3
GMM002
  73
0
  74
0
  75
0
  40
 4.0000000000000
  41
 16.000000000000
  76
2
  10
 114.46151491043
  20
 459.03356191404
  30
0.0
  10
 121.67481976546
  20
 446.50116030818
  30
0.0
  77
8
 340
34E
 213
0.0
 223
-1.0000000000000
 233
0.0
   0
MTEXT
   5
34E
 102
{ACAD_REACTORS
 330
34D
 102
}
 100
AcDbEntity
   8
LEVEL001
 370
15
  62
8
 100
AcDbMText
  10
 121.67481976546
  20
 447.50116030818
  30
0.0
  40
 4.0000000000000
  41
0.0
  71
7
  72
1
   1
\A1;アンカー
   7
GMM001
   0
LEADER
   5
34F
 100
AcDbEntity
   8
LEVEL001
 370
15
   6
CONTINUOUS
  62
8
 100
AcDbLeader
   3
GMM002
  73
0
  74
0
  75
0
  40
 4.0000000000000
  41
 16.000000000000
  76
2
  10
 139.46151491043
  20
 322.53356191406
  30
0.0
  10
 146.67481976546
  20
 310.00116030820
  30
0.0
  77
8
 340
350
 213
0.0
 223
-1.0000000000000
 233
0.0
   0
MTEXT
   5
350
 102
{ACAD_REACTORS
 330
34F
 102
}
 100
AcDbEntity
   8
LEVEL001
 370
15
  62
8
 100
AcDbMText
  10
 146.67481976546
  20
 311.00116030820
  30
0.0
  40
 4.0000000000000
  41
0.0
  71
7
  72
1
   1
\A1;アンカー
   7
GMM001
   0
LEADER
   5
351
 100
AcDbEntity
   8
LEVEL001
 370
15
   6
CONTINUOUS
  62
8
 100
AcDbLeader
   3
GMM002
  73
0
  74
0
  75
0
  40
 4.0000000000000
  41
 16.000000000000
  76
2
  10
 283.96151491042
  20
 322.53356191406
  30
0.0
  10
 291.17481976546
  20
 310.00116030820
  30
0.0
  77
8
 340
352
 213
0.0
 223
-1.0000000000000
 233
0.0
   0
MTEXT
   5
352
 102
{ACAD_REACTORS
 330
351
 102
}
 100
AcDbEntity
   8
LEVEL001
 370
15
  62
8
 100
AcDbMText
  10
 291.17481976546
  20
 311.00116030820
  30
0.0
  40
 4.0000000000000
  41
0.0
  71
7
  72
1
   1
\A1;アンカー
   7
GMM001
   0
LEADER
   5
353
 100
AcDbEntity
   8
LEVEL001
 370
15
   6
CONTINUOUS
  62
8
 100
AcDbLeader
   3
GMM002
  73
0
  74
0
  75
0
  40
 4.0000000000000
  41
 16.000000000000
  76
2
  10
 428.46151491042
  20
 322.53356191406
  30
0.0
  10
 435.67481976546
  20
 310.00116030820
  30
0.0
  77
8
 340
354
 213
0.0
 223
-1.0000000000000
 233
0.0
   0
MTEXT
   5
354
 102
{ACAD_REACTORS
 330
353
 102
}
 100
AcDbEntity
   8
LEVEL001
 370
15
  62
8
 100
AcDbMText
  10
 435.67481976546
  20
 311.00116030820
  30
0.0
  40
 4.0000000000000
  41
0.0
  71
7
  72
1
   1
\A1;アンカー
   7
GMM001
   0
DIMENSION
   5
355
 100
AcDbEntity
   8
LEVEL001
 370
15
   6
CONTINUOUS
  62
8
 100
AcDbDimension
   2
*D23
  10
 138.24999999990
  20
 479.03356191404
  30
0.0
  11
 138.24999999990
  21
 481.11547422474
  31
0.0
  70
128
   3
GMM003
 100
AcDbAlignedDimension
  13
 103.24999999990
  23
 475.43356191404
  33
0.0
  14
 126.74999999990
  24
 479.03356191404
  34
0.0
  50
 90.000000000000
 100
AcDbRotatedDimension
   0
LINE
   5
356
 100
AcDbEntity
   8
LEVEL002
 370
30
 100
AcDbLine
   6
CONTINUOUS
  62
7
  10
 54.749999999890
  20
 341.53356191406
  30
0.0
  11
 79.249999999900
  21
 341.53356191406
  31
0.0
   0
LINE
   5
357
 100
AcDbEntity
   8
LEVEL002
 370
30
 100
AcDbLine
   6
CONTINUOUS
  62
7
  10
 54.749999999900
  20
 342.53356191406
  30
0.0
  11
 79.249999999898
  21
 342.53356191406
  31
0.0
   0
LINE
   5
358
 100
AcDbEntity
   8
LEVEL002
 370
30
 100
AcDbLine
   6
CONTINUOUS
  62
7
  10
 91.249999999898
  20
 341.53356191406
  30
0.0
  11
 115.24999999990
  21
 341.53356191406
  31
0.0
   0
LINE
   5
359
 100
AcDbEntity
   8
LEVEL002
 370
30
 100
AcDbLine
   6
CONTINUOUS
  62
7
  10
 91.249999999898
  20
 342.53356191406
  30
0.0
  11
 115.24999999990
  21
 342.53356191406
  31
0.0
   0
LINE
   5
35A
 100
AcDbEntity
   8
LEVEL002
 370
30
 100
AcDbLine
   6
CONTINUOUS
  62
7
  10
 127.24999999990
  20
 342.53356191406
  30
0.0
  11
 151.74999999990
  21
 342.53356191406
  31
0.0
   0
LINE
   5
35B
 100
AcDbEntity
   8
LEVEL002
 370
30
 100
AcDbLine
   6
CONTINUOUS
  62
7
  10
 127.24999999990
  20
 341.53356191406
  30
0.0
  11
 151.74999999990
  21
 341.53356191406
  31
0.0
   0
LINE
   5
35C
 100
AcDbEntity
   8
LEVEL002
 370
30
 100
AcDbLine
   6
CONTINUOUS
  62
7
  10
 199.24999999989
  20
 341.53356191406
  30
0.0
  11
 222.24999999990
  21
 341.53356191406
  31
0.0
   0
LINE
   5
35D
 100
AcDbEntity
   8
LEVEL002
 370
30
 100
AcDbLine
   6
CONTINUOUS
  62
7
  10
 199.24999999990
  20
 342.53356191406
  30
0.0
  11
 222.24999999990
  21
 342.53356191406
  31
0.0
   0
LINE
   5
35E
 100
AcDbEntity
   8
LEVEL002
 370
30
 100
AcDbLine
   6
CONTINUOUS
  62
7
  10
 234.24999999990
  20
 342.53356191406
  30
0.0
  11
 261.24999999990
  21
 342.53356191406
  31
0.0
   0
LINE
   5
35F
 100
AcDbEntity
   8
LEVEL002
 370
30
 100
AcDbLine
   6
CONTINUOUS
  62
7
  10
 234.24999999990
  20
 341.53356191406
  30
0.0
  11
 261.24999999990
  21
 341.53356191406
  31
0.0
   0
LINE
   5
360
 100
AcDbEntity
   8
LEVEL002
 370
30
 100
AcDbLine
   6
CONTINUOUS
  62
7
  10
 273.24999999990
  20
 342.53356191406
  30
0.0
  11
 296.24999999990
  21
 342.53356191406
  31
0.0
   0
LINE
   5
361
 100
AcDbEntity
   8
LEVEL002
 370
30
 100
AcDbLine
   6
CONTINUOUS
  62
7
  10
 273.24999999990
  20
 341.53356191406
  30
0.0
  11
 296.24999999990
  21
 341.53356191406
  31
0.0
   0
LINE
   5
362
 100
AcDbEntity
   8
LEVEL002
 370
30
 100
AcDbLine
   6
CONTINUOUS
  62
7
  10
 343.74999999989
  20
 341.53356191406
  30
0.0
  11
 364.74999999990
  21
 341.53356191406
  31
0.0
   0
LINE
   5
363
 100
AcDbEntity
   8
LEVEL002
 370
30
 100
AcDbLine
   6
CONTINUOUS
  62
7
  10
 343.74999999990
  20
 342.53356191406
  30
0.0
  11
 364.74999999990
  21
 342.53356191406
  31
0.0
   0
LINE
   5
364
 100
AcDbEntity
   8
LEVEL002
 370
30
 100
AcDbLine
   6
CONTINUOUS
  62
7
  10
 376.74999999990
  20
 341.53356191406
  30
0.0
  11
 407.74999999990
  21
 341.53356191406
  31
0.0
   0
LINE
   5
365
 100
AcDbEntity
   8
LEVEL002
 370
30
 100
AcDbLine
   6
CONTINUOUS
  62
7
  10
 376.74999999990
  20
 342.53356191406
  30
0.0
  11
 407.74999999990
  21
 342.53356191406
  31
0.0
   0
LINE
   5
366
 100
AcDbEntity
   8
LEVEL002
 370
30
 100
AcDbLine
   6
CONTINUOUS
  62
7
  10
 419.74999999990
  20
 342.53356191406
  30
0.0
  11
 440.74999999990
  21
 342.53356191406
  31
0.0
   0
LINE
   5
367
 100
AcDbEntity
   8
LEVEL002
 370
30
 100
AcDbLine
   6
CONTINUOUS
  62
7
  10
 419.74999999990
  20
 341.53356191406
  30
0.0
  11
 440.74999999990
  21
 341.53356191406
  31
0.0
   0
DIMENSION
   5
368
 100
AcDbEntity
   8
LEVEL001
 370
15
   6
CONTINUOUS
  62
8
 100
AcDbDimension
   2
*D24
  10
 163.24999999990
  20
 342.53356191406
  30
0.0
  11
 163.24999999990
  21
 345.11220702466
  31
0.0
  70
128
   3
GMM004
 100
AcDbAlignedDimension
  13
 121.24999999990
  23
 338.93356191406
  33
0.0
  14
 151.74999999990
  24
 342.53356191406
  34
0.0
  50
 90.000000000000
 100
AcDbRotatedDimension
   0
DIMENSION
   5
369
 100
AcDbEntity
   8
LEVEL001
 370
15
   6
CONTINUOUS
  62
8
 100
AcDbDimension
   2
*D25
  10
 452.24999999990
  20
 342.53356191406
  30
0.0
  11
 452.24999999990
  21
 345.11220702466
  31
0.0
  70
128
   3
GMM004
 100
AcDbAlignedDimension
  13
 413.74999999990
  23
 338.93356191406
  33
0.0
  14
 440.74999999990
  24
 342.53356191406
  34
0.0
  50
 90.000000000000
 100
AcDbRotatedDimension
   0
DIMENSION
   5
36A
 100
AcDbEntity
   8
LEVEL001
 370
15
   6
CONTINUOUS
  62
8
 100
AcDbDimension
   2
*D26
  10
 307.74999999990
  20
 342.53356191406
  30
0.0
  11
 307.74999999990
  21
 345.11220702466
  31
0.0
  70
128
   3
GMM004
 100
AcDbAlignedDimension
  13
 267.24999999990
  23
 338.93356191406
  33
0.0
  14
 296.24999999990
  24
 342.53356191406
  34
0.0
  50
 90.000000000000
 100
AcDbRotatedDimension
   0
LINE
   5
36B
 100
AcDbEntity
   8
LEVEL002
 370
30
 100
AcDbLine
   6
CONTINUOUS
  62
7
  10
 79.749999999900
  20
 206.03356191406
  30
0.0
  11
 97.249999999900
  21
 206.03356191406
  31
0.0
   0
LINE
   5
36C
 100
AcDbEntity
   8
LEVEL002
 370
30
 100
AcDbLine
   6
CONTINUOUS
  62
7
  10
 109.24999999990
  20
 206.03356191406
  30
0.0
  11
 126.74999999990
  21
 206.03356191406
  31
0.0
   0
LINE
   5
36D
 100
AcDbEntity
   8
LEVEL002
 370
30
 100
AcDbLine
   6
CONTINUOUS
  62
7
  10
 79.749999999900
  20
 205.03356191406
  30
0.0
  11
 97.249999999897
  21
 205.03356191406
  31
0.0
   0
LINE
   5
36E
 100
AcDbEntity
   8
LEVEL002
 370
30
 100
AcDbLine
   6
CONTINUOUS
  62
7
  10
 109.24999999990
  20
 205.03356191406
  30
0.0
  11
 126.74999999990
  21
 205.03356191406
  31
0.0
   0
ARC
   5
36F
 100
AcDbEntity
   8
LEVEL002
 370
30
   6
CONTINUOUS
  62
7
 100
AcDbCircle
  10
 126.74999999990
  20
 204.53356191406
  30
0.0
  40
 1.5000000000000
 100
AcDbArc
  50
0.0
  51
 90.000000000000
   0
ARC
   5
370
 100
AcDbEntity
   8
LEVEL002
 370
30
   6
CONTINUOUS
  62
7
 100
AcDbCircle
  10
 126.74999999990
  20
 204.53356191407
  30
0.0
  40
 0.50000000000000
 100
AcDbArc
  50
0.0
  51
 90.000000000000
   0
ARC
   5
371
 100
AcDbEntity
   8
LEVEL002
 370
30
   6
CONTINUOUS
  62
7
 100
AcDbCircle
  10
 79.749999999900
  20
 204.53356191406
  30
0.0
  40
 1.5000000000000
 100
AcDbArc
  50
 89.999999999965
  51
 180.00000000000
   0
ARC
   5
372
 100
AcDbEntity
   8
LEVEL002
 370
30
   6
CONTINUOUS
  62
7
 100
AcDbCircle
  10
 79.749999999900
  20
 204.53356191406
  30
0.0
  40
 0.50000000000000
 100
AcDbArc
  50
 90.000000000000
  51
 180.00000000021
   0
LINE
   5
373
 100
AcDbEntity
   8
LEVEL002
 370
30
 100
AcDbLine
   6
CONTINUOUS
  62
7
  10
 78.249999999900
  20
 186.03356191406
  30
0.0
  11
 79.249999999900
  21
 186.03356191406
  31
0.0
   0
LINE
   5
374
 100
AcDbEntity
   8
LEVEL002
 370
30
 100
AcDbLine
   6
CONTINUOUS
  62
7
  10
 127.24999999990
  20
 186.03356191406
  30
0.0
  11
 128.24999999990
  21
 186.03356191406
  31
0.0
   0
LINE
   5
375
 100
AcDbEntity
   8
LEVEL002
 370
30
 100
AcDbLine
   6
CONTINUOUS
  62
7
  10
 78.249999999900
  20
 186.03356191406
  30
0.0
  11
 78.249999999900
  21
 204.53356191406
  31
0.0
   0
LINE
   5
376
 100
AcDbEntity
   8
LEVEL002
 370
30
 100
AcDbLine
   6
CONTINUOUS
  62
7
  10
 79.249999999900
  20
 204.53356191406
  30
0.0
  11
 79.249999999900
  21
 186.03356191406
  31
0.0
   0
LINE
   5
377
 100
AcDbEntity
   8
LEVEL002
 370
30
 100
AcDbLine
   6
CONTINUOUS
  62
7
  10
 128.24999999990
  20
 186.03356191406
  30
0.0
  11
 128.24999999990
  21
 204.53356191406
  31
0.0
   0
LINE
   5
378
 100
AcDbEntity
   8
LEVEL002
 370
30
 100
AcDbLine
   6
CONTINUOUS
  62
7
  10
 127.24999999990
  20
 204.53356191406
  30
0.0
  11
 127.24999999990
  21
 186.03356191406
  31
0.0
   0
ARC
   5
379
 100
AcDbEntity
   8
LEVEL002
 370
30
   6
CONTINUOUS
  62
7
 100
AcDbCircle
  10
 151.74999999990
  20
 68.033561914080
  30
0.0
  40
 1.5000000000000
 100
AcDbArc
  50
0.0
  51
 90.000000000000
   0
ARC
   5
37A
 100
AcDbEntity
   8
LEVEL002
 370
30
   6
CONTINUOUS
  62
7
 100
AcDbCircle
  10
 151.74999999990
  20
 68.033561914080
  30
0.0
  40
 0.50000000000000
 100
AcDbArc
  50
0.0
  51
 90.000000000000
   0
ARC
   5
37B
 100
AcDbEntity
   8
LEVEL002
 370
30
   6
CONTINUOUS
  62
7
 100
AcDbCircle
  10
 54.749999999900
  20
 68.033561914080
  30
0.0
  40
 1.5000000000000
 100
AcDbArc
  50
 90.000000000000
  51
 180.00000000000
   0
ARC
   5
37C
 100
AcDbEntity
   8
LEVEL002
 370
30
   6
CONTINUOUS
  62
7
 100
AcDbCircle
  10
 54.749999999890
  20
 68.033561914080
  30
0.0
  40
 0.50000000000000
 100
AcDbArc
  50
 90.000000000000
  51
 180.00000000029
   0
LINE
   5
37D
 100
AcDbEntity
   8
LEVEL002
 370
30
 100
AcDbLine
   6
CONTINUOUS
  62
7
  10
 53.249999999900
  20
 49.533561914080
  30
0.0
  11
 54.249999999900
  21
 49.533561914080
  31
0.0
   0
LINE
   5
37E
 100
AcDbEntity
   8
LEVEL002
 370
30
 100
AcDbLine
   6
CONTINUOUS
  62
7
  10
 152.24999999990
  20
 49.533561914080
  30
0.0
  11
 153.24999999990
  21
 49.533561914080
  31
0.0
   0
LINE
   5
37F
 100
AcDbEntity
   8
LEVEL002
 370
30
 100
AcDbLine
   6
CONTINUOUS
  62
7
  10
 53.249999999900
  20
 49.533561914080
  30
0.0
  11
 53.249999999900
  21
 68.033561914080
  31
0.0
   0
LINE
   5
380
 100
AcDbEntity
   8
LEVEL002
 370
30
 100
AcDbLine
   6
CONTINUOUS
  62
7
  10
 54.249999999900
  20
 68.033561914080
  30
0.0
  11
 54.249999999900
  21
 49.533561914080
  31
0.0
   0
LINE
   5
381
 100
AcDbEntity
   8
LEVEL002
 370
30
 100
AcDbLine
   6
CONTINUOUS
  62
7
  10
 152.24999999990
  20
 68.033561914080
  30
0.0
  11
 152.24999999990
  21
 49.533561914080
  31
0.0
   0
LINE
   5
382
 100
AcDbEntity
   8
LEVEL002
 370
30
 100
AcDbLine
   6
CONTINUOUS
  62
7
  10
 153.24999999990
  20
 49.533561914080
  30
0.0
  11
 153.24999999990
  21
 68.033561914080
  31
0.0
   0
ARC
   5
383
 100
AcDbEntity
   8
LEVEL002
 370
30
   6
CONTINUOUS
  62
7
 100
AcDbCircle
  10
 296.24999999990
  20
 68.033561914080
  30
0.0
  40
 1.5000000000000
 100
AcDbArc
  50
0.0
  51
 90.000000000000
   0
ARC
   5
384
 100
AcDbEntity
   8
LEVEL002
 370
30
   6
CONTINUOUS
  62
7
 100
AcDbCircle
  10
 296.24999999990
  20
 68.033561914080
  30
0.0
  40
 0.50000000000000
 100
AcDbArc
  50
0.0
  51
 90.000000000000
   0
ARC
   5
385
 100
AcDbEntity
   8
LEVEL002
 370
30
   6
CONTINUOUS
  62
7
 100
AcDbCircle
  10
 199.24999999990
  20
 68.033561914080
  30
0.0
  40
 1.5000000000000
 100
AcDbArc
  50
 90.000000000000
  51
 180.00000000000
   0
ARC
   5
386
 100
AcDbEntity
   8
LEVEL002
 370
30
   6
CONTINUOUS
  62
7
 100
AcDbCircle
  10
 199.24999999989
  20
 68.033561914080
  30
0.0
  40
 0.50000000000000
 100
AcDbArc
  50
 90.000000000000
  51
 180.00000000029
   0
LINE
   5
387
 100
AcDbEntity
   8
LEVEL002
 370
30
 100
AcDbLine
   6
CONTINUOUS
  62
7
  10
 197.74999999990
  20
 49.533561914080
  30
0.0
  11
 198.74999999990
  21
 49.533561914080
  31
0.0
   0
LINE
   5
388
 100
AcDbEntity
   8
LEVEL002
 370
30
 100
AcDbLine
   6
CONTINUOUS
  62
7
  10
 296.74999999990
  20
 49.533561914080
  30
0.0
  11
 297.74999999990
  21
 49.533561914080
  31
0.0
   0
LINE
   5
389
 100
AcDbEntity
   8
LEVEL002
 370
30
 100
AcDbLine
   6
CONTINUOUS
  62
7
  10
 197.74999999990
  20
 49.533561914080
  30
0.0
  11
 197.74999999990
  21
 68.033561914080
  31
0.0
   0
LINE
   5
38A
 100
AcDbEntity
   8
LEVEL002
 370
30
 100
AcDbLine
   6
CONTINUOUS
  62
7
  10
 198.74999999990
  20
 68.033561914080
  30
0.0
  11
 198.74999999990
  21
 49.533561914080
  31
0.0
   0
LINE
   5
38B
 100
AcDbEntity
   8
LEVEL002
 370
30
 100
AcDbLine
   6
CONTINUOUS
  62
7
  10
 296.74999999990
  20
 68.033561914080
  30
0.0
  11
 296.74999999990
  21
 49.533561914080
  31
0.0
   0
LINE
   5
38C
 100
AcDbEntity
   8
LEVEL002
 370
30
 100
AcDbLine
   6
CONTINUOUS
  62
7
  10
 297.74999999990
  20
 49.533561914080
  30
0.0
  11
 297.74999999990
  21
 68.033561914080
  31
0.0
   0
ARC
   5
38D
 100
AcDbEntity
   8
LEVEL002
 370
30
   6
CONTINUOUS
  62
7
 100
AcDbCircle
  10
 440.74999999990
  20
 68.033561914080
  30
0.0
  40
 1.5000000000000
 100
AcDbArc
  50
0.0
  51
 90.000000000000
   0
ARC
   5
38E
 100
AcDbEntity
   8
LEVEL002
 370
30
   6
CONTINUOUS
  62
7
 100
AcDbCircle
  10
 440.74999999990
  20
 68.033561914080
  30
0.0
  40
 0.50000000000000
 100
AcDbArc
  50
0.0
  51
 90.000000000000
   0
ARC
   5
38F
 100
AcDbEntity
   8
LEVEL002
 370
30
   6
CONTINUOUS
  62
7
 100
AcDbCircle
  10
 343.74999999990
  20
 68.033561914080
  30
0.0
  40
 1.5000000000000
 100
AcDbArc
  50
 90.000000000000
  51
 180.00000000000
   0
ARC
   5
390
 100
AcDbEntity
   8
LEVEL002
 370
30
   6
CONTINUOUS
  62
7
 100
AcDbCircle
  10
 343.74999999989
  20
 68.033561914080
  30
0.0
  40
 0.50000000000000
 100
AcDbArc
  50
 90.000000000000
  51
 180.00000000029
   0
LINE
   5
391
 100
AcDbEntity
   8
LEVEL002
 370
30
 100
AcDbLine
   6
CONTINUOUS
  62
7
  10
 342.24999999990
  20
 49.533561914080
  30
0.0
  11
 343.24999999990
  21
 49.533561914080
  31
0.0
   0
LINE
   5
392
 100
AcDbEntity
   8
LEVEL002
 370
30
 100
AcDbLine
   6
CONTINUOUS
  62
7
  10
 441.24999999990
  20
 49.533561914080
  30
0.0
  11
 442.24999999990
  21
 49.533561914080
  31
0.0
   0
LINE
   5
393
 100
AcDbEntity
   8
LEVEL002
 370
30
 100
AcDbLine
   6
CONTINUOUS
  62
7
  10
 342.24999999990
  20
 49.533561914080
  30
0.0
  11
 342.24999999990
  21
 68.033561914080
  31
0.0
   0
LINE
   5
394
 100
AcDbEntity
   8
LEVEL002
 370
30
 100
AcDbLine
   6
CONTINUOUS
  62
7
  10
 343.24999999990
  20
 68.033561914080
  30
0.0
  11
 343.24999999990
  21
 49.533561914080
  31
0.0
   0
LINE
   5
395
 100
AcDbEntity
   8
LEVEL002
 370
30
 100
AcDbLine
   6
CONTINUOUS
  62
7
  10
 441.24999999990
  20
 68.033561914080
  30
0.0
  11
 441.24999999990
  21
 49.533561914080
  31
0.0
   0
LINE
   5
396
 100
AcDbEntity
   8
LEVEL002
 370
30
 100
AcDbLine
   6
CONTINUOUS
  62
7
  10
 442.24999999990
  20
 49.533561914080
  30
0.0
  11
 442.24999999990
  21
 68.033561914080
  31
0.0
   0
LINE
   5
397
 100
AcDbEntity
   8
LEVEL001
 370
30
 100
AcDbLine
   6
CONTINUOUS
  62
7
  10
 98.082703861891
  20
 205.78120139653
  30
0.0
  11
 102.97243204590
  21
 202.51768208657
  31
0.0
   0
LINE
   5
398
 100
AcDbEntity
   8
LEVEL001
 370
30
 100
AcDbLine
   6
CONTINUOUS
  62
7
  10
 97.527567953899
  20
 204.94944174155
  30
0.0
  11
 102.41729613791
  21
 201.68592243159
  31
0.0
   0
LINE
   5
399
 100
AcDbEntity
   8
LEVEL001
 370
30
 100
AcDbLine
   6
CONTINUOUS
  62
7
  10
 103.52756795390
  20
 202.51768208657
  30
0.0
  11
 108.41729613791
  21
 205.78120139653
  31
0.0
   0
LINE
   5
39A
 100
AcDbEntity
   8
LEVEL001
 370
30
 100
AcDbLine
   6
CONTINUOUS
  62
7
  10
 104.08270386189
  20
 201.68592243159
  30
0.0
  11
 108.97243204590
  21
 204.94944174155
  31
0.0
   0
ARC
   5
39B
 100
AcDbEntity
   8
LEVEL002
 370
30
   6
CONTINUOUS
  62
7
 100
AcDbCircle
  10
 103.24999999990
  20
 202.93356191406
  30
0.0
  40
 1.5000000000000
 100
AcDbArc
  50
 236.27992370417
  51
 303.72007629583
   0
ARC
   5
39C
 100
AcDbEntity
   8
LEVEL002
 370
30
   6
CONTINUOUS
  62
7
 100
AcDbCircle
  10
 103.24999999990
  20
 202.93356191406
  30
0.0
  40
 0.50000000000000
 100
AcDbArc
  50
 236.27992370417
  51
 303.72007629583
   0
ARC
   5
39D
 100
AcDbEntity
   8
LEVEL002
 370
30
   6
CONTINUOUS
  62
7
 100
AcDbCircle
  10
 109.24999999990
  20
 204.53356191406
  30
0.0
  40
 1.5000000000000
 100
AcDbArc
  50
 90.000000000010
  51
 123.72007629585
   0
ARC
   5
39E
 100
AcDbEntity
   8
LEVEL002
 370
30
   6
CONTINUOUS
  62
7
 100
AcDbCircle
  10
 109.24999999990
  20
 204.53356191406
  30
0.0
  40
 0.50000000000000
 100
AcDbArc
  50
 90.000000000028
  51
 123.72007629586
   0
ARC
   5
39F
 100
AcDbEntity
   8
LEVEL002
 370
30
   6
CONTINUOUS
  62
7
 100
AcDbCircle
  10
 97.249999999901
  20
 204.53356191406
  30
0.0
  40
 0.50000000000000
 100
AcDbArc
  50
 56.279923704184
  51
 90.000000000428
   0
ARC
   5
3A0
 100
AcDbEntity
   8
LEVEL002
 370
30
   6
CONTINUOUS
  62
7
 100
AcDbCircle
  10
 97.249999999899
  20
 204.53356191406
  30
0.0
  40
 1.5000000000000
 100
AcDbArc
  50
 56.279923704183
  51
 89.999999999950
   0
LINE
   5
3A1
 100
AcDbEntity
   8
LEVEL001
 370
30
 100
AcDbLine
   6
CONTINUOUS
  62
7
  10
 80.082703861890
  20
 69.281201396552
  30
0.0
  11
 84.972432045903
  21
 66.017682086590
  31
0.0
   0
LINE
   5
3A2
 100
AcDbEntity
   8
LEVEL001
 370
30
 100
AcDbLine
   6
CONTINUOUS
  62
7
  10
 79.527567953897
  20
 68.449441741571
  30
0.0
  11
 84.417296137907
  21
 65.185922431609
  31
0.0
   0
LINE
   5
3A3
 100
AcDbEntity
   8
LEVEL001
 370
30
 100
AcDbLine
   6
CONTINUOUS
  62
7
  10
 85.527567953898
  20
 66.017682086590
  30
0.0
  11
 90.417296137905
  21
 69.281201396552
  31
0.0
   0
LINE
   5
3A4
 100
AcDbEntity
   8
LEVEL001
 370
30
 100
AcDbLine
   6
CONTINUOUS
  62
7
  10
 86.082703861893
  20
 65.185922431609
  30
0.0
  11
 90.972432045900
  21
 68.449441741571
  31
0.0
   0
ARC
   5
3A5
 100
AcDbEntity
   8
LEVEL002
 370
30
   6
CONTINUOUS
  62
7
 100
AcDbCircle
  10
 85.249999999900
  20
 66.433561914080
  30
0.0
  40
 1.5000000000000
 100
AcDbArc
  50
 236.27992370417
  51
 303.72007629583
   0
ARC
   5
3A6
 100
AcDbEntity
   8
LEVEL002
 370
30
   6
CONTINUOUS
  62
7
 100
AcDbCircle
  10
 85.249999999900
  20
 66.433561914080
  30
0.0
  40
 0.50000000000000
 100
AcDbArc
  50
 236.27992370417
  51
 303.72007629583
   0
ARC
   5
3A7
 100
AcDbEntity
   8
LEVEL002
 370
30
   6
CONTINUOUS
  62
7
 100
AcDbCircle
  10
 91.249999999898
  20
 68.033561914080
  30
0.0
  40
 1.5000000000000
 100
AcDbArc
  50
 90.000000000010
  51
 123.72007629585
   0
ARC
   5
3A8
 100
AcDbEntity
   8
LEVEL002
 370
30
   6
CONTINUOUS
  62
7
 100
AcDbCircle
  10
 91.249999999898
  20
 68.033561914080
  30
0.0
  40
 0.50000000000000
 100
AcDbArc
  50
 90.000000000028
  51
 123.72007629586
   0
ARC
   5
3A9
 100
AcDbEntity
   8
LEVEL002
 370
30
   6
CONTINUOUS
  62
7
 100
AcDbCircle
  10
 79.249999999898
  20
 68.033561914080
  30
0.0
  40
 1.5000000000000
 100
AcDbArc
  50
 56.279923704183
  51
 89.999999999950
   0
ARC
   5
3AA
 100
AcDbEntity
   8
LEVEL002
 370
30
   6
CONTINUOUS
  62
7
 100
AcDbCircle
  10
 79.249999999900
  20
 68.033561914080
  30
0.0
  40
 0.50000000000000
 100
AcDbArc
  50
 56.279923704184
  51
 90.000000000428
   0
LINE
   5
3AB
 100
AcDbEntity
   8
LEVEL001
 370
30
 100
AcDbLine
   6
CONTINUOUS
  62
7
  10
 116.08270386189
  20
 69.281201396552
  30
0.0
  11
 120.97243204590
  21
 66.017682086590
  31
0.0
   0
LINE
   5
3AC
 100
AcDbEntity
   8
LEVEL001
 370
30
 100
AcDbLine
   6
CONTINUOUS
  62
7
  10
 115.52756795390
  20
 68.449441741571
  30
0.0
  11
 120.41729613791
  21
 65.185922431609
  31
0.0
   0
LINE
   5
3AD
 100
AcDbEntity
   8
LEVEL001
 370
30
 100
AcDbLine
   6
CONTINUOUS
  62
7
  10
 121.52756795390
  20
 66.017682086590
  30
0.0
  11
 126.41729613791
  21
 69.281201396552
  31
0.0
   0
LINE
   5
3AE
 100
AcDbEntity
   8
LEVEL001
 370
30
 100
AcDbLine
   6
CONTINUOUS
  62
7
  10
 122.08270386189
  20
 65.185922431609
  30
0.0
  11
 126.97243204590
  21
 68.449441741571
  31
0.0
   0
ARC
   5
3AF
 100
AcDbEntity
   8
LEVEL002
 370
30
   6
CONTINUOUS
  62
7
 100
AcDbCircle
  10
 121.24999999990
  20
 66.433561914080
  30
0.0
  40
 1.5000000000000
 100
AcDbArc
  50
 236.27992370417
  51
 303.72007629583
   0
ARC
   5
3B0
 100
AcDbEntity
   8
LEVEL002
 370
30
   6
CONTINUOUS
  62
7
 100
AcDbCircle
  10
 121.24999999990
  20
 66.433561914080
  30
0.0
  40
 0.50000000000000
 100
AcDbArc
  50
 236.27992370417
  51
 303.72007629583
   0
ARC
   5
3B1
 100
AcDbEntity
   8
LEVEL002
 370
30
   6
CONTINUOUS
  62
7
 100
AcDbCircle
  10
 127.24999999990
  20
 68.033561914080
  30
0.0
  40
 1.5000000000000
 100
AcDbArc
  50
 90.000000000010
  51
 123.72007629585
   0
ARC
   5
3B2
 100
AcDbEntity
   8
LEVEL002
 370
30
   6
CONTINUOUS
  62
7
 100
AcDbCircle
  10
 127.24999999990
  20
 68.033561914080
  30
0.0
  40
 0.50000000000000
 100
AcDbArc
  50
 90.000000000028
  51
 123.72007629586
   0
ARC
   5
3B3
 100
AcDbEntity
   8
LEVEL002
 370
30
   6
CONTINUOUS
  62
7
 100
AcDbCircle
  10
 115.24999999990
  20
 68.033561914080
  30
0.0
  40
 1.5000000000000
 100
AcDbArc
  50
 56.279923704183
  51
 89.999999999950
   0
ARC
   5
3B4
 100
AcDbEntity
   8
LEVEL002
 370
30
   6
CONTINUOUS
  62
7
 100
AcDbCircle
  10
 115.24999999990
  20
 68.033561914080
  30
0.0
  40
 0.50000000000000
 100
AcDbArc
  50
 56.279923704184
  51
 90.000000000428
   0
LINE
   5
3B5
 100
AcDbEntity
   8
LEVEL001
 370
30
 100
AcDbLine
   6
CONTINUOUS
  62
7
  10
 223.08270386189
  20
 69.281201396552
  30
0.0
  11
 227.97243204590
  21
 66.017682086590
  31
0.0
   0
LINE
   5
3B6
 100
AcDbEntity
   8
LEVEL001
 370
30
 100
AcDbLine
   6
CONTINUOUS
  62
7
  10
 222.52756795390
  20
 68.449441741571
  30
0.0
  11
 227.41729613791
  21
 65.185922431609
  31
0.0
   0
LINE
   5
3B7
 100
AcDbEntity
   8
LEVEL001
 370
30
 100
AcDbLine
   6
CONTINUOUS
  62
7
  10
 228.52756795390
  20
 66.017682086590
  30
0.0
  11
 233.41729613791
  21
 69.281201396552
  31
0.0
   0
LINE
   5
3B8
 100
AcDbEntity
   8
LEVEL001
 370
30
 100
AcDbLine
   6
CONTINUOUS
  62
7
  10
 229.08270386189
  20
 65.185922431609
  30
0.0
  11
 233.97243204590
  21
 68.449441741571
  31
0.0
   0
ARC
   5
3B9
 100
AcDbEntity
   8
LEVEL002
 370
30
   6
CONTINUOUS
  62
7
 100
AcDbCircle
  10
 228.24999999990
  20
 66.433561914080
  30
0.0
  40
 1.5000000000000
 100
AcDbArc
  50
 236.27992370417
  51
 303.72007629583
   0
ARC
   5
3BA
 100
AcDbEntity
   8
LEVEL002
 370
30
   6
CONTINUOUS
  62
7
 100
AcDbCircle
  10
 228.24999999990
  20
 66.433561914080
  30
0.0
  40
 0.50000000000000
 100
AcDbArc
  50
 236.27992370417
  51
 303.72007629583
   0
ARC
   5
3BB
 100
AcDbEntity
   8
LEVEL002
 370
30
   6
CONTINUOUS
  62
7
 100
AcDbCircle
  10
 234.24999999990
  20
 68.033561914080
  30
0.0
  40
 1.5000000000000
 100
AcDbArc
  50
 90.000000000007
  51
 123.72007629585
   0
ARC
   5
3BC
 100
AcDbEntity
   8
LEVEL002
 370
30
   6
CONTINUOUS
  62
7
 100
AcDbCircle
  10
 234.24999999990
  20
 68.033561914080
  30
0.0
  40
 0.50000000000000
 100
AcDbArc
  50
 90.000000000029
  51
 123.72007629586
   0
ARC
   5
3BD
 100
AcDbEntity
   8
LEVEL002
 370
30
   6
CONTINUOUS
  62
7
 100
AcDbCircle
  10
 222.24999999990
  20
 68.033561914080
  30
0.0
  40
 1.5000000000000
 100
AcDbArc
  50
 56.279923704183
  51
 89.999999999950
   0
ARC
   5
3BE
 100
AcDbEntity
   8
LEVEL002
 370
30
   6
CONTINUOUS
  62
7
 100
AcDbCircle
  10
 222.24999999990
  20
 68.033561914080
  30
0.0
  40
 0.50000000000000
 100
AcDbArc
  50
 56.279923704182
  51
 90.000000000427
   0
LINE
   5
3BF
 100
AcDbEntity
   8
LEVEL001
 370
30
 100
AcDbLine
   6
CONTINUOUS
  62
7
  10
 262.08270386189
  20
 69.281201396552
  30
0.0
  11
 266.97243204590
  21
 66.017682086590
  31
0.0
   0
LINE
   5
3C0
 100
AcDbEntity
   8
LEVEL001
 370
30
 100
AcDbLine
   6
CONTINUOUS
  62
7
  10
 261.52756795390
  20
 68.449441741571
  30
0.0
  11
 266.41729613791
  21
 65.185922431609
  31
0.0
   0
LINE
   5
3C1
 100
AcDbEntity
   8
LEVEL001
 370
30
 100
AcDbLine
   6
CONTINUOUS
  62
7
  10
 267.52756795390
  20
 66.017682086590
  30
0.0
  11
 272.41729613791
  21
 69.281201396552
  31
0.0
   0
LINE
   5
3C2
 100
AcDbEntity
   8
LEVEL001
 370
30
 100
AcDbLine
   6
CONTINUOUS
  62
7
  10
 268.08270386189
  20
 65.185922431609
  30
0.0
  11
 272.97243204590
  21
 68.449441741571
  31
0.0
   0
ARC
   5
3C3
 100
AcDbEntity
   8
LEVEL002
 370
30
   6
CONTINUOUS
  62
7
 100
AcDbCircle
  10
 267.24999999990
  20
 66.433561914080
  30
0.0
  40
 1.5000000000000
 100
AcDbArc
  50
 236.27992370417
  51
 303.72007629583
   0
ARC
   5
3C4
 100
AcDbEntity
   8
LEVEL002
 370
30
   6
CONTINUOUS
  62
7
 100
AcDbCircle
  10
 267.24999999990
  20
 66.433561914080
  30
0.0
  40
 0.50000000000000
 100
AcDbArc
  50
 236.27992370417
  51
 303.72007629583
   0
ARC
   5
3C5
 100
AcDbEntity
   8
LEVEL002
 370
30
   6
CONTINUOUS
  62
7
 100
AcDbCircle
  10
 273.24999999990
  20
 68.033561914080
  30
0.0
  40
 1.5000000000000
 100
AcDbArc
  50
 90.000000000007
  51
 123.72007629585
   0
ARC
   5
3C6
 100
AcDbEntity
   8
LEVEL002
 370
30
   6
CONTINUOUS
  62
7
 100
AcDbCircle
  10
 273.24999999990
  20
 68.033561914080
  30
0.0
  40
 0.50000000000000
 100
AcDbArc
  50
 90.000000000026
  51
 123.72007629586
   0
ARC
   5
3C7
 100
AcDbEntity
   8
LEVEL002
 370
30
   6
CONTINUOUS
  62
7
 100
AcDbCircle
  10
 261.24999999990
  20
 68.033561914080
  30
0.0
  40
 1.5000000000000
 100
AcDbArc
  50
 56.279923704183
  51
 89.999999999950
   0
ARC
   5
3C8
 100
AcDbEntity
   8
LEVEL002
 370
30
   6
CONTINUOUS
  62
7
 100
AcDbCircle
  10
 261.24999999990
  20
 68.033561914080
  30
0.0
  40
 0.50000000000000
 100
AcDbArc
  50
 56.279923704185
  51
 90.000000000430
   0
LINE
   5
3C9
 100
AcDbEntity
   8
LEVEL001
 370
30
 100
AcDbLine
   6
CONTINUOUS
  62
7
  10
 365.58270386189
  20
 69.281201396552
  30
0.0
  11
 370.47243204590
  21
 66.017682086590
  31
0.0
   0
LINE
   5
3CA
 100
AcDbEntity
   8
LEVEL001
 370
30
 100
AcDbLine
   6
CONTINUOUS
  62
7
  10
 365.02756795390
  20
 68.449441741571
  30
0.0
  11
 369.91729613791
  21
 65.185922431609
  31
0.0
   0
LINE
   5
3CB
 100
AcDbEntity
   8
LEVEL001
 370
30
 100
AcDbLine
   6
CONTINUOUS
  62
7
  10
 371.02756795390
  20
 66.017682086590
  30
0.0
  11
 375.91729613791
  21
 69.281201396552
  31
0.0
   0
LINE
   5
3CC
 100
AcDbEntity
   8
LEVEL001
 370
30
 100
AcDbLine
   6
CONTINUOUS
  62
7
  10
 371.58270386189
  20
 65.185922431609
  30
0.0
  11
 376.47243204590
  21
 68.449441741571
  31
0.0
   0
ARC
   5
3CD
 100
AcDbEntity
   8
LEVEL002
 370
30
   6
CONTINUOUS
  62
7
 100
AcDbCircle
  10
 370.74999999990
  20
 66.433561914080
  30
0.0
  40
 1.5000000000000
 100
AcDbArc
  50
 236.27992370417
  51
 303.72007629583
   0
ARC
   5
3CE
 100
AcDbEntity
   8
LEVEL002
 370
30
   6
CONTINUOUS
  62
7
 100
AcDbCircle
  10
 370.74999999990
  20
 66.433561914080
  30
0.0
  40
 0.50000000000000
 100
AcDbArc
  50
 236.27992370417
  51
 303.72007629583
   0
ARC
   5
3CF
 100
AcDbEntity
   8
LEVEL002
 370
30
   6
CONTINUOUS
  62
7
 100
AcDbCircle
  10
 376.74999999990
  20
 68.033561914080
  30
0.0
  40
 1.5000000000000
 100
AcDbArc
  50
 90.000000000009
  51
 123.72007629585
   0
ARC
   5
3D0
 100
AcDbEntity
   8
LEVEL002
 370
30
   6
CONTINUOUS
  62
7
 100
AcDbCircle
  10
 376.74999999990
  20
 68.033561914080
  30
0.0
  40
 0.50000000000000
 100
AcDbArc
  50
 90.000000000026
  51
 123.72007629586
   0
ARC
   5
3D1
 100
AcDbEntity
   8
LEVEL002
 370
30
   6
CONTINUOUS
  62
7
 100
AcDbCircle
  10
 364.74999999990
  20
 68.033561914080
  30
0.0
  40
 1.5000000000000
 100
AcDbArc
  50
 56.279923704183
  51
 89.999999999950
   0
ARC
   5
3D2
 100
AcDbEntity
   8
LEVEL002
 370
30
   6
CONTINUOUS
  62
7
 100
AcDbCircle
  10
 364.74999999990
  20
 68.033561914080
  30
0.0
  40
 0.50000000000000
 100
AcDbArc
  50
 56.279923704185
  51
 90.000000000436
   0
LINE
   5
3D3
 100
AcDbEntity
   8
LEVEL001
 370
30
 100
AcDbLine
   6
CONTINUOUS
  62
7
  10
 408.58270386189
  20
 69.281201396552
  30
0.0
  11
 413.47243204590
  21
 66.017682086590
  31
0.0
   0
LINE
   5
3D4
 100
AcDbEntity
   8
LEVEL001
 370
30
 100
AcDbLine
   6
CONTINUOUS
  62
7
  10
 408.02756795390
  20
 68.449441741571
  30
0.0
  11
 412.91729613791
  21
 65.185922431609
  31
0.0
   0
LINE
   5
3D5
 100
AcDbEntity
   8
LEVEL001
 370
30
 100
AcDbLine
   6
CONTINUOUS
  62
7
  10
 414.02756795390
  20
 66.017682086590
  30
0.0
  11
 418.91729613791
  21
 69.281201396552
  31
0.0
   0
LINE
   5
3D6
 100
AcDbEntity
   8
LEVEL001
 370
30
 100
AcDbLine
   6
CONTINUOUS
  62
7
  10
 414.58270386189
  20
 65.185922431609
  30
0.0
  11
 419.47243204590
  21
 68.449441741571
  31
0.0
   0
ARC
   5
3D7
 100
AcDbEntity
   8
LEVEL002
 370
30
   6
CONTINUOUS
  62
7
 100
AcDbCircle
  10
 413.74999999990
  20
 66.433561914080
  30
0.0
  40
 1.5000000000000
 100
AcDbArc
  50
 236.27992370417
  51
 303.72007629583
   0
ARC
   5
3D8
 100
AcDbEntity
   8
LEVEL002
 370
30
   6
CONTINUOUS
  62
7
 100
AcDbCircle
  10
 413.74999999990
  20
 66.433561914080
  30
0.0
  40
 0.50000000000000
 100
AcDbArc
  50
 236.27992370417
  51
 303.72007629583
   0
ARC
   5
3D9
 100
AcDbEntity
   8
LEVEL002
 370
30
   6
CONTINUOUS
  62
7
 100
AcDbCircle
  10
 419.74999999990
  20
 68.033561914080
  30
0.0
  40
 1.5000000000000
 100
AcDbArc
  50
 90.000000000009
  51
 123.72007629585
   0
ARC
   5
3DA
 100
AcDbEntity
   8
LEVEL002
 370
30
   6
CONTINUOUS
  62
7
 100
AcDbCircle
  10
 419.74999999990
  20
 68.033561914080
  30
0.0
  40
 0.50000000000000
 100
AcDbArc
  50
 90.000000000026
  51
 123.72007629586
   0
ARC
   5
3DB
 100
AcDbEntity
   8
LEVEL002
 370
30
   6
CONTINUOUS
  62
7
 100
AcDbCircle
  10
 407.74999999990
  20
 68.033561914080
  30
0.0
  40
 1.5000000000000
 100
AcDbArc
  50
 56.279923704183
  51
 89.999999999950
   0
ARC
   5
3DC
 100
AcDbEntity
   8
LEVEL002
 370
30
   6
CONTINUOUS
  62
7
 100
AcDbCircle
  10
 407.74999999990
  20
 68.033561914080
  30
0.0
  40
 0.50000000000000
 100
AcDbArc
  50
 56.279923704185
  51
 90.000000000436
   0
LINE
   5
3DD
 100
AcDbEntity
   8
LEVEL002
 370
30
 100
AcDbLine
   6
CONTINUOUS
  62
7
  10
 54.749999999890
  20
 68.533561914080
  30
0.0
  11
 79.249999999900
  21
 68.533561914080
  31
0.0
   0
LINE
   5
3DE
 100
AcDbEntity
   8
LEVEL002
 370
30
 100
AcDbLine
   6
CONTINUOUS
  62
7
  10
 54.749999999900
  20
 69.533561914080
  30
0.0
  11
 79.249999999898
  21
 69.533561914080
  31
0.0
   0
LINE
   5
3DF
 100
AcDbEntity
   8
LEVEL002
 370
30
 100
AcDbLine
   6
CONTINUOUS
  62
7
  10
 91.249999999898
  20
 68.533561914080
  30
0.0
  11
 115.24999999990
  21
 68.533561914080
  31
0.0
   0
LINE
   5
3E0
 100
AcDbEntity
   8
LEVEL002
 370
30
 100
AcDbLine
   6
CONTINUOUS
  62
7
  10
 91.249999999898
  20
 69.533561914080
  30
0.0
  11
 115.24999999990
  21
 69.533561914080
  31
0.0
   0
LINE
   5
3E1
 100
AcDbEntity
   8
LEVEL002
 370
30
 100
AcDbLine
   6
CONTINUOUS
  62
7
  10
 127.24999999990
  20
 69.533561914080
  30
0.0
  11
 151.74999999990
  21
 69.533561914080
  31
0.0
   0
LINE
   5
3E2
 100
AcDbEntity
   8
LEVEL002
 370
30
 100
AcDbLine
   6
CONTINUOUS
  62
7
  10
 127.24999999990
  20
 68.533561914080
  30
0.0
  11
 151.74999999990
  21
 68.533561914080
  31
0.0
   0
LINE
   5
3E3
 100
AcDbEntity
   8
LEVEL002
 370
30
 100
AcDbLine
   6
CONTINUOUS
  62
7
  10
 199.24999999989
  20
 68.533561914080
  30
0.0
  11
 222.24999999990
  21
 68.533561914080
  31
0.0
   0
LINE
   5
3E4
 100
AcDbEntity
   8
LEVEL002
 370
30
 100
AcDbLine
   6
CONTINUOUS
  62
7
  10
 199.24999999990
  20
 69.533561914080
  30
0.0
  11
 222.24999999990
  21
 69.533561914080
  31
0.0
   0
LINE
   5
3E5
 100
AcDbEntity
   8
LEVEL002
 370
30
 100
AcDbLine
   6
CONTINUOUS
  62
7
  10
 234.24999999990
  20
 69.533561914080
  30
0.0
  11
 261.24999999990
  21
 69.533561914080
  31
0.0
   0
LINE
   5
3E6
 100
AcDbEntity
   8
LEVEL002
 370
30
 100
AcDbLine
   6
CONTINUOUS
  62
7
  10
 234.24999999990
  20
 68.533561914080
  30
0.0
  11
 261.24999999990
  21
 68.533561914080
  31
0.0
   0
LINE
   5
3E7
 100
AcDbEntity
   8
LEVEL002
 370
30
 100
AcDbLine
   6
CONTINUOUS
  62
7
  10
 273.24999999990
  20
 69.533561914080
  30
0.0
  11
 296.24999999990
  21
 69.533561914080
  31
0.0
   0
LINE
   5
3E8
 100
AcDbEntity
   8
LEVEL002
 370
30
 100
AcDbLine
   6
CONTINUOUS
  62
7
  10
 273.24999999990
  20
 68.533561914080
  30
0.0
  11
 296.24999999990
  21
 68.533561914080
  31
0.0
   0
LINE
   5
3E9
 100
AcDbEntity
   8
LEVEL002
 370
30
 100
AcDbLine
   6
CONTINUOUS
  62
7
  10
 343.74999999989
  20
 68.533561914080
  30
0.0
  11
 364.74999999990
  21
 68.533561914080
  31
0.0
   0
LINE
   5
3EA
 100
AcDbEntity
   8
LEVEL002
 370
30
 100
AcDbLine
   6
CONTINUOUS
  62
7
  10
 343.74999999990
  20
 69.533561914080
  30
0.0
  11
 364.74999999990
  21
 69.533561914080
  31
0.0
   0
LINE
   5
3EB
 100
AcDbEntity
   8
LEVEL002
 370
30
 100
AcDbLine
   6
CONTINUOUS
  62
7
  10
 376.74999999990
  20
 68.533561914080
  30
0.0
  11
 407.74999999990
  21
 68.533561914080
  31
0.0
   0
LINE
   5
3EC
 100
AcDbEntity
   8
LEVEL002
 370
30
 100
AcDbLine
   6
CONTINUOUS
  62
7
  10
 376.74999999990
  20
 69.533561914080
  30
0.0
  11
 407.74999999990
  21
 69.533561914080
  31
0.0
   0
LINE
   5
3ED
 100
AcDbEntity
   8
LEVEL002
 370
30
 100
AcDbLine
   6
CONTINUOUS
  62
7
  10
 419.74999999990
  20
 69.533561914080
  30
0.0
  11
 440.74999999990
  21
 69.533561914080
  31
0.0
   0
LINE
   5
3EE
 100
AcDbEntity
   8
LEVEL002
 370
30
 100
AcDbLine
   6
CONTINUOUS
  62
7
  10
 419.74999999990
  20
 68.533561914080
  30
0.0
  11
 440.74999999990
  21
 68.533561914080
  31
0.0
   0
LINE
   5
3EF
 100
AcDbEntity
   8
LEVEL002
 370
15
 100
AcDbLine
   6
DASHDOT
  62
8
  10
 85.249999999900
  20
 59.583558991470
  30
0.0
  11
 85.249999999900
  21
 76.002544261520
  31
0.0
   0
LINE
   5
3F0
 100
AcDbEntity
   8
LEVEL002
 370
15
 100
AcDbLine
   6
DASHDOT
  62
8
  10
 103.24999999990
  20
 35.927257845810
  30
0.0
  11
 103.24999999990
  21
 76.542642461190
  31
0.0
   0
LINE
   5
3F1
 100
AcDbEntity
   8
LEVEL002
 370
15
 100
AcDbLine
   6
DASHDOT
  62
8
  10
 121.24999999990
  20
 59.583558991470
  30
0.0
  11
 121.24999999990
  21
 76.002544261520
  31
0.0
   0
DIMENSION
   5
3F2
 100
AcDbEntity
   8
LEVEL001
 370
15
   6
CONTINUOUS
  62
8
 100
AcDbDimension
   2
*D27
  10
 85.249999999900
  20
 87.033561914080
  30
0.0
  11
 69.249999999900
  21
 87.033561914080
  31
0.0
  70
0
   3
GMM001
 100
AcDbAlignedDimension
  13
 53.249999999900
  23
 70.533561914080
  33
0.0
  14
 85.249999999900
  24
 76.002544261520
  34
0.0
 100
AcDbRotatedDimension
   0
DIMENSION
   5
3F3
 100
AcDbEntity
   8
LEVEL001
 370
15
   6
CONTINUOUS
  62
8
 100
AcDbDimension
   2
*D28
  10
 121.24999999990
  20
 87.033561914080
  30
0.0
  11
 103.24999999990
  21
 87.033561914080
  31
0.0
  70
0
   3
GMM001
 100
AcDbAlignedDimension
  13
 85.249999999900
  23
 76.002544261520
  33
0.0
  14
 121.24999999990
  24
 76.002544261520
  34
0.0
 100
AcDbRotatedDimension
   0
DIMENSION
   5
3F4
 100
AcDbEntity
   8
LEVEL001
 370
15
   6
CONTINUOUS
  62
8
 100
AcDbDimension
   2
*D29
  10
 153.24999999990
  20
 87.033561914080
  30
0.0
  11
 137.24999999990
  21
 87.033561914080
  31
0.0
  70
0
   3
GMM001
 100
AcDbAlignedDimension
  13
 121.24999999990
  23
 76.002544261520
  33
0.0
  14
 153.24999999990
  24
 70.533561914080
  34
0.0
 100
AcDbRotatedDimension
   0
DIMENSION
   5
3F5
 100
AcDbEntity
   8
LEVEL001
 370
15
   6
CONTINUOUS
  62
8
 100
AcDbDimension
   2
*D30
  10
 153.24999999990
  20
 97.033561914080
  30
0.0
  11
 103.24999999990
  21
 97.033561914080
  31
0.0
  70
0
   3
GMM001
 100
AcDbAlignedDimension
  13
 53.249999999900
  23
 87.033561914080
  33
0.0
  14
 153.24999999990
  24
 87.033561914080
  34
0.0
 100
AcDbRotatedDimension
   0
DIMENSION
   5
3F6
 100
AcDbEntity
   8
LEVEL001
 370
15
   6
CONTINUOUS
  62
8
 100
AcDbDimension
   2
*D31
  10
 43.249999999900
  20
 69.533561914080
  30
0.0
  11
 43.249999999900
  21
 59.533561914080
  31
0.0
  70
0
   3
GMM001
 100
AcDbAlignedDimension
  13
 53.249999999900
  23
 49.533561914080
  33
0.0
  14
 54.749999999900
  24
 69.533561914080
  34
0.0
  50
 90.000000000000
 100
AcDbRotatedDimension
   0
DIMENSION
   5
3F7
 100
AcDbEntity
   8
LEVEL001
 370
15
   6
CONTINUOUS
  62
8
 100
AcDbDimension
   2
*D32
  10
 163.24999999990
  20
 69.533561914080
  30
0.0
  11
 163.24999999990
  21
 72.112207024684
  31
0.0
  70
128
   3
GMM004
 100
AcDbAlignedDimension
  13
 121.24999999990
  23
 65.933561914080
  33
0.0
  14
 151.74999999990
  24
 69.533561914080
  34
0.0
  50
 90.000000000000
 100
AcDbRotatedDimension
   0
LINE
   5
3F8
 100
AcDbEntity
   8
LEVEL002
 370
15
 100
AcDbLine
   6
DASHDOT
  62
8
  10
 247.74999999990
  20
 35.927257845810
  30
0.0
  11
 247.74999999990
  21
 76.542642461190
  31
0.0
   0
LINE
   5
3F9
 100
AcDbEntity
   8
LEVEL002
 370
15
 100
AcDbLine
   6
DASHDOT
  62
8
  10
 228.24999999990
  20
 59.583558991470
  30
0.0
  11
 228.24999999990
  21
 76.002544261520
  31
0.0
   0
LINE
   5
3FA
 100
AcDbEntity
   8
LEVEL002
 370
15
 100
AcDbLine
   6
DASHDOT
  62
8
  10
 267.24999999990
  20
 59.583558991470
  30
0.0
  11
 267.24999999990
  21
 76.002544261520
  31
0.0
   0
DIMENSION
   5
3FB
 100
AcDbEntity
   8
LEVEL001
 370
15
   6
CONTINUOUS
  62
8
 100
AcDbDimension
   2
*D33
  10
 228.24999999990
  20
 87.033561914080
  30
0.0
  11
 212.99999999990
  21
 87.033561914080
  31
0.0
  70
0
   3
GMM001
 100
AcDbAlignedDimension
  13
 197.74999999990
  23
 70.533561914080
  33
0.0
  14
 228.24999999990
  24
 76.002544261520
  34
0.0
 100
AcDbRotatedDimension
   0
DIMENSION
   5
3FC
 100
AcDbEntity
   8
LEVEL001
 370
15
   6
CONTINUOUS
  62
8
 100
AcDbDimension
   2
*D34
  10
 267.24999999990
  20
 87.033561914080
  30
0.0
  11
 247.74999999990
  21
 87.033561914080
  31
0.0
  70
0
   3
GMM001
 100
AcDbAlignedDimension
  13
 228.24999999990
  23
 76.002544261520
  33
0.0
  14
 267.24999999990
  24
 76.002544261520
  34
0.0
 100
AcDbRotatedDimension
   0
DIMENSION
   5
3FD
 100
AcDbEntity
   8
LEVEL001
 370
15
   6
CONTINUOUS
  62
8
 100
AcDbDimension
   2
*D35
  10
 297.74999999990
  20
 87.033561914080
  30
0.0
  11
 282.49999999990
  21
 87.033561914080
  31
0.0
  70
0
   3
GMM001
 100
AcDbAlignedDimension
  13
 267.24999999990
  23
 76.002544261520
  33
0.0
  14
 297.74999999990
  24
 70.533561914080
  34
0.0
 100
AcDbRotatedDimension
   0
DIMENSION
   5
3FE
 100
AcDbEntity
   8
LEVEL001
 370
15
   6
CONTINUOUS
  62
8
 100
AcDbDimension
   2
*D36
  10
 297.74999999990
  20
 97.033561914080
  30
0.0
  11
 247.74999999990
  21
 97.033561914080
  31
0.0
  70
0
   3
GMM001
 100
AcDbAlignedDimension
  13
 197.74999999990
  23
 87.033561914080
  33
0.0
  14
 297.74999999990
  24
 87.033561914080
  34
0.0
 100
AcDbRotatedDimension
   0
DIMENSION
   5
3FF
 100
AcDbEntity
   8
LEVEL001
 370
15
   6
CONTINUOUS
  62
8
 100
AcDbDimension
   2
*D37
  10
 187.74999999990
  20
 69.533561914080
  30
0.0
  11
 187.74999999990
  21
 59.533561914080
  31
0.0
  70
0
   3
GMM001
 100
AcDbAlignedDimension
  13
 197.74999999990
  23
 49.533561914080
  33
0.0
  14
 199.24999999990
  24
 69.533561914080
  34
0.0
  50
 90.000000000000
 100
AcDbRotatedDimension
   0
DIMENSION
   5
400
 100
AcDbEntity
   8
LEVEL001
 370
15
   6
CONTINUOUS
  62
8
 100
AcDbDimension
   2
*D38
  10
 307.74999999990
  20
 69.533561914080
  30
0.0
  11
 307.74999999990
  21
 72.112207024684
  31
0.0
  70
128
   3
GMM004
 100
AcDbAlignedDimension
  13
 267.24999999990
  23
 65.933561914080
  33
0.0
  14
 296.24999999990
  24
 69.533561914080
  34
0.0
  50
 90.000000000000
 100
AcDbRotatedDimension
   0
LINE
   5
401
 100
AcDbEntity
   8
LEVEL002
 370
15
 100
AcDbLine
   6
DASHDOT
  62
8
  10
 392.24999999990
  20
 35.927257845810
  30
0.0
  11
 392.24999999990
  21
 76.542642461190
  31
0.0
   0
LINE
   5
402
 100
AcDbEntity
   8
LEVEL002
 370
15
 100
AcDbLine
   6
DASHDOT
  62
8
  10
 370.74999999990
  20
 59.583558991470
  30
0.0
  11
 370.74999999990
  21
 76.002544261520
  31
0.0
   0
LINE
   5
403
 100
AcDbEntity
   8
LEVEL002
 370
15
 100
AcDbLine
   6
DASHDOT
  62
8
  10
 413.74999999990
  20
 59.583558991470
  30
0.0
  11
 413.74999999990
  21
 76.002544261520
  31
0.0
   0
DIMENSION
   5
404
 100
AcDbEntity
   8
LEVEL001
 370
15
   6
CONTINUOUS
  62
8
 100
AcDbDimension
   2
*D39
  10
 370.74999999990
  20
 87.033561914080
  30
0.0
  11
 356.49999999990
  21
 87.033561914080
  31
0.0
  70
0
   3
GMM001
 100
AcDbAlignedDimension
  13
 342.24999999990
  23
 70.533561914080
  33
0.0
  14
 370.74999999990
  24
 76.002544261520
  34
0.0
 100
AcDbRotatedDimension
   0
DIMENSION
   5
405
 100
AcDbEntity
   8
LEVEL001
 370
15
   6
CONTINUOUS
  62
8
 100
AcDbDimension
   2
*D40
  10
 413.74999999990
  20
 87.033561914080
  30
0.0
  11
 392.24999999990
  21
 87.033561914080
  31
0.0
  70
0
   3
GMM001
 100
AcDbAlignedDimension
  13
 370.74999999990
  23
 76.002544261520
  33
0.0
  14
 413.74999999990
  24
 76.002544261520
  34
0.0
 100
AcDbRotatedDimension
   0
DIMENSION
   5
406
 100
AcDbEntity
   8
LEVEL001
 370
15
   6
CONTINUOUS
  62
8
 100
AcDbDimension
   2
*D41
  10
 442.24999999990
  20
 87.033561914080
  30
0.0
  11
 427.99999999990
  21
 87.033561914080
  31
0.0
  70
0
   3
GMM001
 100
AcDbAlignedDimension
  13
 413.74999999990
  23
 76.002544261520
  33
0.0
  14
 442.24999999990
  24
 70.533561914080
  34
0.0
 100
AcDbRotatedDimension
   0
DIMENSION
   5
407
 100
AcDbEntity
   8
LEVEL001
 370
15
   6
CONTINUOUS
  62
8
 100
AcDbDimension
   2
*D42
  10
 442.24999999990
  20
 97.033561914080
  30
0.0
  11
 392.24999999990
  21
 97.033561914080
  31
0.0
  70
0
   3
GMM001
 100
AcDbAlignedDimension
  13
 342.24999999990
  23
 87.033561914080
  33
0.0
  14
 442.24999999990
  24
 87.033561914080
  34
0.0
 100
AcDbRotatedDimension
   0
DIMENSION
   5
408
 100
AcDbEntity
   8
LEVEL001
 370
15
   6
CONTINUOUS
  62
8
 100
AcDbDimension
   2
*D43
  10
 332.24999999990
  20
 69.533561914080
  30
0.0
  11
 332.24999999990
  21
 59.533561914080
  31
0.0
  70
0
   3
GMM001
 100
AcDbAlignedDimension
  13
 342.24999999990
  23
 49.533561914080
  33
0.0
  14
 343.74999999990
  24
 69.533561914080
  34
0.0
  50
 90.000000000000
 100
AcDbRotatedDimension
   0
DIMENSION
   5
409
 100
AcDbEntity
   8
LEVEL001
 370
15
   6
CONTINUOUS
  62
8
 100
AcDbDimension
   2
*D44
  10
 452.24999999990
  20
 69.533561914080
  30
0.0
  11
 452.24999999990
  21
 72.112207024684
  31
0.0
  70
128
   3
GMM004
 100
AcDbAlignedDimension
  13
 413.74999999990
  23
 65.933561914080
  33
0.0
  14
 440.74999999990
  24
 69.533561914080
  34
0.0
  50
 90.000000000000
 100
AcDbRotatedDimension
   0
LINE
   5
40A
 100
AcDbEntity
   8
LEVEL002
 370
15
 100
AcDbLine
   6
DASHDOT
  62
8
  10
 103.24999999990
  20
 181.33408962355
  30
0.0
  11
 103.24999999990
  21
 210.73303420457
  31
0.0
   0
DIMENSION
   5
40B
 100
AcDbEntity
   8
LEVEL001
 370
15
   6
CONTINUOUS
  62
8
 100
AcDbDimension
   2
*D45
  10
 68.249999999900
  20
 206.03356191406
  30
0.0
  11
 68.249999999900
  21
 196.03356191406
  31
0.0
  70
0
   3
GMM001
 100
AcDbAlignedDimension
  13
 78.249999999900
  23
 186.03356191406
  33
0.0
  14
 79.749999999900
  24
 206.03356191406
  34
0.0
  50
 90.000000000000
 100
AcDbRotatedDimension
   0
DIMENSION
   5
40C
 100
AcDbEntity
   8
LEVEL001
 370
15
   6
CONTINUOUS
  62
8
 100
AcDbDimension
   2
*D46
  10
 103.24999999990
  20
 216.03356191406
  30
0.0
  11
 90.749999999900
  21
 216.03356191406
  31
0.0
  70
0
   3
GMM001
 100
AcDbAlignedDimension
  13
 78.249999999900
  23
 204.53356191406
  33
0.0
  14
 103.24999999990
  24
 210.73303420457
  34
0.0
 100
AcDbRotatedDimension
   0
DIMENSION
   5
40D
 100
AcDbEntity
   8
LEVEL001
 370
15
   6
CONTINUOUS
  62
8
 100
AcDbDimension
   2
*D47
  10
 128.24999999990
  20
 226.03356191406
  30
0.0
  11
 103.24999999990
  21
 226.03356191406
  31
0.0
  70
0
   3
GMM001
 100
AcDbAlignedDimension
  13
 78.249999999900
  23
 216.03356191406
  33
0.0
  14
 128.24999999990
  24
 204.53356191406
  34
0.0
 100
AcDbRotatedDimension
   0
DIMENSION
   5
40E
 100
AcDbEntity
   8
LEVEL001
 370
15
   6
CONTINUOUS
  62
8
 100
AcDbDimension
   2
*D48
  10
 138.24999999990
  20
 206.03356191406
  30
0.0
  11
 138.24999999990
  21
 208.11547422476
  31
0.0
  70
128
   3
GMM003
 100
AcDbAlignedDimension
  13
 103.24999999990
  23
 202.43356191406
  33
0.0
  14
 126.74999999990
  24
 206.03356191406
  34
0.0
  50
 90.000000000000
 100
AcDbRotatedDimension
   0
LINE
   5
40F
 100
AcDbEntity
   8
LEVEL002
 370
30
 100
AcDbLine
   6
CONTINUOUS
  62
7
  10
 275.29585555648
  20
 206.03356191406
  30
0.0
  11
 296.24999999990
  21
 206.03356191406
  31
0.0
   0
LINE
   5
410
 100
AcDbEntity
   8
LEVEL002
 370
30
 100
AcDbLine
   6
CONTINUOUS
  62
7
  10
 275.29585555648
  20
 205.03356191406
  30
0.0
  11
 296.24999999990
  21
 205.03356191406
  31
0.0
   0
ARC
   5
411
 100
AcDbEntity
   8
LEVEL002
 370
30
   6
CONTINUOUS
  62
7
 100
AcDbCircle
  10
 296.24999999990
  20
 204.53356191406
  30
0.0
  40
 1.5000000000000
 100
AcDbArc
  50
0.0
  51
 90.000000000000
   0
ARC
   5
412
 100
AcDbEntity
   8
LEVEL002
 370
30
   6
CONTINUOUS
  62
7
 100
AcDbCircle
  10
 296.24999999990
  20
 204.53356191406
  30
0.0
  40
 0.50000000000000
 100
AcDbArc
  50
0.0
  51
 90.000000000000
   0
ARC
   5
413
 100
AcDbEntity
   8
LEVEL002
 370
30
   6
CONTINUOUS
  62
7
 100
AcDbCircle
  10
 199.24999999990
  20
 204.53356191406
  30
0.0
  40
 1.5000000000000
 100
AcDbArc
  50
 90.000000000000
  51
 180.00000000000
   0
ARC
   5
414
 100
AcDbEntity
   8
LEVEL002
 370
30
   6
CONTINUOUS
  62
7
 100
AcDbCircle
  10
 199.24999999989
  20
 204.53356191406
  30
0.0
  40
 0.50000000000000
 100
AcDbArc
  50
 90.000000000000
  51
 180.00000000029
   0
LINE
   5
415
 100
AcDbEntity
   8
LEVEL002
 370
30
 100
AcDbLine
   6
CONTINUOUS
  62
7
  10
 197.74999999990
  20
 186.03356191406
  30
0.0
  11
 198.74999999990
  21
 186.03356191406
  31
0.0
   0
LINE
   5
416
 100
AcDbEntity
   8
LEVEL002
 370
30
 100
AcDbLine
   6
CONTINUOUS
  62
7
  10
 296.74999999990
  20
 186.03356191406
  30
0.0
  11
 297.74999999990
  21
 186.03356191406
  31
0.0
   0
LINE
   5
417
 100
AcDbEntity
   8
LEVEL002
 370
30
 100
AcDbLine
   6
CONTINUOUS
  62
7
  10
 198.74999999990
  20
 204.53356191406
  30
0.0
  11
 198.74999999990
  21
 186.03356191406
  31
0.0
   0
LINE
   5
418
 100
AcDbEntity
   8
LEVEL002
 370
30
 100
AcDbLine
   6
CONTINUOUS
  62
7
  10
 197.74999999990
  20
 186.03356191406
  30
0.0
  11
 197.74999999990
  21
 204.53356191406
  31
0.0
   0
LINE
   5
419
 100
AcDbEntity
   8
LEVEL002
 370
30
 100
AcDbLine
   6
CONTINUOUS
  62
7
  10
 296.74999999990
  20
 204.53356191406
  30
0.0
  11
 296.74999999990
  21
 186.03356191406
  31
0.0
   0
LINE
   5
41A
 100
AcDbEntity
   8
LEVEL002
 370
30
 100
AcDbLine
   6
CONTINUOUS
  62
7
  10
 297.74999999990
  20
 186.03356191406
  30
0.0
  11
 297.74999999990
  21
 204.53356191406
  31
0.0
   0
LINE
   5
41B
 100
AcDbEntity
   8
LEVEL001
 370
30
 100
AcDbLine
   6
CONTINUOUS
  62
7
  10
 221.08270386189
  20
 205.78120139653
  30
0.0
  11
 225.97243204590
  21
 202.51768208657
  31
0.0
   0
LINE
   5
41C
 100
AcDbEntity
   8
LEVEL001
 370
30
 100
AcDbLine
   6
CONTINUOUS
  62
7
  10
 220.52756795390
  20
 204.94944174155
  30
0.0
  11
 225.41729613791
  21
 201.68592243159
  31
0.0
   0
LINE
   5
41D
 100
AcDbEntity
   8
LEVEL001
 370
30
 100
AcDbLine
   6
CONTINUOUS
  62
7
  10
 226.52756795390
  20
 202.51768208657
  30
0.0
  11
 231.41729613791
  21
 205.78120139653
  31
0.0
   0
LINE
   5
41E
 100
AcDbEntity
   8
LEVEL001
 370
30
 100
AcDbLine
   6
CONTINUOUS
  62
7
  10
 227.08270386189
  20
 201.68592243159
  30
0.0
  11
 231.97243204590
  21
 204.94944174155
  31
0.0
   0
ARC
   5
41F
 100
AcDbEntity
   8
LEVEL002
 370
30
   6
CONTINUOUS
  62
7
 100
AcDbCircle
  10
 226.24999999990
  20
 202.93356191406
  30
0.0
  40
 1.5000000000000
 100
AcDbArc
  50
 236.27992370417
  51
 303.72007629583
   0
ARC
   5
420
 100
AcDbEntity
   8
LEVEL002
 370
30
   6
CONTINUOUS
  62
7
 100
AcDbCircle
  10
 226.24999999990
  20
 202.93356191406
  30
0.0
  40
 0.50000000000000
 100
AcDbArc
  50
 236.27992370417
  51
 303.72007629583
   0
ARC
   5
421
 100
AcDbEntity
   8
LEVEL002
 370
30
   6
CONTINUOUS
  62
7
 100
AcDbCircle
  10
 232.24999999990
  20
 204.53356191406
  30
0.0
  40
 1.5000000000000
 100
AcDbArc
  50
 90.000000000007
  51
 123.72007629585
   0
ARC
   5
422
 100
AcDbEntity
   8
LEVEL002
 370
30
   6
CONTINUOUS
  62
7
 100
AcDbCircle
  10
 232.24999999990
  20
 204.53356191406
  30
0.0
  40
 0.50000000000000
 100
AcDbArc
  50
 90.000000000029
  51
 123.72007629586
   0
ARC
   5
423
 100
AcDbEntity
   8
LEVEL002
 370
30
   6
CONTINUOUS
  62
7
 100
AcDbCircle
  10
 220.24999999990
  20
 204.53356191406
  30
0.0
  40
 1.5000000000000
 100
AcDbArc
  50
 56.279923704183
  51
 89.999999999950
   0
ARC
   5
424
 100
AcDbEntity
   8
LEVEL002
 370
30
   6
CONTINUOUS
  62
7
 100
AcDbCircle
  10
 220.24999999990
  20
 204.53356191406
  30
0.0
  40
 0.50000000000000
 100
AcDbArc
  50
 56.279923704182
  51
 90.000000000427
   0
LINE
   5
425
 100
AcDbEntity
   8
LEVEL002
 370
30
 100
AcDbLine
   6
CONTINUOUS
  62
7
  10
 232.24999999990
  20
 206.03356191406
  30
0.0
  11
 275.29585555648
  21
 206.03356191406
  31
0.0
   0
LINE
   5
426
 100
AcDbEntity
   8
LEVEL002
 370
30
 100
AcDbLine
   6
CONTINUOUS
  62
7
  10
 232.24999999990
  20
 205.03356191406
  30
0.0
  11
 276.53241697985
  21
 205.03356191406
  31
0.0
   0
LINE
   5
427
 100
AcDbEntity
   8
LEVEL002
 370
30
 100
AcDbLine
   6
CONTINUOUS
  62
7
  10
 199.24999999990
  20
 206.03356191406
  30
0.0
  11
 220.24999999990
  21
 206.03356191406
  31
0.0
   0
LINE
   5
428
 100
AcDbEntity
   8
LEVEL002
 370
30
 100
AcDbLine
   6
CONTINUOUS
  62
7
  10
 199.24999999989
  20
 205.03356191406
  30
0.0
  11
 220.24999999990
  21
 205.03356191406
  31
0.0
   0
LINE
   5
429
 100
AcDbEntity
   8
LEVEL002
 370
15
 100
AcDbLine
   6
DASHDOT
  62
8
  10
 226.24999999990
  20
 193.64711600182
  30
0.0
  11
 226.24999999990
  21
 210.42000782631
  31
0.0
   0
DIMENSION
   5
42A
 100
AcDbEntity
   8
LEVEL001
 370
15
   6
CONTINUOUS
  62
8
 100
AcDbDimension
   2
*D49
  10
 187.74999999990
  20
 206.03356191406
  30
0.0
  11
 187.74999999990
  21
 196.03356191406
  31
0.0
  70
0
   3
GMM001
 100
AcDbAlignedDimension
  13
 197.74999999990
  23
 186.03356191406
  33
0.0
  14
 199.24999999990
  24
 206.03356191406
  34
0.0
  50
 90.000000000000
 100
AcDbRotatedDimension
   0
DIMENSION
   5
42B
 100
AcDbEntity
   8
LEVEL001
 370
15
   6
CONTINUOUS
  62
8
 100
AcDbDimension
   2
*D50
  10
 226.24999999990
  20
 216.03356191406
  30
0.0
  11
 211.99999999990
  21
 216.03356191406
  31
0.0
  70
0
   3
GMM001
 100
AcDbAlignedDimension
  13
 197.74999999990
  23
 204.53356191406
  33
0.0
  14
 226.24999999990
  24
 209.72468243048
  34
0.0
 100
AcDbRotatedDimension
   0
DIMENSION
   5
42C
 100
AcDbEntity
   8
LEVEL001
 370
15
   6
CONTINUOUS
  62
8
 100
AcDbDimension
   2
*D51
  10
 297.74999999990
  20
 226.03356191406
  30
0.0
  11
 247.74999999990
  21
 226.03356191406
  31
0.0
  70
0
   3
GMM001
 100
AcDbAlignedDimension
  13
 197.74999999990
  23
 216.03356191406
  33
0.0
  14
 297.74999999990
  24
 204.53356191406
  34
0.0
 100
AcDbRotatedDimension
   0
DIMENSION
   5
42D
 100
AcDbEntity
   8
LEVEL001
 370
15
   6
CONTINUOUS
  62
8
 100
AcDbDimension
   2
*D52
  10
 238.53877098501
  20
 206.03356191406
  30
0.0
  11
 238.53877098501
  21
 207.81596000712
  31
0.0
  70
128
   3
GMM005
 100
AcDbAlignedDimension
  13
 226.24999999990
  23
 202.43356191406
  33
0.0
  14
 238.53877098501
  24
 206.03356191406
  34
0.0
  50
 90.000000000000
 100
AcDbRotatedDimension
   0
LINE
   5
42E
 100
AcDbEntity
   8
LEVEL002
 370
30
 100
AcDbLine
   6
CONTINUOUS
  62
7
  10
 275.29585555648
  20
 479.03356191404
  30
0.0
  11
 296.24999999990
  21
 479.03356191404
  31
0.0
   0
LINE
   5
42F
 100
AcDbEntity
   8
LEVEL002
 370
30
 100
AcDbLine
   6
CONTINUOUS
  62
7
  10
 275.29585555648
  20
 478.03356191404
  30
0.0
  11
 296.24999999990
  21
 478.03356191404
  31
0.0
   0
ARC
   5
430
 100
AcDbEntity
   8
LEVEL002
 370
30
   6
CONTINUOUS
  62
7
 100
AcDbCircle
  10
 296.24999999990
  20
 477.53356191404
  30
0.0
  40
 1.5000000000000
 100
AcDbArc
  50
0.0
  51
 90.000000000000
   0
ARC
   5
431
 100
AcDbEntity
   8
LEVEL002
 370
30
   6
CONTINUOUS
  62
7
 100
AcDbCircle
  10
 296.24999999990
  20
 477.53356191404
  30
0.0
  40
 0.50000000000000
 100
AcDbArc
  50
0.0
  51
 90.000000000000
   0
ARC
   5
432
 100
AcDbEntity
   8
LEVEL002
 370
30
   6
CONTINUOUS
  62
7
 100
AcDbCircle
  10
 199.24999999990
  20
 477.53356191404
  30
0.0
  40
 1.5000000000000
 100
AcDbArc
  50
 90.000000000000
  51
 180.00000000000
   0
ARC
   5
433
 100
AcDbEntity
   8
LEVEL002
 370
30
   6
CONTINUOUS
  62
7
 100
AcDbCircle
  10
 199.24999999989
  20
 477.53356191404
  30
0.0
  40
 0.50000000000000
 100
AcDbArc
  50
 90.000000000000
  51
 180.00000000029
   0
LINE
   5
434
 100
AcDbEntity
   8
LEVEL002
 370
30
 100
AcDbLine
   6
CONTINUOUS
  62
7
  10
 197.74999999990
  20
 459.03356191404
  30
0.0
  11
 198.74999999990
  21
 459.03356191404
  31
0.0
   0
LINE
   5
435
 100
AcDbEntity
   8
LEVEL002
 370
30
 100
AcDbLine
   6
CONTINUOUS
  62
7
  10
 296.74999999990
  20
 459.03356191404
  30
0.0
  11
 297.74999999990
  21
 459.03356191404
  31
0.0
   0
LINE
   5
436
 100
AcDbEntity
   8
LEVEL002
 370
30
 100
AcDbLine
   6
CONTINUOUS
  62
7
  10
 198.74999999990
  20
 477.53356191404
  30
0.0
  11
 198.74999999990
  21
 459.03356191404
  31
0.0
   0
LINE
   5
437
 100
AcDbEntity
   8
LEVEL002
 370
30
 100
AcDbLine
   6
CONTINUOUS
  62
7
  10
 197.74999999990
  20
 459.03356191404
  30
0.0
  11
 197.74999999990
  21
 477.53356191404
  31
0.0
   0
LINE
   5
438
 100
AcDbEntity
   8
LEVEL002
 370
30
 100
AcDbLine
   6
CONTINUOUS
  62
7
  10
 296.74999999990
  20
 477.53356191404
  30
0.0
  11
 296.74999999990
  21
 459.03356191404
  31
0.0
   0
LINE
   5
439
 100
AcDbEntity
   8
LEVEL002
 370
30
 100
AcDbLine
   6
CONTINUOUS
  62
7
  10
 297.74999999990
  20
 459.03356191404
  30
0.0
  11
 297.74999999990
  21
 477.53356191404
  31
0.0
   0
LINE
   5
43A
 100
AcDbEntity
   8
LEVEL002
 370
15
 100
AcDbLine
   6
DASHDOT
  62
8
  10
 226.24999999990
  20
 466.64711600180
  30
0.0
  11
 226.24999999990
  21
 483.42000782629
  31
0.0
   0
LINE
   5
43B
 100
AcDbEntity
   8
LEVEL001
 370
30
 100
AcDbLine
   6
CONTINUOUS
  62
7
  10
 221.08270386189
  20
 478.78120139651
  30
0.0
  11
 225.97243204590
  21
 475.51768208655
  31
0.0
   0
LINE
   5
43C
 100
AcDbEntity
   8
LEVEL001
 370
30
 100
AcDbLine
   6
CONTINUOUS
  62
7
  10
 220.52756795390
  20
 477.94944174153
  30
0.0
  11
 225.41729613791
  21
 474.68592243157
  31
0.0
   0
LINE
   5
43D
 100
AcDbEntity
   8
LEVEL001
 370
30
 100
AcDbLine
   6
CONTINUOUS
  62
7
  10
 226.52756795390
  20
 475.51768208655
  30
0.0
  11
 231.41729613791
  21
 478.78120139651
  31
0.0
   0
LINE
   5
43E
 100
AcDbEntity
   8
LEVEL001
 370
30
 100
AcDbLine
   6
CONTINUOUS
  62
7
  10
 227.08270386189
  20
 474.68592243157
  30
0.0
  11
 231.97243204590
  21
 477.94944174153
  31
0.0
   0
ARC
   5
43F
 100
AcDbEntity
   8
LEVEL002
 370
30
   6
CONTINUOUS
  62
7
 100
AcDbCircle
  10
 226.24999999990
  20
 475.93356191404
  30
0.0
  40
 1.5000000000000
 100
AcDbArc
  50
 236.27992370417
  51
 303.72007629583
   0
ARC
   5
440
 100
AcDbEntity
   8
LEVEL002
 370
30
   6
CONTINUOUS
  62
7
 100
AcDbCircle
  10
 226.24999999990
  20
 475.93356191404
  30
0.0
  40
 0.50000000000000
 100
AcDbArc
  50
 236.27992370417
  51
 303.72007629583
   0
ARC
   5
441
 100
AcDbEntity
   8
LEVEL002
 370
30
   6
CONTINUOUS
  62
7
 100
AcDbCircle
  10
 232.24999999990
  20
 477.53356191404
  30
0.0
  40
 1.5000000000000
 100
AcDbArc
  50
 90.000000000007
  51
 123.72007629585
   0
ARC
   5
442
 100
AcDbEntity
   8
LEVEL002
 370
30
   6
CONTINUOUS
  62
7
 100
AcDbCircle
  10
 232.24999999990
  20
 477.53356191404
  30
0.0
  40
 0.50000000000000
 100
AcDbArc
  50
 90.000000000029
  51
 123.72007629586
   0
ARC
   5
443
 100
AcDbEntity
   8
LEVEL002
 370
30
   6
CONTINUOUS
  62
7
 100
AcDbCircle
  10
 220.24999999990
  20
 477.53356191404
  30
0.0
  40
 1.5000000000000
 100
AcDbArc
  50
 56.279923704183
  51
 89.999999999950
   0
ARC
   5
444
 100
AcDbEntity
   8
LEVEL002
 370
30
   6
CONTINUOUS
  62
7
 100
AcDbCircle
  10
 220.24999999990
  20
 477.53356191404
  30
0.0
  40
 0.50000000000000
 100
AcDbArc
  50
 56.279923704182
  51
 90.000000000427
   0
DIMENSION
   5
445
 100
AcDbEntity
   8
LEVEL001
 370
15
   6
CONTINUOUS
  62
8
 100
AcDbDimension
   2
*D53
  10
 187.74999999990
  20
 479.03356191404
  30
0.0
  11
 187.74999999990
  21
 469.03356191404
  31
0.0
  70
0
   3
GMM001
 100
AcDbAlignedDimension
  13
 197.74999999990
  23
 459.03356191404
  33
0.0
  14
 199.24999999990
  24
 479.03356191404
  34
0.0
  50
 90.000000000000
 100
AcDbRotatedDimension
   0
DIMENSION
   5
446
 100
AcDbEntity
   8
LEVEL001
 370
15
   6
CONTINUOUS
  62
8
 100
AcDbDimension
   2
*D54
  10
 226.24999999990
  20
 489.03356191404
  30
0.0
  11
 211.99999999990
  21
 489.03356191404
  31
0.0
  70
0
   3
GMM001
 100
AcDbAlignedDimension
  13
 197.74999999990
  23
 477.53356191404
  33
0.0
  14
 226.24999999990
  24
 482.72468243046
  34
0.0
 100
AcDbRotatedDimension
   0
DIMENSION
   5
447
 100
AcDbEntity
   8
LEVEL001
 370
15
   6
CONTINUOUS
  62
8
 100
AcDbDimension
   2
*D55
  10
 297.74999999990
  20
 499.03356191404
  30
0.0
  11
 247.74999999990
  21
 499.03356191404
  31
0.0
  70
0
   3
GMM001
 100
AcDbAlignedDimension
  13
 197.74999999990
  23
 489.03356191404
  33
0.0
  14
 297.74999999990
  24
 477.53356191404
  34
0.0
 100
AcDbRotatedDimension
   0
LEADER
   5
448
 100
AcDbEntity
   8
LEVEL001
 370
15
   6
CONTINUOUS
  62
8
 100
AcDbLeader
   3
GMM002
  73
0
  74
0
  75
0
  40
 4.0000000000000
  41
 16.000000000000
  76
2
  10
 283.96151491042
  20
 459.03356191404
  30
0.0
  10
 291.17481976546
  20
 446.50116030818
  30
0.0
  77
8
 340
449
 213
0.0
 223
-1.0000000000000
 233
0.0
   0
MTEXT
   5
449
 102
{ACAD_REACTORS
 330
448
 102
}
 100
AcDbEntity
   8
LEVEL001
 370
15
  62
8
 100
AcDbMText
  10
 291.17481976546
  20
 447.50116030818
  30
0.0
  40
 4.0000000000000
  41
0.0
  71
7
  72
1
   1
\A1;アンカー
   7
GMM001
   0
DIMENSION
   5
44A
 100
AcDbEntity
   8
LEVEL001
 370
15
   6
CONTINUOUS
  62
8
 100
AcDbDimension
   2
*D57
  10
 238.53877098501
  20
 479.03356191404
  30
0.0
  11
 238.53877098501
  21
 480.81596000710
  31
0.0
  70
128
   3
GMM005
 100
AcDbAlignedDimension
  13
 226.24999999990
  23
 475.43356191404
  33
0.0
  14
 238.53877098501
  24
 479.03356191404
  34
0.0
  50
 90.000000000000
 100
AcDbRotatedDimension
   0
LINE
   5
44B
 100
AcDbEntity
   8
LEVEL002
 370
30
 100
AcDbLine
   6
CONTINUOUS
  62
7
  10
 232.24999999990
  20
 479.03356191404
  30
0.0
  11
 275.29585555648
  21
 479.03356191404
  31
0.0
   0
LINE
   5
44C
 100
AcDbEntity
   8
LEVEL002
 370
30
 100
AcDbLine
   6
CONTINUOUS
  62
7
  10
 232.24999999990
  20
 478.03356191404
  30
0.0
  11
 276.53241697985
  21
 478.03356191404
  31
0.0
   0
LINE
   5
44D
 100
AcDbEntity
   8
LEVEL002
 370
30
 100
AcDbLine
   6
CONTINUOUS
  62
7
  10
 199.24999999990
  20
 479.03356191404
  30
0.0
  11
 220.24999999990
  21
 479.03356191404
  31
0.0
   0
LINE
   5
44E
 100
AcDbEntity
   8
LEVEL002
 370
30
 100
AcDbLine
   6
CONTINUOUS
  62
7
  10
 199.24999999989
  20
 478.03356191404
  30
0.0
  11
 220.24999999990
  21
 478.03356191404
  31
0.0
   0
MTEXT
   5
450
 100
AcDbEntity
   8
LEVEL002
 370
15
  62
8
 100
AcDbMText
  10
 35.999999999900
  20
 542.33333333340
  30
0.0
  40
 4.0000000000000
  41
0.0
  71
7
  72
1
   1
\T1.125000;※コンクリート用
   7
GMM001
  44
 0.79999984000003
   0
MTEXT
   5
452
 100
AcDbEntity
   8
LEVEL002
 370
15
  62
8
 100
AcDbMText
  10
 180.49999999990
  20
 542.33333333340
  30
0.0
  40
 4.0000000000000
  41
0.0
  71
7
  72
1
   1
\T1.125000;※コンクリート用
   7
GMM001
  44
 0.79999984000003
   0
MTEXT
   5
454
 100
AcDbEntity
   8
LEVEL002
 370
15
  62
8
 100
AcDbMText
  10
 35.999999999900
  20
 405.83333333340
  30
0.0
  40
 4.0000000000000
  41
0.0
  71
7
  72
1
   1
\T1.125000;※コンクリート用
   7
GMM001
  44
 0.79999984000003
   0
MTEXT
   5
456
 100
AcDbEntity
   8
LEVEL002
 370
15
  62
8
 100
AcDbMText
  10
 180.49999999990
  20
 405.83333333340
  30
0.0
  40
 4.0000000000000
  41
0.0
  71
7
  72
1
   1
\T1.125000;※コンクリート用
   7
GMM001
  44
 0.79999984000003
   0
MTEXT
   5
458
 100
AcDbEntity
   8
LEVEL002
 370
15
  62
8
 100
AcDbMText
  10
 324.99999999990
  20
 405.83333333340
  30
0.0
  40
 4.0000000000000
  41
0.0
  71
7
  72
1
   1
\T1.125000;※コンクリート用
   7
GMM001
  44
 0.79999984000003
   0
MTEXT
   5
45A
 100
AcDbEntity
   8
LEVEL002
 370
15
  62
8
 100
AcDbMText
  10
 31.599999999900
  20
 560.00000000000
  30
0.0
  40
 6.0000000000000
  41
0.0
  71
4
  72
1
   1
\T1.000000;　ＶＳ５０Ｃ
   7
GMM001
  44
 0.79999984000003
   0
MTEXT
   5
45C
 100
AcDbEntity
   8
LEVEL002
 370
15
  62
8
 100
AcDbMText
  10
 176.09999999990
  20
 560.00000000000
  30
0.0
  40
 6.0000000000000
  41
0.0
  71
4
  72
1
   1
\T1.000000;　ＶＳ１００Ｃ
   7
GMM001
  44
 0.79999984000003
   0
MTEXT
   5
45E
 100
AcDbEntity
   8
LEVEL002
 370
15
  62
8
 100
AcDbMText
  10
 31.599999999900
  20
 423.50000000000
  30
0.0
  40
 6.0000000000000
  41
0.0
  71
4
  72
1
   1
\W1.000000;\T1.000000;　ＶＷ１００Ｃ\W0.500000;\T1.000000;(\W1.000000;\T1.000000;芯３６\W0.500000;\T1.000000;)
   7
GMM001
  44
 0.79999984000003
   0
MTEXT
   5
460
 100
AcDbEntity
   8
LEVEL002
 370
15
  62
8
 100
AcDbMText
  10
 176.09999999990
  20
 423.50000000000
  30
0.0
  40
 6.0000000000000
  41
0.0
  71
4
  72
1
   1
\W1.000000;\T1.000000;　ＶＷ１００Ｃ\W0.500000;\T1.000000;(\W1.000000;\T1.000000;芯３９\W0.500000;\T1.000000;)
   7
GMM001
  44
 0.79999984000003
   0
MTEXT
   5
462
 100
AcDbEntity
   8
LEVEL002
 370
15
  62
8
 100
AcDbMText
  10
 320.59999999990
  20
 423.50000000000
  30
0.0
  40
 6.0000000000000
  41
0.0
  71
4
  72
1
   1
\W1.000000;\T1.000000;　ＶＷ１００Ｃ\W0.500000;\T1.000000;(\W1.000000;\T1.000000;芯４３\W0.500000;\T1.000000;)
   7
GMM001
  44
 0.79999984000003
   0
MTEXT
   5
464
 100
AcDbEntity
   8
LEVEL002
 370
15
  62
8
 100
AcDbMText
  10
 35.999999999900
  20
 269.33333333342
  30
0.0
  40
 4.0000000000000
  41
0.0
  71
7
  72
1
   1
\T1.125000;※木製用（アンカー無）
   7
GMM001
  44
 0.79999984000003
   0
MTEXT
   5
466
 100
AcDbEntity
   8
LEVEL002
 370
15
  62
8
 100
AcDbMText
  10
 180.49999999990
  20
 269.33333333342
  30
0.0
  40
 4.0000000000000
  41
0.0
  71
7
  72
1
   1
\T1.125000;※木製用（アンカー無）
   7
GMM001
  44
 0.79999984000003
   0
MTEXT
   5
468
 100
AcDbEntity
   8
LEVEL002
 370
15
  62
8
 100
AcDbMText
  10
 176.09999999990
  20
 287.00000000002
  30
0.0
  40
 6.0000000000000
  41
0.0
  71
4
  72
1
   1
\T1.000000;　ＶＳ１００Ｍ
   7
GMM001
  44
 0.79999984000003
   0
MTEXT
   5
46A
 100
AcDbEntity
   8
LEVEL002
 370
15
  62
8
 100
AcDbMText
  10
 31.599999999900
  20
 287.00000000002
  30
0.0
  40
 6.0000000000000
  41
0.0
  71
4
  72
1
   1
\T1.000000;　ＶＳ５０Ｍ
   7
GMM001
  44
 0.79999984000003
   0
MTEXT
   5
46C
 100
AcDbEntity
   8
LEVEL002
 370
15
  62
8
 100
AcDbMText
  10
 31.599999999900
  20
 150.50000000002
  30
0.0
  40
 6.0000000000000
  41
0.0
  71
4
  72
1
   1
\W1.000000;\T1.000000;　ＶＷ１００Ｍ\W0.500000;\T1.000000;(\W1.000000;\T1.000000;芯３６\W0.500000;\T1.000000;)
   7
GMM001
  44
 0.79999984000003
   0
MTEXT
   5
46E
 100
AcDbEntity
   8
LEVEL002
 370
15
  62
8
 100
AcDbMText
  10
 320.59999999990
  20
 150.50000000002
  30
0.0
  40
 6.0000000000000
  41
0.0
  71
4
  72
1
   1
\W1.000000;\T1.000000;　ＶＷ１００Ｍ\W0.500000;\T1.000000;(\W1.000000;\T1.000000;芯４３\W0.500000;\T1.000000;)
   7
GMM001
  44
 0.79999984000003
   0
MTEXT
   5
470
 100
AcDbEntity
   8
LEVEL002
 370
15
  62
8
 100
AcDbMText
  10
 35.999999999900
  20
 132.83333333342
  30
0.0
  40
 4.0000000000000
  41
0.0
  71
7
  72
1
   1
\T1.125000;※木製用（アンカー無）
   7
GMM001
  44
 0.79999984000003
   0
MTEXT
   5
472
 100
AcDbEntity
   8
LEVEL002
 370
15
  62
8
 100
AcDbMText
  10
 180.49999999990
  20
 132.83333333342
  30
0.0
  40
 4.0000000000000
  41
0.0
  71
7
  72
1
   1
\T1.125000;※木製用（アンカー無）
   7
GMM001
  44
 0.79999984000003
   0
MTEXT
   5
474
 100
AcDbEntity
   8
LEVEL002
 370
15
  62
8
 100
AcDbMText
  10
 324.99999999990
  20
 132.83333333342
  30
0.0
  40
 4.0000000000000
  41
0.0
  71
7
  72
1
   1
\T1.125000;※木製用（アンカー無）
   7
GMM001
  44
 0.79999984000003
   0
MTEXT
   5
476
 100
AcDbEntity
   8
LEVEL002
 370
15
  62
8
 100
AcDbMText
  10
 621.59999999990
  20
 56.500000000020
  30
0.0
  40
 6.0000000000000
  41
0.0
  71
5
  72
1
   1
\T1.000000;サイズ：
   7
GMM001
  44
 0.79999984000003
   0
MTEXT
   5
478
 100
AcDbEntity
   8
LEVEL002
 370
15
  62
8
 100
AcDbMText
  10
 618.59999999990
  20
 96.500000000020
  30
0.0
  40
 6.0000000000000
  41
0.0
  71
5
  72
1
   1
\T1.000000;縮尺：
   7
GMM001
  44
 0.79999984000003
   0
MTEXT
   5
47A
 100
AcDbEntity
   8
LEVEL002
 370
15
  62
8
 100
AcDbMText
  10
 624.59999999990
  20
 136.50000000002
  30
0.0
  40
 6.0000000000000
  41
0.0
  71
5
  72
1
   1
\T1.000000;図面名称：
   7
GMM001
  44
 0.79999984000003
   0
MTEXT
   5
47C
 100
AcDbEntity
   8
LEVEL002
 370
15
  62
8
 100
AcDbMText
  10
 658.99999999990
  20
 76.500000000020
  30
0.0
  40
 7.5000000000000
  41
0.0
  71
5
  72
1
   1
\T1.000000;Ｓ＝１：２
   7
GMM001
  44
 0.79999984000003
   0
MTEXT
   5
47E
 100
AcDbEntity
   8
LEVEL002
 370
15
  62
8
 100
AcDbMText
  10
 658.99999999990
  20
 36.500000000020
  30
0.0
  40
 7.5000000000000
  41
0.0
  71
5
  72
1
   1
\T1.000000;Ａ３
   7
GMM001
  44
 0.79999984000003
   0
MTEXT
   5
480
 100
AcDbEntity
   8
LEVEL002
 370
15
  62
8
 100
AcDbMText
  10
 618.59999999990
  20
 466.00000000000
  30
0.0
  40
 6.0000000000000
  41
0.0
  71
5
  72
1
   1
\T1.000000;形式：
   7
GMM001
  44
 0.79999984000003
   0
MTEXT
   5
482
 100
AcDbEntity
   8
LEVEL002
 370
15
  62
8
 100
AcDbMText
  10
 708.99999999990
  20
 493.50000000000
  30
0.0
  40
 9.0000000000000
  41
0.0
  71
5
  72
1
   1
\T1.000000;パルステン敷居レール
   7
GMM001
  44
 0.79999984000003
   0
MTEXT
   5
484
 100
AcDbEntity
   8
LEVEL002
 370
15
  62
8
 100
AcDbMText
  10
 727.59999999990
  20
 56.500000000020
  30
0.0
  40
 6.0000000000000
  41
0.0
  71
5
  72
1
   1
\T1.000000;ファイル名：
   7
GMM001
  44
 0.79999984000003
   0
MTEXT
   5
486
 100
AcDbEntity
   8
LEVEL002
 370
15
  62
8
 100
AcDbMText
  10
 724.59999999990
  20
 97.333333333360
  30
0.0
  40
 5.6000000000000
  41
0.0
  71
5
  72
1
   1
\T1.000000;作成日付：
   7
GMM002
  44
 0.79999984000003
   0
MTEXT
   5
488
 100
AcDbEntity
   8
LEVEL002
 370
15
  62
8
 100
AcDbMText
  10
 724.59999999990
  20
 84.000000000020
  30
0.0
  40
 5.6000000000000
  41
0.0
  71
5
  72
1
   1
\T1.000000;変更日付：
   7
GMM002
  44
 0.79999984000003
   0
MTEXT
   5
48A
 100
AcDbEntity
   8
LEVEL002
 370
15
  62
8
 100
AcDbMText
  10
 708.99999999990
  20
 116.50000000002
  30
0.0
  40
 7.5000000000000
  41
0.0
  71
5
  72
1
   1
\T1.000000;断面図
   7
GMM001
  44
 0.79999984000003
   0
MTEXT
   5
48C
 100
AcDbEntity
   8
LEVEL002
 370
15
  62
8
 100
AcDbMText
  10
 708.99999999990
  20
 453.50000000000
  30
0.0
  40
 8.0000000000000
  41
0.0
  71
5
  72
1
   1
\T1.000000;Ｖ型
   7
GMM001
  44
 0.79999984000003
   0
LINE
   5
48D
 100
AcDbEntity
   8
LEVEL002
 370
25
 100
AcDbLine
   6
CONTINUOUS
  62
1
  10
 688.30000000000
  20
 544.15000000000
  30
0.0
  11
 673.90000000000
  21
 544.15000000000
  31
0.0
   0
LINE
   5
48E
 100
AcDbEntity
   8
LEVEL002
 370
25
 100
AcDbLine
   6
CONTINUOUS
  62
1
  10
 673.90000000000
  20
 544.15000000000
  30
0.0
  11
 673.90000000000
  21
 522.55000000000
  31
0.0
   0
LINE
   5
48F
 100
AcDbEntity
   8
LEVEL002
 370
25
 100
AcDbLine
   6
CONTINUOUS
  62
1
  10
 673.90000000000
  20
 522.55000000000
  30
0.0
  11
 681.10000000000
  21
 522.55000000000
  31
0.0
   0
LINE
   5
490
 100
AcDbEntity
   8
LEVEL002
 370
25
 100
AcDbLine
   6
CONTINUOUS
  62
1
  10
 681.10000000000
  20
 522.55000000000
  30
0.0
  11
 681.10000000000
  21
 526.15000000000
  31
0.0
   0
LINE
   5
491
 100
AcDbEntity
   8
LEVEL002
 370
25
 100
AcDbLine
   6
CONTINUOUS
  62
1
  10
 681.10000000000
  20
 526.15000000000
  30
0.0
  11
 688.30000000000
  21
 526.15000000000
  31
0.0
   0
ARC
   5
492
 100
AcDbEntity
   8
LEVEL002
 370
25
   6
CONTINUOUS
  62
1
 100
AcDbCircle
  10
 688.30000000000
  20
 535.15000000000
  30
0.0
  40
 9.0000000000000
 100
AcDbArc
  50
 270.00000000000
  51
 90.000000000000
   0
LINE
   5
493
 100
AcDbEntity
   8
LEVEL002
 370
25
 100
AcDbLine
   6
CONTINUOUS
  62
1
  10
 681.10000000000
  20
 533.35000000000
  30
0.0
  11
 688.30000000000
  21
 533.35000000000
  31
0.0
   0
ARC
   5
494
 100
AcDbEntity
   8
LEVEL002
 370
25
   6
CONTINUOUS
  62
1
 100
AcDbCircle
  10
 688.30000000000
  20
 535.15000000000
  30
0.0
  40
 1.8000000000000
 100
AcDbArc
  50
 270.00000000000
  51
 90.000000000000
   0
LINE
   5
495
 100
AcDbEntity
   8
LEVEL002
 370
25
 100
AcDbLine
   6
CONTINUOUS
  62
1
  10
 688.30000000000
  20
 536.95000000000
  30
0.0
  11
 681.10000000000
  21
 536.95000000000
  31
0.0
   0
LINE
   5
496
 100
AcDbEntity
   8
LEVEL002
 370
25
 100
AcDbLine
   6
CONTINUOUS
  62
1
  10
 681.10000000000
  20
 536.95000000000
  30
0.0
  11
 681.10000000000
  21
 533.35000000000
  31
0.0
   0
LINE
   5
497
 100
AcDbEntity
   8
LEVEL002
 370
25
 100
AcDbLine
   6
CONTINUOUS
  62
1
  10
 691.90000000000
  20
 522.55000000000
  30
0.0
  11
 706.30000000000
  21
 544.15000000000
  31
0.0
   0
LINE
   5
498
 100
AcDbEntity
   8
LEVEL002
 370
25
 100
AcDbLine
   6
CONTINUOUS
  62
1
  10
 706.30000000000
  20
 544.15000000000
  30
0.0
  11
 724.30000000000
  21
 544.15000000000
  31
0.0
   0
LINE
   5
499
 100
AcDbEntity
   8
LEVEL002
 370
25
 100
AcDbLine
   6
CONTINUOUS
  62
1
  10
 724.30000000000
  20
 544.15000000000
  30
0.0
  11
 724.30000000000
  21
 529.75000000000
  31
0.0
   0
LINE
   5
49A
 100
AcDbEntity
   8
LEVEL002
 370
25
 100
AcDbLine
   6
CONTINUOUS
  62
1
  10
 724.30000000000
  20
 529.75000000000
  30
0.0
  11
 735.10000000000
  21
 529.75000000000
  31
0.0
   0
LINE
   5
49B
 100
AcDbEntity
   8
LEVEL002
 370
25
 100
AcDbLine
   6
CONTINUOUS
  62
1
  10
 735.10000000000
  20
 529.75000000000
  30
0.0
  11
 735.10000000000
  21
 536.95000000000
  31
0.0
   0
LINE
   5
49C
 100
AcDbEntity
   8
LEVEL002
 370
25
 100
AcDbLine
   6
CONTINUOUS
  62
1
  10
 735.10000000000
  20
 536.95000000000
  30
0.0
  11
 727.90000000000
  21
 536.95000000000
  31
0.0
   0
LINE
   5
49D
 100
AcDbEntity
   8
LEVEL002
 370
25
 100
AcDbLine
   6
CONTINUOUS
  62
1
  10
 727.90000000000
  20
 536.95000000000
  30
0.0
  11
 727.90000000000
  21
 544.15000000000
  31
0.0
   0
LINE
   5
49E
 100
AcDbEntity
   8
LEVEL002
 370
25
 100
AcDbLine
   6
CONTINUOUS
  62
1
  10
 727.90000000000
  20
 544.15000000000
  30
0.0
  11
 771.10000000000
  21
 544.15000000000
  31
0.0
   0
LINE
   5
49F
 100
AcDbEntity
   8
LEVEL002
 370
25
 100
AcDbLine
   6
CONTINUOUS
  62
1
  10
 771.10000000000
  20
 544.15000000000
  30
0.0
  11
 771.10000000000
  21
 536.95000000000
  31
0.0
   0
LINE
   5
4A0
 100
AcDbEntity
   8
LEVEL002
 370
25
 100
AcDbLine
   6
CONTINUOUS
  62
1
  10
 771.10000000000
  20
 536.95000000000
  30
0.0
  11
 756.70000000000
  21
 536.95000000000
  31
0.0
   0
LINE
   5
4A1
 100
AcDbEntity
   8
LEVEL002
 370
25
 100
AcDbLine
   6
CONTINUOUS
  62
1
  10
 756.70000000000
  20
 536.95000000000
  30
0.0
  11
 756.70000000000
  21
 535.15000000000
  31
0.0
   0
LINE
   5
4A2
 100
AcDbEntity
   8
LEVEL002
 370
25
 100
AcDbLine
   6
CONTINUOUS
  62
1
  10
 756.70000000000
  20
 535.15000000000
  30
0.0
  11
 769.30000000000
  21
 535.15000000000
  31
0.0
   0
LINE
   5
4A3
 100
AcDbEntity
   8
LEVEL002
 370
25
 100
AcDbLine
   6
CONTINUOUS
  62
1
  10
 769.30000000000
  20
 535.15000000000
  30
0.0
  11
 769.30000000000
  21
 531.55000000000
  31
0.0
   0
LINE
   5
4A4
 100
AcDbEntity
   8
LEVEL002
 370
25
 100
AcDbLine
   6
CONTINUOUS
  62
1
  10
 769.30000000000
  20
 531.55000000000
  30
0.0
  11
 756.70000000000
  21
 531.55000000000
  31
0.0
   0
LINE
   5
4A5
 100
AcDbEntity
   8
LEVEL002
 370
25
 100
AcDbLine
   6
CONTINUOUS
  62
1
  10
 756.70000000000
  20
 531.55000000000
  30
0.0
  11
 756.70000000000
  21
 529.75000000000
  31
0.0
   0
LINE
   5
4A6
 100
AcDbEntity
   8
LEVEL002
 370
25
 100
AcDbLine
   6
CONTINUOUS
  62
1
  10
 756.70000000000
  20
 529.75000000000
  30
0.0
  11
 771.10000000000
  21
 529.75000000000
  31
0.0
   0
LINE
   5
4A7
 100
AcDbEntity
   8
LEVEL002
 370
25
 100
AcDbLine
   6
CONTINUOUS
  62
1
  10
 771.10000000000
  20
 529.75000000000
  30
0.0
  11
 771.10000000000
  21
 522.55000000000
  31
0.0
   0
LINE
   5
4A8
 100
AcDbEntity
   8
LEVEL002
 370
25
 100
AcDbLine
   6
CONTINUOUS
  62
1
  10
 771.10000000000
  20
 522.55000000000
  30
0.0
  11
 749.50000000000
  21
 522.55000000000
  31
0.0
   0
LINE
   5
4A9
 100
AcDbEntity
   8
LEVEL002
 370
25
 100
AcDbLine
   6
CONTINUOUS
  62
1
  10
 749.50000000000
  20
 522.55000000000
  30
0.0
  11
 749.50000000000
  21
 536.95000000000
  31
0.0
   0
LINE
   5
4AA
 100
AcDbEntity
   8
LEVEL002
 370
25
 100
AcDbLine
   6
CONTINUOUS
  62
1
  10
 749.50000000000
  20
 536.95000000000
  30
0.0
  11
 742.30000000000
  21
 536.95000000000
  31
0.0
   0
LINE
   5
4AB
 100
AcDbEntity
   8
LEVEL002
 370
25
 100
AcDbLine
   6
CONTINUOUS
  62
1
  10
 742.30000000000
  20
 536.95000000000
  30
0.0
  11
 742.30000000000
  21
 522.55000000000
  31
0.0
   0
LINE
   5
4AC
 100
AcDbEntity
   8
LEVEL002
 370
25
 100
AcDbLine
   6
CONTINUOUS
  62
1
  10
 742.30000000000
  20
 522.55000000000
  30
0.0
  11
 717.10000000000
  21
 522.55000000000
  31
0.0
   0
LINE
   5
4AD
 100
AcDbEntity
   8
LEVEL002
 370
25
 100
AcDbLine
   6
CONTINUOUS
  62
1
  10
 717.10000000000
  20
 522.55000000000
  30
0.0
  11
 717.10000000000
  21
 544.15000000000
  31
0.0
   0
LINE
   5
4AE
 100
AcDbEntity
   8
LEVEL002
 370
25
 100
AcDbLine
   6
CONTINUOUS
  62
1
  10
 717.10000000000
  20
 544.15000000000
  30
0.0
  11
 702.70000000000
  21
 522.55000000000
  31
0.0
   0
LINE
   5
4AF
 100
AcDbEntity
   8
LEVEL002
 370
25
 100
AcDbLine
   6
CONTINUOUS
  62
1
  10
 702.70000000000
  20
 522.55000000000
  30
0.0
  11
 691.90000000000
  21
 522.55000000000
  31
0.0
   0
LINE
   5
4B0
 100
AcDbEntity
   8
LEVEL002
 370
25
 100
AcDbLine
   6
CONTINUOUS
  62
1
  10
 714.70000000000
  20
 536.22333846940
  30
0.0
  11
 705.58444102040
  21
 522.55000000000
  31
0.0
   0
LINE
   5
4B1
 100
AcDbEntity
   8
LEVEL002
 370
25
 100
AcDbLine
   6
CONTINUOUS
  62
1
  10
 705.58444102040
  20
 522.55000000000
  30
0.0
  11
 714.70000000000
  21
 522.55000000000
  31
0.0
   0
LINE
   5
4B2
 100
AcDbEntity
   8
LEVEL002
 370
25
 100
AcDbLine
   6
CONTINUOUS
  62
1
  10
 714.70000000000
  20
 522.55000000000
  30
0.0
  11
 714.70000000000
  21
 536.22333846940
  31
0.0
   0
ARC
   5
4B3
 100
AcDbEntity
   8
LEVEL002
 370
25
   6
CONTINUOUS
  62
1
 100
AcDbCircle
  10
 781.90000000000
  20
 533.35000000000
  30
0.0
  40
 10.800000000000
 100
AcDbArc
  50
 90.000000000000
  51
 270.00000000000
   0
ARC
   5
4B4
 100
AcDbEntity
   8
LEVEL002
 370
25
   6
CONTINUOUS
  62
1
 100
AcDbCircle
  10
 781.90000000000
  20
 533.35000000000
  30
0.0
  40
 3.6000000000000
 100
AcDbArc
  50
 90.000000000000
  51
 270.00000000000
   0
LINE
   5
4B5
 100
AcDbEntity
   8
LEVEL002
 370
25
 100
AcDbLine
   6
CONTINUOUS
  62
1
  10
 781.90000000000
  20
 544.15000000000
  30
0.0
  11
 792.70000000000
  21
 544.15000000000
  31
0.0
   0
LINE
   5
4B6
 100
AcDbEntity
   8
LEVEL002
 370
25
 100
AcDbLine
   6
CONTINUOUS
  62
1
  10
 792.70000000000
  20
 544.15000000000
  30
0.0
  11
 792.70000000000
  21
 536.95000000000
  31
0.0
   0
LINE
   5
4B7
 100
AcDbEntity
   8
LEVEL002
 370
25
 100
AcDbLine
   6
CONTINUOUS
  62
1
  10
 792.70000000000
  20
 536.95000000000
  30
0.0
  11
 781.90000000000
  21
 536.95000000000
  31
0.0
   0
LINE
   5
4B8
 100
AcDbEntity
   8
LEVEL002
 370
25
 100
AcDbLine
   6
CONTINUOUS
  62
1
  10
 673.90000000000
  20
 544.15000000000
  30
0.0
  11
 673.90000000000
  21
 522.55000000000
  31
0.0
   0
LINE
   5
4B9
 100
AcDbEntity
   8
LEVEL002
 370
25
 100
AcDbLine
   6
CONTINUOUS
  62
1
  10
 673.90000000000
  20
 522.55000000000
  30
0.0
  11
 681.10000000000
  21
 522.55000000000
  31
0.0
   0
LINE
   5
4BA
 100
AcDbEntity
   8
LEVEL002
 370
25
 100
AcDbLine
   6
CONTINUOUS
  62
1
  10
 681.10000000000
  20
 522.55000000000
  30
0.0
  11
 681.10000000000
  21
 526.15000000000
  31
0.0
   0
LINE
   5
4BB
 100
AcDbEntity
   8
LEVEL002
 370
25
 100
AcDbLine
   6
CONTINUOUS
  62
1
  10
 681.10000000000
  20
 526.15000000000
  30
0.0
  11
 688.30000000000
  21
 526.15000000000
  31
0.0
   0
ARC
   5
4BC
 100
AcDbEntity
   8
LEVEL002
 370
25
   6
CONTINUOUS
  62
1
 100
AcDbCircle
  10
 688.30000000000
  20
 535.15000000000
  30
0.0
  40
 9.0000000000000
 100
AcDbArc
  50
 270.00000000000
  51
 90.000000000000
   0
LINE
   5
4BD
 100
AcDbEntity
   8
LEVEL002
 370
25
 100
AcDbLine
   6
CONTINUOUS
  62
1
  10
 688.30000000000
  20
 544.15000000000
  30
0.0
  11
 673.90000000000
  21
 544.15000000000
  31
0.0
   0
LINE
   5
4BE
 100
AcDbEntity
   8
LEVEL002
 370
25
 100
AcDbLine
   6
CONTINUOUS
  62
1
  10
 681.10000000000
  20
 536.95000000000
  30
0.0
  11
 681.10000000000
  21
 533.35000000000
  31
0.0
   0
LINE
   5
4BF
 100
AcDbEntity
   8
LEVEL002
 370
25
 100
AcDbLine
   6
CONTINUOUS
  62
1
  10
 681.10000000000
  20
 533.35000000000
  30
0.0
  11
 688.30000000000
  21
 533.35000000000
  31
0.0
   0
ARC
   5
4C0
 100
AcDbEntity
   8
LEVEL002
 370
25
   6
CONTINUOUS
  62
1
 100
AcDbCircle
  10
 688.30000000000
  20
 535.15000000000
  30
0.0
  40
 1.8000000000000
 100
AcDbArc
  50
 270.00000000000
  51
 90.000000000000
   0
LINE
   5
4C1
 100
AcDbEntity
   8
LEVEL002
 370
25
 100
AcDbLine
   6
CONTINUOUS
  62
1
  10
 688.30000000000
  20
 536.95000000000
  30
0.0
  11
 681.10000000000
  21
 536.95000000000
  31
0.0
   0
LINE
   5
4C2
 100
AcDbEntity
   8
LEVEL002
 370
25
 100
AcDbLine
   6
CONTINUOUS
  62
1
  10
 706.30000000000
  20
 544.15000000000
  30
0.0
  11
 691.90000000000
  21
 522.55000000000
  31
0.0
   0
LINE
   5
4C3
 100
AcDbEntity
   8
LEVEL002
 370
25
 100
AcDbLine
   6
CONTINUOUS
  62
1
  10
 691.90000000000
  20
 522.55000000000
  30
0.0
  11
 702.70000000000
  21
 522.55000000000
  31
0.0
   0
LINE
   5
4C4
 100
AcDbEntity
   8
LEVEL002
 370
25
 100
AcDbLine
   6
CONTINUOUS
  62
1
  10
 702.70000000000
  20
 522.55000000000
  30
0.0
  11
 717.10000000000
  21
 544.15000000000
  31
0.0
   0
LINE
   5
4C5
 100
AcDbEntity
   8
LEVEL002
 370
25
 100
AcDbLine
   6
CONTINUOUS
  62
1
  10
 717.10000000000
  20
 544.15000000000
  30
0.0
  11
 706.30000000000
  21
 544.15000000000
  31
0.0
   0
LINE
   5
4C6
 100
AcDbEntity
   8
LEVEL002
 370
25
 100
AcDbLine
   6
CONTINUOUS
  62
1
  10
 714.70000000000
  20
 522.55000000000
  30
0.0
  11
 714.70000000000
  21
 536.22333846940
  31
0.0
   0
LINE
   5
4C7
 100
AcDbEntity
   8
LEVEL002
 370
25
 100
AcDbLine
   6
CONTINUOUS
  62
1
  10
 714.70000000000
  20
 536.22333846940
  30
0.0
  11
 705.58444102040
  21
 522.55000000000
  31
0.0
   0
LINE
   5
4C8
 100
AcDbEntity
   8
LEVEL002
 370
25
 100
AcDbLine
   6
CONTINUOUS
  62
1
  10
 705.58444102040
  20
 522.55000000000
  30
0.0
  11
 714.70000000000
  21
 522.55000000000
  31
0.0
   0
LINE
   5
4C9
 100
AcDbEntity
   8
LEVEL002
 370
25
 100
AcDbLine
   6
CONTINUOUS
  62
1
  10
 717.10000000000
  20
 522.55000000000
  30
0.0
  11
 742.30000000000
  21
 522.55000000000
  31
0.0
   0
LINE
   5
4CA
 100
AcDbEntity
   8
LEVEL002
 370
25
 100
AcDbLine
   6
CONTINUOUS
  62
1
  10
 742.30000000000
  20
 522.55000000000
  30
0.0
  11
 742.30000000000
  21
 536.95000000000
  31
0.0
   0
LINE
   5
4CB
 100
AcDbEntity
   8
LEVEL002
 370
25
 100
AcDbLine
   6
CONTINUOUS
  62
1
  10
 742.30000000000
  20
 536.95000000000
  30
0.0
  11
 749.50000000000
  21
 536.95000000000
  31
0.0
   0
LINE
   5
4CC
 100
AcDbEntity
   8
LEVEL002
 370
25
 100
AcDbLine
   6
CONTINUOUS
  62
1
  10
 749.50000000000
  20
 536.95000000000
  30
0.0
  11
 749.50000000000
  21
 522.55000000000
  31
0.0
   0
LINE
   5
4CD
 100
AcDbEntity
   8
LEVEL002
 370
25
 100
AcDbLine
   6
CONTINUOUS
  62
1
  10
 749.50000000000
  20
 522.55000000000
  30
0.0
  11
 771.10000000000
  21
 522.55000000000
  31
0.0
   0
LINE
   5
4CE
 100
AcDbEntity
   8
LEVEL002
 370
25
 100
AcDbLine
   6
CONTINUOUS
  62
1
  10
 771.10000000000
  20
 522.55000000000
  30
0.0
  11
 771.10000000000
  21
 529.75000000000
  31
0.0
   0
LINE
   5
4CF
 100
AcDbEntity
   8
LEVEL002
 370
25
 100
AcDbLine
   6
CONTINUOUS
  62
1
  10
 771.10000000000
  20
 529.75000000000
  30
0.0
  11
 756.70000000000
  21
 529.75000000000
  31
0.0
   0
LINE
   5
4D0
 100
AcDbEntity
   8
LEVEL002
 370
25
 100
AcDbLine
   6
CONTINUOUS
  62
1
  10
 756.70000000000
  20
 529.75000000000
  30
0.0
  11
 756.70000000000
  21
 531.55000000000
  31
0.0
   0
LINE
   5
4D1
 100
AcDbEntity
   8
LEVEL002
 370
25
 100
AcDbLine
   6
CONTINUOUS
  62
1
  10
 756.70000000000
  20
 531.55000000000
  30
0.0
  11
 769.30000000000
  21
 531.55000000000
  31
0.0
   0
LINE
   5
4D2
 100
AcDbEntity
   8
LEVEL002
 370
25
 100
AcDbLine
   6
CONTINUOUS
  62
1
  10
 769.30000000000
  20
 531.55000000000
  30
0.0
  11
 769.30000000000
  21
 535.15000000000
  31
0.0
   0
LINE
   5
4D3
 100
AcDbEntity
   8
LEVEL002
 370
25
 100
AcDbLine
   6
CONTINUOUS
  62
1
  10
 769.30000000000
  20
 535.15000000000
  30
0.0
  11
 756.70000000000
  21
 535.15000000000
  31
0.0
   0
LINE
   5
4D4
 100
AcDbEntity
   8
LEVEL002
 370
25
 100
AcDbLine
   6
CONTINUOUS
  62
1
  10
 756.70000000000
  20
 535.15000000000
  30
0.0
  11
 756.70000000000
  21
 536.95000000000
  31
0.0
   0
LINE
   5
4D5
 100
AcDbEntity
   8
LEVEL002
 370
25
 100
AcDbLine
   6
CONTINUOUS
  62
1
  10
 756.70000000000
  20
 536.95000000000
  30
0.0
  11
 771.10000000000
  21
 536.95000000000
  31
0.0
   0
LINE
   5
4D6
 100
AcDbEntity
   8
LEVEL002
 370
25
 100
AcDbLine
   6
CONTINUOUS
  62
1
  10
 771.10000000000
  20
 536.95000000000
  30
0.0
  11
 771.10000000000
  21
 544.15000000000
  31
0.0
   0
LINE
   5
4D7
 100
AcDbEntity
   8
LEVEL002
 370
25
 100
AcDbLine
   6
CONTINUOUS
  62
1
  10
 771.10000000000
  20
 544.15000000000
  30
0.0
  11
 727.90000000000
  21
 544.15000000000
  31
0.0
   0
LINE
   5
4D8
 100
AcDbEntity
   8
LEVEL002
 370
25
 100
AcDbLine
   6
CONTINUOUS
  62
1
  10
 727.90000000000
  20
 544.15000000000
  30
0.0
  11
 727.90000000000
  21
 536.95000000000
  31
0.0
   0
LINE
   5
4D9
 100
AcDbEntity
   8
LEVEL002
 370
25
 100
AcDbLine
   6
CONTINUOUS
  62
1
  10
 727.90000000000
  20
 536.95000000000
  30
0.0
  11
 735.10000000000
  21
 536.95000000000
  31
0.0
   0
LINE
   5
4DA
 100
AcDbEntity
   8
LEVEL002
 370
25
 100
AcDbLine
   6
CONTINUOUS
  62
1
  10
 735.10000000000
  20
 536.95000000000
  30
0.0
  11
 735.10000000000
  21
 529.75000000000
  31
0.0
   0
LINE
   5
4DB
 100
AcDbEntity
   8
LEVEL002
 370
25
 100
AcDbLine
   6
CONTINUOUS
  62
1
  10
 735.10000000000
  20
 529.75000000000
  30
0.0
  11
 724.30000000000
  21
 529.75000000000
  31
0.0
   0
LINE
   5
4DC
 100
AcDbEntity
   8
LEVEL002
 370
25
 100
AcDbLine
   6
CONTINUOUS
  62
1
  10
 724.30000000000
  20
 529.75000000000
  30
0.0
  11
 724.30000000000
  21
 544.15000000000
  31
0.0
   0
LINE
   5
4DD
 100
AcDbEntity
   8
LEVEL002
 370
25
 100
AcDbLine
   6
CONTINUOUS
  62
1
  10
 724.30000000000
  20
 544.15000000000
  30
0.0
  11
 717.10000000000
  21
 544.15000000000
  31
0.0
   0
LINE
   5
4DE
 100
AcDbEntity
   8
LEVEL002
 370
25
 100
AcDbLine
   6
CONTINUOUS
  62
1
  10
 717.10000000000
  20
 544.15000000000
  30
0.0
  11
 717.10000000000
  21
 522.55000000000
  31
0.0
   0
LINE
   5
4DF
 100
AcDbEntity
   8
LEVEL002
 370
25
 100
AcDbLine
   6
CONTINUOUS
  62
1
  10
 781.90000000000
  20
 522.55000000000
  30
0.0
  11
 792.70000000000
  21
 522.55000000000
  31
0.0
   0
LINE
   5
4E0
 100
AcDbEntity
   8
LEVEL002
 370
25
 100
AcDbLine
   6
CONTINUOUS
  62
1
  10
 792.70000000000
  20
 522.55000000000
  30
0.0
  11
 792.70000000000
  21
 529.75000000000
  31
0.0
   0
LINE
   5
4E1
 100
AcDbEntity
   8
LEVEL002
 370
25
 100
AcDbLine
   6
CONTINUOUS
  62
1
  10
 792.70000000000
  20
 529.75000000000
  30
0.0
  11
 781.90000000000
  21
 529.75000000000
  31
0.0
   0
ARC
   5
4E2
 100
AcDbEntity
   8
LEVEL002
 370
25
   6
CONTINUOUS
  62
1
 100
AcDbCircle
  10
 781.90000000000
  20
 533.35000000000
  30
0.0
  40
 3.6000000000000
 100
AcDbArc
  50
 90.000000000000
  51
 270.00000000000
   0
LINE
   5
4E3
 100
AcDbEntity
   8
LEVEL002
 370
25
 100
AcDbLine
   6
CONTINUOUS
  62
1
  10
 781.90000000000
  20
 536.95000000000
  30
0.0
  11
 792.70000000000
  21
 536.95000000000
  31
0.0
   0
LINE
   5
4E4
 100
AcDbEntity
   8
LEVEL002
 370
25
 100
AcDbLine
   6
CONTINUOUS
  62
1
  10
 792.70000000000
  20
 536.95000000000
  30
0.0
  11
 792.70000000000
  21
 544.15000000000
  31
0.0
   0
LINE
   5
4E5
 100
AcDbEntity
   8
LEVEL002
 370
25
 100
AcDbLine
   6
CONTINUOUS
  62
1
  10
 792.70000000000
  20
 544.15000000000
  30
0.0
  11
 781.90000000000
  21
 544.15000000000
  31
0.0
   0
ARC
   5
4E6
 100
AcDbEntity
   8
LEVEL002
 370
25
   6
CONTINUOUS
  62
1
 100
AcDbCircle
  10
 781.90000000000
  20
 533.35000000000
  30
0.0
  40
 10.800000000000
 100
AcDbArc
  50
 90.000000000000
  51
 270.00000000000
   0
MTEXT
   5
4E8
 100
AcDbEntity
   8
LEVEL002
 370
25
  62
1
 100
AcDbMText
  10
 673.90000000000
  20
 547.75000000000
  30
0.0
  40
 7.5000000000000
  41
0.0
  71
7
  72
1
   1
\T1.000000;ケージーパルテック株式会社
   7
GMM003
  44
 0.79999984000003
   0
LINE
   5
4E9
 100
AcDbEntity
   8
LEVEL002
 370
25
 100
AcDbLine
   6
CONTINUOUS
  62
1
  10
 666.70000000000
  20
 527.35000000000
  30
0.0
  11
 657.70000000000
  21
 541.75000000000
  31
0.0
   0
LINE
   5
4EA
 100
AcDbEntity
   8
LEVEL002
 370
25
 100
AcDbLine
   6
CONTINUOUS
  62
1
  10
 657.70000000000
  20
 541.75000000000
  30
0.0
  11
 666.70000000000
  21
 541.75000000000
  31
0.0
   0
LINE
   5
4EB
 100
AcDbEntity
   8
LEVEL002
 370
25
 100
AcDbLine
   6
CONTINUOUS
  62
1
  10
 666.70000000000
  20
 541.75000000000
  30
0.0
  11
 666.70000000000
  21
 527.35000000000
  31
0.0
   0
LINE
   5
4EC
 100
AcDbEntity
   8
LEVEL002
 370
25
 100
AcDbLine
   6
CONTINUOUS
  62
1
  10
 657.70000000000
  20
 541.75000000000
  30
0.0
  11
 666.70000000000
  21
 527.35000000000
  31
0.0
   0
LINE
   5
4ED
 100
AcDbEntity
   8
LEVEL002
 370
25
 100
AcDbLine
   6
CONTINUOUS
  62
1
  10
 666.70000000000
  20
 527.35000000000
  30
0.0
  11
 666.70000000000
  21
 541.75000000000
  31
0.0
   0
LINE
   5
4EE
 100
AcDbEntity
   8
LEVEL002
 370
25
 100
AcDbLine
   6
CONTINUOUS
  62
1
  10
 666.70000000000
  20
 541.75000000000
  30
0.0
  11
 657.70000000000
  21
 541.75000000000
  31
0.0
   0
LINE
   5
4EF
 100
AcDbEntity
   8
LEVEL002
 370
25
 100
AcDbLine
   6
CONTINUOUS
  62
1
  10
 638.10000000000
  20
 560.95000000000
  30
0.0
  11
 625.30000000000
  21
 541.75000000000
  31
0.0
   0
LINE
   5
4F0
 100
AcDbEntity
   8
LEVEL002
 370
25
 100
AcDbLine
   6
CONTINUOUS
  62
1
  10
 625.30000000000
  20
 541.75000000000
  30
0.0
  11
 638.10000000000
  21
 522.55000000000
  31
0.0
   0
LINE
   5
4F1
 100
AcDbEntity
   8
LEVEL002
 370
25
 100
AcDbLine
   6
CONTINUOUS
  62
1
  10
 648.90000000000
  20
 522.55000000000
  30
0.0
  11
 636.10000000000
  21
 541.75000000000
  31
0.0
   0
LINE
   5
4F2
 100
AcDbEntity
   8
LEVEL002
 370
25
 100
AcDbLine
   6
CONTINUOUS
  62
1
  10
 636.10000000000
  20
 541.75000000000
  30
0.0
  11
 648.90000000000
  21
 560.95000000000
  31
0.0
   0
LINE
   5
4F3
 100
AcDbEntity
   8
LEVEL002
 370
25
 100
AcDbLine
   6
CONTINUOUS
  62
1
  10
 654.30000000000
  20
 560.95000000000
  30
0.0
  11
 641.50000000000
  21
 541.75000000000
  31
0.0
   0
LINE
   5
4F4
 100
AcDbEntity
   8
LEVEL002
 370
25
 100
AcDbLine
   6
CONTINUOUS
  62
1
  10
 641.50000000000
  20
 541.75000000000
  30
0.0
  11
 654.30000000000
  21
 522.55000000000
  31
0.0
   0
LINE
   5
4F5
 100
AcDbEntity
   8
LEVEL002
 370
25
 100
AcDbLine
   6
CONTINUOUS
  62
1
  10
 665.10000000000
  20
 522.55000000000
  30
0.0
  11
 652.30000000000
  21
 541.75000000000
  31
0.0
   0
LINE
   5
4F6
 100
AcDbEntity
   8
LEVEL002
 370
25
 100
AcDbLine
   6
CONTINUOUS
  62
1
  10
 652.30000000000
  20
 541.75000000000
  30
0.0
  11
 665.10000000000
  21
 560.95000000000
  31
0.0
   0
LINE
   5
4F7
 100
AcDbEntity
   8
LEVEL002
 370
25
 100
AcDbLine
   6
CONTINUOUS
  62
1
  10
 638.10000000000
  20
 522.55000000000
  30
0.0
  11
 625.30000000000
  21
 541.75000000000
  31
0.0
   0
LINE
   5
4F8
 100
AcDbEntity
   8
LEVEL002
 370
25
 100
AcDbLine
   6
CONTINUOUS
  62
1
  10
 625.30000000000
  20
 541.75000000000
  30
0.0
  11
 638.10000000000
  21
 560.95000000000
  31
0.0
   0
LINE
   5
4F9
 100
AcDbEntity
   8
LEVEL002
 370
25
 100
AcDbLine
   6
CONTINUOUS
  62
1
  10
 638.10000000000
  20
 560.95000000000
  30
0.0
  11
 648.90000000000
  21
 560.95000000000
  31
0.0
   0
LINE
   5
4FA
 100
AcDbEntity
   8
LEVEL002
 370
25
 100
AcDbLine
   6
CONTINUOUS
  62
1
  10
 648.90000000000
  20
 560.95000000000
  30
0.0
  11
 636.10000000000
  21
 541.75000000000
  31
0.0
   0
LINE
   5
4FB
 100
AcDbEntity
   8
LEVEL002
 370
25
 100
AcDbLine
   6
CONTINUOUS
  62
1
  10
 636.10000000000
  20
 541.75000000000
  30
0.0
  11
 648.90000000000
  21
 522.55000000000
  31
0.0
   0
LINE
   5
4FC
 100
AcDbEntity
   8
LEVEL002
 370
25
 100
AcDbLine
   6
CONTINUOUS
  62
1
  10
 648.90000000000
  20
 522.55000000000
  30
0.0
  11
 638.10000000000
  21
 522.55000000000
  31
0.0
   0
LINE
   5
4FD
 100
AcDbEntity
   8
LEVEL002
 370
25
 100
AcDbLine
   6
CONTINUOUS
  62
1
  10
 654.30000000000
  20
 522.55000000000
  30
0.0
  11
 641.50000000000
  21
 541.75000000000
  31
0.0
   0
LINE
   5
4FE
 100
AcDbEntity
   8
LEVEL002
 370
25
 100
AcDbLine
   6
CONTINUOUS
  62
1
  10
 641.50000000000
  20
 541.75000000000
  30
0.0
  11
 654.30000000000
  21
 560.95000000000
  31
0.0
   0
LINE
   5
4FF
 100
AcDbEntity
   8
LEVEL002
 370
25
 100
AcDbLine
   6
CONTINUOUS
  62
1
  10
 654.30000000000
  20
 560.95000000000
  30
0.0
  11
 665.10000000000
  21
 560.95000000000
  31
0.0
   0
LINE
   5
500
 100
AcDbEntity
   8
LEVEL002
 370
25
 100
AcDbLine
   6
CONTINUOUS
  62
1
  10
 665.10000000000
  20
 560.95000000000
  30
0.0
  11
 652.30000000000
  21
 541.75000000000
  31
0.0
   0
LINE
   5
501
 100
AcDbEntity
   8
LEVEL002
 370
25
 100
AcDbLine
   6
CONTINUOUS
  62
1
  10
 652.30000000000
  20
 541.75000000000
  30
0.0
  11
 665.10000000000
  21
 522.55000000000
  31
0.0
   0
LINE
   5
502
 100
AcDbEntity
   8
LEVEL002
 370
25
 100
AcDbLine
   6
CONTINUOUS
  62
1
  10
 665.10000000000
  20
 522.55000000000
  30
0.0
  11
 654.30000000000
  21
 522.55000000000
  31
0.0
   0
LINE
   5
503
 100
AcDbEntity
   8
LEVEL002
 370
25
 100
AcDbLine
   6
CONTINUOUS
  62
1
  10
 79.249999999900
  20
 459.03356191404
  30
0.0
  11
 127.24999999990
  21
 459.03356191404
  31
0.0
   0
LINE
   5
504
 100
AcDbEntity
   8
LEVEL002
 370
25
 100
AcDbLine
   6
CONTINUOUS
  62
1
  10
 79.249999999900
  20
 460.03356191404
  30
0.0
  11
 127.24999999990
  21
 460.03356191404
  31
0.0
   0
LINE
   5
505
 100
AcDbEntity
   8
LEVEL002
 370
25
 100
AcDbLine
   6
CONTINUOUS
  62
1
  10
 152.24999999990
  20
 323.53356191406
  30
0.0
  11
 54.249999999900
  21
 323.53356191406
  31
0.0
   0
LINE
   5
506
 100
AcDbEntity
   8
LEVEL002
 370
25
 100
AcDbLine
   6
CONTINUOUS
  62
1
  10
 54.249999999900
  20
 322.53356191406
  30
0.0
  11
 152.24999999990
  21
 322.53356191406
  31
0.0
   0
LINE
   5
507
 100
AcDbEntity
   8
LEVEL002
 370
25
 100
AcDbLine
   6
CONTINUOUS
  62
1
  10
 296.74999999990
  20
 323.53356191406
  30
0.0
  11
 198.74999999990
  21
 323.53356191406
  31
0.0
   0
LINE
   5
508
 100
AcDbEntity
   8
LEVEL002
 370
25
 100
AcDbLine
   6
CONTINUOUS
  62
1
  10
 198.74999999990
  20
 322.53356191406
  30
0.0
  11
 296.74999999990
  21
 322.53356191406
  31
0.0
   0
LINE
   5
509
 100
AcDbEntity
   8
LEVEL002
 370
25
 100
AcDbLine
   6
CONTINUOUS
  62
1
  10
 441.24999999990
  20
 323.53356191406
  30
0.0
  11
 343.24999999990
  21
 323.53356191406
  31
0.0
   0
LINE
   5
50A
 100
AcDbEntity
   8
LEVEL002
 370
25
 100
AcDbLine
   6
CONTINUOUS
  62
1
  10
 343.24999999990
  20
 322.53356191406
  30
0.0
  11
 441.24999999990
  21
 322.53356191406
  31
0.0
   0
LINE
   5
50B
 100
AcDbEntity
   8
LEVEL002
 370
25
 100
AcDbLine
   6
CONTINUOUS
  62
1
  10
 198.74999999990
  20
 459.03356191404
  30
0.0
  11
 296.74999999990
  21
 459.03356191404
  31
0.0
   0
LINE
   5
50C
 100
AcDbEntity
   8
LEVEL002
 370
25
 100
AcDbLine
   6
CONTINUOUS
  62
1
  10
 198.74999999990
  20
 460.03356191404
  30
0.0
  11
 296.74999999990
  21
 460.03356191404
  31
0.0
   0
MTEXT
   5
50E
 100
AcDbEntity
   8
LEVEL002
 370
15
  62
8
 100
AcDbMText
  10
 758.99999999990
  20
 40.166666666690
  30
0.0
  40
 5.0000000000000
  41
0.0
  71
5
  72
1
   1
\T1.000000;パルステン敷居レール－Ｖ型
   7
GMM001
  44
 0.79999984000003
   0
MTEXT
   5
510
 100
AcDbEntity
   8
LEVEL002
 370
15
  62
8
 100
AcDbMText
  10
 700.22115562877
  20
 171.59954361476
  30
0.0
  40
 6.5000000000000
  41
0.0
  71
2
  72
1
   1
{\T1.000000;　※掲載は既製品のみでございます。}\P{\T1.000000;　　別注品に関しましてはお問い合わせお願い致します。　}\P{\T1.000000;　※本製品は予告無しに変更する事があります。}
   7
GMM001
  44
 0.79999984000003
   0
MTEXT
   5
512
 100
AcDbEntity
   8
LEVEL002
 370
15
  62
8
 100
AcDbMText
  10
 176.09999999990
  20
 150.50000000002
  30
0.0
  40
 6.0000000000000
  41
0.0
  71
4
  72
1
   1
\W1.000000;\T1.000000;　ＶＷ１００Ｍ\W0.500000;\T1.000000;(\W1.000000;\T1.000000;芯３９\W0.500000;\T1.000000;)
   7
GMM001
  44
 0.79999984000003
   0
MTEXT
   5
514
 100
AcDbEntity
   8
LEVEL002
 370
15
  62
8
 100
AcDbMText
  10
 774.43016912150
  20
 97.333333333360
  30
0.0
  40
 6.0000000000000
  41
0.0
  71
5
  72
1
   1
\T1.000000;令和　４年　１月１１日
   7
GMM003
  44
 0.79999984000003
   0
MTEXT
   5
516
 100
AcDbEntity
   8
LEVEL002
 370
15
  62
8
 100
AcDbMText
  10
 774.43016912150
  20
 84.000000000020
  30
0.0
  40
 6.0000000000000
  41
0.0
  71
5
  72
1
   1
\T1.000000;令和　　年　　月　　日
   7
GMM003
  44
 0.79999984000003
   0
MTEXT
   5
518
 100
AcDbEntity
   8
LEVEL002
 370
15
  62
8
 100
AcDbMText
  10
 774.43016912150
  20
 70.666666666690
  30
0.0
  40
 6.0000000000000
  41
0.0
  71
5
  72
1
   1
\T1.000000;令和　　年　　月　　日
   7
GMM003
  44
 0.79999984000003
   0
MTEXT
   5
51A
 100
AcDbEntity
   8
LEVEL002
 370
15
  62
8
 100
AcDbMText
  10
 608.99999999990
  20
 429.00000000000
  30
0.0
  40
 6.0000000000000
  41
0.0
  71
1
  72
1
   3
{\W1.000000;\T1.000000;仕様}\P{\W1.000000;\T1.000000;　材質：ステンレス製}\P{\W1.000000;\T1.000000;　　　　\W0.500000;\T1.000000;(\W1.000000;\T1.000000;ＳＵＳ３０４／\W0.500000;\T1.000000;t\W1.000000;\T1.000000;１\W0.500000;\T1.000000;.\W1.000000;\T1
   3
.000000;０\W0.500000;\T1.000000;)}\P{\W1.000000;\T1.000000;　仕上：ＨＬ}\P\P{\W1.000000;\T1.000000;　用途：Ｃ＝コンクリート用}\P{\W1.000000;\T1.000000;　　　　Ｍ＝木製用（注：アンカー無）}\P\P{\W1.000000;\T1.000000;　長さ（定尺）：１８２０\W0.500000;
   3
\T1.000000;mm}\P{\W1.000000;\T1.000000;　　　　　　　　２７３０\W0.500000;\T1.000000;mm}\P{\W1.000000;\T1.000000;　　　　　　　　３６４０\W0.500000;\T1.000000;mm}\P{\W1.000000;\T1.000000;　　　　　　　　２０００\W0.500000;\T1.000000;mm}\P{\W1.000000;
   1
\T1.000000;　　　　　　　　３０００\W0.500000;\T1.000000;mm}\P{\W1.000000;\T1.000000;　　　　　　　　４０００\W0.500000;\T1.000000;mm}\P{\W1.000000;\T1.000000;　　}
   7
GMM001
  44
 0.79999984000003
   0
MTEXT
   5
51C
 100
AcDbEntity
   8
LEVEL002
 370
15
  62
8
 100
AcDbMText
  10
 621.59999999990
  20
 506.00000000000
  30
0.0
  40
 6.0000000000000
  41
0.0
  71
5
  72
1
   1
\T1.000000;商品名：
   7
GMM001
  44
 0.79999984000003
   0
ENDSEC
  0
SECTION
  2
OBJECTS
  0
DICTIONARY
  5
C
100
AcDbDictionary
  3
ACAD_GROUP
350
D
  3
ACAD_MLINESTYLE
350
1B
  3
DWGPROPS
350
1C
  0
DICTIONARY
  5
D
102
{ACAD_REACTORS
330
C
102
}
100
AcDbDictionary
  0
DICTIONARY
  5
1B
102
{ACAD_REACTORS
330
C
102
}
100
AcDbDictionary
  3
STANDARD
350
1D
  0
MLINESTYLE
  5
1D
102
{ACAD_REACTORS
330
1B
102
}
100
AcDbMlineStyle
  2
STANDARD
 70
     0
  3

 62
   256
 51
90.0
 52
90.0
 71
     2
 49
0.5
 62
   256
  6
BYLAYER
 49
-0.5
 62
   256
  6
BYLAYER
   0
XRECORD
   5
1C
 102
{ACAD_REACTORS
 330
C
 102
}
 330
C
 100
AcDbXrecord
 280
1
   1
DWGPROPS COOKIE
   2
 
   3
 
   4
haruna
   6
 
   7
2-敷居ﾚｰﾙ(V型)
   8
haruna
   9

 300
 = 
 301
 = 
 302
 = 
 303
 = 
 304
 = 
 305
 = 
 306
 = 
 307
 = 
 308
 = 
 309
 = 
  40
0.0
  41
 2459590.5000000
  42
 2459970.5000000
   1

  90
10
   0
ENDSEC
   0
EOF
