   0
SECTION
   2
HEADER
   9
$ACADVER
   1
AC1015
   9
$DWGCODEPAGE
   3
ANSI_932
   9
$LIMMIN
  10
0.0
  20
0.0
   9
$LIMMAX
  10
 420.00000000000
  20
 297.00000000000
   9
$EXTMIN
  10
0.0
  20
0.0
  30
0.0
   9
$EXTMAX
  10
 420.00000000000
  20
 297.00000000000
  30
0.0
   9
$LTSCALE
  40
 8.4000000000000
   9
$HANDSEED
   5
450
   0
ENDSEC
   0
SECTION
   2
TABLES
  0
TABLE
  2
VPORT
  5
8
100
AcDbSymbolTable
 70
     1
  0
VPORT
  5
44F
100
AcDbSymbolTableRecord
100
AcDbViewportTableRecord
  2
*ACTIVE
 70
     0
 10
0.0
 20
0.0
 11
1.0
 21
1.0
  12
 210.00000000000
  22
 148.50000000000
 13
0.0
 23
0.0
 14
1.0
 24
1.0
 15
0.0
 25
0.0
 16
0.0
 26
0.0
 36
1.0
 17
0.0
 27
0.0
 37
0.0
  40
 420.00000000000
  41
 1.4787878787879
 42
50.0
 43
0.0
 44
0.0
 50
0.0
 51
0.0
 71
     0
 72
   100
 73
     1
 74
     1
 75
     0
 76
     0
 77
     0
 78
     0
  0
ENDTAB
  0
TABLE
  2
LTYPE
  5
5
100
AcDbSymbolTable
 70
    25
  0
LTYPE
  5
12
100
AcDbSymbolTableRecord
100
AcDbLinetypeTableRecord
  2
BYBLOCK
 70
     0
  3

 72
    65
 73
     0
 40
0.0
  0
LTYPE
  5
13
100
AcDbSymbolTableRecord
100
AcDbLinetypeTableRecord
  2
BYLAYER
 70
     0
  3

 72
    65
 73
     0
 40
0.0
  0
LTYPE
  5
14
100
AcDbSymbolTableRecord
100
AcDbLinetypeTableRecord
  2
CONTINUOUS
 70
     0
  3
Solid line
 72
    65
 73
     0
 40
0.0
  0
LTYPE
  5
20
100
AcDbSymbolTableRecord
100
AcDbLinetypeTableRecord
  2
BORDER
 70
     0
  3
__ __ . __ __ . __ __ . __ __ . __ __ . __ __ .
 72
    65
 73
     6
 40
1.75
 49
0.5
 74
     0
 49
-0.25
 74
     0
 49
0.5
 74
     0
 49
-0.25
 74
     0
 49
0.0
 74
     0
 49
-0.25
 74
     0
  0
LTYPE
  5
21
100
AcDbSymbolTableRecord
100
AcDbLinetypeTableRecord
  2
BORDER2
 70
     0
  3
__.__.__.__.__.__.__.__.__.__.__.__.__.__.__.__
 72
    65
 73
     6
 40
0.875
 49
0.25
 74
     0
 49
-0.125
 74
     0
 49
0.25
 74
     0
 49
-0.125
 74
     0
 49
0.0
 74
     0
 49
-0.125
 74
     0
  0
LTYPE
  5
22
100
AcDbSymbolTableRecord
100
AcDbLinetypeTableRecord
  2
BORDERX2
 70
     0
  3
____  ____  .  ____  ____  .  ____  ____  .  __
 72
    65
 73
     6
 40
3.5
 49
1.0
 74
     0
 49
-0.5
 74
     0
 49
1.0
 74
     0
 49
-0.5
 74
     0
 49
0.0
 74
     0
 49
-0.5
 74
     0
  0
LTYPE
  5
23
100
AcDbSymbolTableRecord
100
AcDbLinetypeTableRecord
  2
CENTER
 70
     0
  3
____ _ ____ _ ____ _ ____ _ ____ _ ____ _ ____ 
 72
    65
 73
     4
 40
2.0
 49
1.25
 74
     0
 49
-0.25
 74
     0
 49
0.25
 74
     0
 49
-0.25
 74
     0
  0
LTYPE
  5
24
100
AcDbSymbolTableRecord
100
AcDbLinetypeTableRecord
  2
CENTER2
 70
     0
  3
___ _ ___ _ ___ _ ___ _ ___ _ ___ _ ___ _ ___ _
 72
    65
 73
     4
 40
1.125
 49
0.75
 74
     0
 49
-0.125
 74
     0
 49
0.125
 74
     0
 49
-0.125
 74
     0
  0
LTYPE
  5
25
100
AcDbSymbolTableRecord
100
AcDbLinetypeTableRecord
  2
CENTERX2
 70
     0
  3
________  __  ________  __  ________  __  _____
 72
    65
 73
     4
 40
4.0
 49
2.5
 74
     0
 49
-0.5
 74
     0
 49
0.5
 74
     0
 49
-0.5
 74
     0
  0
LTYPE
  5
26
100
AcDbSymbolTableRecord
100
AcDbLinetypeTableRecord
  2
DASHDOT
 70
     0
  3
__ . __ . __ . __ . __ . __ . __ . __ . __ . __
 72
    65
 73
     4
 40
1.0
 49
0.5
 74
     0
 49
-0.25
 74
     0
 49
0.0
 74
     0
 49
-0.25
 74
     0
  0
LTYPE
  5
27
100
AcDbSymbolTableRecord
100
AcDbLinetypeTableRecord
  2
DASHDOT2
 70
     0
  3
_._._._._._._._._._._._._._._._._._._._._._._._
 72
    65
 73
     4
 40
0.5
 49
0.25
 74
     0
 49
-0.125
 74
     0
 49
0.0
 74
     0
 49
-0.125
 74
     0
  0
LTYPE
  5
28
100
AcDbSymbolTableRecord
100
AcDbLinetypeTableRecord
  2
DASHDOTX2
 70
     0
  3
____  .  ____  .  ____  .  ____  .  ____  .  __
 72
    65
 73
     4
 40
2.0
 49
1.0
 74
     0
 49
-0.5
 74
     0
 49
0.0
 74
     0
 49
-0.5
 74
     0
  0
LTYPE
  5
29
100
AcDbSymbolTableRecord
100
AcDbLinetypeTableRecord
  2
DASHED
 70
     0
  3
__ __ __ __ __ __ __ __ __ __ __ __ __ __ __ __
 72
    65
 73
     2
 40
0.75
 49
0.5
 74
     0
 49
-0.25
 74
     0
  0
LTYPE
  5
2A
100
AcDbSymbolTableRecord
100
AcDbLinetypeTableRecord
  2
DASHED2
 70
     0
  3
_ _ _ _ _ _ _ _ _ _ _ _ _ _ _ _ _ _ _ _ _ _ _ _
 72
    65
 73
     2
 40
0.375
 49
0.25
 74
     0
 49
-0.125
 74
     0
  0
LTYPE
  5
2B
100
AcDbSymbolTableRecord
100
AcDbLinetypeTableRecord
  2
DASHEDX2
 70
     0
  3
____  ____  ____  ____  ____  ____  ____  ____ 
 72
    65
 73
     2
 40
1.5
 49
1.0
 74
     0
 49
-0.5
 74
     0
  0
LTYPE
  5
2C
100
AcDbSymbolTableRecord
100
AcDbLinetypeTableRecord
  2
DIVIDE
 70
     0
  3
____ . . ____ . . ____ . . ____ . . ____ . . __
 72
    65
 73
     6
 40
1.25
 49
0.5
 74
     0
 49
-0.25
 74
     0
 49
0.0
 74
     0
 49
-0.25
 74
     0
 49
0.0
 74
     0
 49
-0.25
 74
     0
  0
LTYPE
  5
2D
100
AcDbSymbolTableRecord
100
AcDbLinetypeTableRecord
  2
DIVIDE2
 70
     0
  3
__..__..__..__..__..__..__..__..__..__..__..__.
 72
    65
 73
     6
 40
0.625
 49
0.25
 74
     0
 49
-0.125
 74
     0
 49
0.0
 74
     0
 49
-0.125
 74
     0
 49
0.0
 74
     0
 49
-0.125
 74
     0
  0
LTYPE
  5
2E
100
AcDbSymbolTableRecord
100
AcDbLinetypeTableRecord
  2
DIVIDEX2
 70
     0
  3
________  .  .  ________  .  .  ________  .  . 
 72
    65
 73
     6
 40
2.5
 49
1.0
 74
     0
 49
-0.5
 74
     0
 49
0.0
 74
     0
 49
-0.5
 74
     0
 49
0.0
 74
     0
 49
-0.5
 74
     0
  0
LTYPE
  5
2F
100
AcDbSymbolTableRecord
100
AcDbLinetypeTableRecord
  2
DOT
 70
     0
  3
. . . . . . . . . . . . . . . . . . . . . . . .
 72
    65
 73
     2
 40
0.25
 49
0.0
 74
     0
 49
-0.25
 74
     0
  0
LTYPE
  5
30
100
AcDbSymbolTableRecord
100
AcDbLinetypeTableRecord
  2
DOT2
 70
     0
  3
...............................................
 72
    65
 73
     2
 40
0.125
 49
0.0
 74
     0
 49
-0.125
 74
     0
  0
LTYPE
  5
31
100
AcDbSymbolTableRecord
100
AcDbLinetypeTableRecord
  2
DOTX2
 70
     0
  3
.  .  .  .  .  .  .  .  .  .  .  .  .  .  .  . 
 72
    65
 73
     2
 40
0.5
 49
0.0
 74
     0
 49
-0.5
 74
     0
  0
LTYPE
  5
32
100
AcDbSymbolTableRecord
100
AcDbLinetypeTableRecord
  2
HIDDEN
 70
     0
  3
__ __ __ __ __ __ __ __ __ __ __ __ __ __ __ __
 72
    65
 73
     2
 40
0.375
 49
0.25
 74
     0
 49
-0.125
 74
     0
  0
LTYPE
  5
33
100
AcDbSymbolTableRecord
100
AcDbLinetypeTableRecord
  2
HIDDEN2
 70
     0
  3
_ _ _ _ _ _ _ _ _ _ _ _ _ _ _ _ _ _ _ _ _ _ _ _
 72
    65
 73
     2
 40
0.1875
 49
0.125
 74
     0
 49
-0.0625
 74
     0
  0
LTYPE
  5
34
100
AcDbSymbolTableRecord
100
AcDbLinetypeTableRecord
  2
HIDDENX2
 70
     0
  3
____ ____ ____ ____ ____ ____ ____ ____ ____ __
 72
    65
 73
     2
 40
0.75
 49
0.5
 74
     0
 49
-0.25
 74
     0
  0
LTYPE
  5
35
100
AcDbSymbolTableRecord
100
AcDbLinetypeTableRecord
  2
PHANTOM
 70
     0
  3
______  __  __  ______  __  __  ______  __  __ 
 72
    65
 73
     6
 40
2.5
 49
1.25
 74
     0
 49
-0.25
 74
     0
 49
0.25
 74
     0
 49
-0.25
 74
     0
 49
0.25
 74
     0
 49
-0.25
 74
     0
  0
LTYPE
  5
36
100
AcDbSymbolTableRecord
100
AcDbLinetypeTableRecord
  2
PHANTOM2
 70
     0
  3
___ _ _ ___ _ _ ___ _ _ ___ _ _ ___ _ _ ___ _ _
 72
    65
 73
     6
 40
1.25
 49
0.625
 74
     0
 49
-0.125
 74
     0
 49
0.125
 74
     0
 49
-0.125
 74
     0
 49
0.125
 74
     0
 49
-0.125
 74
     0
  0
LTYPE
  5
37
100
AcDbSymbolTableRecord
100
AcDbLinetypeTableRecord
  2
PHANTOMX2
 70
     0
  3
____________    ____    ____    ____________   
 72
    65
 73
     6
 40
5.0
 49
2.5
 74
     0
 49
-0.5
 74
     0
 49
0.5
 74
     0
 49
-0.5
 74
     0
 49
0.5
 74
     0
 49
-0.5
 74
     0
  0
ENDTAB
   0
TABLE
   2
LAYER
   5
2
 100
AcDbSymbolTable
  70
8
   0
LAYER
   5
E
 100
AcDbSymbolTableRecord
 100
AcDbLayerTableRecord
   2
0
  70
0
  62
7
   6
CONTINUOUS
 390
30
   0
LAYER
   5
39
 100
AcDbSymbolTableRecord
 100
AcDbLayerTableRecord
   2
LEVEL001
  70
0
  62
7
   6
CONTINUOUS
 390
30
   0
LAYER
   5
3A
 100
AcDbSymbolTableRecord
 100
AcDbLayerTableRecord
   2
LEVEL004
  70
0
  62
7
   6
CONTINUOUS
 390
30
   0
LAYER
   5
3B
 100
AcDbSymbolTableRecord
 100
AcDbLayerTableRecord
   2
LEVEL005
  70
0
  62
7
   6
CONTINUOUS
 390
30
   0
LAYER
   5
3C
 100
AcDbSymbolTableRecord
 100
AcDbLayerTableRecord
   2
LEVEL006
  70
0
  62
7
   6
CONTINUOUS
 390
30
   0
LAYER
   5
3D
 100
AcDbSymbolTableRecord
 100
AcDbLayerTableRecord
   2
LEVEL007
  70
0
  62
7
   6
CONTINUOUS
 390
30
   0
LAYER
   5
3E
 100
AcDbSymbolTableRecord
 100
AcDbLayerTableRecord
   2
LEVEL011
  70
0
  62
7
   6
CONTINUOUS
 390
30
   0
LAYER
   5
3F
 100
AcDbSymbolTableRecord
 100
AcDbLayerTableRecord
   2
LEVEL012
  70
0
  62
7
   6
CONTINUOUS
 390
30
   0
ENDTAB
  0
TABLE
  2
STYLE
  5
3
100
AcDbSymbolTable
  70
6
  0
STYLE
  5
F
100
AcDbSymbolTableRecord
100
AcDbTextStyleTableRecord
  2
STANDARD
 70
     0
 40
0.0
 41
1.0
 50
0.0
 71
     0
 42
0.2
  3
TXT
  4
BIGFONT
  0
STYLE
  5
38
100
AcDbSymbolTableRecord
100
AcDbTextStyleTableRecord
  2
STANDARD1
 70
     4
 40
0.0
 41
1.0
 50
0.0
 71
     0
 42
0.2
  3
TXT
  4
BIGFONT
   0
STYLE
   5
40
 100
AcDbSymbolTableRecord
 100
AcDbTextStyleTableRecord
   2
GMM001
  70
0
  40
0.0
  41
 0.80000000000000
  50
0.0
  71
     0
  42
1.0
   3
txt.shx
   4
bigfont.shx
   0
STYLE
   5
41
 100
AcDbSymbolTableRecord
 100
AcDbTextStyleTableRecord
   2
GMM002
  70
0
  40
0.0
  41
 1.0000000000000
  50
0.0
  71
     0
  42
1.0
   3
txt.shx
   4
bigfont.shx
   0
STYLE
   5
42
 100
AcDbSymbolTableRecord
 100
AcDbTextStyleTableRecord
   2
GMM003
  70
0
  40
0.0
  41
 1.0714285714286
  50
0.0
  71
     0
  42
1.0
   3
txt.shx
   4
bigfont.shx
   0
STYLE
   5
43
 100
AcDbSymbolTableRecord
 100
AcDbTextStyleTableRecord
   2
GMM004
  70
0
  40
0.0
  41
 0.88888888888889
  50
0.0
  71
     0
  42
1.0
   3
txt.shx
   4
bigfont.shx
   0
ENDTAB
  0
TABLE
  2
VIEW
  5
6
100
AcDbSymbolTable
 70
     0
  0
ENDTAB
  0
TABLE
  2
UCS
  5
7
100
AcDbSymbolTable
 70
     0
  0
ENDTAB
  0
TABLE
  2
APPID
  5
9
100
AcDbSymbolTable
 70
     1
  0
APPID
  5
10
100
AcDbSymbolTableRecord
100
AcDbRegAppTableRecord
  2
ACAD
 70
     0
  0
ENDTAB
   0
TABLE
   2
DIMSTYLE
   5
A
 100
AcDbSymbolTable
  70
13
 100
AcDbDimStyleTable
  0
DIMSTYLE
105
1D
100
AcDbSymbolTableRecord
100
AcDbDimStyleTableRecord
  2
STANDARD
 70
     0
  3

  4

  5

  6

  7

 40
1.0
 41
0.18
 42
0.0625
 43
0.38
 44
0.18
 45
0.0
 46
0.0
 47
0.0
 48
0.0
140
0.18
141
0.09
142
0.0
143
25.4
144
1.0
145
0.0
146
1.0
147
0.09
 71
     0
 72
     0
 73
     1
 74
     1
 75
     0
 76
     0
 77
     0
 78
     0
170
     0
171
     2
172
     0
173
     0
174
     0
175
     0
176
     0
177
     0
178
     0
270
     2
271
     4
272
     4
273
     2
274
     2
340
F
275
     0
280
     0
281
     0
282
     0
283
     1
284
     0
285
     0
286
     0
287
     3
288
     0
   0
DIMSTYLE
 105
44
 100
AcDbSymbolTableRecord
 100
AcDbDimStyleTableRecord
   2
GMM001
  70
0
   3

   4

   5

   6

   7

  40
 1.0000000000000
  41
 2.0000000000000
  42
 1.0000000000000
  43
 8.0000000000000
  44
 1.0000000000000
  45
0.0
  46
0.0
  47
0.0
  48
0.0
 140
 3.0000000000000
 141
 1.0000000000000
 142
0.0
 143
 0.39400000000000E-1
 144
 1.0000000000000
 145
0.0
 146
 0.83333333333333
 147
 1.0000000000000
  71
0
  72
0
  73
0
  74
0
  75
0
  76
0
  77
3
  78
8
 170
0
 171
2
 172
1
 173
1
 174
0
 175
0
 176
8
 177
8
 178
8
 270
2
 271
6
 272
0
 273
2
 274
2
 340
41
 275
1
 280
0
 281
0
 282
0
 283
1
 284
0
 285
0
 286
0
 287
3
 288
0
   0
DIMSTYLE
 105
45
 100
AcDbSymbolTableRecord
 100
AcDbDimStyleTableRecord
   2
GMM002
  70
0
   3

   4

   5

   6
_NONE
   7

  40
 1.0000000000000
  41
 2.0000000000000
  42
 1.0000000000000
  43
 8.0000000000000
  44
 1.0000000000000
  45
0.0
  46
0.0
  47
0.0
  48
0.0
 140
 3.0000000000000
 141
 1.0000000000000
 142
0.0
 143
 0.39400000000000E-1
 144
 1.0000000000000
 145
0.0
 146
 0.83333333333333
 147
 1.0104301240985
  71
0
  72
0
  73
0
  74
0
  75
0
  76
0
  77
3
  78
8
 170
0
 171
2
 172
1
 173
1
 174
0
 175
0
 176
8
 177
8
 178
8
 270
2
 271
6
 272
0
 273
2
 274
2
 340
41
 275
1
 280
0
 281
0
 282
0
 283
1
 284
0
 285
0
 286
0
 287
3
 288
1
   0
DIMSTYLE
 105
46
 100
AcDbSymbolTableRecord
 100
AcDbDimStyleTableRecord
   2
GMM003
  70
0
   3

   4

   5

   6

   7

  40
 1.0000000000000
  41
 2.0000000000000
  42
 1.0000000000000
  43
 8.0000000000000
  44
 1.0000000000000
  45
0.0
  46
0.0
  47
0.0
  48
0.0
 140
 3.0000000000000
 141
 1.0000000000000
 142
0.0
 143
 0.39400000000000E-1
 144
 1.0000000000000
 145
0.0
 146
 0.83333333333333
 147
 1.0875842451487
  71
0
  72
0
  73
0
  74
0
  75
0
  76
0
  77
3
  78
8
 170
0
 171
2
 172
1
 173
1
 174
0
 175
0
 176
8
 177
8
 178
8
 270
2
 271
6
 272
0
 273
2
 274
2
 340
41
 275
1
 280
0
 281
0
 282
0
 283
1
 284
0
 285
0
 286
0
 287
3
 288
1
   0
DIMSTYLE
 105
47
 100
AcDbSymbolTableRecord
 100
AcDbDimStyleTableRecord
   2
GMM004
  70
0
   3

   4

   5

   6

   7

  40
 1.0000000000000
  41
 2.0000000000000
  42
 1.0000000000000
  43
 8.0000000000000
  44
 1.0000000000000
  45
0.0
  46
0.0
  47
0.0
  48
0.0
 140
 3.0000000000000
 141
 1.0000000000000
 142
0.0
 143
 0.39400000000000E-1
 144
 1.0000000000000
 145
0.0
 146
 0.83333333333333
 147
 1.0000000000000
  71
0
  72
0
  73
0
  74
0
  75
0
  76
0
  77
3
  78
0
 170
0
 171
2
 172
1
 173
1
 174
0
 175
0
 176
8
 177
8
 178
8
 270
2
 271
0
 272
0
 273
2
 274
2
 340
41
 275
1
 280
0
 281
0
 282
0
 283
1
 284
0
 285
0
 286
0
 287
3
 288
0
   0
DIMSTYLE
 105
48
 100
AcDbSymbolTableRecord
 100
AcDbDimStyleTableRecord
   2
GMM005
  70
0
   3

   4

   5

   6

   7

  40
 1.0000000000000
  41
 2.0000000000000
  42
 1.0000000000000
  43
 8.0000000000000
  44
 1.0000000000000
  45
0.0
  46
0.0
  47
0.0
  48
0.0
 140
 3.0000000000000
 141
 1.0000000000000
 142
0.0
 143
 0.39400000000000E-1
 144
 1.0000000000000
 145
0.0
 146
 0.83333333333333
 147
 1.0000000000000
  71
0
  72
0
  73
0
  74
0
  75
0
  76
0
  77
3
  78
8
 170
0
 171
2
 172
1
 173
1
 174
0
 175
0
 176
8
 177
8
 178
8
 270
2
 271
6
 272
0
 273
2
 274
2
 340
41
 275
1
 280
0
 281
0
 282
0
 283
1
 284
0
 285
0
 286
0
 287
3
 288
0
   0
DIMSTYLE
 105
49
 100
AcDbSymbolTableRecord
 100
AcDbDimStyleTableRecord
   2
GMM006
  70
0
   3
R<>
   4

   5

   6
_NONE
   7

  40
 1.0000000000000
  41
 2.0000000000000
  42
 1.0000000000000
  43
 8.0000000000000
  44
 1.0000000000000
  45
0.0
  46
0.0
  47
0.0
  48
0.0
 140
 3.0000000000000
 141
 1.0000000000000
 142
0.0
 143
 0.39400000000000E-1
 144
 1.0000000000000
 145
0.0
 146
 0.83333333333333
 147
 1.0000000000000
  71
0
  72
0
  73
0
  74
0
  75
0
  76
0
  77
3
  78
8
 170
0
 171
2
 172
1
 173
1
 174
0
 175
0
 176
8
 177
8
 178
8
 270
2
 271
6
 272
0
 273
2
 274
2
 340
41
 275
1
 280
0
 281
0
 282
0
 283
1
 284
0
 285
0
 286
0
 287
3
 288
1
   0
DIMSTYLE
 105
4A
 100
AcDbSymbolTableRecord
 100
AcDbDimStyleTableRecord
   2
GMM007
  70
0
   3

   4

   5

   6

   7
_NONE
  40
 1.0000000000000
  41
 2.0000000000000
  42
 1.0000000000000
  43
 8.0000000000000
  44
 1.0000000000000
  45
0.0
  46
0.0
  47
0.0
  48
0.0
 140
 3.0000000000000
 141
 1.0000000000000
 142
0.0
 143
 0.39400000000000E-1
 144
 1.0000000000000
 145
0.0
 146
 0.83333333333333
 147
 0.98323984980250
  71
0
  72
0
  73
0
  74
0
  75
0
  76
0
  77
3
  78
8
 170
0
 171
2
 172
1
 173
1
 174
0
 175
0
 176
8
 177
8
 178
8
 270
2
 271
6
 272
0
 273
2
 274
2
 340
41
 275
1
 280
0
 281
0
 282
0
 283
1
 284
0
 285
0
 286
0
 287
3
 288
1
   0
DIMSTYLE
 105
4B
 100
AcDbSymbolTableRecord
 100
AcDbDimStyleTableRecord
   2
GMM008
  70
0
   3

   4

   5

   6
_DOT
   7

  40
 1.0000000000000
  41
 2.0000000000000
  42
 1.0000000000000
  43
 8.0000000000000
  44
 1.0000000000000
  45
0.0
  46
0.0
  47
0.0
  48
0.0
 140
 3.0000000000000
 141
 1.0000000000000
 142
0.0
 143
 0.39400000000000E-1
 144
 1.0000000000000
 145
0.0
 146
 0.83333333333333
 147
 0.95104963489624
  71
0
  72
0
  73
0
  74
0
  75
0
  76
0
  77
3
  78
8
 170
0
 171
2
 172
1
 173
1
 174
0
 175
0
 176
8
 177
8
 178
8
 270
2
 271
6
 272
0
 273
2
 274
2
 340
41
 275
1
 280
0
 281
0
 282
0
 283
1
 284
0
 285
0
 286
0
 287
3
 288
1
   0
DIMSTYLE
 105
4C
 100
AcDbSymbolTableRecord
 100
AcDbDimStyleTableRecord
   2
GMM009
  70
0
   3

   4

   5

   6

   7

  40
 1.0000000000000
  41
 2.0000000000000
  42
 1.0000000000000
  43
 8.0000000000000
  44
 1.0000000000000
  45
0.0
  46
0.0
  47
0.0
  48
0.0
 140
 3.0000000000000
 141
 1.0000000000000
 142
0.0
 143
 0.39400000000000E-1
 144
 1.0000000000000
 145
0.0
 146
 0.83333333333333
 147
 0.96934763543142
  71
0
  72
0
  73
0
  74
0
  75
0
  76
0
  77
3
  78
8
 170
0
 171
2
 172
1
 173
1
 174
0
 175
0
 176
8
 177
8
 178
8
 270
2
 271
6
 272
0
 273
2
 274
2
 340
41
 275
1
 280
0
 281
0
 282
0
 283
1
 284
0
 285
0
 286
0
 287
3
 288
1
   0
DIMSTYLE
 105
4D
 100
AcDbSymbolTableRecord
 100
AcDbDimStyleTableRecord
   2
GMM010
  70
0
   3
扉厚<>
   4

   5

   6

   7

  40
 1.0000000000000
  41
 2.0000000000000
  42
 1.0000000000000
  43
 8.0000000000000
  44
0.0
  45
0.0
  46
0.0
  47
0.0
  48
0.0
 140
 3.0000000000000
 141
 1.0000000000000
 142
0.0
 143
 0.39400000000000E-1
 144
 1.0000000000000
 145
0.0
 146
 0.83333333333333
 147
 1.0000000000000
  71
0
  72
0
  73
0
  74
0
  75
1
  76
1
  77
3
  78
8
 170
0
 171
2
 172
1
 173
1
 174
0
 175
0
 176
8
 177
8
 178
8
 270
2
 271
6
 272
0
 273
2
 274
2
 340
41
 275
1
 280
0
 281
0
 282
0
 283
1
 284
0
 285
0
 286
0
 287
3
 288
0
   0
DIMSTYLE
 105
4E
 100
AcDbSymbolTableRecord
 100
AcDbDimStyleTableRecord
   2
GMM011
  70
0
   3

   4

   5

   6

   7

  40
 1.0000000000000
  41
 2.0000000000000
  42
 1.0000000000000
  43
 8.0000000000000
  44
 1.0000000000000
  45
0.0
  46
0.0
  47
0.0
  48
0.0
 140
 3.0000000000000
 141
 1.0000000000000
 142
0.0
 143
 0.39400000000000E-1
 144
 1.0000000000000
 145
0.0
 146
 0.83333333333333
 147
0.0
  71
0
  72
0
  73
0
  74
0
  75
0
  76
0
  77
1
  78
8
 170
0
 171
2
 172
1
 173
1
 174
0
 175
0
 176
8
 177
8
 178
8
 270
2
 271
6
 272
0
 273
2
 274
2
 340
41
 275
1
 280
0
 281
0
 282
0
 283
1
 284
0
 285
0
 286
0
 287
3
 288
0
   0
ENDTAB
  0
TABLE
  2
BLOCK_RECORD
  5
1
100
AcDbSymbolTable
 70
     0
  0
BLOCK_RECORD
  5
18
100
AcDbSymbolTableRecord
100
AcDbBlockTableRecord
  2
*MODEL_SPACE
  0
BLOCK_RECORD
  5
15
100
AcDbSymbolTableRecord
100
AcDbBlockTableRecord
  2
*PAPER_SPACE
   0
BLOCK_RECORD
   5
4F
 100
AcDbSymbolTableRecord
 100
AcDbBlockTableRecord
   2
*D1
   0
BLOCK_RECORD
   5
50
 100
AcDbSymbolTableRecord
 100
AcDbBlockTableRecord
   2
*D2
   0
BLOCK_RECORD
   5
51
 100
AcDbSymbolTableRecord
 100
AcDbBlockTableRecord
   2
*D3
   0
BLOCK_RECORD
   5
52
 100
AcDbSymbolTableRecord
 100
AcDbBlockTableRecord
   2
*D4
   0
BLOCK_RECORD
   5
53
 100
AcDbSymbolTableRecord
 100
AcDbBlockTableRecord
   2
*D5
   0
BLOCK_RECORD
   5
54
 100
AcDbSymbolTableRecord
 100
AcDbBlockTableRecord
   2
*D6
   0
BLOCK_RECORD
   5
55
 100
AcDbSymbolTableRecord
 100
AcDbBlockTableRecord
   2
*D7
   0
BLOCK_RECORD
   5
56
 100
AcDbSymbolTableRecord
 100
AcDbBlockTableRecord
   2
*D8
   0
BLOCK_RECORD
   5
57
 100
AcDbSymbolTableRecord
 100
AcDbBlockTableRecord
   2
*D9
   0
BLOCK_RECORD
   5
58
 100
AcDbSymbolTableRecord
 100
AcDbBlockTableRecord
   2
*D10
   0
BLOCK_RECORD
   5
59
 100
AcDbSymbolTableRecord
 100
AcDbBlockTableRecord
   2
*D11
   0
BLOCK_RECORD
   5
5A
 100
AcDbSymbolTableRecord
 100
AcDbBlockTableRecord
   2
*D12
   0
BLOCK_RECORD
   5
5B
 100
AcDbSymbolTableRecord
 100
AcDbBlockTableRecord
   2
*D13
   0
BLOCK_RECORD
   5
5C
 100
AcDbSymbolTableRecord
 100
AcDbBlockTableRecord
   2
*D14
   0
BLOCK_RECORD
   5
5D
 100
AcDbSymbolTableRecord
 100
AcDbBlockTableRecord
   2
*D15
   0
BLOCK_RECORD
   5
5E
 100
AcDbSymbolTableRecord
 100
AcDbBlockTableRecord
   2
*D16
   0
BLOCK_RECORD
   5
5F
 100
AcDbSymbolTableRecord
 100
AcDbBlockTableRecord
   2
*D17
   0
BLOCK_RECORD
   5
60
 100
AcDbSymbolTableRecord
 100
AcDbBlockTableRecord
   2
*D18
   0
BLOCK_RECORD
   5
61
 100
AcDbSymbolTableRecord
 100
AcDbBlockTableRecord
   2
*D19
   0
BLOCK_RECORD
   5
62
 100
AcDbSymbolTableRecord
 100
AcDbBlockTableRecord
   2
*D20
   0
BLOCK_RECORD
   5
63
 100
AcDbSymbolTableRecord
 100
AcDbBlockTableRecord
   2
*D21
   0
BLOCK_RECORD
   5
64
 100
AcDbSymbolTableRecord
 100
AcDbBlockTableRecord
   2
*D22
   0
BLOCK_RECORD
   5
65
 100
AcDbSymbolTableRecord
 100
AcDbBlockTableRecord
   2
*D23
   0
BLOCK_RECORD
   5
66
 100
AcDbSymbolTableRecord
 100
AcDbBlockTableRecord
   2
*D24
   0
BLOCK_RECORD
   5
67
 100
AcDbSymbolTableRecord
 100
AcDbBlockTableRecord
   2
*D25
   0
BLOCK_RECORD
   5
68
 100
AcDbSymbolTableRecord
 100
AcDbBlockTableRecord
   2
*D26
   0
BLOCK_RECORD
   5
69
 100
AcDbSymbolTableRecord
 100
AcDbBlockTableRecord
   2
*D27
   0
BLOCK_RECORD
   5
6A
 100
AcDbSymbolTableRecord
 100
AcDbBlockTableRecord
   2
*D28
   0
BLOCK_RECORD
   5
6B
 100
AcDbSymbolTableRecord
 100
AcDbBlockTableRecord
   2
*D29
   0
BLOCK_RECORD
   5
6C
 100
AcDbSymbolTableRecord
 100
AcDbBlockTableRecord
   2
*D30
   0
BLOCK_RECORD
   5
6D
 100
AcDbSymbolTableRecord
 100
AcDbBlockTableRecord
   2
*D31
   0
BLOCK_RECORD
   5
6E
 100
AcDbSymbolTableRecord
 100
AcDbBlockTableRecord
   2
_ARCHTICK
   0
BLOCK_RECORD
   5
6F
 100
AcDbSymbolTableRecord
 100
AcDbBlockTableRecord
   2
_BOXBLANK
   0
BLOCK_RECORD
   5
70
 100
AcDbSymbolTableRecord
 100
AcDbBlockTableRecord
   2
_BOXFILLED
   0
BLOCK_RECORD
   5
71
 100
AcDbSymbolTableRecord
 100
AcDbBlockTableRecord
   2
_CLOSED
   0
BLOCK_RECORD
   5
72
 100
AcDbSymbolTableRecord
 100
AcDbBlockTableRecord
   2
_CLOSEDBLANK
   0
BLOCK_RECORD
   5
73
 100
AcDbSymbolTableRecord
 100
AcDbBlockTableRecord
   2
_DATUMBLANK
   0
BLOCK_RECORD
   5
74
 100
AcDbSymbolTableRecord
 100
AcDbBlockTableRecord
   2
_DATUMFILLED
   0
BLOCK_RECORD
   5
75
 100
AcDbSymbolTableRecord
 100
AcDbBlockTableRecord
   2
_DOT
   0
BLOCK_RECORD
   5
76
 100
AcDbSymbolTableRecord
 100
AcDbBlockTableRecord
   2
_DOTBLANK
   0
BLOCK_RECORD
   5
77
 100
AcDbSymbolTableRecord
 100
AcDbBlockTableRecord
   2
_DOTSMALL
   0
BLOCK_RECORD
   5
78
 100
AcDbSymbolTableRecord
 100
AcDbBlockTableRecord
   2
_INTEGRAL
   0
BLOCK_RECORD
   5
79
 100
AcDbSymbolTableRecord
 100
AcDbBlockTableRecord
   2
_NONE
   0
BLOCK_RECORD
   5
7A
 100
AcDbSymbolTableRecord
 100
AcDbBlockTableRecord
   2
_OBLIQUE
   0
BLOCK_RECORD
   5
7B
 100
AcDbSymbolTableRecord
 100
AcDbBlockTableRecord
   2
_OPEN
   0
BLOCK_RECORD
   5
7C
 100
AcDbSymbolTableRecord
 100
AcDbBlockTableRecord
   2
_OPEN30
   0
BLOCK_RECORD
   5
7D
 100
AcDbSymbolTableRecord
 100
AcDbBlockTableRecord
   2
_OPEN90
   0
BLOCK_RECORD
   5
7E
 100
AcDbSymbolTableRecord
 100
AcDbBlockTableRecord
   2
_ORIGIN
   0
ENDTAB
   0
ENDSEC
  0
SECTION
  2
BLOCKS
  0
BLOCK
  5
19
100
AcDbEntity
  8
0
100
AcDbBlockBegin
  2
*MODEL_SPACE
 70
     0
 10
0.0
 20
0.0
 30
0.0
  3
*MODEL_SPACE
  1

  0
ENDBLK
  5
1A
100
AcDbEntity
  8
0
100
AcDbBlockEnd
  0
BLOCK
  5
16
100
AcDbEntity
 67
     1
  8
0
100
AcDbBlockBegin
  2
*PAPER_SPACE
 70
     0
 10
0.0
 20
0.0
 30
0.0
  3
*PAPER_SPACE
  1

  0
ENDBLK
  5
17
100
AcDbEntity
 67
     1
  8
0
100
AcDbBlockEnd
   0
BLOCK
   5
7F
 100
AcDbEntity
   8
0
 100
AcDbBlockBegin
   2
_ARCHTICK
  70
0
  10
0.0
  20
0.0
  30
0.0
   3
_ARCHTICK
   0
POLYLINE
   5
80
 100
AcDbEntity
   8
0
 370
-2
   6
BYBLOCK
  62
0
 100
AcDb2dPolyline
  66
1
  10
0.0
  20
0.0
  30
0.0
  70
1
  40
 0.15000000000000
  41
 0.15000000000000
   0
VERTEX
   5
81
 100
AcDbEntity
   8
0
   6
BYBLOCK
  62
0
 100
AcDbVertex
 100
AcDb2dVertex
  10
-0.50000000000000
  20
-0.50000000000000
  30
0.0
  40
 0.15000000000000
  41
 0.15000000000000
   0
VERTEX
   5
82
 100
AcDbEntity
   8
0
   6
BYBLOCK
  62
0
 100
AcDbVertex
 100
AcDb2dVertex
  10
 0.50000000000000
  20
 0.50000000000000
  30
0.0
  40
 0.15000000000000
  41
 0.15000000000000
   0
SEQEND
   5
83
 100
AcDbEntity
   8
0
   6
BYBLOCK
  62
0
   0
ENDBLK
   5
84
 100
AcDbEntity
   8
0
 100
AcDbBlockEnd
   0
BLOCK
   5
85
 100
AcDbEntity
   8
0
 100
AcDbBlockBegin
   2
_OBLIQUE
  70
0
  10
0.0
  20
0.0
  30
0.0
   3
_OBLIQUE
   0
LINE
   5
86
 100
AcDbEntity
   8
0
 370
-2
 100
AcDbLine
   6
BYBLOCK
  62
0
  10
-0.50000000000000
  20
-0.50000000000000
  30
0.0
  11
 0.50000000000000
  21
 0.50000000000000
  31
0.0
   0
ENDBLK
   5
87
 100
AcDbEntity
   8
0
 100
AcDbBlockEnd
   0
BLOCK
   5
88
 100
AcDbEntity
   8
0
 100
AcDbBlockBegin
   2
_BOXBLANK
  70
0
  10
0.0
  20
0.0
  30
0.0
   3
_BOXBLANK
   0
LINE
   5
89
 100
AcDbEntity
   8
0
 370
-2
 100
AcDbLine
   6
BYBLOCK
  62
0
  10
-0.50000000000000
  20
-0.50000000000000
  30
0.0
  11
 0.50000000000000
  21
-0.50000000000000
  31
0.0
   0
LINE
   5
8A
 100
AcDbEntity
   8
0
 370
-2
 100
AcDbLine
   6
BYBLOCK
  62
0
  10
 0.50000000000000
  20
-0.50000000000000
  30
0.0
  11
 0.50000000000000
  21
 0.50000000000000
  31
0.0
   0
LINE
   5
8B
 100
AcDbEntity
   8
0
 370
-2
 100
AcDbLine
   6
BYBLOCK
  62
0
  10
 0.50000000000000
  20
 0.50000000000000
  30
0.0
  11
-0.50000000000000
  21
 0.50000000000000
  31
0.0
   0
LINE
   5
8C
 100
AcDbEntity
   8
0
 370
-2
 100
AcDbLine
   6
BYBLOCK
  62
0
  10
-0.50000000000000
  20
 0.50000000000000
  30
0.0
  11
-0.50000000000000
  21
-0.50000000000000
  31
0.0
   0
LINE
   5
8D
 100
AcDbEntity
   8
0
 370
-2
 100
AcDbLine
   6
BYBLOCK
  62
0
  10
-0.50000000000000
  20
0.0
  30
0.0
  11
-1.0000000000000
  21
0.0
  31
0.0
   0
ENDBLK
   5
8E
 100
AcDbEntity
   8
0
 100
AcDbBlockEnd
   0
BLOCK
   5
8F
 100
AcDbEntity
   8
0
 100
AcDbBlockBegin
   2
_BOXFILLED
  70
0
  10
0.0
  20
0.0
  30
0.0
   3
_BOXFILLED
   0
SOLID
   5
90
 100
AcDbEntity
   8
0
 100
AcDbTrace
   6
BYBLOCK
  62
0
  10
-0.50000000000000
  20
 0.50000000000000
  30
0.0
  11
 0.50000000000000
  21
 0.50000000000000
  31
0.0
  12
-0.50000000000000
  22
-0.50000000000000
  32
0.0
  13
 0.50000000000000
  23
-0.50000000000000
  33
0.0
   0
LINE
   5
91
 100
AcDbEntity
   8
0
 370
-2
 100
AcDbLine
   6
BYBLOCK
  62
0
  10
-0.50000000000000
  20
0.0
  30
0.0
  11
-1.0000000000000
  21
0.0
  31
0.0
   0
ENDBLK
   5
92
 100
AcDbEntity
   8
0
 100
AcDbBlockEnd
   0
BLOCK
   5
93
 100
AcDbEntity
   8
0
 100
AcDbBlockBegin
   2
_CLOSED
  70
0
  10
0.0
  20
0.0
  30
0.0
   3
_CLOSED
   0
LINE
   5
94
 100
AcDbEntity
   8
0
 370
-2
 100
AcDbLine
   6
BYBLOCK
  62
0
  10
-1.0000000000000
  20
 0.16666666666667
  30
0.0
  11
0.0
  21
0.0
  31
0.0
   0
LINE
   5
95
 100
AcDbEntity
   8
0
 370
-2
 100
AcDbLine
   6
BYBLOCK
  62
0
  10
0.0
  20
0.0
  30
0.0
  11
-1.0000000000000
  21
-0.16666666666667
  31
0.0
   0
LINE
   5
96
 100
AcDbEntity
   8
0
 370
-2
 100
AcDbLine
   6
BYBLOCK
  62
0
  10
-1.0000000000000
  20
 0.16666666666667
  30
0.0
  11
-1.0000000000000
  21
-0.16666666666667
  31
0.0
   0
LINE
   5
97
 100
AcDbEntity
   8
0
 370
-2
 100
AcDbLine
   6
BYBLOCK
  62
0
  10
0.0
  20
0.0
  30
0.0
  11
-1.0000000000000
  21
0.0
  31
0.0
   0
ENDBLK
   5
98
 100
AcDbEntity
   8
0
 100
AcDbBlockEnd
   0
BLOCK
   5
99
 100
AcDbEntity
   8
0
 100
AcDbBlockBegin
   2
_OPEN
  70
0
  10
0.0
  20
0.0
  30
0.0
   3
_OPEN
   0
LINE
   5
9A
 100
AcDbEntity
   8
0
 370
-2
 100
AcDbLine
   6
BYBLOCK
  62
0
  10
-1.0000000000000
  20
 0.16666666666667
  30
0.0
  11
0.0
  21
0.0
  31
0.0
   0
LINE
   5
9B
 100
AcDbEntity
   8
0
 370
-2
 100
AcDbLine
   6
BYBLOCK
  62
0
  10
0.0
  20
0.0
  30
0.0
  11
-1.0000000000000
  21
-0.16666666666667
  31
0.0
   0
LINE
   5
9C
 100
AcDbEntity
   8
0
 370
-2
 100
AcDbLine
   6
BYBLOCK
  62
0
  10
0.0
  20
0.0
  30
0.0
  11
-1.0000000000000
  21
0.0
  31
0.0
   0
ENDBLK
   5
9D
 100
AcDbEntity
   8
0
 100
AcDbBlockEnd
   0
BLOCK
   5
9E
 100
AcDbEntity
   8
0
 100
AcDbBlockBegin
   2
_OPEN30
  70
0
  10
0.0
  20
0.0
  30
0.0
   3
_OPEN30
   0
LINE
   5
9F
 100
AcDbEntity
   8
0
 370
-2
 100
AcDbLine
   6
BYBLOCK
  62
0
  10
-1.0000000000000
  20
 0.26794919243110
  30
0.0
  11
0.0
  21
0.0
  31
0.0
   0
LINE
   5
A0
 100
AcDbEntity
   8
0
 370
-2
 100
AcDbLine
   6
BYBLOCK
  62
0
  10
0.0
  20
0.0
  30
0.0
  11
-1.0000000000000
  21
-0.26794919243110
  31
0.0
   0
LINE
   5
A1
 100
AcDbEntity
   8
0
 370
-2
 100
AcDbLine
   6
BYBLOCK
  62
0
  10
0.0
  20
0.0
  30
0.0
  11
-1.0000000000000
  21
0.0
  31
0.0
   0
ENDBLK
   5
A2
 100
AcDbEntity
   8
0
 100
AcDbBlockEnd
   0
BLOCK
   5
A3
 100
AcDbEntity
   8
0
 100
AcDbBlockBegin
   2
_OPEN90
  70
0
  10
0.0
  20
0.0
  30
0.0
   3
_OPEN90
   0
LINE
   5
A4
 100
AcDbEntity
   8
0
 370
-2
 100
AcDbLine
   6
BYBLOCK
  62
0
  10
-0.50000000000000
  20
 0.50000000000000
  30
0.0
  11
0.0
  21
0.0
  31
0.0
   0
LINE
   5
A5
 100
AcDbEntity
   8
0
 370
-2
 100
AcDbLine
   6
BYBLOCK
  62
0
  10
0.0
  20
0.0
  30
0.0
  11
-0.50000000000000
  21
-0.50000000000000
  31
0.0
   0
LINE
   5
A6
 100
AcDbEntity
   8
0
 370
-2
 100
AcDbLine
   6
BYBLOCK
  62
0
  10
0.0
  20
0.0
  30
0.0
  11
-1.0000000000000
  21
0.0
  31
0.0
   0
ENDBLK
   5
A7
 100
AcDbEntity
   8
0
 100
AcDbBlockEnd
   0
BLOCK
   5
A8
 100
AcDbEntity
   8
0
 100
AcDbBlockBegin
   2
_CLOSEDBLANK
  70
0
  10
0.0
  20
0.0
  30
0.0
   3
_CLOSEDBLANK
   0
LINE
   5
A9
 100
AcDbEntity
   8
0
 370
-2
 100
AcDbLine
   6
BYBLOCK
  62
0
  10
-1.0000000000000
  20
 0.16666666666667
  30
0.0
  11
0.0
  21
0.0
  31
0.0
   0
LINE
   5
AA
 100
AcDbEntity
   8
0
 370
-2
 100
AcDbLine
   6
BYBLOCK
  62
0
  10
0.0
  20
0.0
  30
0.0
  11
-1.0000000000000
  21
-0.16666666666667
  31
0.0
   0
LINE
   5
AB
 100
AcDbEntity
   8
0
 370
-2
 100
AcDbLine
   6
BYBLOCK
  62
0
  10
-1.0000000000000
  20
 0.16666666666667
  30
0.0
  11
-1.0000000000000
  21
-0.16666666666667
  31
0.0
   0
ENDBLK
   5
AC
 100
AcDbEntity
   8
0
 100
AcDbBlockEnd
   0
BLOCK
   5
AD
 100
AcDbEntity
   8
0
 100
AcDbBlockBegin
   2
_DOT
  70
0
  10
0.0
  20
0.0
  30
0.0
   3
_DOT
   0
POLYLINE
   5
AE
 100
AcDbEntity
   8
0
 370
-2
   6
BYBLOCK
  62
0
 100
AcDb2dPolyline
  66
1
  10
0.0
  20
0.0
  30
0.0
  70
1
  40
 0.50000000000000
  41
 0.50000000000000
   0
VERTEX
   5
AF
 100
AcDbEntity
   8
0
   6
BYBLOCK
  62
0
 100
AcDbVertex
 100
AcDb2dVertex
  10
-0.25000000000000
  20
0.0
  30
0.0
  42
 1.0000000000000
  40
 0.50000000000000
  41
 0.50000000000000
   0
VERTEX
   5
B0
 100
AcDbEntity
   8
0
   6
BYBLOCK
  62
0
 100
AcDbVertex
 100
AcDb2dVertex
  10
 0.25000000000000
  20
0.0
  30
0.0
  42
 1.0000000000000
  40
 0.50000000000000
  41
 0.50000000000000
   0
SEQEND
   5
B1
 100
AcDbEntity
   8
0
   6
BYBLOCK
  62
0
   0
LINE
   5
B2
 100
AcDbEntity
   8
0
 370
-2
 100
AcDbLine
   6
BYBLOCK
  62
0
  10
-0.50000000000000
  20
0.0
  30
0.0
  11
-1.0000000000000
  21
0.0
  31
0.0
   0
ENDBLK
   5
B3
 100
AcDbEntity
   8
0
 100
AcDbBlockEnd
   0
BLOCK
   5
B4
 100
AcDbEntity
   8
0
 100
AcDbBlockBegin
   2
_DOTSMALL
  70
0
  10
0.0
  20
0.0
  30
0.0
   3
_DOTSMALL
   0
POLYLINE
   5
B5
 100
AcDbEntity
   8
0
 370
-2
   6
BYBLOCK
  62
0
 100
AcDb2dPolyline
  66
1
  10
0.0
  20
0.0
  30
0.0
  70
1
  40
 0.50000000000000
  41
 0.50000000000000
   0
VERTEX
   5
B6
 100
AcDbEntity
   8
0
   6
BYBLOCK
  62
0
 100
AcDbVertex
 100
AcDb2dVertex
  10
-0.62500000000000E-1
  20
0.0
  30
0.0
  42
 1.0000000000000
  40
 0.50000000000000
  41
 0.50000000000000
   0
VERTEX
   5
B7
 100
AcDbEntity
   8
0
   6
BYBLOCK
  62
0
 100
AcDbVertex
 100
AcDb2dVertex
  10
 0.62500000000000E-1
  20
0.0
  30
0.0
  42
 1.0000000000000
  40
 0.50000000000000
  41
 0.50000000000000
   0
SEQEND
   5
B8
 100
AcDbEntity
   8
0
   6
BYBLOCK
  62
0
   0
ENDBLK
   5
B9
 100
AcDbEntity
   8
0
 100
AcDbBlockEnd
   0
BLOCK
   5
BA
 100
AcDbEntity
   8
0
 100
AcDbBlockBegin
   2
_DATUMBLANK
  70
0
  10
0.0
  20
0.0
  30
0.0
   3
_DATUMBLANK
   0
LINE
   5
BB
 100
AcDbEntity
   8
0
 370
-2
 100
AcDbLine
   6
BYBLOCK
  62
0
  10
0.0
  20
 0.57735027000000
  30
0.0
  11
-1.0000000000000
  21
0.0
  31
0.0
   0
LINE
   5
BC
 100
AcDbEntity
   8
0
 370
-2
 100
AcDbLine
   6
BYBLOCK
  62
0
  10
-1.0000000000000
  20
0.0
  30
0.0
  11
0.0
  21
-0.57735027000000
  31
0.0
   0
LINE
   5
BD
 100
AcDbEntity
   8
0
 370
-2
 100
AcDbLine
   6
BYBLOCK
  62
0
  10
0.0
  20
-0.57735027000000
  30
0.0
  11
0.0
  21
 0.57735027000000
  31
0.0
   0
ENDBLK
   5
BE
 100
AcDbEntity
   8
0
 100
AcDbBlockEnd
   0
BLOCK
   5
BF
 100
AcDbEntity
   8
0
 100
AcDbBlockBegin
   2
_DATUMFILLED
  70
0
  10
0.0
  20
0.0
  30
0.0
   3
_DATUMFILLED
   0
SOLID
   5
C0
 100
AcDbEntity
   8
0
 100
AcDbTrace
   6
BYBLOCK
  62
0
  10
0.0
  20
 0.57735027000000
  30
0.0
  11
-1.0000000000000
  21
0.0
  31
0.0
  12
0.0
  22
-0.57735027000000
  32
0.0
  13
0.0
  23
-0.57735027000000
  33
0.0
   0
ENDBLK
   5
C1
 100
AcDbEntity
   8
0
 100
AcDbBlockEnd
   0
BLOCK
   5
C2
 100
AcDbEntity
   8
0
 100
AcDbBlockBegin
   2
_ORIGIN
  70
0
  10
0.0
  20
0.0
  30
0.0
   3
_ORIGIN
   0
CIRCLE
   5
C3
 100
AcDbEntity
   8
0
 370
-2
 100
AcDbCircle
   6
BYBLOCK
  62
0
  10
0.0
  20
0.0
  30
0.0
  40
 0.50000000000000
   0
LINE
   5
C4
 100
AcDbEntity
   8
0
 370
-2
 100
AcDbLine
   6
BYBLOCK
  62
0
  10
0.0
  20
0.0
  30
0.0
  11
-1.0000000000000
  21
0.0
  31
0.0
   0
ENDBLK
   5
C5
 100
AcDbEntity
   8
0
 100
AcDbBlockEnd
   0
BLOCK
   5
C6
 100
AcDbEntity
   8
0
 100
AcDbBlockBegin
   2
_NONE
  70
0
  10
0.0
  20
0.0
  30
0.0
   3
_NONE
   0
CIRCLE
   5
C7
 100
AcDbEntity
   8
0
 370
-2
 100
AcDbCircle
   6
BYBLOCK
  62
0
  10
0.0
  20
0.0
  30
0.0
  40
 0.25000000000000
   0
ENDBLK
   5
C8
 100
AcDbEntity
   8
0
 100
AcDbBlockEnd
   0
BLOCK
   5
C9
 100
AcDbEntity
   8
0
 100
AcDbBlockBegin
   2
_DOTBLANK
  70
0
  10
0.0
  20
0.0
  30
0.0
   3
_DOTBLANK
   0
CIRCLE
   5
CA
 100
AcDbEntity
   8
0
 370
-2
 100
AcDbCircle
   6
BYBLOCK
  62
0
  10
0.0
  20
0.0
  30
0.0
  40
 0.50000000000000
   0
LINE
   5
CB
 100
AcDbEntity
   8
0
 370
-2
 100
AcDbLine
   6
BYBLOCK
  62
0
  10
-0.50000000000000
  20
0.0
  30
0.0
  11
-1.0000000000000
  21
0.0
  31
0.0
   0
ENDBLK
   5
CC
 100
AcDbEntity
   8
0
 100
AcDbBlockEnd
   0
BLOCK
   5
CD
 100
AcDbEntity
   8
0
 100
AcDbBlockBegin
   2
_INTEGRAL
  70
0
  10
0.0
  20
0.0
  30
0.0
   3
_INTEGRAL
   0
ARC
   5
CE
 100
AcDbEntity
   8
0
 370
-2
   6
BYBLOCK
  62
0
 100
AcDbCircle
  10
 0.44488800000000
  20
-0.91335000000000E-1
  30
0.0
  40
 0.45416700000000
 100
AcDbArc
  50
 102.00000000000
  51
 168.00000000000
   0
ARC
   5
CF
 100
AcDbEntity
   8
0
 370
-2
   6
BYBLOCK
  62
0
 100
AcDbCircle
  10
-0.44488800000000
  20
 0.91335000000000E-1
  30
0.0
  40
 0.45416700000000
 100
AcDbArc
  50
 282.00000000000
  51
 348.00000000000
   0
ENDBLK
   5
D0
 100
AcDbEntity
   8
0
 100
AcDbBlockEnd
   0
BLOCK
   5
D1
 100
AcDbEntity
   8
0
 100
AcDbBlockBegin
   2
*D1
  70
65
  10
0.0
  20
0.0
  30
0.0
   3
*D1
   0
LINE
   5
D2
 100
AcDbEntity
   8
0
 370
15
 100
AcDbLine
   6
CONTINUOUS
  62
8
  10
 93.736256045174
  20
 219.92455567255
  30
0.0
  11
 93.736256045174
  21
 208.92455567255
  31
0.0
   0
LINE
   5
D3
 100
AcDbEntity
   8
0
 370
15
 100
AcDbLine
   6
CONTINUOUS
  62
8
  10
 119.73625604517
  20
 219.92455567255
  30
0.0
  11
 119.73625604517
  21
 208.92455567255
  31
0.0
   0
LINE
   5
D4
 100
AcDbEntity
   8
0
 370
15
 100
AcDbLine
   6
CONTINUOUS
  62
8
  10
 93.736256045174
  20
 209.92455567255
  30
0.0
  11
 106.73625604517
  21
 209.92455567255
  31
0.0
   0
LINE
   5
D5
 100
AcDbEntity
   8
0
 370
15
 100
AcDbLine
   6
CONTINUOUS
  62
8
  10
 119.73625604517
  20
 209.92455567255
  30
0.0
  11
 106.73625604517
  21
 209.92455567255
  31
0.0
   0
SOLID
   5
D6
 100
AcDbEntity
   8
0
 100
AcDbTrace
   6
CONTINUOUS
  62
8
  10
 93.736256045174
  20
 209.92455567255
  30
0.0
  11
 95.736256045174
  21
 209.57190171113
  31
0.0
  12
 95.736256045174
  22
 210.27720963396
  32
0.0
  13
 95.736256045174
  23
 210.27720963396
  33
0.0
   0
SOLID
   5
D7
 100
AcDbEntity
   8
0
 100
AcDbTrace
   6
CONTINUOUS
  62
8
  10
 119.73625604517
  20
 209.92455567255
  30
0.0
  11
 117.73625604517
  21
 210.27720963396
  31
0.0
  12
 117.73625604517
  22
 209.57190171113
  32
0.0
  13
 117.73625604517
  23
 209.57190171113
  33
0.0
   0
MTEXT
   5
D8
 100
AcDbEntity
   8
0
 370
15
  62
8
 100
AcDbMText
  10
 106.73625604517
  20
 210.92455567255
  30
0.0
  40
 3.0000000000000
  41
0.0
  71
8
  72
1
   1
\A1;26
   7
GMM002
   0
ENDBLK
   5
D9
 100
AcDbEntity
   8
0
 100
AcDbBlockEnd
   0
BLOCK
   5
DA
 100
AcDbEntity
   8
0
 100
AcDbBlockBegin
   2
*D2
  70
65
  10
0.0
  20
0.0
  30
0.0
   3
*D2
   0
LINE
   5
DB
 100
AcDbEntity
   8
0
 370
15
 100
AcDbLine
   6
CONTINUOUS
  62
8
  10
 90.736256045174
  20
 231.62455567255
  30
0.0
  11
 90.736256045174
  21
 239.62455567255
  31
0.0
   0
LINE
   5
DC
 100
AcDbEntity
   8
0
 370
15
 100
AcDbLine
   6
CONTINUOUS
  62
8
  10
 122.73625604517
  20
 231.62455567255
  30
0.0
  11
 122.73625604517
  21
 239.62455567255
  31
0.0
   0
LINE
   5
DD
 100
AcDbEntity
   8
0
 370
15
 100
AcDbLine
   6
CONTINUOUS
  62
8
  10
 90.736256045174
  20
 238.62455567255
  30
0.0
  11
 106.73625604517
  21
 238.62455567255
  31
0.0
   0
LINE
   5
DE
 100
AcDbEntity
   8
0
 370
15
 100
AcDbLine
   6
CONTINUOUS
  62
8
  10
 122.73625604517
  20
 238.62455567255
  30
0.0
  11
 106.73625604517
  21
 238.62455567255
  31
0.0
   0
SOLID
   5
DF
 100
AcDbEntity
   8
0
 100
AcDbTrace
   6
CONTINUOUS
  62
8
  10
 90.736256045174
  20
 238.62455567255
  30
0.0
  11
 92.736256045174
  21
 238.27190171113
  31
0.0
  12
 92.736256045174
  22
 238.97720963396
  32
0.0
  13
 92.736256045174
  23
 238.97720963396
  33
0.0
   0
SOLID
   5
E0
 100
AcDbEntity
   8
0
 100
AcDbTrace
   6
CONTINUOUS
  62
8
  10
 122.73625604517
  20
 238.62455567255
  30
0.0
  11
 120.73625604517
  21
 238.97720963396
  31
0.0
  12
 120.73625604517
  22
 238.27190171113
  32
0.0
  13
 120.73625604517
  23
 238.27190171113
  33
0.0
   0
MTEXT
   5
E1
 100
AcDbEntity
   8
0
 370
15
  62
8
 100
AcDbMText
  10
 106.73625604517
  20
 239.62455567255
  30
0.0
  40
 3.0000000000000
  41
0.0
  71
8
  72
1
   1
\A1;32
   7
GMM002
   0
ENDBLK
   5
E2
 100
AcDbEntity
   8
0
 100
AcDbBlockEnd
   0
BLOCK
   5
E3
 100
AcDbEntity
   8
0
 100
AcDbBlockBegin
   2
*D3
  70
65
  10
0.0
  20
0.0
  30
0.0
   3
*D3
   0
LINE
   5
E4
 100
AcDbEntity
   8
0
 370
15
 100
AcDbLine
   6
CONTINUOUS
  62
8
  10
 119.43625604517
  20
 219.92455567255
  30
0.0
  11
 131.73625604517
  21
 219.92455567255
  31
0.0
   0
LINE
   5
E5
 100
AcDbEntity
   8
0
 370
15
 100
AcDbLine
   6
CONTINUOUS
  62
8
  10
 130.73625604517
  20
 219.92455567255
  30
0.0
  11
 130.73625604517
  21
 224.67455567255
  31
0.0
   0
LINE
   5
E6
 100
AcDbEntity
   8
0
 370
15
 100
AcDbLine
   6
CONTINUOUS
  62
8
  10
 130.73625604517
  20
 229.42455567255
  30
0.0
  11
 130.73625604517
  21
 224.67455567255
  31
0.0
   0
SOLID
   5
E7
 100
AcDbEntity
   8
0
 100
AcDbTrace
   6
CONTINUOUS
  62
8
  10
 130.73625604517
  20
 219.92455567255
  30
0.0
  11
 131.08891000659
  21
 221.92455567255
  31
0.0
  12
 130.38360208376
  22
 221.92455567255
  32
0.0
  13
 130.38360208376
  23
 221.92455567255
  33
0.0
   0
SOLID
   5
E8
 100
AcDbEntity
   8
0
 100
AcDbTrace
   6
CONTINUOUS
  62
8
  10
 130.73625604517
  20
 229.42455567255
  30
0.0
  11
 130.38360208376
  21
 227.42455567255
  31
0.0
  12
 131.08891000659
  22
 227.42455567255
  32
0.0
  13
 131.08891000659
  23
 227.42455567255
  33
0.0
   0
MTEXT
   5
E9
 100
AcDbEntity
   8
0
 370
15
  62
8
 100
AcDbMText
  10
 129.73625604517
  20
 224.67455567255
  30
0.0
  40
 3.0000000000000
  41
0.0
  71
8
  72
1
   1
\A1;9.5
   7
GMM002
  11
0.0
  21
 1.0000000000000
  31
0.0
   0
ENDBLK
   5
EA
 100
AcDbEntity
   8
0
 100
AcDbBlockEnd
   0
BLOCK
   5
EB
 100
AcDbEntity
   8
0
 100
AcDbBlockBegin
   2
*D4
  70
65
  10
0.0
  20
0.0
  30
0.0
   3
*D4
   0
LINE
   5
EC
 100
AcDbEntity
   8
0
 370
15
 100
AcDbLine
   6
CONTINUOUS
  62
8
  10
 123.73625604517
  20
 229.42455567255
  30
0.0
  11
 131.73625604517
  21
 229.42455567255
  31
0.0
   0
LINE
   5
ED
 100
AcDbEntity
   8
0
 370
15
 100
AcDbLine
   6
CONTINUOUS
  62
8
  10
 123.73625604517
  20
 230.62455567255
  30
0.0
  11
 131.73625604517
  21
 230.62455567255
  31
0.0
   0
LINE
   5
EE
 100
AcDbEntity
   8
0
 370
15
 100
AcDbLine
   6
CONTINUOUS
  62
8
  10
 130.73625604517
  20
 229.42455567255
  30
0.0
  11
 130.73625604517
  21
 230.02455567255
  31
0.0
   0
LINE
   5
EF
 100
AcDbEntity
   8
0
 370
15
 100
AcDbLine
   6
CONTINUOUS
  62
8
  10
 130.73625604517
  20
 237.75226337449
  30
0.0
  11
 130.73625604517
  21
 230.02455567255
  31
0.0
   0
SOLID
   5
F0
 100
AcDbEntity
   8
0
 100
AcDbTrace
   6
CONTINUOUS
  62
8
  10
 130.73625604517
  20
 230.62455567255
  30
0.0
  11
 131.08891000659
  21
 232.62455567255
  31
0.0
  12
 130.38360208376
  22
 232.62455567255
  32
0.0
  13
 130.38360208376
  23
 232.62455567255
  33
0.0
   0
MTEXT
   5
F1
 100
AcDbEntity
   8
0
 370
15
  62
8
 100
AcDbMText
  10
 129.72582592108
  20
 231.00226337449
  30
0.0
  40
 3.0000000000000
  41
0.0
  71
7
  72
1
   1
\A1;1.2
   7
GMM002
  11
0.0
  21
 1.0000000000000
  31
0.0
   0
ENDBLK
   5
F2
 100
AcDbEntity
   8
0
 100
AcDbBlockEnd
   0
BLOCK
   5
F3
 100
AcDbEntity
   8
0
 100
AcDbBlockBegin
   2
*D5
  70
65
  10
0.0
  20
0.0
  30
0.0
   3
*D5
   0
LINE
   5
F4
 100
AcDbEntity
   8
0
 370
15
 100
AcDbLine
   6
CONTINUOUS
  62
8
  10
 151.11627337811
  20
 219.92455567255
  30
0.0
  11
 151.11627337811
  21
 208.92455567255
  31
0.0
   0
LINE
   5
F5
 100
AcDbEntity
   8
0
 370
15
 100
AcDbLine
   6
CONTINUOUS
  62
8
  10
 154.11627337811
  20
 228.42455567255
  30
0.0
  11
 154.11627337811
  21
 208.92455567255
  31
0.0
   0
LINE
   5
F6
 100
AcDbEntity
   8
0
 370
15
 100
AcDbLine
   6
CONTINUOUS
  62
8
  10
 148.61627337811
  20
 209.92455567255
  30
0.0
  11
 152.61627337811
  21
 209.92455567255
  31
0.0
   0
LINE
   5
F7
 100
AcDbEntity
   8
0
 370
15
 100
AcDbLine
   6
CONTINUOUS
  62
8
  10
 158.77374544554
  20
 209.92455567255
  30
0.0
  11
 152.61627337811
  21
 209.92455567255
  31
0.0
   0
SOLID
   5
F8
 100
AcDbEntity
   8
0
 100
AcDbTrace
   6
CONTINUOUS
  62
8
  10
 151.11627337811
  20
 209.92455567255
  30
0.0
  11
 149.11627337811
  21
 210.27720963396
  31
0.0
  12
 149.11627337811
  22
 209.57190171113
  32
0.0
  13
 149.11627337811
  23
 209.57190171113
  33
0.0
   0
SOLID
   5
F9
 100
AcDbEntity
   8
0
 100
AcDbTrace
   6
CONTINUOUS
  62
8
  10
 154.11627337811
  20
 209.92455567255
  30
0.0
  11
 156.11627337811
  21
 209.57190171113
  31
0.0
  12
 156.11627337811
  22
 210.27720963396
  32
0.0
  13
 156.11627337811
  23
 210.27720963396
  33
0.0
   0
MTEXT
   5
FA
 100
AcDbEntity
   8
0
 370
15
  62
8
 100
AcDbMText
  10
 155.77374544554
  20
 211.01213991770
  30
0.0
  40
 3.0000000000000
  41
0.0
  71
7
  72
1
   1
\A1;3
   7
GMM002
   0
ENDBLK
   5
FB
 100
AcDbEntity
   8
0
 100
AcDbBlockEnd
   0
BLOCK
   5
FC
 100
AcDbEntity
   8
0
 100
AcDbBlockBegin
   2
*D6
  70
65
  10
0.0
  20
0.0
  30
0.0
   3
*D6
   0
LINE
   5
FD
 100
AcDbEntity
   8
0
 370
15
 100
AcDbLine
   6
CONTINUOUS
  62
8
  10
 138.11627337811
  20
 231.62455567255
  30
0.0
  11
 138.11627337811
  21
 239.62455567255
  31
0.0
   0
LINE
   5
FE
 100
AcDbEntity
   8
0
 370
15
 100
AcDbLine
   6
CONTINUOUS
  62
8
  10
 154.11627337811
  20
 231.62455567255
  30
0.0
  11
 154.11627337811
  21
 239.62455567255
  31
0.0
   0
LINE
   5
FF
 100
AcDbEntity
   8
0
 370
15
 100
AcDbLine
   6
CONTINUOUS
  62
8
  10
 138.11627337811
  20
 238.62455567255
  30
0.0
  11
 146.11627337811
  21
 238.62455567255
  31
0.0
   0
LINE
   5
100
 100
AcDbEntity
   8
0
 370
15
 100
AcDbLine
   6
CONTINUOUS
  62
8
  10
 154.11627337811
  20
 238.62455567255
  30
0.0
  11
 146.11627337811
  21
 238.62455567255
  31
0.0
   0
SOLID
   5
101
 100
AcDbEntity
   8
0
 100
AcDbTrace
   6
CONTINUOUS
  62
8
  10
 138.11627337811
  20
 238.62455567255
  30
0.0
  11
 140.11627337811
  21
 238.27190171113
  31
0.0
  12
 140.11627337811
  22
 238.97720963396
  32
0.0
  13
 140.11627337811
  23
 238.97720963396
  33
0.0
   0
SOLID
   5
102
 100
AcDbEntity
   8
0
 100
AcDbTrace
   6
CONTINUOUS
  62
8
  10
 154.11627337811
  20
 238.62455567255
  30
0.0
  11
 152.11627337811
  21
 238.97720963396
  31
0.0
  12
 152.11627337811
  22
 238.27190171113
  32
0.0
  13
 152.11627337811
  23
 238.27190171113
  33
0.0
   0
MTEXT
   5
103
 100
AcDbEntity
   8
0
 370
15
  62
8
 100
AcDbMText
  10
 146.11627337811
  20
 239.62455567255
  30
0.0
  40
 3.0000000000000
  41
0.0
  71
8
  72
1
   1
\A1;16
   7
GMM002
   0
ENDBLK
   5
104
 100
AcDbEntity
   8
0
 100
AcDbBlockEnd
   0
BLOCK
   5
105
 100
AcDbEntity
   8
0
 100
AcDbBlockBegin
   2
*D7
  70
65
  10
0.0
  20
0.0
  30
0.0
   3
*D7
   0
LINE
   5
106
 100
AcDbEntity
   8
0
 370
15
 100
AcDbLine
   6
CONTINUOUS
  62
8
  10
 90.736256045174
  20
 265.81642529846
  30
0.0
  11
 90.736256045174
  21
 269.50185185185
  31
0.0
   0
LINE
   5
107
 100
AcDbEntity
   8
0
 370
15
 100
AcDbLine
   6
CONTINUOUS
  62
8
  10
 122.73625604517
  20
 265.81642529846
  30
0.0
  11
 122.73625604517
  21
 269.50185185185
  31
0.0
   0
LINE
   5
108
 100
AcDbEntity
   8
0
 370
15
 100
AcDbLine
   6
CONTINUOUS
  62
8
  10
 90.736256045174
  20
 268.50185185185
  30
0.0
  11
 106.73625604517
  21
 268.50185185185
  31
0.0
   0
LINE
   5
109
 100
AcDbEntity
   8
0
 370
15
 100
AcDbLine
   6
CONTINUOUS
  62
8
  10
 122.73625604517
  20
 268.50185185185
  30
0.0
  11
 106.73625604517
  21
 268.50185185185
  31
0.0
   0
SOLID
   5
10A
 100
AcDbEntity
   8
0
 100
AcDbTrace
   6
CONTINUOUS
  62
8
  10
 90.736256045174
  20
 268.50185185185
  30
0.0
  11
 92.736256045174
  21
 268.14919789044
  31
0.0
  12
 92.736256045174
  22
 268.85450581327
  32
0.0
  13
 92.736256045174
  23
 268.85450581327
  33
0.0
   0
SOLID
   5
10B
 100
AcDbEntity
   8
0
 100
AcDbTrace
   6
CONTINUOUS
  62
8
  10
 122.73625604517
  20
 268.50185185185
  30
0.0
  11
 120.73625604517
  21
 268.85450581327
  31
0.0
  12
 120.73625604517
  22
 268.14919789044
  32
0.0
  13
 120.73625604517
  23
 268.14919789044
  33
0.0
   0
MTEXT
   5
10C
 100
AcDbEntity
   8
0
 370
15
  62
8
 100
AcDbMText
  10
 106.73625604517
  20
 269.50185185185
  30
0.0
  40
 3.0000000000000
  41
0.0
  71
8
  72
1
   1
\A1;32
   7
GMM002
   0
ENDBLK
   5
10D
 100
AcDbEntity
   8
0
 100
AcDbBlockEnd
   0
BLOCK
   5
10E
 100
AcDbEntity
   8
0
 100
AcDbBlockBegin
   2
*D8
  70
65
  10
0.0
  20
0.0
  30
0.0
   3
*D8
   0
LINE
   5
10F
 100
AcDbEntity
   8
0
 370
15
 100
AcDbLine
   6
CONTINUOUS
  62
8
  10
 123.73625604517
  20
 248.81642529846
  30
0.0
  11
 131.73625604517
  21
 248.81642529846
  31
0.0
   0
LINE
   5
110
 100
AcDbEntity
   8
0
 370
15
 100
AcDbLine
   6
CONTINUOUS
  62
8
  10
 123.73625604517
  20
 264.81642529846
  30
0.0
  11
 131.73625604517
  21
 264.81642529846
  31
0.0
   0
LINE
   5
111
 100
AcDbEntity
   8
0
 370
15
 100
AcDbLine
   6
CONTINUOUS
  62
8
  10
 130.73625604517
  20
 248.81642529846
  30
0.0
  11
 130.73625604517
  21
 256.81642529846
  31
0.0
   0
LINE
   5
112
 100
AcDbEntity
   8
0
 370
15
 100
AcDbLine
   6
CONTINUOUS
  62
8
  10
 130.73625604517
  20
 264.81642529846
  30
0.0
  11
 130.73625604517
  21
 256.81642529846
  31
0.0
   0
SOLID
   5
113
 100
AcDbEntity
   8
0
 100
AcDbTrace
   6
CONTINUOUS
  62
8
  10
 130.73625604517
  20
 248.81642529846
  30
0.0
  11
 131.08891000659
  21
 250.81642529846
  31
0.0
  12
 130.38360208376
  22
 250.81642529846
  32
0.0
  13
 130.38360208376
  23
 250.81642529846
  33
0.0
   0
SOLID
   5
114
 100
AcDbEntity
   8
0
 100
AcDbTrace
   6
CONTINUOUS
  62
8
  10
 130.73625604517
  20
 264.81642529846
  30
0.0
  11
 130.38360208376
  21
 262.81642529846
  31
0.0
  12
 131.08891000659
  22
 262.81642529846
  32
0.0
  13
 131.08891000659
  23
 262.81642529846
  33
0.0
   0
MTEXT
   5
115
 100
AcDbEntity
   8
0
 370
15
  62
8
 100
AcDbMText
  10
 129.73625604517
  20
 256.81642529846
  30
0.0
  40
 3.0000000000000
  41
0.0
  71
8
  72
1
   1
\A1;16
   7
GMM002
  11
0.0
  21
 1.0000000000000
  31
0.0
   0
ENDBLK
   5
116
 100
AcDbEntity
   8
0
 100
AcDbBlockEnd
   0
BLOCK
   5
117
 100
AcDbEntity
   8
0
 100
AcDbBlockBegin
   2
*D9
  70
65
  10
0.0
  20
0.0
  30
0.0
   3
*D9
   0
LINE
   5
118
 100
AcDbEntity
   8
0
 370
15
 100
AcDbLine
   6
CONTINUOUS
  62
8
  10
 40.036256044858
  20
 234.25185185185
  30
0.0
  11
 40.036256044858
  21
 242.41851851852
  31
0.0
   0
LINE
   5
119
 100
AcDbEntity
   8
0
 370
15
 100
AcDbLine
   6
CONTINUOUS
  62
8
  10
 58.436256044858
  20
 234.25185185185
  30
0.0
  11
 58.436256044858
  21
 242.41851851852
  31
0.0
   0
LINE
   5
11A
 100
AcDbEntity
   8
0
 370
15
 100
AcDbLine
   6
CONTINUOUS
  62
8
  10
 40.036256044858
  20
 241.41851851852
  30
0.0
  11
 49.236256044858
  21
 241.41851851852
  31
0.0
   0
LINE
   5
11B
 100
AcDbEntity
   8
0
 370
15
 100
AcDbLine
   6
CONTINUOUS
  62
8
  10
 58.436256044858
  20
 241.41851851852
  30
0.0
  11
 49.236256044858
  21
 241.41851851852
  31
0.0
   0
SOLID
   5
11C
 100
AcDbEntity
   8
0
 100
AcDbTrace
   6
CONTINUOUS
  62
8
  10
 40.036256044858
  20
 241.41851851852
  30
0.0
  11
 42.036256044858
  21
 241.06586455710
  31
0.0
  12
 42.036256044858
  22
 241.77117247994
  32
0.0
  13
 42.036256044858
  23
 241.77117247994
  33
0.0
   0
SOLID
   5
11D
 100
AcDbEntity
   8
0
 100
AcDbTrace
   6
CONTINUOUS
  62
8
  10
 58.436256044858
  20
 241.41851851852
  30
0.0
  11
 56.436256044858
  21
 241.77117247994
  31
0.0
  12
 56.436256044858
  22
 241.06586455710
  32
0.0
  13
 56.436256044858
  23
 241.06586455710
  33
0.0
   0
MTEXT
   5
11E
 100
AcDbEntity
   8
0
 370
15
  62
8
 100
AcDbMText
  10
 49.236256044858
  20
 242.41851851852
  30
0.0
  40
 3.0000000000000
  41
0.0
  71
8
  72
1
   1
\A1;18.4
   7
GMM002
   0
ENDBLK
   5
11F
 100
AcDbEntity
   8
0
 100
AcDbBlockEnd
   0
BLOCK
   5
120
 100
AcDbEntity
   8
0
 100
AcDbBlockBegin
   2
*D10
  70
65
  10
0.0
  20
0.0
  30
0.0
   3
*D10
   0
LINE
   5
121
 100
AcDbEntity
   8
0
 370
15
 100
AcDbLine
   6
CONTINUOUS
  62
8
  10
 33.236256045172
  20
 234.25185185185
  30
0.0
  11
 33.236256045172
  21
 250.41851851852
  31
0.0
   0
LINE
   5
122
 100
AcDbEntity
   8
0
 370
15
 100
AcDbLine
   6
CONTINUOUS
  62
8
  10
 65.236256045173
  20
 234.25185185185
  30
0.0
  11
 65.236256045173
  21
 250.41851851852
  31
0.0
   0
LINE
   5
123
 100
AcDbEntity
   8
0
 370
15
 100
AcDbLine
   6
CONTINUOUS
  62
8
  10
 33.236256045172
  20
 249.41851851852
  30
0.0
  11
 49.236256045172
  21
 249.41851851852
  31
0.0
   0
LINE
   5
124
 100
AcDbEntity
   8
0
 370
15
 100
AcDbLine
   6
CONTINUOUS
  62
8
  10
 65.236256045173
  20
 249.41851851852
  30
0.0
  11
 49.236256045172
  21
 249.41851851852
  31
0.0
   0
SOLID
   5
125
 100
AcDbEntity
   8
0
 100
AcDbTrace
   6
CONTINUOUS
  62
8
  10
 33.236256045172
  20
 249.41851851852
  30
0.0
  11
 35.236256045172
  21
 249.06586455710
  31
0.0
  12
 35.236256045172
  22
 249.77117247994
  32
0.0
  13
 35.236256045172
  23
 249.77117247994
  33
0.0
   0
SOLID
   5
126
 100
AcDbEntity
   8
0
 100
AcDbTrace
   6
CONTINUOUS
  62
8
  10
 65.236256045173
  20
 249.41851851852
  30
0.0
  11
 63.236256045173
  21
 249.77117247994
  31
0.0
  12
 63.236256045173
  22
 249.06586455710
  32
0.0
  13
 63.236256045173
  23
 249.06586455710
  33
0.0
   0
MTEXT
   5
127
 100
AcDbEntity
   8
0
 370
15
  62
8
 100
AcDbMText
  10
 49.236256045172
  20
 250.41851851852
  30
0.0
  40
 3.0000000000000
  41
0.0
  71
8
  72
1
   1
\A1;32
   7
GMM002
   0
ENDBLK
   5
128
 100
AcDbEntity
   8
0
 100
AcDbBlockEnd
   0
BLOCK
   5
129
 100
AcDbEntity
   8
0
 100
AcDbBlockBegin
   2
*D11
  70
65
  10
0.0
  20
0.0
  30
0.0
   3
*D11
   0
LINE
   5
12A
 100
AcDbEntity
   8
0
 370
15
 100
AcDbLine
   6
CONTINUOUS
  62
8
  10
 62.086250045173
  20
 222.71851851852
  30
0.0
  11
 74.236256045173
  21
 222.71851851852
  31
0.0
   0
LINE
   5
12B
 100
AcDbEntity
   8
0
 370
15
 100
AcDbLine
   6
CONTINUOUS
  62
8
  10
 66.236256045173
  20
 232.21851851852
  30
0.0
  11
 74.236256045173
  21
 232.21851851852
  31
0.0
   0
LINE
   5
12C
 100
AcDbEntity
   8
0
 370
15
 100
AcDbLine
   6
CONTINUOUS
  62
8
  10
 73.236256045173
  20
 222.71851851852
  30
0.0
  11
 73.236256045173
  21
 227.46851851852
  31
0.0
   0
LINE
   5
12D
 100
AcDbEntity
   8
0
 370
15
 100
AcDbLine
   6
CONTINUOUS
  62
8
  10
 73.236256045173
  20
 232.21851851852
  30
0.0
  11
 73.236256045173
  21
 227.46851851852
  31
0.0
   0
SOLID
   5
12E
 100
AcDbEntity
   8
0
 100
AcDbTrace
   6
CONTINUOUS
  62
8
  10
 73.236256045173
  20
 222.71851851852
  30
0.0
  11
 73.588910006590
  21
 224.71851851852
  31
0.0
  12
 72.883602083756
  22
 224.71851851852
  32
0.0
  13
 72.883602083756
  23
 224.71851851852
  33
0.0
   0
SOLID
   5
12F
 100
AcDbEntity
   8
0
 100
AcDbTrace
   6
CONTINUOUS
  62
8
  10
 73.236256045173
  20
 232.21851851852
  30
0.0
  11
 72.883602083756
  21
 230.21851851852
  31
0.0
  12
 73.588910006590
  22
 230.21851851852
  32
0.0
  13
 73.588910006590
  23
 230.21851851852
  33
0.0
   0
MTEXT
   5
130
 100
AcDbEntity
   8
0
 370
15
  62
8
 100
AcDbMText
  10
 72.236256045173
  20
 227.46851851852
  30
0.0
  40
 3.0000000000000
  41
0.0
  71
8
  72
1
   1
\A1;9.5
   7
GMM002
  11
0.0
  21
 1.0000000000000
  31
0.0
   0
ENDBLK
   5
131
 100
AcDbEntity
   8
0
 100
AcDbBlockEnd
   0
BLOCK
   5
132
 100
AcDbEntity
   8
0
 100
AcDbBlockBegin
   2
*D12
  70
65
  10
0.0
  20
0.0
  30
0.0
   3
*D12
   0
LINE
   5
133
 100
AcDbEntity
   8
0
 370
15
 100
AcDbLine
   6
CONTINUOUS
  62
8
  10
 74.236256045173
  20
 222.71851851852
  30
0.0
  11
 82.236256045173
  21
 222.71851851852
  31
0.0
   0
LINE
   5
134
 100
AcDbEntity
   8
0
 370
15
 100
AcDbLine
   6
CONTINUOUS
  62
8
  10
 65.736256045173
  20
 233.41851851852
  30
0.0
  11
 82.236256045173
  21
 233.41851851852
  31
0.0
   0
LINE
   5
135
 100
AcDbEntity
   8
0
 370
15
 100
AcDbLine
   6
CONTINUOUS
  62
8
  10
 81.236256045173
  20
 222.71851851852
  30
0.0
  11
 81.236256045173
  21
 228.06851851852
  31
0.0
   0
LINE
   5
136
 100
AcDbEntity
   8
0
 370
15
 100
AcDbLine
   6
CONTINUOUS
  62
8
  10
 81.236256045173
  20
 233.41851851852
  30
0.0
  11
 81.236256045173
  21
 228.06851851852
  31
0.0
   0
SOLID
   5
137
 100
AcDbEntity
   8
0
 100
AcDbTrace
   6
CONTINUOUS
  62
8
  10
 81.236256045173
  20
 222.71851851852
  30
0.0
  11
 81.588910006590
  21
 224.71851851852
  31
0.0
  12
 80.883602083756
  22
 224.71851851852
  32
0.0
  13
 80.883602083756
  23
 224.71851851852
  33
0.0
   0
SOLID
   5
138
 100
AcDbEntity
   8
0
 100
AcDbTrace
   6
CONTINUOUS
  62
8
  10
 81.236256045173
  20
 233.41851851852
  30
0.0
  11
 80.883602083756
  21
 231.41851851852
  31
0.0
  12
 81.588910006590
  22
 231.41851851852
  32
0.0
  13
 81.588910006590
  23
 231.41851851852
  33
0.0
   0
MTEXT
   5
139
 100
AcDbEntity
   8
0
 370
15
  62
8
 100
AcDbMText
  10
 80.236256045173
  20
 228.06851851852
  30
0.0
  40
 3.0000000000000
  41
0.0
  71
8
  72
1
   1
\A1;10.7
   7
GMM002
  11
0.0
  21
 1.0000000000000
  31
0.0
   0
ENDBLK
   5
13A
 100
AcDbEntity
   8
0
 100
AcDbBlockEnd
   0
BLOCK
   5
13B
 100
AcDbEntity
   8
0
 100
AcDbBlockBegin
   2
*D13
  70
65
  10
0.0
  20
0.0
  30
0.0
   3
*D13
   0
LINE
   5
13C
 100
AcDbEntity
   8
0
 370
15
 100
AcDbLine
   6
CONTINUOUS
  62
8
  10
 36.386256044858
  20
 222.31165800489
  30
0.0
  11
 36.386256044858
  21
 211.71851851852
  31
0.0
   0
LINE
   5
13D
 100
AcDbEntity
   8
0
 370
15
 100
AcDbLine
   6
CONTINUOUS
  62
8
  10
 62.086256044858
  20
 222.31589355948
  30
0.0
  11
 62.086256044858
  21
 211.71851851852
  31
0.0
   0
LINE
   5
13E
 100
AcDbEntity
   8
0
 370
15
 100
AcDbLine
   6
CONTINUOUS
  62
8
  10
 36.386256044858
  20
 212.71851851852
  30
0.0
  11
 49.236256044858
  21
 212.71851851852
  31
0.0
   0
LINE
   5
13F
 100
AcDbEntity
   8
0
 370
15
 100
AcDbLine
   6
CONTINUOUS
  62
8
  10
 62.086256044858
  20
 212.71851851852
  30
0.0
  11
 49.236256044858
  21
 212.71851851852
  31
0.0
   0
SOLID
   5
140
 100
AcDbEntity
   8
0
 100
AcDbTrace
   6
CONTINUOUS
  62
8
  10
 36.386256044858
  20
 212.71851851852
  30
0.0
  11
 38.386256044858
  21
 212.36586455710
  31
0.0
  12
 38.386256044858
  22
 213.07117247994
  32
0.0
  13
 38.386256044858
  23
 213.07117247994
  33
0.0
   0
SOLID
   5
141
 100
AcDbEntity
   8
0
 100
AcDbTrace
   6
CONTINUOUS
  62
8
  10
 62.086256044858
  20
 212.71851851852
  30
0.0
  11
 60.086256044858
  21
 213.07117247994
  31
0.0
  12
 60.086256044858
  22
 212.36586455710
  32
0.0
  13
 60.086256044858
  23
 212.36586455710
  33
0.0
   0
MTEXT
   5
142
 100
AcDbEntity
   8
0
 370
15
  62
8
 100
AcDbMText
  10
 49.236256044858
  20
 213.71851851852
  30
0.0
  40
 3.0000000000000
  41
0.0
  71
8
  72
1
   1
\A1;25.7
   7
GMM002
   0
ENDBLK
   5
143
 100
AcDbEntity
   8
0
 100
AcDbBlockEnd
   0
BLOCK
   5
144
 100
AcDbEntity
   8
0
 100
AcDbBlockBegin
   2
*D14
  70
65
  10
0.0
  20
0.0
  30
0.0
   3
*D14
   0
LINE
   5
145
 100
AcDbEntity
   8
0
 370
15
 100
AcDbLine
   6
CONTINUOUS
  62
8
  10
 50.404361554360
  20
 44.006328722337
  30
0.0
  11
 57.067810375870
  21
 44.006328722337
  31
0.0
   0
LINE
   5
146
 100
AcDbEntity
   8
0
 370
15
 100
AcDbLine
   6
CONTINUOUS
  62
8
  10
 56.067810375870
  20
 44.006328722337
  30
0.0
  11
 56.067810375870
  21
 48.006327770377
  31
0.0
   0
LINE
   5
147
 100
AcDbEntity
   8
0
 370
15
 100
AcDbLine
   6
CONTINUOUS
  62
8
  10
 56.067810375870
  20
 52.006326818417
  30
0.0
  11
 56.067810375870
  21
 48.006327770377
  31
0.0
   0
SOLID
   5
148
 100
AcDbEntity
   8
0
 100
AcDbTrace
   6
CONTINUOUS
  62
8
  10
 56.067810375870
  20
 44.006328722337
  30
0.0
  11
 56.420464337287
  21
 46.006328722337
  31
0.0
  12
 55.715156414453
  22
 46.006328722337
  32
0.0
  13
 55.715156414453
  23
 46.006328722337
  33
0.0
   0
SOLID
   5
149
 100
AcDbEntity
   8
0
 100
AcDbTrace
   6
CONTINUOUS
  62
8
  10
 56.067810375870
  20
 52.006326818417
  30
0.0
  11
 55.715156414453
  21
 50.006326818417
  31
0.0
  12
 56.420464337287
  22
 50.006326818417
  32
0.0
  13
 56.420464337287
  23
 50.006326818417
  33
0.0
   0
MTEXT
   5
14A
 100
AcDbEntity
   8
0
 370
15
  62
8
 100
AcDbMText
  10
 55.067810375870
  20
 48.006327770377
  30
0.0
  40
 3.0000000000000
  41
0.0
  71
8
  72
1
   1
\A1;16
   7
GMM002
  11
0.0
  21
 1.0000000000000
  31
0.0
   0
ENDBLK
   5
14B
 100
AcDbEntity
   8
0
 100
AcDbBlockEnd
   0
BLOCK
   5
14C
 100
AcDbEntity
   8
0
 100
AcDbBlockBegin
   2
*D15
  70
65
  10
0.0
  20
0.0
  30
0.0
   3
*D15
   0
LINE
   5
14D
 100
AcDbEntity
   8
0
 370
15
 100
AcDbLine
   6
CONTINUOUS
  62
8
  10
 50.904361554360
  20
 52.006326818417
  30
0.0
  11
 57.067810375870
  21
 52.006326818417
  31
0.0
   0
LINE
   5
14E
 100
AcDbEntity
   8
0
 370
15
 100
AcDbLine
   6
CONTINUOUS
  62
8
  10
 56.067810375870
  20
 52.006326818417
  30
0.0
  11
 56.067810375870
  21
 89.006328722337
  31
0.0
   0
LINE
   5
14F
 100
AcDbEntity
   8
0
 370
15
 100
AcDbLine
   6
CONTINUOUS
  62
8
  10
 56.067810375870
  20
 126.00633062626
  30
0.0
  11
 56.067810375870
  21
 89.006328722337
  31
0.0
   0
SOLID
   5
150
 100
AcDbEntity
   8
0
 100
AcDbTrace
   6
CONTINUOUS
  62
8
  10
 56.067810375870
  20
 52.006326818417
  30
0.0
  11
 56.420464337287
  21
 54.006326818417
  31
0.0
  12
 55.715156414453
  22
 54.006326818417
  32
0.0
  13
 55.715156414453
  23
 54.006326818417
  33
0.0
   0
SOLID
   5
151
 100
AcDbEntity
   8
0
 100
AcDbTrace
   6
CONTINUOUS
  62
8
  10
 56.067810375870
  20
 126.00633062626
  30
0.0
  11
 55.715156414453
  21
 124.00633062626
  31
0.0
  12
 56.420464337287
  22
 124.00633062626
  32
0.0
  13
 56.420464337287
  23
 124.00633062626
  33
0.0
   0
MTEXT
   5
152
 100
AcDbEntity
   8
0
 370
15
  62
8
 100
AcDbMText
  10
 55.067810375870
  20
 89.006328722337
  30
0.0
  40
 3.0000000000000
  41
0.0
  71
8
  72
1
   1
\A1;ロング引手長さ
   7
GMM002
  11
0.0
  21
 1.0000000000000
  31
0.0
   0
ENDBLK
   5
153
 100
AcDbEntity
   8
0
 100
AcDbBlockEnd
   0
BLOCK
   5
154
 100
AcDbEntity
   8
0
 100
AcDbBlockBegin
   2
*D16
  70
65
  10
0.0
  20
0.0
  30
0.0
   3
*D16
   0
LINE
   5
155
 100
AcDbEntity
   8
0
 370
15
 100
AcDbLine
   6
CONTINUOUS
  62
8
  10
 50.904361556370
  20
 126.00633062626
  30
0.0
  11
 57.067810375870
  21
 126.00633062626
  31
0.0
   0
LINE
   5
156
 100
AcDbEntity
   8
0
 370
15
 100
AcDbLine
   6
CONTINUOUS
  62
8
  10
 50.404361554360
  20
 134.00632872234
  30
0.0
  11
 57.067810375870
  21
 134.00632872234
  31
0.0
   0
LINE
   5
157
 100
AcDbEntity
   8
0
 370
15
 100
AcDbLine
   6
CONTINUOUS
  62
8
  10
 56.067810375870
  20
 126.00633062626
  30
0.0
  11
 56.067810375870
  21
 130.00632967430
  31
0.0
   0
LINE
   5
158
 100
AcDbEntity
   8
0
 370
15
 100
AcDbLine
   6
CONTINUOUS
  62
8
  10
 56.067810375870
  20
 134.00632872234
  30
0.0
  11
 56.067810375870
  21
 130.00632967430
  31
0.0
   0
SOLID
   5
159
 100
AcDbEntity
   8
0
 100
AcDbTrace
   6
CONTINUOUS
  62
8
  10
 56.067810375870
  20
 126.00633062626
  30
0.0
  11
 56.420464337287
  21
 128.00633062626
  31
0.0
  12
 55.715156414453
  22
 128.00633062626
  32
0.0
  13
 55.715156414453
  23
 128.00633062626
  33
0.0
   0
SOLID
   5
15A
 100
AcDbEntity
   8
0
 100
AcDbTrace
   6
CONTINUOUS
  62
8
  10
 56.067810375870
  20
 134.00632872234
  30
0.0
  11
 55.715156414453
  21
 132.00632872234
  31
0.0
  12
 56.420464337287
  22
 132.00632872234
  32
0.0
  13
 56.420464337287
  23
 132.00632872234
  33
0.0
   0
MTEXT
   5
15B
 100
AcDbEntity
   8
0
 370
15
  62
8
 100
AcDbMText
  10
 55.067810375870
  20
 130.00632967430
  30
0.0
  40
 3.0000000000000
  41
0.0
  71
8
  72
1
   1
\A1;16
   7
GMM002
  11
0.0
  21
 1.0000000000000
  31
0.0
   0
ENDBLK
   5
15C
 100
AcDbEntity
   8
0
 100
AcDbBlockEnd
   0
BLOCK
   5
15D
 100
AcDbEntity
   8
0
 100
AcDbBlockBegin
   2
*D17
  70
65
  10
0.0
  20
0.0
  30
0.0
   3
*D17
   0
LINE
   5
15E
 100
AcDbEntity
   8
0
 370
15
 100
AcDbLine
   6
CONTINUOUS
  62
8
  10
 33.904361554360
  20
 43.506328722337
  30
0.0
  11
 33.904361554360
  21
 35.266393152625
  31
0.0
   0
LINE
   5
15F
 100
AcDbEntity
   8
0
 370
15
 100
AcDbLine
   6
CONTINUOUS
  62
8
  10
 49.904361554360
  20
 43.506328722337
  30
0.0
  11
 49.904361554360
  21
 35.266393152625
  31
0.0
   0
LINE
   5
160
 100
AcDbEntity
   8
0
 370
15
 100
AcDbLine
   6
CONTINUOUS
  62
8
  10
 33.904361554360
  20
 36.266393152625
  30
0.0
  11
 41.904361554360
  21
 36.266393152625
  31
0.0
   0
LINE
   5
161
 100
AcDbEntity
   8
0
 370
15
 100
AcDbLine
   6
CONTINUOUS
  62
8
  10
 49.904361554360
  20
 36.266393152625
  30
0.0
  11
 41.904361554360
  21
 36.266393152625
  31
0.0
   0
SOLID
   5
162
 100
AcDbEntity
   8
0
 100
AcDbTrace
   6
CONTINUOUS
  62
8
  10
 33.904361554360
  20
 36.266393152625
  30
0.0
  11
 35.904361554360
  21
 35.913739191208
  31
0.0
  12
 35.904361554360
  22
 36.619047114042
  32
0.0
  13
 35.904361554360
  23
 36.619047114042
  33
0.0
   0
SOLID
   5
163
 100
AcDbEntity
   8
0
 100
AcDbTrace
   6
CONTINUOUS
  62
8
  10
 49.904361554360
  20
 36.266393152625
  30
0.0
  11
 47.904361554360
  21
 36.619047114042
  31
0.0
  12
 47.904361554360
  22
 35.913739191208
  32
0.0
  13
 47.904361554360
  23
 35.913739191208
  33
0.0
   0
MTEXT
   5
164
 100
AcDbEntity
   8
0
 370
15
  62
8
 100
AcDbMText
  10
 41.904361554360
  20
 37.266393152625
  30
0.0
  40
 3.0000000000000
  41
0.0
  71
8
  72
1
   1
\A1;32
   7
GMM002
   0
ENDBLK
   5
165
 100
AcDbEntity
   8
0
 100
AcDbBlockEnd
   0
BLOCK
   5
166
 100
AcDbEntity
   8
0
 100
AcDbBlockBegin
   2
*D18
  70
65
  10
0.0
  20
0.0
  30
0.0
   3
*D18
   0
LINE
   5
167
 100
AcDbEntity
   8
0
 370
15
 100
AcDbLine
   6
CONTINUOUS
  62
8
  10
 77.813186102420
  20
 51.006326818417
  30
0.0
  11
 77.813186102420
  21
 35.266393152625
  31
0.0
   0
LINE
   5
168
 100
AcDbEntity
   8
0
 370
15
 100
AcDbLine
   6
CONTINUOUS
  62
8
  10
 90.813186102420
  20
 51.006326818417
  30
0.0
  11
 90.813186102420
  21
 35.266393152625
  31
0.0
   0
LINE
   5
169
 100
AcDbEntity
   8
0
 370
15
 100
AcDbLine
   6
CONTINUOUS
  62
8
  10
 77.813186102420
  20
 36.266393152625
  30
0.0
  11
 84.313186102420
  21
 36.266393152625
  31
0.0
   0
LINE
   5
16A
 100
AcDbEntity
   8
0
 370
15
 100
AcDbLine
   6
CONTINUOUS
  62
8
  10
 90.813186102420
  20
 36.266393152625
  30
0.0
  11
 84.313186102420
  21
 36.266393152625
  31
0.0
   0
SOLID
   5
16B
 100
AcDbEntity
   8
0
 100
AcDbTrace
   6
CONTINUOUS
  62
8
  10
 77.813186102420
  20
 36.266393152625
  30
0.0
  11
 79.813186102420
  21
 35.913739191208
  31
0.0
  12
 79.813186102420
  22
 36.619047114042
  32
0.0
  13
 79.813186102420
  23
 36.619047114042
  33
0.0
   0
SOLID
   5
16C
 100
AcDbEntity
   8
0
 100
AcDbTrace
   6
CONTINUOUS
  62
8
  10
 90.813186102420
  20
 36.266393152625
  30
0.0
  11
 88.813186102420
  21
 36.619047114042
  31
0.0
  12
 88.813186102420
  22
 35.913739191208
  32
0.0
  13
 88.813186102420
  23
 35.913739191208
  33
0.0
   0
MTEXT
   5
16D
 100
AcDbEntity
   8
0
 370
15
  62
8
 100
AcDbMText
  10
 84.313186102420
  20
 37.266393152625
  30
0.0
  40
 3.0000000000000
  41
0.0
  71
8
  72
1
   1
\A1;26
   7
GMM002
   0
ENDBLK
   5
16E
 100
AcDbEntity
   8
0
 100
AcDbBlockEnd
   0
BLOCK
   5
16F
 100
AcDbEntity
   8
0
 100
AcDbBlockBegin
   2
*D19
  70
65
  10
0.0
  20
0.0
  30
0.0
   3
*D19
   0
LINE
   5
170
 100
AcDbEntity
   8
0
 370
15
 100
AcDbLine
   6
CONTINUOUS
  62
8
  10
 84.313186102420
  20
 52.006326818417
  30
0.0
  11
 86.381355061903
  21
 49.499301259107
  31
0.0
   0
LINE
   5
171
 100
AcDbEntity
   8
0
 370
15
 100
AcDbLine
   6
CONTINUOUS
  62
8
  10
 86.381355061903
  20
 49.499301259107
  30
0.0
  11
 97.817880520809
  21
 35.635994055065
  31
0.0
   0
SOLID
   5
172
 100
AcDbEntity
   8
0
 100
AcDbTrace
   6
CONTINUOUS
  62
8
  10
 88.449524021386
  20
 46.992275699798
  30
0.0
  11
 89.450208767263
  21
 45.225075978240
  31
0.0
  12
 89.994277994872
  22
 45.673905502204
  32
0.0
  13
 89.994277994872
  23
 45.673905502204
  33
0.0
   0
MTEXT
   5
173
 100
AcDbEntity
   8
0
 370
15
  62
8
 100
AcDbMText
  10
 93.498395561870
  20
 42.443493573207
  30
0.0
  40
 3.0000000000000
  41
0.0
  71
7
  72
1
   1
\A1;R13
   7
GMM002
  11
 0.63635967984085
  21
-0.77139247978759
  31
0.0
   0
ENDBLK
   5
174
 100
AcDbEntity
   8
0
 100
AcDbBlockEnd
   0
BLOCK
   5
175
 100
AcDbEntity
   8
0
 100
AcDbBlockBegin
   2
*D20
  70
65
  10
0.0
  20
0.0
  30
0.0
   3
*D20
   0
LINE
   5
176
 100
AcDbEntity
   8
0
 370
15
 100
AcDbLine
   6
CONTINUOUS
  62
8
  10
 85.313186102430
  20
 45.506326818417
  30
0.0
  11
 101.42247633311
  21
 45.506326818417
  31
0.0
   0
LINE
   5
177
 100
AcDbEntity
   8
0
 370
15
 100
AcDbLine
   6
CONTINUOUS
  62
8
  10
 85.313186102430
  20
 132.50633062626
  30
0.0
  11
 101.42247633311
  21
 132.50633062626
  31
0.0
   0
LINE
   5
178
 100
AcDbEntity
   8
0
 370
15
 100
AcDbLine
   6
CONTINUOUS
  62
8
  10
 100.42247633311
  20
 45.506326818417
  30
0.0
  11
 100.42247633311
  21
 89.006328722339
  31
0.0
   0
LINE
   5
179
 100
AcDbEntity
   8
0
 370
15
 100
AcDbLine
   6
CONTINUOUS
  62
8
  10
 100.42247633311
  20
 132.50633062626
  30
0.0
  11
 100.42247633311
  21
 89.006328722339
  31
0.0
   0
SOLID
   5
17A
 100
AcDbEntity
   8
0
 100
AcDbTrace
   6
CONTINUOUS
  62
8
  10
 100.42247633311
  20
 45.506326818417
  30
0.0
  11
 100.77513029453
  21
 47.506326818417
  31
0.0
  12
 100.06982237169
  22
 47.506326818417
  32
0.0
  13
 100.06982237169
  23
 47.506326818417
  33
0.0
   0
SOLID
   5
17B
 100
AcDbEntity
   8
0
 100
AcDbTrace
   6
CONTINUOUS
  62
8
  10
 100.42247633311
  20
 132.50633062626
  30
0.0
  11
 100.06982237169
  21
 130.50633062626
  31
0.0
  12
 100.77513029453
  22
 130.50633062626
  32
0.0
  13
 100.77513029453
  23
 130.50633062626
  33
0.0
   0
MTEXT
   5
17C
 100
AcDbEntity
   8
0
 370
15
  62
8
 100
AcDbMText
  10
 99.422476333111
  20
 89.006328722339
  30
0.0
  40
 3.0000000000000
  41
0.0
  71
8
  72
1
   1
\A1;ロング引手長さ+26mm
   7
GMM002
  11
0.0
  21
 1.0000000000000
  31
0.0
   0
ENDBLK
   5
17D
 100
AcDbEntity
   8
0
 100
AcDbBlockEnd
   0
BLOCK
   5
17E
 100
AcDbEntity
   8
0
 100
AcDbBlockBegin
   2
*D21
  70
65
  10
0.0
  20
0.0
  30
0.0
   3
*D21
   0
LINE
   5
17F
 100
AcDbEntity
   8
0
 370
15
 100
AcDbLine
   6
CONTINUOUS
  62
8
  10
 128.05939450400
  20
 38.006328722337
  30
0.0
  11
 128.05939450400
  21
 27.939849942748
  31
0.0
   0
LINE
   5
180
 100
AcDbEntity
   8
0
 370
15
 100
AcDbLine
   6
CONTINUOUS
  62
8
  10
 144.05939450400
  20
 38.006328722337
  30
0.0
  11
 144.05939450400
  21
 27.939849942748
  31
0.0
   0
LINE
   5
181
 100
AcDbEntity
   8
0
 370
15
 100
AcDbLine
   6
CONTINUOUS
  62
8
  10
 128.05939450400
  20
 28.939849942748
  30
0.0
  11
 136.05939450400
  21
 28.939849942748
  31
0.0
   0
LINE
   5
182
 100
AcDbEntity
   8
0
 370
15
 100
AcDbLine
   6
CONTINUOUS
  62
8
  10
 144.05939450400
  20
 28.939849942748
  30
0.0
  11
 136.05939450400
  21
 28.939849942748
  31
0.0
   0
SOLID
   5
183
 100
AcDbEntity
   8
0
 100
AcDbTrace
   6
CONTINUOUS
  62
8
  10
 128.05939450400
  20
 28.939849942748
  30
0.0
  11
 130.05939450400
  21
 28.587195981331
  31
0.0
  12
 130.05939450400
  22
 29.292503904165
  32
0.0
  13
 130.05939450400
  23
 29.292503904165
  33
0.0
   0
SOLID
   5
184
 100
AcDbEntity
   8
0
 100
AcDbTrace
   6
CONTINUOUS
  62
8
  10
 144.05939450400
  20
 28.939849942748
  30
0.0
  11
 142.05939450400
  21
 29.292503904165
  31
0.0
  12
 142.05939450400
  22
 28.587195981331
  32
0.0
  13
 142.05939450400
  23
 28.587195981331
  33
0.0
   0
MTEXT
   5
185
 100
AcDbEntity
   8
0
 370
15
  62
8
 100
AcDbMText
  10
 136.05939450400
  20
 29.939849942748
  30
0.0
  40
 3.0000000000000
  41
0.0
  71
8
  72
1
   1
\A1;32
   7
GMM002
   0
ENDBLK
   5
186
 100
AcDbEntity
   8
0
 100
AcDbBlockEnd
   0
BLOCK
   5
187
 100
AcDbEntity
   8
0
 100
AcDbBlockBegin
   2
*D22
  70
65
  10
0.0
  20
0.0
  30
0.0
   3
*D22
   0
LINE
   5
188
 100
AcDbEntity
   8
0
 370
15
 100
AcDbLine
   6
CONTINUOUS
  62
8
  10
 165.80939450406
  20
 38.006328722337
  30
0.0
  11
 165.80939450406
  21
 27.939849942748
  31
0.0
   0
LINE
   5
189
 100
AcDbEntity
   8
0
 370
15
 100
AcDbLine
   6
CONTINUOUS
  62
8
  10
 178.80939450406
  20
 38.006328722337
  30
0.0
  11
 178.80939450406
  21
 27.939849942748
  31
0.0
   0
LINE
   5
18A
 100
AcDbEntity
   8
0
 370
15
 100
AcDbLine
   6
CONTINUOUS
  62
8
  10
 165.80939450406
  20
 28.939849942748
  30
0.0
  11
 172.30939450406
  21
 28.939849942748
  31
0.0
   0
LINE
   5
18B
 100
AcDbEntity
   8
0
 370
15
 100
AcDbLine
   6
CONTINUOUS
  62
8
  10
 178.80939450406
  20
 28.939849942748
  30
0.0
  11
 172.30939450406
  21
 28.939849942748
  31
0.0
   0
SOLID
   5
18C
 100
AcDbEntity
   8
0
 100
AcDbTrace
   6
CONTINUOUS
  62
8
  10
 165.80939450406
  20
 28.939849942748
  30
0.0
  11
 167.80939450406
  21
 28.587195981331
  31
0.0
  12
 167.80939450406
  22
 29.292503904165
  32
0.0
  13
 167.80939450406
  23
 29.292503904165
  33
0.0
   0
SOLID
   5
18D
 100
AcDbEntity
   8
0
 100
AcDbTrace
   6
CONTINUOUS
  62
8
  10
 178.80939450406
  20
 28.939849942748
  30
0.0
  11
 176.80939450406
  21
 29.292503904165
  31
0.0
  12
 176.80939450406
  22
 28.587195981331
  32
0.0
  13
 176.80939450406
  23
 28.587195981331
  33
0.0
   0
MTEXT
   5
18E
 100
AcDbEntity
   8
0
 370
15
  62
8
 100
AcDbMText
  10
 172.30939450406
  20
 29.939849942748
  30
0.0
  40
 3.0000000000000
  41
0.0
  71
8
  72
1
   1
\A1;26
   7
GMM002
   0
ENDBLK
   5
18F
 100
AcDbEntity
   8
0
 100
AcDbBlockEnd
   0
BLOCK
   5
190
 100
AcDbEntity
   8
0
 100
AcDbBlockBegin
   2
*D23
  70
65
  10
0.0
  20
0.0
  30
0.0
   3
*D23
   0
LINE
   5
191
 100
AcDbEntity
   8
0
 370
15
 100
AcDbLine
   6
CONTINUOUS
  62
8
  10
 179.80939450406
  20
 39.006328722337
  30
0.0
  11
 187.92969324583
  21
 39.006328722337
  31
0.0
   0
LINE
   5
192
 100
AcDbEntity
   8
0
 370
15
 100
AcDbLine
   6
CONTINUOUS
  62
8
  10
 179.80939450406
  20
 139.00632872234
  30
0.0
  11
 187.92969324583
  21
 139.00632872234
  31
0.0
   0
LINE
   5
193
 100
AcDbEntity
   8
0
 370
15
 100
AcDbLine
   6
CONTINUOUS
  62
8
  10
 186.92969324583
  20
 39.006328722337
  30
0.0
  11
 186.92969324583
  21
 89.006328722337
  31
0.0
   0
LINE
   5
194
 100
AcDbEntity
   8
0
 370
15
 100
AcDbLine
   6
CONTINUOUS
  62
8
  10
 186.92969324583
  20
 139.00632872234
  30
0.0
  11
 186.92969324583
  21
 89.006328722337
  31
0.0
   0
SOLID
   5
195
 100
AcDbEntity
   8
0
 100
AcDbTrace
   6
CONTINUOUS
  62
8
  10
 186.92969324583
  20
 39.006328722337
  30
0.0
  11
 187.28234720724
  21
 41.006328722337
  31
0.0
  12
 186.57703928441
  22
 41.006328722337
  32
0.0
  13
 186.57703928441
  23
 41.006328722337
  33
0.0
   0
SOLID
   5
196
 100
AcDbEntity
   8
0
 100
AcDbTrace
   6
CONTINUOUS
  62
8
  10
 186.92969324583
  20
 139.00632872234
  30
0.0
  11
 186.57703928441
  21
 137.00632872234
  31
0.0
  12
 187.28234720724
  22
 137.00632872234
  32
0.0
  13
 187.28234720724
  23
 137.00632872234
  33
0.0
   0
MTEXT
   5
197
 100
AcDbEntity
   8
0
 370
15
  62
8
 100
AcDbMText
  10
 185.92969324583
  20
 89.006328722337
  30
0.0
  40
 3.0000000000000
  41
0.0
  71
8
  72
1
   1
\A1;戸高全長
   7
GMM002
  11
0.0
  21
 1.0000000000000
  31
0.0
   0
ENDBLK
   5
198
 100
AcDbEntity
   8
0
 100
AcDbBlockEnd
   0
BLOCK
   5
199
 100
AcDbEntity
   8
0
 100
AcDbBlockBegin
   2
*D24
  70
65
  10
0.0
  20
0.0
  30
0.0
   3
*D24
   0
LINE
   5
19A
 100
AcDbEntity
   8
0
 370
15
 100
AcDbLine
   6
CONTINUOUS
  62
8
  10
 145.05939450400
  20
 39.006328722337
  30
0.0
  11
 153.55939450404
  21
 39.006328722337
  31
0.0
   0
LINE
   5
19B
 100
AcDbEntity
   8
0
 370
15
 100
AcDbLine
   6
CONTINUOUS
  62
8
  10
 145.05939450672
  20
 139.00632872234
  30
0.0
  11
 153.55939450404
  21
 139.00632872234
  31
0.0
   0
LINE
   5
19C
 100
AcDbEntity
   8
0
 370
15
 100
AcDbLine
   6
CONTINUOUS
  62
8
  10
 152.55939450404
  20
 39.006328722337
  30
0.0
  11
 152.55939450404
  21
 89.006328722337
  31
0.0
   0
LINE
   5
19D
 100
AcDbEntity
   8
0
 370
15
 100
AcDbLine
   6
CONTINUOUS
  62
8
  10
 152.55939450404
  20
 139.00632872234
  30
0.0
  11
 152.55939450404
  21
 89.006328722337
  31
0.0
   0
SOLID
   5
19E
 100
AcDbEntity
   8
0
 100
AcDbTrace
   6
CONTINUOUS
  62
8
  10
 152.55939450404
  20
 39.006328722337
  30
0.0
  11
 152.91204846545
  21
 41.006328722337
  31
0.0
  12
 152.20674054262
  22
 41.006328722337
  32
0.0
  13
 152.20674054262
  23
 41.006328722337
  33
0.0
   0
SOLID
   5
19F
 100
AcDbEntity
   8
0
 100
AcDbTrace
   6
CONTINUOUS
  62
8
  10
 152.55939450404
  20
 139.00632872234
  30
0.0
  11
 152.20674054262
  21
 137.00632872234
  31
0.0
  12
 152.91204846545
  22
 137.00632872234
  32
0.0
  13
 152.91204846545
  23
 137.00632872234
  33
0.0
   0
MTEXT
   5
1A0
 100
AcDbEntity
   8
0
 370
15
  62
8
 100
AcDbMText
  10
 151.55939450404
  20
 89.006328722337
  30
0.0
  40
 3.0000000000000
  41
0.0
  71
8
  72
1
   1
\A1;ロング引手長さ
   7
GMM002
  11
0.0
  21
 1.0000000000000
  31
0.0
   0
ENDBLK
   5
1A1
 100
AcDbEntity
   8
0
 100
AcDbBlockEnd
   0
BLOCK
   5
1A2
 100
AcDbEntity
   8
0
 100
AcDbBlockBegin
   2
*D25
  70
65
  10
0.0
  20
0.0
  30
0.0
   3
*D25
   0
LINE
   5
1A3
 100
AcDbEntity
   8
0
 370
15
 100
AcDbLine
   6
CONTINUOUS
  62
8
  10
 50.654361554360
  20
 147.19786905167
  30
0.0
  11
 57.067810375870
  21
 147.19786905167
  31
0.0
   0
LINE
   5
1A4
 100
AcDbEntity
   8
0
 370
15
 100
AcDbLine
   6
CONTINUOUS
  62
8
  10
 56.067810375870
  20
 139.29407948093
  30
0.0
  11
 56.067810375870
  21
 147.49786905167
  31
0.0
   0
LINE
   5
1A5
 100
AcDbEntity
   8
0
 370
15
 100
AcDbLine
   6
CONTINUOUS
  62
8
  10
 56.067810375870
  20
 147.79786905167
  30
0.0
  11
 56.067810375870
  21
 147.49786905167
  31
0.0
   0
SOLID
   5
1A6
 100
AcDbEntity
   8
0
 100
AcDbTrace
   6
CONTINUOUS
  62
8
  10
 56.067810375870
  20
 147.19786905167
  30
0.0
  11
 55.715156414453
  21
 145.19786905167
  31
0.0
  12
 56.420464337287
  22
 145.19786905167
  32
0.0
  13
 56.420464337287
  23
 145.19786905167
  33
0.0
   0
MTEXT
   5
1A7
 100
AcDbEntity
   8
0
 370
15
  62
8
 100
AcDbMText
  10
 55.084570526068
  20
 146.04407948093
  30
0.0
  40
 3.0000000000000
  41
0.0
  71
9
  72
1
   1
\A1;1.2
   7
GMM002
  11
0.0
  21
 1.0000000000000
  31
0.0
   0
ENDBLK
   5
1A8
 100
AcDbEntity
   8
0
 100
AcDbBlockEnd
   0
BLOCK
   5
1A9
 100
AcDbEntity
   8
0
 100
AcDbBlockBegin
   2
*D26
  70
65
  10
0.0
  20
0.0
  30
0.0
   3
*D26
   0
LINE
   5
1AA
 100
AcDbEntity
   8
0
 370
15
 100
AcDbLine
   6
CONTINUOUS
  62
8
  10
 50.904361554360
  20
 147.79786905167
  30
0.0
  11
 57.067810375870
  21
 147.79786905167
  31
0.0
   0
LINE
   5
1AB
 100
AcDbEntity
   8
0
 370
15
 100
AcDbLine
   6
CONTINUOUS
  62
8
  10
 48.829363458275
  20
 152.54786905167
  30
0.0
  11
 57.067810375870
  21
 152.54786905167
  31
0.0
   0
LINE
   5
1AC
 100
AcDbEntity
   8
0
 370
15
 100
AcDbLine
   6
CONTINUOUS
  62
8
  10
 56.067810375870
  20
 147.79786905167
  30
0.0
  11
 56.067810375870
  21
 150.17286905167
  31
0.0
   0
LINE
   5
1AD
 100
AcDbEntity
   8
0
 370
15
 100
AcDbLine
   6
CONTINUOUS
  62
8
  10
 56.067810375870
  20
 159.71497568578
  30
0.0
  11
 56.067810375870
  21
 150.17286905167
  31
0.0
   0
INSERT
   5
1AE
 100
AcDbEntity
   8
0
   6
CONTINUOUS
  62
8
 100
AcDbBlockReference
   2
_DOT
  10
 56.067810375870
  20
 147.79786905167
  30
0.0
  41
 0.53333333333333
  42
 0.53333333333333
  43
 0.53333333333333
  50
 270.00000000000
   0
SOLID
   5
1AF
 100
AcDbEntity
   8
0
 100
AcDbTrace
   6
CONTINUOUS
  62
8
  10
 56.067810375870
  20
 152.54786905167
  30
0.0
  11
 56.420464337287
  21
 154.54786905167
  31
0.0
  12
 55.715156414453
  22
 154.54786905167
  32
0.0
  13
 55.715156414453
  23
 154.54786905167
  33
0.0
   0
MTEXT
   5
1B0
 100
AcDbEntity
   8
0
 370
15
  62
8
 100
AcDbMText
  10
 55.116760740974
  20
 152.96497568578
  30
0.0
  40
 3.0000000000000
  41
0.0
  71
7
  72
1
   1
\A1;9.5
   7
GMM002
  11
0.0
  21
 1.0000000000000
  31
0.0
   0
ENDBLK
   5
1B1
 100
AcDbEntity
   8
0
 100
AcDbBlockEnd
   0
BLOCK
   5
1B2
 100
AcDbEntity
   8
0
 100
AcDbBlockBegin
   2
*D27
  70
65
  10
0.0
  20
0.0
  30
0.0
   3
*D27
   0
LINE
   5
1B3
 100
AcDbEntity
   8
0
 370
15
 100
AcDbLine
   6
CONTINUOUS
  62
8
  10
 213.14687351488
  20
 87.217004414023
  30
0.0
  11
 207.20116736475
  21
 87.217004414023
  31
0.0
   0
LINE
   5
1B4
 100
AcDbEntity
   8
0
 370
15
 100
AcDbLine
   6
CONTINUOUS
  62
8
  10
 213.14687351488
  20
 119.21700441402
  30
0.0
  11
 207.20116736475
  21
 119.21700441402
  31
0.0
   0
LINE
   5
1B5
 100
AcDbEntity
   8
0
 370
15
 100
AcDbLine
   6
CONTINUOUS
  62
8
  10
 208.20116736475
  20
 87.217004414023
  30
0.0
  11
 208.20116736475
  21
 103.21700441402
  31
0.0
   0
LINE
   5
1B6
 100
AcDbEntity
   8
0
 370
15
 100
AcDbLine
   6
CONTINUOUS
  62
8
  10
 208.20116736475
  20
 119.21700441402
  30
0.0
  11
 208.20116736475
  21
 103.21700441402
  31
0.0
   0
SOLID
   5
1B7
 100
AcDbEntity
   8
0
 100
AcDbTrace
   6
CONTINUOUS
  62
8
  10
 208.20116736475
  20
 87.217004414023
  30
0.0
  11
 208.55382132617
  21
 89.217004414023
  31
0.0
  12
 207.84851340334
  22
 89.217004414023
  32
0.0
  13
 207.84851340334
  23
 89.217004414023
  33
0.0
   0
SOLID
   5
1B8
 100
AcDbEntity
   8
0
 100
AcDbTrace
   6
CONTINUOUS
  62
8
  10
 208.20116736475
  20
 119.21700441402
  30
0.0
  11
 207.84851340334
  21
 117.21700441402
  31
0.0
  12
 208.55382132617
  22
 117.21700441402
  32
0.0
  13
 208.55382132617
  23
 117.21700441402
  33
0.0
   0
MTEXT
   5
1B9
 100
AcDbEntity
   8
0
 370
15
  62
8
 100
AcDbMText
  10
 207.20116736475
  20
 103.21700441402
  30
0.0
  40
 3.0000000000000
  41
0.0
  71
8
  72
1
   1
\A1;32
   7
GMM002
  11
0.0
  21
 1.0000000000000
  31
0.0
   0
ENDBLK
   5
1BA
 100
AcDbEntity
   8
0
 100
AcDbBlockEnd
   0
BLOCK
   5
1BB
 100
AcDbEntity
   8
0
 100
AcDbBlockBegin
   2
*D28
  70
65
  10
0.0
  20
0.0
  30
0.0
   3
*D28
   0
LINE
   5
1BC
 100
AcDbEntity
   8
0
 370
15
 100
AcDbLine
   6
CONTINUOUS
  62
8
  10
 245.84687351488
  20
 90.217004413709
  30
0.0
  11
 254.76050623003
  21
 90.217004413709
  31
0.0
   0
LINE
   5
1BD
 100
AcDbEntity
   8
0
 370
15
 100
AcDbLine
   6
CONTINUOUS
  62
8
  10
 245.84687351488
  20
 116.21700441371
  30
0.0
  11
 254.76050623003
  21
 116.21700441371
  31
0.0
   0
LINE
   5
1BE
 100
AcDbEntity
   8
0
 370
15
 100
AcDbLine
   6
CONTINUOUS
  62
8
  10
 253.76050623003
  20
 90.217004413709
  30
0.0
  11
 253.76050623003
  21
 103.21700441371
  31
0.0
   0
LINE
   5
1BF
 100
AcDbEntity
   8
0
 370
15
 100
AcDbLine
   6
CONTINUOUS
  62
8
  10
 253.76050623003
  20
 116.21700441371
  30
0.0
  11
 253.76050623003
  21
 103.21700441371
  31
0.0
   0
SOLID
   5
1C0
 100
AcDbEntity
   8
0
 100
AcDbTrace
   6
CONTINUOUS
  62
8
  10
 253.76050623003
  20
 90.217004413709
  30
0.0
  11
 254.11316019145
  21
 92.217004413709
  31
0.0
  12
 253.40785226861
  22
 92.217004413709
  32
0.0
  13
 253.40785226861
  23
 92.217004413709
  33
0.0
   0
SOLID
   5
1C1
 100
AcDbEntity
   8
0
 100
AcDbTrace
   6
CONTINUOUS
  62
8
  10
 253.76050623003
  20
 116.21700441371
  30
0.0
  11
 253.40785226861
  21
 114.21700441371
  31
0.0
  12
 254.11316019145
  22
 114.21700441371
  32
0.0
  13
 254.11316019145
  23
 114.21700441371
  33
0.0
   0
MTEXT
   5
1C2
 100
AcDbEntity
   8
0
 370
15
  62
8
 100
AcDbMText
  10
 252.76050623003
  20
 103.21700441371
  30
0.0
  40
 3.0000000000000
  41
0.0
  71
8
  72
1
   1
\A1;26
   7
GMM002
  11
0.0
  21
 1.0000000000000
  31
0.0
   0
ENDBLK
   5
1C3
 100
AcDbEntity
   8
0
 100
AcDbBlockEnd
   0
BLOCK
   5
1C4
 100
AcDbEntity
   8
0
 100
AcDbBlockBegin
   2
*D29
  70
65
  10
0.0
  20
0.0
  30
0.0
   3
*D29
   0
LINE
   5
1C5
 100
AcDbEntity
   8
0
 370
15
 100
AcDbLine
   6
CONTINUOUS
  62
8
  10
 213.64687351488
  20
 86.717004414023
  30
0.0
  11
 213.64687351488
  21
 80.012480796655
  31
0.0
   0
LINE
   5
1C6
 100
AcDbEntity
   8
0
 370
15
 100
AcDbLine
   6
CONTINUOUS
  62
8
  10
 204.50399270375
  20
 81.012480796655
  30
0.0
  11
 214.24687351488
  21
 81.012480796655
  31
0.0
   0
LINE
   5
1C7
 100
AcDbEntity
   8
0
 370
15
 100
AcDbLine
   6
CONTINUOUS
  62
8
  10
 217.34687351488
  20
 81.012480796655
  30
0.0
  11
 214.24687351488
  21
 81.012480796655
  31
0.0
   0
SOLID
   5
1C8
 100
AcDbEntity
   8
0
 100
AcDbTrace
   6
CONTINUOUS
  62
8
  10
 213.64687351488
  20
 81.012480796655
  30
0.0
  11
 211.64687351488
  21
 81.365134758072
  31
0.0
  12
 211.64687351488
  22
 80.659826835239
  32
0.0
  13
 211.64687351488
  23
 80.659826835239
  33
0.0
   0
SOLID
   5
1C9
 100
AcDbEntity
   8
0
 100
AcDbTrace
   6
CONTINUOUS
  62
8
  10
 214.84687351488
  20
 81.012480796655
  30
0.0
  11
 216.84687351488
  21
 80.659826835239
  31
0.0
  12
 216.84687351488
  22
 81.365134758072
  32
0.0
  13
 216.84687351488
  23
 81.365134758072
  33
0.0
   0
MTEXT
   5
1CA
 100
AcDbEntity
   8
0
 370
15
  62
8
 100
AcDbMText
  10
 212.00399270375
  20
 81.981828432087
  30
0.0
  40
 3.0000000000000
  41
0.0
  71
9
  72
1
   1
\A1;1.2
   7
GMM002
   0
ENDBLK
   5
1CB
 100
AcDbEntity
   8
0
 100
AcDbBlockEnd
   0
BLOCK
   5
1CC
 100
AcDbEntity
   8
0
 100
AcDbBlockBegin
   2
*D30
  70
65
  10
0.0
  20
0.0
  30
0.0
   3
*D30
   0
LINE
   5
1CD
 100
AcDbEntity
   8
0
 370
15
 100
AcDbLine
   6
CONTINUOUS
  62
8
  10
 235.34687351488
  20
 89.217004413709
  30
0.0
  11
 235.34687351488
  21
 80.012480796655
  31
0.0
   0
LINE
   5
1CE
 100
AcDbEntity
   8
0
 370
15
 100
AcDbLine
   6
CONTINUOUS
  62
8
  10
 235.34687351488
  20
 81.012480796655
  30
0.0
  11
 240.09687351488
  21
 81.012480796655
  31
0.0
   0
LINE
   5
1CF
 100
AcDbEntity
   8
0
 370
15
 100
AcDbLine
   6
CONTINUOUS
  62
8
  10
 244.84687351488
  20
 81.012480796655
  30
0.0
  11
 240.09687351488
  21
 81.012480796655
  31
0.0
   0
SOLID
   5
1D0
 100
AcDbEntity
   8
0
 100
AcDbTrace
   6
CONTINUOUS
  62
8
  10
 235.34687351488
  20
 81.012480796655
  30
0.0
  11
 237.34687351488
  21
 80.659826835239
  31
0.0
  12
 237.34687351488
  22
 81.365134758072
  32
0.0
  13
 237.34687351488
  23
 81.365134758072
  33
0.0
   0
SOLID
   5
1D1
 100
AcDbEntity
   8
0
 100
AcDbTrace
   6
CONTINUOUS
  62
8
  10
 244.84687351488
  20
 81.012480796655
  30
0.0
  11
 242.84687351488
  21
 81.365134758072
  31
0.0
  12
 242.84687351488
  22
 80.659826835239
  32
0.0
  13
 242.84687351488
  23
 80.659826835239
  33
0.0
   0
MTEXT
   5
1D2
 100
AcDbEntity
   8
0
 370
15
  62
8
 100
AcDbMText
  10
 240.09687351488
  20
 82.012480796655
  30
0.0
  40
 3.0000000000000
  41
0.0
  71
8
  72
1
   1
\A1;9.5
   7
GMM002
   0
ENDBLK
   5
1D3
 100
AcDbEntity
   8
0
 100
AcDbBlockEnd
   0
BLOCK
   5
1D4
 100
AcDbEntity
   8
0
 100
AcDbBlockBegin
   2
*D31
  70
65
  10
0.0
  20
0.0
  30
0.0
   3
*D31
   0
LINE
   5
1D5
 100
AcDbEntity
   8
0
 370
15
 100
AcDbLine
   6
CONTINUOUS
  62
8
  10
 214.84687351488
  20
 70.163243800096
  30
0.0
  11
 229.84687351488
  21
 70.163243800096
  31
0.0
   0
LINE
   5
1D6
 100
AcDbEntity
   8
0
 370
15
 100
AcDbLine
   6
CONTINUOUS
  62
8
  10
 244.84687351488
  20
 70.163243800096
  30
0.0
  11
 229.84687351488
  21
 70.163243800096
  31
0.0
   0
SOLID
   5
1D7
 100
AcDbEntity
   8
0
 100
AcDbTrace
   6
CONTINUOUS
  62
8
  10
 214.84687351488
  20
 70.163243800096
  30
0.0
  11
 216.84687351488
  21
 69.810589838679
  31
0.0
  12
 216.84687351488
  22
 70.515897761513
  32
0.0
  13
 216.84687351488
  23
 70.515897761513
  33
0.0
   0
SOLID
   5
1D8
 100
AcDbEntity
   8
0
 100
AcDbTrace
   6
CONTINUOUS
  62
8
  10
 244.84687351488
  20
 70.163243800096
  30
0.0
  11
 242.84687351488
  21
 70.515897761513
  31
0.0
  12
 242.84687351488
  22
 69.810589838679
  32
0.0
  13
 242.84687351488
  23
 69.810589838679
  33
0.0
   0
MTEXT
   5
1D9
 100
AcDbEntity
   8
0
 370
15
  62
8
 100
AcDbMText
  10
 229.84687351488
  20
 71.163243800096
  30
0.0
  40
 3.0000000000000
  41
0.0
  71
8
  72
1
   1
\A1;扉厚30mm以上
   7
GMM002
   0
ENDBLK
   5
1DA
 100
AcDbEntity
   8
0
 100
AcDbBlockEnd
   0
ENDSEC
   0
SECTION
   2
ENTITIES
   0
LINE
   5
1DB
 100
AcDbEntity
   8
LEVEL001
 370
30
 100
AcDbLine
   6
CONTINUOUS
  62
7
  10
 344.15000000000
  20
 272.07500000000
  30
0.0
  11
 336.95000000000
  21
 272.07500000000
  31
0.0
   0
LINE
   5
1DC
 100
AcDbEntity
   8
LEVEL001
 370
30
 100
AcDbLine
   6
CONTINUOUS
  62
7
  10
 336.95000000000
  20
 272.07500000000
  30
0.0
  11
 336.95000000000
  21
 261.27500000000
  31
0.0
   0
LINE
   5
1DD
 100
AcDbEntity
   8
LEVEL001
 370
30
 100
AcDbLine
   6
CONTINUOUS
  62
7
  10
 336.95000000000
  20
 261.27500000000
  30
0.0
  11
 340.55000000000
  21
 261.27500000000
  31
0.0
   0
LINE
   5
1DE
 100
AcDbEntity
   8
LEVEL001
 370
30
 100
AcDbLine
   6
CONTINUOUS
  62
7
  10
 340.55000000000
  20
 261.27500000000
  30
0.0
  11
 340.55000000000
  21
 263.07500000000
  31
0.0
   0
LINE
   5
1DF
 100
AcDbEntity
   8
LEVEL001
 370
30
 100
AcDbLine
   6
CONTINUOUS
  62
7
  10
 340.55000000000
  20
 263.07500000000
  30
0.0
  11
 344.15000000000
  21
 263.07500000000
  31
0.0
   0
ARC
   5
1E0
 100
AcDbEntity
   8
LEVEL001
 370
30
   6
CONTINUOUS
  62
7
 100
AcDbCircle
  10
 344.15000000000
  20
 267.57500000000
  30
0.0
  40
 4.5000000000000
 100
AcDbArc
  50
 270.00000000000
  51
 90.000000000000
   0
LINE
   5
1E1
 100
AcDbEntity
   8
LEVEL001
 370
30
 100
AcDbLine
   6
CONTINUOUS
  62
7
  10
 340.55000000000
  20
 266.67500000000
  30
0.0
  11
 344.15000000000
  21
 266.67500000000
  31
0.0
   0
ARC
   5
1E2
 100
AcDbEntity
   8
LEVEL001
 370
30
   6
CONTINUOUS
  62
7
 100
AcDbCircle
  10
 344.15000000000
  20
 267.57500000000
  30
0.0
  40
 0.90000000000000
 100
AcDbArc
  50
 270.00000000000
  51
 90.000000000000
   0
LINE
   5
1E3
 100
AcDbEntity
   8
LEVEL001
 370
30
 100
AcDbLine
   6
CONTINUOUS
  62
7
  10
 344.15000000000
  20
 268.47500000000
  30
0.0
  11
 340.55000000000
  21
 268.47500000000
  31
0.0
   0
LINE
   5
1E4
 100
AcDbEntity
   8
LEVEL001
 370
30
 100
AcDbLine
   6
CONTINUOUS
  62
7
  10
 340.55000000000
  20
 268.47500000000
  30
0.0
  11
 340.55000000000
  21
 266.67500000000
  31
0.0
   0
LINE
   5
1E5
 100
AcDbEntity
   8
LEVEL001
 370
30
 100
AcDbLine
   6
CONTINUOUS
  62
7
  10
 345.95000000000
  20
 261.27500000000
  30
0.0
  11
 353.15000000000
  21
 272.07500000000
  31
0.0
   0
LINE
   5
1E6
 100
AcDbEntity
   8
LEVEL001
 370
30
 100
AcDbLine
   6
CONTINUOUS
  62
7
  10
 353.15000000000
  20
 272.07500000000
  30
0.0
  11
 362.15000000000
  21
 272.07500000000
  31
0.0
   0
LINE
   5
1E7
 100
AcDbEntity
   8
LEVEL001
 370
30
 100
AcDbLine
   6
CONTINUOUS
  62
7
  10
 362.15000000000
  20
 272.07500000000
  30
0.0
  11
 362.15000000000
  21
 264.87500000000
  31
0.0
   0
LINE
   5
1E8
 100
AcDbEntity
   8
LEVEL001
 370
30
 100
AcDbLine
   6
CONTINUOUS
  62
7
  10
 362.15000000000
  20
 264.87500000000
  30
0.0
  11
 367.55000000000
  21
 264.87500000000
  31
0.0
   0
LINE
   5
1E9
 100
AcDbEntity
   8
LEVEL001
 370
30
 100
AcDbLine
   6
CONTINUOUS
  62
7
  10
 367.55000000000
  20
 264.87500000000
  30
0.0
  11
 367.55000000000
  21
 268.47500000000
  31
0.0
   0
LINE
   5
1EA
 100
AcDbEntity
   8
LEVEL001
 370
30
 100
AcDbLine
   6
CONTINUOUS
  62
7
  10
 367.55000000000
  20
 268.47500000000
  30
0.0
  11
 363.95000000000
  21
 268.47500000000
  31
0.0
   0
LINE
   5
1EB
 100
AcDbEntity
   8
LEVEL001
 370
30
 100
AcDbLine
   6
CONTINUOUS
  62
7
  10
 363.95000000000
  20
 268.47500000000
  30
0.0
  11
 363.95000000000
  21
 272.07500000000
  31
0.0
   0
LINE
   5
1EC
 100
AcDbEntity
   8
LEVEL001
 370
30
 100
AcDbLine
   6
CONTINUOUS
  62
7
  10
 363.95000000000
  20
 272.07500000000
  30
0.0
  11
 385.55000000000
  21
 272.07500000000
  31
0.0
   0
LINE
   5
1ED
 100
AcDbEntity
   8
LEVEL001
 370
30
 100
AcDbLine
   6
CONTINUOUS
  62
7
  10
 385.55000000000
  20
 272.07500000000
  30
0.0
  11
 385.55000000000
  21
 268.47500000000
  31
0.0
   0
LINE
   5
1EE
 100
AcDbEntity
   8
LEVEL001
 370
30
 100
AcDbLine
   6
CONTINUOUS
  62
7
  10
 385.55000000000
  20
 268.47500000000
  30
0.0
  11
 378.35000000000
  21
 268.47500000000
  31
0.0
   0
LINE
   5
1EF
 100
AcDbEntity
   8
LEVEL001
 370
30
 100
AcDbLine
   6
CONTINUOUS
  62
7
  10
 378.35000000000
  20
 268.47500000000
  30
0.0
  11
 378.35000000000
  21
 267.57500000000
  31
0.0
   0
LINE
   5
1F0
 100
AcDbEntity
   8
LEVEL001
 370
30
 100
AcDbLine
   6
CONTINUOUS
  62
7
  10
 378.35000000000
  20
 267.57500000000
  30
0.0
  11
 384.65000000000
  21
 267.57500000000
  31
0.0
   0
LINE
   5
1F1
 100
AcDbEntity
   8
LEVEL001
 370
30
 100
AcDbLine
   6
CONTINUOUS
  62
7
  10
 384.65000000000
  20
 267.57500000000
  30
0.0
  11
 384.65000000000
  21
 265.77500000000
  31
0.0
   0
LINE
   5
1F2
 100
AcDbEntity
   8
LEVEL001
 370
30
 100
AcDbLine
   6
CONTINUOUS
  62
7
  10
 384.65000000000
  20
 265.77500000000
  30
0.0
  11
 378.35000000000
  21
 265.77500000000
  31
0.0
   0
LINE
   5
1F3
 100
AcDbEntity
   8
LEVEL001
 370
30
 100
AcDbLine
   6
CONTINUOUS
  62
7
  10
 378.35000000000
  20
 265.77500000000
  30
0.0
  11
 378.35000000000
  21
 264.87500000000
  31
0.0
   0
LINE
   5
1F4
 100
AcDbEntity
   8
LEVEL001
 370
30
 100
AcDbLine
   6
CONTINUOUS
  62
7
  10
 378.35000000000
  20
 264.87500000000
  30
0.0
  11
 385.55000000000
  21
 264.87500000000
  31
0.0
   0
LINE
   5
1F5
 100
AcDbEntity
   8
LEVEL001
 370
30
 100
AcDbLine
   6
CONTINUOUS
  62
7
  10
 385.55000000000
  20
 264.87500000000
  30
0.0
  11
 385.55000000000
  21
 261.27500000000
  31
0.0
   0
LINE
   5
1F6
 100
AcDbEntity
   8
LEVEL001
 370
30
 100
AcDbLine
   6
CONTINUOUS
  62
7
  10
 385.55000000000
  20
 261.27500000000
  30
0.0
  11
 374.75000000000
  21
 261.27500000000
  31
0.0
   0
LINE
   5
1F7
 100
AcDbEntity
   8
LEVEL001
 370
30
 100
AcDbLine
   6
CONTINUOUS
  62
7
  10
 374.75000000000
  20
 261.27500000000
  30
0.0
  11
 374.75000000000
  21
 268.47500000000
  31
0.0
   0
LINE
   5
1F8
 100
AcDbEntity
   8
LEVEL001
 370
30
 100
AcDbLine
   6
CONTINUOUS
  62
7
  10
 374.75000000000
  20
 268.47500000000
  30
0.0
  11
 371.15000000000
  21
 268.47500000000
  31
0.0
   0
LINE
   5
1F9
 100
AcDbEntity
   8
LEVEL001
 370
30
 100
AcDbLine
   6
CONTINUOUS
  62
7
  10
 371.15000000000
  20
 268.47500000000
  30
0.0
  11
 371.15000000000
  21
 261.27500000000
  31
0.0
   0
LINE
   5
1FA
 100
AcDbEntity
   8
LEVEL001
 370
30
 100
AcDbLine
   6
CONTINUOUS
  62
7
  10
 371.15000000000
  20
 261.27500000000
  30
0.0
  11
 358.55000000000
  21
 261.27500000000
  31
0.0
   0
LINE
   5
1FB
 100
AcDbEntity
   8
LEVEL001
 370
30
 100
AcDbLine
   6
CONTINUOUS
  62
7
  10
 358.55000000000
  20
 261.27500000000
  30
0.0
  11
 358.55000000000
  21
 272.07500000000
  31
0.0
   0
LINE
   5
1FC
 100
AcDbEntity
   8
LEVEL001
 370
30
 100
AcDbLine
   6
CONTINUOUS
  62
7
  10
 358.55000000000
  20
 272.07500000000
  30
0.0
  11
 351.35000000000
  21
 261.27500000000
  31
0.0
   0
LINE
   5
1FD
 100
AcDbEntity
   8
LEVEL001
 370
30
 100
AcDbLine
   6
CONTINUOUS
  62
7
  10
 351.35000000000
  20
 261.27500000000
  30
0.0
  11
 345.95000000000
  21
 261.27500000000
  31
0.0
   0
LINE
   5
1FE
 100
AcDbEntity
   8
LEVEL001
 370
30
 100
AcDbLine
   6
CONTINUOUS
  62
7
  10
 357.35000000000
  20
 268.11166923470
  30
0.0
  11
 352.79222051020
  21
 261.27500000000
  31
0.0
   0
LINE
   5
1FF
 100
AcDbEntity
   8
LEVEL001
 370
30
 100
AcDbLine
   6
CONTINUOUS
  62
7
  10
 352.79222051020
  20
 261.27500000000
  30
0.0
  11
 357.35000000000
  21
 261.27500000000
  31
0.0
   0
LINE
   5
200
 100
AcDbEntity
   8
LEVEL001
 370
30
 100
AcDbLine
   6
CONTINUOUS
  62
7
  10
 357.35000000000
  20
 261.27500000000
  30
0.0
  11
 357.35000000000
  21
 268.11166923470
  31
0.0
   0
ARC
   5
201
 100
AcDbEntity
   8
LEVEL001
 370
30
   6
CONTINUOUS
  62
7
 100
AcDbCircle
  10
 390.95000000000
  20
 266.67500000000
  30
0.0
  40
 5.4000000000000
 100
AcDbArc
  50
 90.000000000000
  51
 270.00000000000
   0
ARC
   5
202
 100
AcDbEntity
   8
LEVEL001
 370
30
   6
CONTINUOUS
  62
7
 100
AcDbCircle
  10
 390.95000000000
  20
 266.67500000000
  30
0.0
  40
 1.8000000000000
 100
AcDbArc
  50
 90.000000000000
  51
 270.00000000000
   0
LINE
   5
203
 100
AcDbEntity
   8
LEVEL001
 370
30
 100
AcDbLine
   6
CONTINUOUS
  62
7
  10
 390.95000000000
  20
 272.07500000000
  30
0.0
  11
 396.35000000000
  21
 272.07500000000
  31
0.0
   0
LINE
   5
204
 100
AcDbEntity
   8
LEVEL001
 370
30
 100
AcDbLine
   6
CONTINUOUS
  62
7
  10
 396.35000000000
  20
 272.07500000000
  30
0.0
  11
 396.35000000000
  21
 268.47500000000
  31
0.0
   0
LINE
   5
205
 100
AcDbEntity
   8
LEVEL001
 370
30
 100
AcDbLine
   6
CONTINUOUS
  62
7
  10
 396.35000000000
  20
 268.47500000000
  30
0.0
  11
 390.95000000000
  21
 268.47500000000
  31
0.0
   0
LINE
   5
206
 100
AcDbEntity
   8
LEVEL001
 370
30
 100
AcDbLine
   6
CONTINUOUS
  62
7
  10
 336.95000000000
  20
 272.07500000000
  30
0.0
  11
 336.95000000000
  21
 261.27500000000
  31
0.0
   0
LINE
   5
207
 100
AcDbEntity
   8
LEVEL001
 370
30
 100
AcDbLine
   6
CONTINUOUS
  62
7
  10
 336.95000000000
  20
 261.27500000000
  30
0.0
  11
 340.55000000000
  21
 261.27500000000
  31
0.0
   0
LINE
   5
208
 100
AcDbEntity
   8
LEVEL001
 370
30
 100
AcDbLine
   6
CONTINUOUS
  62
7
  10
 340.55000000000
  20
 261.27500000000
  30
0.0
  11
 340.55000000000
  21
 263.07500000000
  31
0.0
   0
LINE
   5
209
 100
AcDbEntity
   8
LEVEL001
 370
30
 100
AcDbLine
   6
CONTINUOUS
  62
7
  10
 340.55000000000
  20
 263.07500000000
  30
0.0
  11
 344.15000000000
  21
 263.07500000000
  31
0.0
   0
ARC
   5
20A
 100
AcDbEntity
   8
LEVEL001
 370
30
   6
CONTINUOUS
  62
7
 100
AcDbCircle
  10
 344.15000000000
  20
 267.57500000000
  30
0.0
  40
 4.5000000000000
 100
AcDbArc
  50
 270.00000000000
  51
 90.000000000000
   0
LINE
   5
20B
 100
AcDbEntity
   8
LEVEL001
 370
30
 100
AcDbLine
   6
CONTINUOUS
  62
7
  10
 344.15000000000
  20
 272.07500000000
  30
0.0
  11
 336.95000000000
  21
 272.07500000000
  31
0.0
   0
LINE
   5
20C
 100
AcDbEntity
   8
LEVEL001
 370
30
 100
AcDbLine
   6
CONTINUOUS
  62
7
  10
 340.55000000000
  20
 268.47500000000
  30
0.0
  11
 340.55000000000
  21
 266.67500000000
  31
0.0
   0
LINE
   5
20D
 100
AcDbEntity
   8
LEVEL001
 370
30
 100
AcDbLine
   6
CONTINUOUS
  62
7
  10
 340.55000000000
  20
 266.67500000000
  30
0.0
  11
 344.15000000000
  21
 266.67500000000
  31
0.0
   0
ARC
   5
20E
 100
AcDbEntity
   8
LEVEL001
 370
30
   6
CONTINUOUS
  62
7
 100
AcDbCircle
  10
 344.15000000000
  20
 267.57500000000
  30
0.0
  40
 0.90000000000000
 100
AcDbArc
  50
 270.00000000000
  51
 90.000000000000
   0
LINE
   5
20F
 100
AcDbEntity
   8
LEVEL001
 370
30
 100
AcDbLine
   6
CONTINUOUS
  62
7
  10
 344.15000000000
  20
 268.47500000000
  30
0.0
  11
 340.55000000000
  21
 268.47500000000
  31
0.0
   0
LINE
   5
210
 100
AcDbEntity
   8
LEVEL001
 370
30
 100
AcDbLine
   6
CONTINUOUS
  62
7
  10
 353.15000000000
  20
 272.07500000000
  30
0.0
  11
 345.95000000000
  21
 261.27500000000
  31
0.0
   0
LINE
   5
211
 100
AcDbEntity
   8
LEVEL001
 370
30
 100
AcDbLine
   6
CONTINUOUS
  62
7
  10
 345.95000000000
  20
 261.27500000000
  30
0.0
  11
 351.35000000000
  21
 261.27500000000
  31
0.0
   0
LINE
   5
212
 100
AcDbEntity
   8
LEVEL001
 370
30
 100
AcDbLine
   6
CONTINUOUS
  62
7
  10
 351.35000000000
  20
 261.27500000000
  30
0.0
  11
 358.55000000000
  21
 272.07500000000
  31
0.0
   0
LINE
   5
213
 100
AcDbEntity
   8
LEVEL001
 370
30
 100
AcDbLine
   6
CONTINUOUS
  62
7
  10
 358.55000000000
  20
 272.07500000000
  30
0.0
  11
 353.15000000000
  21
 272.07500000000
  31
0.0
   0
LINE
   5
214
 100
AcDbEntity
   8
LEVEL001
 370
30
 100
AcDbLine
   6
CONTINUOUS
  62
7
  10
 357.35000000000
  20
 261.27500000000
  30
0.0
  11
 357.35000000000
  21
 268.11166923470
  31
0.0
   0
LINE
   5
215
 100
AcDbEntity
   8
LEVEL001
 370
30
 100
AcDbLine
   6
CONTINUOUS
  62
7
  10
 357.35000000000
  20
 268.11166923470
  30
0.0
  11
 352.79222051020
  21
 261.27500000000
  31
0.0
   0
LINE
   5
216
 100
AcDbEntity
   8
LEVEL001
 370
30
 100
AcDbLine
   6
CONTINUOUS
  62
7
  10
 352.79222051020
  20
 261.27500000000
  30
0.0
  11
 357.35000000000
  21
 261.27500000000
  31
0.0
   0
LINE
   5
217
 100
AcDbEntity
   8
LEVEL001
 370
30
 100
AcDbLine
   6
CONTINUOUS
  62
7
  10
 358.55000000000
  20
 261.27500000000
  30
0.0
  11
 371.15000000000
  21
 261.27500000000
  31
0.0
   0
LINE
   5
218
 100
AcDbEntity
   8
LEVEL001
 370
30
 100
AcDbLine
   6
CONTINUOUS
  62
7
  10
 371.15000000000
  20
 261.27500000000
  30
0.0
  11
 371.15000000000
  21
 268.47500000000
  31
0.0
   0
LINE
   5
219
 100
AcDbEntity
   8
LEVEL001
 370
30
 100
AcDbLine
   6
CONTINUOUS
  62
7
  10
 371.15000000000
  20
 268.47500000000
  30
0.0
  11
 374.75000000000
  21
 268.47500000000
  31
0.0
   0
LINE
   5
21A
 100
AcDbEntity
   8
LEVEL001
 370
30
 100
AcDbLine
   6
CONTINUOUS
  62
7
  10
 374.75000000000
  20
 268.47500000000
  30
0.0
  11
 374.75000000000
  21
 261.27500000000
  31
0.0
   0
LINE
   5
21B
 100
AcDbEntity
   8
LEVEL001
 370
30
 100
AcDbLine
   6
CONTINUOUS
  62
7
  10
 374.75000000000
  20
 261.27500000000
  30
0.0
  11
 385.55000000000
  21
 261.27500000000
  31
0.0
   0
LINE
   5
21C
 100
AcDbEntity
   8
LEVEL001
 370
30
 100
AcDbLine
   6
CONTINUOUS
  62
7
  10
 385.55000000000
  20
 261.27500000000
  30
0.0
  11
 385.55000000000
  21
 264.87500000000
  31
0.0
   0
LINE
   5
21D
 100
AcDbEntity
   8
LEVEL001
 370
30
 100
AcDbLine
   6
CONTINUOUS
  62
7
  10
 385.55000000000
  20
 264.87500000000
  30
0.0
  11
 378.35000000000
  21
 264.87500000000
  31
0.0
   0
LINE
   5
21E
 100
AcDbEntity
   8
LEVEL001
 370
30
 100
AcDbLine
   6
CONTINUOUS
  62
7
  10
 378.35000000000
  20
 264.87500000000
  30
0.0
  11
 378.35000000000
  21
 265.77500000000
  31
0.0
   0
LINE
   5
21F
 100
AcDbEntity
   8
LEVEL001
 370
30
 100
AcDbLine
   6
CONTINUOUS
  62
7
  10
 378.35000000000
  20
 265.77500000000
  30
0.0
  11
 384.65000000000
  21
 265.77500000000
  31
0.0
   0
LINE
   5
220
 100
AcDbEntity
   8
LEVEL001
 370
30
 100
AcDbLine
   6
CONTINUOUS
  62
7
  10
 384.65000000000
  20
 265.77500000000
  30
0.0
  11
 384.65000000000
  21
 267.57500000000
  31
0.0
   0
LINE
   5
221
 100
AcDbEntity
   8
LEVEL001
 370
30
 100
AcDbLine
   6
CONTINUOUS
  62
7
  10
 384.65000000000
  20
 267.57500000000
  30
0.0
  11
 378.35000000000
  21
 267.57500000000
  31
0.0
   0
LINE
   5
222
 100
AcDbEntity
   8
LEVEL001
 370
30
 100
AcDbLine
   6
CONTINUOUS
  62
7
  10
 378.35000000000
  20
 267.57500000000
  30
0.0
  11
 378.35000000000
  21
 268.47500000000
  31
0.0
   0
LINE
   5
223
 100
AcDbEntity
   8
LEVEL001
 370
30
 100
AcDbLine
   6
CONTINUOUS
  62
7
  10
 378.35000000000
  20
 268.47500000000
  30
0.0
  11
 385.55000000000
  21
 268.47500000000
  31
0.0
   0
LINE
   5
224
 100
AcDbEntity
   8
LEVEL001
 370
30
 100
AcDbLine
   6
CONTINUOUS
  62
7
  10
 385.55000000000
  20
 268.47500000000
  30
0.0
  11
 385.55000000000
  21
 272.07500000000
  31
0.0
   0
LINE
   5
225
 100
AcDbEntity
   8
LEVEL001
 370
30
 100
AcDbLine
   6
CONTINUOUS
  62
7
  10
 385.55000000000
  20
 272.07500000000
  30
0.0
  11
 363.95000000000
  21
 272.07500000000
  31
0.0
   0
LINE
   5
226
 100
AcDbEntity
   8
LEVEL001
 370
30
 100
AcDbLine
   6
CONTINUOUS
  62
7
  10
 363.95000000000
  20
 272.07500000000
  30
0.0
  11
 363.95000000000
  21
 268.47500000000
  31
0.0
   0
LINE
   5
227
 100
AcDbEntity
   8
LEVEL001
 370
30
 100
AcDbLine
   6
CONTINUOUS
  62
7
  10
 363.95000000000
  20
 268.47500000000
  30
0.0
  11
 367.55000000000
  21
 268.47500000000
  31
0.0
   0
LINE
   5
228
 100
AcDbEntity
   8
LEVEL001
 370
30
 100
AcDbLine
   6
CONTINUOUS
  62
7
  10
 367.55000000000
  20
 268.47500000000
  30
0.0
  11
 367.55000000000
  21
 264.87500000000
  31
0.0
   0
LINE
   5
229
 100
AcDbEntity
   8
LEVEL001
 370
30
 100
AcDbLine
   6
CONTINUOUS
  62
7
  10
 367.55000000000
  20
 264.87500000000
  30
0.0
  11
 362.15000000000
  21
 264.87500000000
  31
0.0
   0
LINE
   5
22A
 100
AcDbEntity
   8
LEVEL001
 370
30
 100
AcDbLine
   6
CONTINUOUS
  62
7
  10
 362.15000000000
  20
 264.87500000000
  30
0.0
  11
 362.15000000000
  21
 272.07500000000
  31
0.0
   0
LINE
   5
22B
 100
AcDbEntity
   8
LEVEL001
 370
30
 100
AcDbLine
   6
CONTINUOUS
  62
7
  10
 362.15000000000
  20
 272.07500000000
  30
0.0
  11
 358.55000000000
  21
 272.07500000000
  31
0.0
   0
LINE
   5
22C
 100
AcDbEntity
   8
LEVEL001
 370
30
 100
AcDbLine
   6
CONTINUOUS
  62
7
  10
 358.55000000000
  20
 272.07500000000
  30
0.0
  11
 358.55000000000
  21
 261.27500000000
  31
0.0
   0
LINE
   5
22D
 100
AcDbEntity
   8
LEVEL001
 370
30
 100
AcDbLine
   6
CONTINUOUS
  62
7
  10
 390.95000000000
  20
 261.27500000000
  30
0.0
  11
 396.35000000000
  21
 261.27500000000
  31
0.0
   0
LINE
   5
22E
 100
AcDbEntity
   8
LEVEL001
 370
30
 100
AcDbLine
   6
CONTINUOUS
  62
7
  10
 396.35000000000
  20
 261.27500000000
  30
0.0
  11
 396.35000000000
  21
 264.87500000000
  31
0.0
   0
LINE
   5
22F
 100
AcDbEntity
   8
LEVEL001
 370
30
 100
AcDbLine
   6
CONTINUOUS
  62
7
  10
 396.35000000000
  20
 264.87500000000
  30
0.0
  11
 390.95000000000
  21
 264.87500000000
  31
0.0
   0
ARC
   5
230
 100
AcDbEntity
   8
LEVEL001
 370
30
   6
CONTINUOUS
  62
7
 100
AcDbCircle
  10
 390.95000000000
  20
 266.67500000000
  30
0.0
  40
 1.8000000000000
 100
AcDbArc
  50
 90.000000000000
  51
 270.00000000000
   0
LINE
   5
231
 100
AcDbEntity
   8
LEVEL001
 370
30
 100
AcDbLine
   6
CONTINUOUS
  62
7
  10
 390.95000000000
  20
 268.47500000000
  30
0.0
  11
 396.35000000000
  21
 268.47500000000
  31
0.0
   0
LINE
   5
232
 100
AcDbEntity
   8
LEVEL001
 370
30
 100
AcDbLine
   6
CONTINUOUS
  62
7
  10
 396.35000000000
  20
 268.47500000000
  30
0.0
  11
 396.35000000000
  21
 272.07500000000
  31
0.0
   0
LINE
   5
233
 100
AcDbEntity
   8
LEVEL001
 370
30
 100
AcDbLine
   6
CONTINUOUS
  62
7
  10
 396.35000000000
  20
 272.07500000000
  30
0.0
  11
 390.95000000000
  21
 272.07500000000
  31
0.0
   0
ARC
   5
234
 100
AcDbEntity
   8
LEVEL001
 370
30
   6
CONTINUOUS
  62
7
 100
AcDbCircle
  10
 390.95000000000
  20
 266.67500000000
  30
0.0
  40
 5.4000000000000
 100
AcDbArc
  50
 90.000000000000
  51
 270.00000000000
   0
MTEXT
   5
236
 100
AcDbEntity
   8
LEVEL001
 370
30
  62
7
 100
AcDbMText
  10
 336.95000000000
  20
 273.87500000000
  30
0.0
  40
 3.7500000000000
  41
0.0
  71
7
  72
1
   1
\T1.000000;ケージーパルテック株式会社
   7
GMM001
  44
 0.79999984000003
   0
LINE
   5
237
 100
AcDbEntity
   8
LEVEL001
 370
30
 100
AcDbLine
   6
CONTINUOUS
  62
7
  10
 333.35000000000
  20
 263.67500000000
  30
0.0
  11
 328.85000000000
  21
 270.87500000000
  31
0.0
   0
LINE
   5
238
 100
AcDbEntity
   8
LEVEL001
 370
30
 100
AcDbLine
   6
CONTINUOUS
  62
7
  10
 328.85000000000
  20
 270.87500000000
  30
0.0
  11
 333.35000000000
  21
 270.87500000000
  31
0.0
   0
LINE
   5
239
 100
AcDbEntity
   8
LEVEL001
 370
30
 100
AcDbLine
   6
CONTINUOUS
  62
7
  10
 333.35000000000
  20
 270.87500000000
  30
0.0
  11
 333.35000000000
  21
 263.67500000000
  31
0.0
   0
LINE
   5
23A
 100
AcDbEntity
   8
LEVEL001
 370
30
 100
AcDbLine
   6
CONTINUOUS
  62
7
  10
 328.85000000000
  20
 270.87500000000
  30
0.0
  11
 333.35000000000
  21
 263.67500000000
  31
0.0
   0
LINE
   5
23B
 100
AcDbEntity
   8
LEVEL001
 370
30
 100
AcDbLine
   6
CONTINUOUS
  62
7
  10
 333.35000000000
  20
 263.67500000000
  30
0.0
  11
 333.35000000000
  21
 270.87500000000
  31
0.0
   0
LINE
   5
23C
 100
AcDbEntity
   8
LEVEL001
 370
30
 100
AcDbLine
   6
CONTINUOUS
  62
7
  10
 333.35000000000
  20
 270.87500000000
  30
0.0
  11
 328.85000000000
  21
 270.87500000000
  31
0.0
   0
LINE
   5
23D
 100
AcDbEntity
   8
LEVEL001
 370
30
 100
AcDbLine
   6
CONTINUOUS
  62
7
  10
 319.05000000000
  20
 280.47500000000
  30
0.0
  11
 312.65000000000
  21
 270.87500000000
  31
0.0
   0
LINE
   5
23E
 100
AcDbEntity
   8
LEVEL001
 370
30
 100
AcDbLine
   6
CONTINUOUS
  62
7
  10
 312.65000000000
  20
 270.87500000000
  30
0.0
  11
 319.05000000000
  21
 261.27500000000
  31
0.0
   0
LINE
   5
23F
 100
AcDbEntity
   8
LEVEL001
 370
30
 100
AcDbLine
   6
CONTINUOUS
  62
7
  10
 324.45000000000
  20
 261.27500000000
  30
0.0
  11
 318.05000000000
  21
 270.87500000000
  31
0.0
   0
LINE
   5
240
 100
AcDbEntity
   8
LEVEL001
 370
30
 100
AcDbLine
   6
CONTINUOUS
  62
7
  10
 318.05000000000
  20
 270.87500000000
  30
0.0
  11
 324.45000000000
  21
 280.47500000000
  31
0.0
   0
LINE
   5
241
 100
AcDbEntity
   8
LEVEL001
 370
30
 100
AcDbLine
   6
CONTINUOUS
  62
7
  10
 327.15000000000
  20
 280.47500000000
  30
0.0
  11
 320.75000000000
  21
 270.87500000000
  31
0.0
   0
LINE
   5
242
 100
AcDbEntity
   8
LEVEL001
 370
30
 100
AcDbLine
   6
CONTINUOUS
  62
7
  10
 320.75000000000
  20
 270.87500000000
  30
0.0
  11
 327.15000000000
  21
 261.27500000000
  31
0.0
   0
LINE
   5
243
 100
AcDbEntity
   8
LEVEL001
 370
30
 100
AcDbLine
   6
CONTINUOUS
  62
7
  10
 332.55000000000
  20
 261.27500000000
  30
0.0
  11
 326.15000000000
  21
 270.87500000000
  31
0.0
   0
LINE
   5
244
 100
AcDbEntity
   8
LEVEL001
 370
30
 100
AcDbLine
   6
CONTINUOUS
  62
7
  10
 326.15000000000
  20
 270.87500000000
  30
0.0
  11
 332.55000000000
  21
 280.47500000000
  31
0.0
   0
LINE
   5
245
 100
AcDbEntity
   8
LEVEL001
 370
30
 100
AcDbLine
   6
CONTINUOUS
  62
7
  10
 319.05000000000
  20
 261.27500000000
  30
0.0
  11
 312.65000000000
  21
 270.87500000000
  31
0.0
   0
LINE
   5
246
 100
AcDbEntity
   8
LEVEL001
 370
30
 100
AcDbLine
   6
CONTINUOUS
  62
7
  10
 312.65000000000
  20
 270.87500000000
  30
0.0
  11
 319.05000000000
  21
 280.47500000000
  31
0.0
   0
LINE
   5
247
 100
AcDbEntity
   8
LEVEL001
 370
30
 100
AcDbLine
   6
CONTINUOUS
  62
7
  10
 319.05000000000
  20
 280.47500000000
  30
0.0
  11
 324.45000000000
  21
 280.47500000000
  31
0.0
   0
LINE
   5
248
 100
AcDbEntity
   8
LEVEL001
 370
30
 100
AcDbLine
   6
CONTINUOUS
  62
7
  10
 324.45000000000
  20
 280.47500000000
  30
0.0
  11
 318.05000000000
  21
 270.87500000000
  31
0.0
   0
LINE
   5
249
 100
AcDbEntity
   8
LEVEL001
 370
30
 100
AcDbLine
   6
CONTINUOUS
  62
7
  10
 318.05000000000
  20
 270.87500000000
  30
0.0
  11
 324.45000000000
  21
 261.27500000000
  31
0.0
   0
LINE
   5
24A
 100
AcDbEntity
   8
LEVEL001
 370
30
 100
AcDbLine
   6
CONTINUOUS
  62
7
  10
 324.45000000000
  20
 261.27500000000
  30
0.0
  11
 319.05000000000
  21
 261.27500000000
  31
0.0
   0
LINE
   5
24B
 100
AcDbEntity
   8
LEVEL001
 370
30
 100
AcDbLine
   6
CONTINUOUS
  62
7
  10
 327.15000000000
  20
 261.27500000000
  30
0.0
  11
 320.75000000000
  21
 270.87500000000
  31
0.0
   0
LINE
   5
24C
 100
AcDbEntity
   8
LEVEL001
 370
30
 100
AcDbLine
   6
CONTINUOUS
  62
7
  10
 320.75000000000
  20
 270.87500000000
  30
0.0
  11
 327.15000000000
  21
 280.47500000000
  31
0.0
   0
LINE
   5
24D
 100
AcDbEntity
   8
LEVEL001
 370
30
 100
AcDbLine
   6
CONTINUOUS
  62
7
  10
 327.15000000000
  20
 280.47500000000
  30
0.0
  11
 332.55000000000
  21
 280.47500000000
  31
0.0
   0
LINE
   5
24E
 100
AcDbEntity
   8
LEVEL001
 370
30
 100
AcDbLine
   6
CONTINUOUS
  62
7
  10
 332.55000000000
  20
 280.47500000000
  30
0.0
  11
 326.15000000000
  21
 270.87500000000
  31
0.0
   0
LINE
   5
24F
 100
AcDbEntity
   8
LEVEL001
 370
30
 100
AcDbLine
   6
CONTINUOUS
  62
7
  10
 326.15000000000
  20
 270.87500000000
  30
0.0
  11
 332.55000000000
  21
 261.27500000000
  31
0.0
   0
LINE
   5
250
 100
AcDbEntity
   8
LEVEL001
 370
30
 100
AcDbLine
   6
CONTINUOUS
  62
7
  10
 332.55000000000
  20
 261.27500000000
  30
0.0
  11
 327.15000000000
  21
 261.27500000000
  31
0.0
   0
LINE
   5
251
 100
AcDbEntity
   8
0
 370
30
 100
AcDbLine
   6
DOT
  62
7
  10
0.0
  20
0.0
  30
0.0
  11
 420.00000000000
  21
0.0
  31
0.0
   0
LINE
   5
252
 100
AcDbEntity
   8
0
 370
30
 100
AcDbLine
   6
DOT
  62
7
  10
 420.00000000000
  20
0.0
  30
0.0
  11
 420.00000000000
  21
 297.00000000000
  31
0.0
   0
LINE
   5
253
 100
AcDbEntity
   8
0
 370
30
 100
AcDbLine
   6
DOT
  62
7
  10
 420.00000000000
  20
 297.00000000000
  30
0.0
  11
0.0
  21
 297.00000000000
  31
0.0
   0
LINE
   5
254
 100
AcDbEntity
   8
0
 370
30
 100
AcDbLine
   6
DOT
  62
7
  10
0.0
  20
 297.00000000000
  30
0.0
  11
0.0
  21
0.0
  31
0.0
   0
LINE
   5
255
 100
AcDbEntity
   8
LEVEL001
 370
40
 100
AcDbLine
   6
CONTINUOUS
  62
3
  10
 15.499999999950
  20
 275.00000000000
  30
0.0
  11
 304.49999999995
  21
 275.00000000000
  31
0.0
   0
LINE
   5
256
 100
AcDbEntity
   8
LEVEL001
 370
40
 100
AcDbLine
   6
CONTINUOUS
  62
3
  10
 304.49999999995
  20
 256.75000000000
  30
0.0
  11
 404.49999999995
  21
 256.75000000000
  31
0.0
   0
LINE
   5
257
 100
AcDbEntity
   8
LEVEL001
 370
40
 100
AcDbLine
   6
CONTINUOUS
  62
3
  10
 304.49999999995
  20
 236.75000000000
  30
0.0
  11
 404.49999999995
  21
 236.75000000000
  31
0.0
   0
LINE
   5
258
 100
AcDbEntity
   8
LEVEL001
 370
40
 100
AcDbLine
   6
CONTINUOUS
  62
3
  10
 304.49999999995
  20
 216.75000000000
  30
0.0
  11
 404.49999999995
  21
 216.75000000000
  31
0.0
   0
LINE
   5
259
 100
AcDbEntity
   8
LEVEL001
 370
40
 100
AcDbLine
   6
CONTINUOUS
  62
3
  10
 304.49999999995
  20
 72.000000000010
  30
0.0
  11
 404.49999999995
  21
 72.000000000010
  31
0.0
   0
LINE
   5
25A
 100
AcDbEntity
   8
LEVEL001
 370
40
 100
AcDbLine
   6
CONTINUOUS
  62
3
  10
 304.49999999995
  20
 52.000000000010
  30
0.0
  11
 404.49999999995
  21
 52.000000000010
  31
0.0
   0
LINE
   5
25B
 100
AcDbEntity
   8
LEVEL001
 370
40
 100
AcDbLine
   6
CONTINUOUS
  62
3
  10
 304.49999999995
  20
 32.000000000010
  30
0.0
  11
 404.49999999995
  21
 32.000000000010
  31
0.0
   0
LINE
   5
25C
 100
AcDbEntity
   8
LEVEL001
 370
40
 100
AcDbLine
   6
CONTINUOUS
  62
3
  10
 354.49999999995
  20
 52.000000000010
  30
0.0
  11
 354.49999999995
  21
 12.000000000010
  31
0.0
   0
LINE
   5
25D
 100
AcDbEntity
   8
LEVEL001
 370
40
 100
AcDbLine
   6
CONTINUOUS
  62
3
  10
 354.49999999995
  20
 38.666666666680
  30
0.0
  11
 404.49999999995
  21
 38.666666666680
  31
0.0
   0
LINE
   5
25E
 100
AcDbEntity
   8
LEVEL001
 370
40
 100
AcDbLine
   6
CONTINUOUS
  62
3
  10
 354.49999999995
  20
 45.333333333345
  30
0.0
  11
 404.49999999995
  21
 45.333333333345
  31
0.0
   0
LINE
   5
25F
 100
AcDbEntity
   8
LEVEL001
 370
50
 100
AcDbLine
   6
CONTINUOUS
  62
4
  10
 404.49999999995
  20
 285.00000000000
  30
0.0
  11
 15.499999999950
  21
 285.00000000000
  31
0.0
   0
LINE
   5
260
 100
AcDbEntity
   8
LEVEL001
 370
50
 100
AcDbLine
   6
CONTINUOUS
  62
4
  10
 304.49999999995
  20
 285.00000000000
  30
0.0
  11
 304.49999999995
  21
 12.000000000010
  31
0.0
   0
LINE
   5
261
 100
AcDbEntity
   8
LEVEL001
 370
50
 100
AcDbLine
   6
CONTINUOUS
  62
4
  10
 404.49999999995
  20
 12.000000000010
  30
0.0
  11
 404.49999999995
  21
 285.00000000000
  31
0.0
   0
LINE
   5
262
 100
AcDbEntity
   8
LEVEL001
 370
50
 100
AcDbLine
   6
CONTINUOUS
  62
4
  10
 15.499999999950
  20
 285.00000000000
  30
0.0
  11
 15.499999999950
  21
 12.000000000010
  31
0.0
   0
LINE
   5
263
 100
AcDbEntity
   8
LEVEL001
 370
50
 100
AcDbLine
   6
CONTINUOUS
  62
4
  10
 15.499999999950
  20
 12.000000000010
  30
0.0
  11
 404.49999999995
  21
 12.000000000010
  31
0.0
   0
HATCH
   5
264
 100
AcDbEntity
   8
0
  62
1
 100
AcDbHatch
  10
0.0
  20
0.0
  30
0.0
 210
0.0
 220
0.0
 230
 1.0000000000000
   2
SOLID
  70
1
  71
1
  91
7
  92
1
  93
6
  72
1
  10
 324.45000000000
  20
 280.47500000000
  11
 318.05000000000
  21
 270.87500000000
  72
1
  10
 318.05000000000
  20
 270.87500000000
  11
 324.45000000000
  21
 261.27500000000
  72
1
  10
 324.45000000000
  20
 261.27500000000
  11
 319.05000000000
  21
 261.27500000000
  72
1
  10
 319.05000000000
  20
 261.27500000000
  11
 312.65000000000
  21
 270.87500000000
  72
1
  10
 312.65000000000
  20
 270.87500000000
  11
 319.05000000000
  21
 280.47500000000
  72
1
  10
 319.05000000000
  20
 280.47500000000
  11
 324.45000000000
  21
 280.47500000000
  97
1
 330

  92
16
  93
6
  72
1
  10
 327.15000000000
  20
 280.47500000000
  11
 332.55000000000
  21
 280.47500000000
  72
1
  10
 332.55000000000
  20
 280.47500000000
  11
 326.15000000000
  21
 270.87500000000
  72
1
  10
 326.15000000000
  20
 270.87500000000
  11
 332.55000000000
  21
 261.27500000000
  72
1
  10
 332.55000000000
  20
 261.27500000000
  11
 327.15000000000
  21
 261.27500000000
  72
1
  10
 327.15000000000
  20
 261.27500000000
  11
 320.75000000000
  21
 270.87500000000
  72
1
  10
 320.75000000000
  20
 270.87500000000
  11
 327.15000000000
  21
 280.47500000000
  97
1
 330

  92
16
  93
3
  72
1
  10
 333.35000000000
  20
 270.87500000000
  11
 328.85000000000
  21
 270.87500000000
  72
1
  10
 328.85000000000
  20
 270.87500000000
  11
 333.35000000000
  21
 263.67500000000
  72
1
  10
 333.35000000000
  20
 263.67500000000
  11
 333.35000000000
  21
 270.87500000000
  97
1
 330

  92
16
  93
6
  72
1
  10
 336.95000000000
  20
 272.07500000000
  11
 344.15000000000
  21
 272.07500000000
  72
2
  10
 344.15000000000
  20
 267.57500000000
  40
 4.5000000000000
  50
 270.00000000000
  51
 90.000000000000
  73
0
  72
1
  10
 344.15000000000
  20
 263.07500000000
  11
 340.55000000000
  21
 263.07500000000
  72
1
  10
 340.55000000000
  20
 263.07500000000
  11
 340.55000000000
  21
 261.27500000000
  72
1
  10
 340.55000000000
  20
 261.27500000000
  11
 336.95000000000
  21
 261.27500000000
  72
1
  10
 336.95000000000
  20
 261.27500000000
  11
 336.95000000000
  21
 272.07500000000
  97
1
 330

  92
16
  93
4
  72
1
  10
 344.15000000000
  20
 268.47500000000
  11
 340.55000000000
  21
 268.47500000000
  72
1
  10
 340.55000000000
  20
 268.47500000000
  11
 340.55000000000
  21
 266.67500000000
  72
1
  10
 340.55000000000
  20
 266.67500000000
  11
 344.15000000000
  21
 266.67500000000
  72
2
  10
 344.15000000000
  20
 267.57500000000
  40
 0.90000000000000
  50
 270.00000000000
  51
 90.000000000000
  73
1
  97
1
 330

  92
16
  93
4
  72
1
  10
 345.95000000000
  20
 261.27500000000
  11
 353.15000000000
  21
 272.07500000000
  72
1
  10
 353.15000000000
  20
 272.07500000000
  11
 358.55000000000
  21
 272.07500000000
  72
1
  10
 358.55000000000
  20
 272.07500000000
  11
 351.35000000000
  21
 261.27500000000
  72
1
  10
 351.35000000000
  20
 261.27500000000
  11
 345.95000000000
  21
 261.27500000000
  97
1
 330

  92
16
  93
3
  72
1
  10
 357.35000000000
  20
 268.11166923470
  11
 352.79222051020
  21
 261.27500000000
  72
1
  10
 352.79222051020
  20
 261.27500000000
  11
 357.35000000000
  21
 261.27500000000
  72
1
  10
 357.35000000000
  20
 261.27500000000
  11
 357.35000000000
  21
 268.11166923470
  97
1
 330

  75
0
  76
1
  98
1
  10
0.0
  20
0.0
   0
HATCH
   5
265
 100
AcDbEntity
   8
0
  62
1
 100
AcDbHatch
  10
0.0
  20
0.0
  30
0.0
 210
0.0
 220
0.0
 230
 1.0000000000000
   2
SOLID
  70
1
  71
1
  91
1
  92
1
  93
22
  72
1
  10
 358.55000000000
  20
 272.07500000000
  11
 362.15000000000
  21
 272.07500000000
  72
1
  10
 362.15000000000
  20
 272.07500000000
  11
 362.15000000000
  21
 264.87500000000
  72
1
  10
 362.15000000000
  20
 264.87500000000
  11
 367.55000000000
  21
 264.87500000000
  72
1
  10
 367.55000000000
  20
 264.87500000000
  11
 367.55000000000
  21
 268.47500000000
  72
1
  10
 367.55000000000
  20
 268.47500000000
  11
 363.95000000000
  21
 268.47500000000
  72
1
  10
 363.95000000000
  20
 268.47500000000
  11
 363.95000000000
  21
 272.07500000000
  72
1
  10
 363.95000000000
  20
 272.07500000000
  11
 385.55000000000
  21
 272.07500000000
  72
1
  10
 385.55000000000
  20
 272.07500000000
  11
 385.55000000000
  21
 268.47500000000
  72
1
  10
 385.55000000000
  20
 268.47500000000
  11
 378.35000000000
  21
 268.47500000000
  72
1
  10
 378.35000000000
  20
 268.47500000000
  11
 378.35000000000
  21
 267.57500000000
  72
1
  10
 378.35000000000
  20
 267.57500000000
  11
 384.65000000000
  21
 267.57500000000
  72
1
  10
 384.65000000000
  20
 267.57500000000
  11
 384.65000000000
  21
 265.77500000000
  72
1
  10
 384.65000000000
  20
 265.77500000000
  11
 378.35000000000
  21
 265.77500000000
  72
1
  10
 378.35000000000
  20
 265.77500000000
  11
 378.35000000000
  21
 264.87500000000
  72
1
  10
 378.35000000000
  20
 264.87500000000
  11
 385.55000000000
  21
 264.87500000000
  72
1
  10
 385.55000000000
  20
 264.87500000000
  11
 385.55000000000
  21
 261.27500000000
  72
1
  10
 385.55000000000
  20
 261.27500000000
  11
 374.75000000000
  21
 261.27500000000
  72
1
  10
 374.75000000000
  20
 261.27500000000
  11
 374.75000000000
  21
 268.47500000000
  72
1
  10
 374.75000000000
  20
 268.47500000000
  11
 371.15000000000
  21
 268.47500000000
  72
1
  10
 371.15000000000
  20
 268.47500000000
  11
 371.15000000000
  21
 261.27500000000
  72
1
  10
 371.15000000000
  20
 261.27500000000
  11
 358.55000000000
  21
 261.27500000000
  72
1
  10
 358.55000000000
  20
 261.27500000000
  11
 358.55000000000
  21
 272.07500000000
  97
1
 330

  75
0
  76
1
  98
1
  10
0.0
  20
0.0
   0
HATCH
   5
266
 100
AcDbEntity
   8
0
  62
1
 100
AcDbHatch
  10
0.0
  20
0.0
  30
0.0
 210
0.0
 220
0.0
 230
 1.0000000000000
   2
SOLID
  70
1
  71
1
  91
1
  92
1
  93
8
  72
1
  10
 396.35000000000
  20
 272.07500000000
  11
 390.95000000000
  21
 272.07500000000
  72
2
  10
 390.95000000000
  20
 266.67500000000
  40
 5.4000000000000
  50
 90.000000000000
  51
 270.00000000000
  73
1
  72
1
  10
 390.95000000000
  20
 261.27500000000
  11
 396.35000000000
  21
 261.27500000000
  72
1
  10
 396.35000000000
  20
 261.27500000000
  11
 396.35000000000
  21
 264.87500000000
  72
1
  10
 396.35000000000
  20
 264.87500000000
  11
 390.95000000000
  21
 264.87500000000
  72
2
  10
 390.95000000000
  20
 266.67500000000
  40
 1.8000000000000
  50
 90.000000000000
  51
 270.00000000000
  73
0
  72
1
  10
 390.95000000000
  20
 268.47500000000
  11
 396.35000000000
  21
 268.47500000000
  72
1
  10
 396.35000000000
  20
 268.47500000000
  11
 396.35000000000
  21
 272.07500000000
  97
1
 330

  75
0
  76
1
  98
1
  10
0.0
  20
0.0
   0
MTEXT
   5
268
 100
AcDbEntity
   8
LEVEL001
 370
15
  62
8
 100
AcDbMText
  10
 310.79999999995
  20
 28.250000000010
  30
0.0
  40
 3.0000000000000
  41
0.0
  71
5
  72
1
   1
\T1.000000;サイズ：
   7
GMM002
  44
 0.79999984000003
   0
MTEXT
   5
26A
 100
AcDbEntity
   8
LEVEL001
 370
15
  62
8
 100
AcDbMText
  10
 309.29999999995
  20
 48.250000000010
  30
0.0
  40
 3.0000000000000
  41
0.0
  71
5
  72
1
   1
\T1.000000;縮尺：
   7
GMM002
  44
 0.79999984000003
   0
MTEXT
   5
26C
 100
AcDbEntity
   8
LEVEL001
 370
15
  62
8
 100
AcDbMText
  10
 312.29999999995
  20
 68.250000000010
  30
0.0
  40
 3.0000000000000
  41
0.0
  71
5
  72
1
   1
\T1.000000;図面名称：
   7
GMM002
  44
 0.79999984000003
   0
MTEXT
   5
26E
 100
AcDbEntity
   8
LEVEL001
 370
15
  62
8
 100
AcDbMText
  10
 363.79999999995
  20
 28.250000000010
  30
0.0
  40
 3.0000000000000
  41
0.0
  71
5
  72
1
   1
\T1.000000;ファイル名：
   7
GMM002
  44
 0.79999984000003
   0
MTEXT
   5
270
 100
AcDbEntity
   8
LEVEL001
 370
15
  62
8
 100
AcDbMText
  10
 362.29999999995
  20
 48.666666666680
  30
0.0
  40
 2.8000000000000
  41
0.0
  71
5
  72
1
   1
\T1.000000;作成日付：
   7
GMM003
  44
 0.79999984000003
   0
MTEXT
   5
272
 100
AcDbEntity
   8
LEVEL001
 370
15
  62
8
 100
AcDbMText
  10
 362.29999999995
  20
 42.000000000010
  30
0.0
  40
 2.8000000000000
  41
0.0
  71
5
  72
1
   1
\T1.000000;変更日付：
   7
GMM003
  44
 0.79999984000003
   0
MTEXT
   5
274
 100
AcDbEntity
   8
LEVEL001
 370
15
  62
8
 100
AcDbMText
  10
 329.49999999995
  20
 18.250000000010
  30
0.0
  40
 3.7500000000000
  41
0.0
  71
5
  72
1
   1
\T1.000000;Ａ３
   7
GMM002
  44
 0.79999984000003
   0
MTEXT
   5
276
 100
AcDbEntity
   8
LEVEL001
 370
15
  62
8
 100
AcDbMText
  10
 309.29999999995
  20
 213.00000000000
  30
0.0
  40
 3.0000000000000
  41
0.0
  71
5
  72
1
   1
\T1.000000;仕様：
   7
GMM002
  44
 0.79999984000003
   0
MTEXT
   5
278
 100
AcDbEntity
   8
LEVEL001
 370
15
  62
8
 100
AcDbMText
  10
 309.29999999995
  20
 233.00000000000
  30
0.0
  40
 3.0000000000000
  41
0.0
  71
5
  72
1
   1
\T1.000000;形式：
   7
GMM002
  44
 0.79999984000003
   0
MTEXT
   5
27A
 100
AcDbEntity
   8
LEVEL001
 370
15
  62
8
 100
AcDbMText
  10
 310.79999999995
  20
 253.00000000000
  30
0.0
  40
 3.0000000000000
  41
0.0
  71
5
  72
1
   1
\T1.000000;商品名：
   7
GMM002
  44
 0.79999984000003
   0
MTEXT
   5
27C
 100
AcDbEntity
   8
LEVEL001
 370
15
  62
8
 100
AcDbMText
  10
 346.89999999995
  20
 76.870803459012
  30
0.0
  40
 4.0000000000000
  41
0.0
  71
5
  72
1
   1
\T1.000000;　※本製品は予告無しに変更する事があります。
   7
GMM002
  44
 0.79999984000003
   0
MTEXT
   5
27E
 100
AcDbEntity
   8
LEVEL001
 370
15
  62
8
 100
AcDbMText
  10
 329.49999999995
  20
 38.250000000010
  30
0.0
  40
 3.7500000000000
  41
0.0
  71
5
  72
1
   1
\T1.000000;Ｓ＝１：１
   7
GMM002
  44
 0.79999984000003
   0
MTEXT
   5
280
 100
AcDbEntity
   8
LEVEL001
 370
15
  62
8
 100
AcDbMText
  10
 387.21508456075
  20
 42.000000000010
  30
0.0
  40
 3.0000000000000
  41
0.0
  71
5
  72
1
   1
\T1.000000;令和　　年　　月　　日
   7
GMM002
  44
 0.79999984000003
   0
MTEXT
   5
282
 100
AcDbEntity
   8
LEVEL001
 370
15
  62
8
 100
AcDbMText
  10
 387.21508456075
  20
 35.333333333345
  30
0.0
  40
 3.0000000000000
  41
0.0
  71
5
  72
1
   1
\T1.000000;令和　　年　　月　　日
   7
GMM002
  44
 0.79999984000003
   0
MTEXT
   5
284
 100
AcDbEntity
   8
LEVEL001
 370
15
  62
8
 100
AcDbMText
  10
 379.49999999995
  20
 20.083333333345
  30
0.0
  40
 2.5000000000000
  41
0.0
  71
5
  72
1
   1
\T1.000000;ＡＬＨ２６
   7
GMM002
  44
 0.79999984000003
   0
MTEXT
   5
286
 100
AcDbEntity
   8
0
 370
15
  62
8
 100
AcDbMText
  10
 15.799999999950
  20
 280.00000000000
  30
0.0
  40
 3.0000000000000
  41
0.0
  71
4
  72
1
   1
\W0.500000;\T1.000000; \W1.000000;\T1.000000;　ＡＬＨ２６シリーズ
   7
GMM002
  44
 0.79999984000003
   0
ARC
   5
287
 100
AcDbEntity
   8
LEVEL001
 370
30
   6
CONTINUOUS
  62
7
 100
AcDbCircle
  10
 93.936256045174
  20
 225.22455567255
  30
0.0
  40
 0.20000000000000
 100
AcDbArc
  50
 90.000000000000
  51
 198.43494882293
   0
POINT
   5
288
 100
AcDbEntity
   8
LEVEL001
 100
AcDbPoint
  62
7
  10
 93.658770867830
  20
 225.42455567255
  30
0.0
   0
LINE
   5
289
 100
AcDbEntity
   8
LEVEL001
 370
30
 100
AcDbLine
   6
CONTINUOUS
  62
7
  10
 93.736256045174
  20
 220.92455567255
  30
0.0
  11
 94.736256045174
  21
 219.92455567255
  31
0.0
   0
POINT
   5
28A
 100
AcDbEntity
   8
LEVEL001
 100
AcDbPoint
  62
7
  10
 93.736256045174
  20
 219.92455567255
  30
0.0
   0
LINE
   5
28B
 100
AcDbEntity
   8
LEVEL001
 370
30
 100
AcDbLine
   6
CONTINUOUS
  62
7
  10
 94.736256045174
  20
 219.92455567255
  30
0.0
  11
 106.73625604517
  21
 219.92455567255
  31
0.0
   0
POINT
   5
28C
 100
AcDbEntity
   8
LEVEL001
 100
AcDbPoint
  62
7
  10
 93.736256045174
  20
 225.22455567255
  30
0.0
   0
POINT
   5
28D
 100
AcDbEntity
   8
LEVEL001
 100
AcDbPoint
  62
7
  10
 93.486256045174
  20
 227.42455567255
  30
0.0
   0
LINE
   5
28E
 100
AcDbEntity
   8
LEVEL001
 370
30
 100
AcDbLine
   6
CONTINUOUS
  62
7
  10
 93.736256045174
  20
 227.12875168339
  30
0.0
  11
 93.736256045174
  21
 226.42455567255
  31
0.0
   0
LINE
   5
28F
 100
AcDbEntity
   8
LEVEL001
 370
30
 100
AcDbLine
   6
CONTINUOUS
  62
7
  10
 93.736256045174
  20
 229.42455567255
  30
0.0
  11
 93.736256045174
  21
 227.72035966170
  31
0.0
   0
ARC
   5
290
 100
AcDbEntity
   8
LEVEL001
 370
30
   6
CONTINUOUS
  62
7
 100
AcDbCircle
  10
 93.786256045174
  20
 227.42455567255
  30
0.0
  40
 0.30000000000000
 100
AcDbArc
  50
 99.594068226902
  51
 260.40593177310
   0
LINE
   5
291
 100
AcDbEntity
   8
LEVEL001
 370
30
 100
AcDbLine
   6
CONTINUOUS
  62
7
  10
 90.736256045174
  20
 230.12455567255
  30
0.0
  11
 90.736256045174
  21
 229.42455567255
  31
0.0
   0
ARC
   5
292
 100
AcDbEntity
   8
LEVEL001
 370
30
   6
CONTINUOUS
  62
7
 100
AcDbCircle
  10
 91.236256045174
  20
 230.12455567255
  30
0.0
  40
 0.50000000000000
 100
AcDbArc
  50
 90.000000000000
  51
 180.00000000000
   0
POINT
   5
293
 100
AcDbEntity
   8
LEVEL001
 100
AcDbPoint
  62
7
  10
 90.736256045174
  20
 230.62455567255
  30
0.0
   0
LINE
   5
294
 100
AcDbEntity
   8
LEVEL001
 370
30
 100
AcDbLine
   6
CONTINUOUS
  62
7
  10
 91.236256045174
  20
 230.62455567255
  30
0.0
  11
 106.73625604517
  21
 230.62455567255
  31
0.0
   0
LINE
   5
295
 100
AcDbEntity
   8
LEVEL001
 370
30
 100
AcDbLine
   6
CONTINUOUS
  62
7
  10
 93.736256045174
  20
 220.92455567255
  30
0.0
  11
 94.736256045174
  21
 219.92455567255
  31
0.0
   0
LINE
   5
296
 100
AcDbEntity
   8
LEVEL001
 370
30
 100
AcDbLine
   6
CONTINUOUS
  62
7
  10
 93.936256045174
  20
 225.42455567255
  30
0.0
  11
 94.183628101011
  21
 225.42455567255
  31
0.0
   0
LINE
   5
297
 100
AcDbEntity
   8
LEVEL001
 370
30
 100
AcDbLine
   6
CONTINUOUS
  62
7
  10
 93.736256045174
  20
 226.42455567255
  30
0.0
  11
 94.224466899518
  21
 225.44813396386
  31
0.0
   0
LINE
   5
298
 100
AcDbEntity
   8
LEVEL001
 370
30
 100
AcDbLine
   6
CONTINUOUS
  62
7
  10
 93.736256045174
  20
 225.16626529564
  30
0.0
  11
 93.736256045174
  21
 220.92455567255
  31
0.0
   0
LINE
   5
299
 100
AcDbEntity
   8
LEVEL001
 370
30
 100
AcDbLine
   6
CONTINUOUS
  62
7
  10
 90.736256045174
  20
 229.42455567255
  30
0.0
  11
 93.736256045174
  21
 229.42455567255
  31
0.0
   0
ARC
   5
29A
 100
AcDbEntity
   8
LEVEL001
 370
30
   6
CONTINUOUS
  62
7
 100
AcDbCircle
  10
 119.53625604517
  20
 225.22455567255
  30
0.0
  40
 0.20000000000000
 100
AcDbArc
  50
 341.56505117707
  51
 89.999999999988
   0
POINT
   5
29B
 100
AcDbEntity
   8
LEVEL001
 100
AcDbPoint
  62
7
  10
 119.81374122252
  20
 225.42455567255
  30
0.0
   0
LINE
   5
29C
 100
AcDbEntity
   8
LEVEL001
 370
30
 100
AcDbLine
   6
CONTINUOUS
  62
7
  10
 119.73625604517
  20
 220.92455567255
  30
0.0
  11
 118.73625604517
  21
 219.92455567255
  31
0.0
   0
POINT
   5
29D
 100
AcDbEntity
   8
LEVEL001
 100
AcDbPoint
  62
7
  10
 119.73625604517
  20
 219.92455567255
  30
0.0
   0
LINE
   5
29E
 100
AcDbEntity
   8
LEVEL001
 370
30
 100
AcDbLine
   6
CONTINUOUS
  62
7
  10
 118.73625604517
  20
 219.92455567255
  30
0.0
  11
 106.73625604517
  21
 219.92455567255
  31
0.0
   0
POINT
   5
29F
 100
AcDbEntity
   8
LEVEL001
 100
AcDbPoint
  62
7
  10
 119.73625604517
  20
 225.22455567255
  30
0.0
   0
POINT
   5
2A0
 100
AcDbEntity
   8
LEVEL001
 100
AcDbPoint
  62
7
  10
 119.98625604517
  20
 227.42455567255
  30
0.0
   0
LINE
   5
2A1
 100
AcDbEntity
   8
LEVEL001
 370
30
 100
AcDbLine
   6
CONTINUOUS
  62
7
  10
 119.73625604517
  20
 227.12875168339
  30
0.0
  11
 119.73625604517
  21
 226.42455567255
  31
0.0
   0
LINE
   5
2A2
 100
AcDbEntity
   8
LEVEL001
 370
30
 100
AcDbLine
   6
CONTINUOUS
  62
7
  10
 119.73625604517
  20
 229.42455567255
  30
0.0
  11
 119.73625604517
  21
 227.72035966170
  31
0.0
   0
ARC
   5
2A3
 100
AcDbEntity
   8
LEVEL001
 370
30
   6
CONTINUOUS
  62
7
 100
AcDbCircle
  10
 119.68625604517
  20
 227.42455567255
  30
0.0
  40
 0.30000000000000
 100
AcDbArc
  50
 279.59406822690
  51
 80.405931773102
   0
LINE
   5
2A4
 100
AcDbEntity
   8
LEVEL001
 370
30
 100
AcDbLine
   6
CONTINUOUS
  62
7
  10
 122.73625604517
  20
 230.12455567255
  30
0.0
  11
 122.73625604517
  21
 229.42455567255
  31
0.0
   0
ARC
   5
2A5
 100
AcDbEntity
   8
LEVEL001
 370
30
   6
CONTINUOUS
  62
7
 100
AcDbCircle
  10
 122.23625604517
  20
 230.12455567255
  30
0.0
  40
 0.50000000000000
 100
AcDbArc
  50
0.0
  51
 90.000000000000
   0
POINT
   5
2A6
 100
AcDbEntity
   8
LEVEL001
 100
AcDbPoint
  62
7
  10
 122.73625604517
  20
 230.62455567255
  30
0.0
   0
LINE
   5
2A7
 100
AcDbEntity
   8
LEVEL001
 370
30
 100
AcDbLine
   6
CONTINUOUS
  62
7
  10
 122.23625604517
  20
 230.62455567255
  30
0.0
  11
 106.73625604517
  21
 230.62455567255
  31
0.0
   0
LINE
   5
2A8
 100
AcDbEntity
   8
LEVEL001
 370
30
 100
AcDbLine
   6
CONTINUOUS
  62
7
  10
 119.73625604517
  20
 220.92455567255
  30
0.0
  11
 118.73625604517
  21
 219.92455567255
  31
0.0
   0
LINE
   5
2A9
 100
AcDbEntity
   8
LEVEL001
 370
30
 100
AcDbLine
   6
CONTINUOUS
  62
7
  10
 119.53625604517
  20
 225.42455567255
  30
0.0
  11
 119.28888398934
  21
 225.42455567255
  31
0.0
   0
LINE
   5
2AA
 100
AcDbEntity
   8
LEVEL001
 370
30
 100
AcDbLine
   6
CONTINUOUS
  62
7
  10
 119.73625604517
  20
 226.42455567255
  30
0.0
  11
 119.24804519083
  21
 225.44813396386
  31
0.0
   0
LINE
   5
2AB
 100
AcDbEntity
   8
LEVEL001
 370
30
 100
AcDbLine
   6
CONTINUOUS
  62
7
  10
 119.73625604517
  20
 225.16626529564
  30
0.0
  11
 119.73625604517
  21
 220.92455567255
  31
0.0
   0
LINE
   5
2AC
 100
AcDbEntity
   8
LEVEL001
 370
30
 100
AcDbLine
   6
CONTINUOUS
  62
7
  10
 122.73625604517
  20
 229.42455567255
  30
0.0
  11
 119.73625604517
  21
 229.42455567255
  31
0.0
   0
POINT
   5
2AD
 100
AcDbEntity
   8
LEVEL001
 100
AcDbPoint
  62
7
  10
 95.136256045174
  20
 225.97455567255
  30
0.0
   0
POINT
   5
2AE
 100
AcDbEntity
   8
LEVEL001
 100
AcDbPoint
  62
7
  10
 118.33625604517
  20
 220.77455567255
  30
0.0
   0
POINT
   5
2AF
 100
AcDbEntity
   8
LEVEL001
 100
AcDbPoint
  62
7
  10
 118.33625604517
  20
 225.97455567255
  30
0.0
   0
LINE
   5
2B0
 100
AcDbEntity
   8
LEVEL001
 370
30
 100
AcDbLine
   6
CONTINUOUS
  62
7
  10
 95.136256045174
  20
 224.67455567255
  30
0.0
  11
 95.336256045174
  21
 224.87455567255
  31
0.0
   0
LINE
   5
2B1
 100
AcDbEntity
   8
LEVEL001
 370
30
 100
AcDbLine
   6
CONTINUOUS
  62
7
  10
 95.136256045174
  20
 225.07455567255
  30
0.0
  11
 95.336256045174
  21
 224.87455567255
  31
0.0
   0
LINE
   5
2B2
 100
AcDbEntity
   8
LEVEL001
 370
30
 100
AcDbLine
   6
CONTINUOUS
  62
7
  10
 95.136256045174
  20
 223.17455567255
  30
0.0
  11
 95.336256045174
  21
 223.37455567255
  31
0.0
   0
LINE
   5
2B3
 100
AcDbEntity
   8
LEVEL001
 370
30
 100
AcDbLine
   6
CONTINUOUS
  62
7
  10
 95.136256045174
  20
 223.57455567255
  30
0.0
  11
 95.336256045174
  21
 223.37455567255
  31
0.0
   0
LINE
   5
2B4
 100
AcDbEntity
   8
LEVEL001
 370
30
 100
AcDbLine
   6
CONTINUOUS
  62
7
  10
 95.136256045174
  20
 222.07455567255
  30
0.0
  11
 95.336256045174
  21
 221.87455567255
  31
0.0
   0
LINE
   5
2B5
 100
AcDbEntity
   8
LEVEL001
 370
30
 100
AcDbLine
   6
CONTINUOUS
  62
7
  10
 95.136256045174
  20
 221.67455567255
  30
0.0
  11
 95.336256045174
  21
 221.87455567255
  31
0.0
   0
LINE
   5
2B6
 100
AcDbEntity
   8
LEVEL001
 370
30
 100
AcDbLine
   6
CONTINUOUS
  62
7
  10
 118.33625604517
  20
 224.67455567255
  30
0.0
  11
 118.13625604517
  21
 224.87455567255
  31
0.0
   0
LINE
   5
2B7
 100
AcDbEntity
   8
LEVEL001
 370
30
 100
AcDbLine
   6
CONTINUOUS
  62
7
  10
 118.33625604517
  20
 225.07455567255
  30
0.0
  11
 118.13625604517
  21
 224.87455567255
  31
0.0
   0
LINE
   5
2B8
 100
AcDbEntity
   8
LEVEL001
 370
30
 100
AcDbLine
   6
CONTINUOUS
  62
7
  10
 118.33625604517
  20
 223.17455567255
  30
0.0
  11
 118.13625604517
  21
 223.37455567255
  31
0.0
   0
LINE
   5
2B9
 100
AcDbEntity
   8
LEVEL001
 370
30
 100
AcDbLine
   6
CONTINUOUS
  62
7
  10
 118.33625604517
  20
 223.57455567255
  30
0.0
  11
 118.13625604517
  21
 223.37455567255
  31
0.0
   0
LINE
   5
2BA
 100
AcDbEntity
   8
LEVEL001
 370
30
 100
AcDbLine
   6
CONTINUOUS
  62
7
  10
 118.33625604517
  20
 222.07455567255
  30
0.0
  11
 118.13625604517
  21
 221.87455567255
  31
0.0
   0
LINE
   5
2BB
 100
AcDbEntity
   8
LEVEL001
 370
30
 100
AcDbLine
   6
CONTINUOUS
  62
7
  10
 118.33625604517
  20
 221.67455567255
  30
0.0
  11
 118.13625604517
  21
 221.87455567255
  31
0.0
   0
LINE
   5
2BC
 100
AcDbEntity
   8
LEVEL001
 370
15
 100
AcDbLine
   6
DASHDOT
  62
8
  10
 93.168719222733
  20
 227.42455567255
  30
0.0
  11
 93.736256045174
  21
 227.42455567255
  31
0.0
   0
LINE
   5
2BD
 100
AcDbEntity
   8
LEVEL001
 370
15
 100
AcDbLine
   6
DASHDOT
  62
8
  10
 120.30379286761
  20
 227.42455567255
  30
0.0
  11
 119.73625604517
  21
 227.42455567255
  31
0.0
   0
LINE
   5
2BE
 100
AcDbEntity
   8
LEVEL001
 370
15
 100
AcDbLine
   6
DASHDOT
  62
8
  10
 94.787138881052
  20
 224.87455567255
  30
0.0
  11
 95.652640896434
  21
 224.87455567255
  31
0.0
   0
LINE
   5
2BF
 100
AcDbEntity
   8
LEVEL001
 370
15
 100
AcDbLine
   6
DASHDOT
  62
8
  10
 94.787138881052
  20
 223.37455567255
  30
0.0
  11
 95.652640896434
  21
 223.37455567255
  31
0.0
   0
LINE
   5
2C0
 100
AcDbEntity
   8
LEVEL001
 370
15
 100
AcDbLine
   6
DASHDOT
  62
8
  10
 94.787138881052
  20
 221.87455567255
  30
0.0
  11
 95.652640896434
  21
 221.87455567255
  31
0.0
   0
LINE
   5
2C1
 100
AcDbEntity
   8
LEVEL001
 370
15
 100
AcDbLine
   6
DASHDOT
  62
8
  10
 118.68537320930
  20
 224.87455567255
  30
0.0
  11
 117.81987119391
  21
 224.87455567255
  31
0.0
   0
LINE
   5
2C2
 100
AcDbEntity
   8
LEVEL001
 370
15
 100
AcDbLine
   6
DASHDOT
  62
8
  10
 118.68537320930
  20
 223.37455567255
  30
0.0
  11
 117.81987119391
  21
 223.37455567255
  31
0.0
   0
LINE
   5
2C3
 100
AcDbEntity
   8
LEVEL001
 370
15
 100
AcDbLine
   6
DASHDOT
  62
8
  10
 118.68537320930
  20
 221.87455567255
  30
0.0
  11
 117.81987119391
  21
 221.87455567255
  31
0.0
   0
LINE
   5
2C4
 100
AcDbEntity
   8
LEVEL001
 370
15
 100
AcDbLine
   6
DASHDOT
  62
8
  10
 106.73625604517
  20
 231.11867661094
  30
0.0
  11
 106.73625604517
  21
 219.41256678882
  31
0.0
   0
LINE
   5
2C5
 100
AcDbEntity
   8
LEVEL001
 370
15
 100
AcDbLine
   6
DOT
  62
2
  10
 93.746519385564
  20
 223.66131011934
  30
0.0
  11
 94.236256045174
  21
 222.42455567255
  31
0.0
   0
LINE
   5
2C6
 100
AcDbEntity
   8
LEVEL001
 370
15
 100
AcDbLine
   6
DOT
  62
2
  10
 93.936256045174
  20
 222.42455567255
  30
0.0
  11
 94.236256045174
  21
 222.42455567255
  31
0.0
   0
ARC
   5
2C7
 100
AcDbEntity
   8
LEVEL001
 370
15
   6
DOT
  62
2
 100
AcDbCircle
  10
 93.936256045174
  20
 222.22455567255
  30
0.0
  40
 0.20000000000000
 100
AcDbArc
  50
 90.000000000004
  51
 179.99999999999
   0
POINT
   5
2C8
 100
AcDbEntity
   8
LEVEL001
 100
AcDbPoint
  62
2
  10
 93.736256045174
  20
 222.22455567255
  30
0.0
   0
LINE
   5
2C9
 100
AcDbEntity
   8
LEVEL001
 370
15
 100
AcDbLine
   6
DOT
  62
2
  10
 93.746519385564
  20
 225.16131011934
  30
0.0
  11
 94.236256045174
  21
 223.92455567255
  31
0.0
   0
ARC
   5
2CA
 100
AcDbEntity
   8
LEVEL001
 370
15
   6
DOT
  62
2
 100
AcDbCircle
  10
 93.936256045174
  20
 223.72455567255
  30
0.0
  40
 0.20000000000000
 100
AcDbArc
  50
 90.000000000000
  51
 198.43494882292
   0
POINT
   5
2CB
 100
AcDbEntity
   8
LEVEL001
 100
AcDbPoint
  62
2
  10
 93.658770867830
  20
 223.92455567255
  30
0.0
   0
LINE
   5
2CC
 100
AcDbEntity
   8
LEVEL001
 370
15
 100
AcDbLine
   6
DOT
  62
2
  10
 93.936256045174
  20
 223.92455567255
  30
0.0
  11
 94.236256045174
  21
 223.92455567255
  31
0.0
   0
POINT
   5
2CD
 100
AcDbEntity
   8
LEVEL001
 100
AcDbPoint
  62
2
  10
 93.736256045174
  20
 223.72455567255
  30
0.0
   0
LINE
   5
2CE
 100
AcDbEntity
   8
LEVEL001
 370
15
 100
AcDbLine
   6
DOT
  62
2
  10
 94.183628101011
  20
 225.42455567255
  30
0.0
  11
 94.236256045174
  21
 225.42455567255
  31
0.0
   0
LINE
   5
2CF
 100
AcDbEntity
   8
LEVEL001
 370
15
 100
AcDbLine
   6
DOT
  62
2
  10
 94.224466899518
  20
 225.44813396386
  30
0.0
  11
 94.236256045174
  21
 225.42455567255
  31
0.0
   0
POINT
   5
2D0
 100
AcDbEntity
   8
LEVEL001
 100
AcDbPoint
  62
2
  10
 93.658770867830
  20
 222.42455567255
  30
0.0
   0
LINE
   5
2D1
 100
AcDbEntity
   8
LEVEL001
 370
15
 100
AcDbLine
   6
DOT
  62
2
  10
 95.036256045174
  20
 229.42455567255
  30
0.0
  11
 95.036256045174
  21
 219.92455567255
  31
0.0
   0
LINE
   5
2D2
 100
AcDbEntity
   8
LEVEL001
 370
15
 100
AcDbLine
   6
DOT
  62
2
  10
 106.23625604517
  20
 229.42455567255
  30
0.0
  11
 106.23625604517
  21
 219.92455567255
  31
0.0
   0
LINE
   5
2D3
 100
AcDbEntity
   8
LEVEL001
 370
15
 100
AcDbLine
   6
DOT
  62
2
  10
 95.036256045174
  20
 229.42455567255
  30
0.0
  11
 106.23625604517
  21
 229.42455567255
  31
0.0
   0
LINE
   5
2D4
 100
AcDbEntity
   8
LEVEL001
 370
15
 100
AcDbLine
   6
DOT
  62
2
  10
 119.72599270478
  20
 223.66131011934
  30
0.0
  11
 119.23625604517
  21
 222.42455567255
  31
0.0
   0
LINE
   5
2D5
 100
AcDbEntity
   8
LEVEL001
 370
15
 100
AcDbLine
   6
DOT
  62
2
  10
 119.53625604517
  20
 222.42455567255
  30
0.0
  11
 119.23625604517
  21
 222.42455567255
  31
0.0
   0
ARC
   5
2D6
 100
AcDbEntity
   8
LEVEL001
 370
15
   6
DOT
  62
2
 100
AcDbCircle
  10
 119.53625604517
  20
 222.22455567255
  30
0.0
  40
 0.20000000000000
 100
AcDbArc
  50
 0.81422199845465E-11
  51
 89.999999999996
   0
POINT
   5
2D7
 100
AcDbEntity
   8
LEVEL001
 100
AcDbPoint
  62
2
  10
 119.73625604517
  20
 222.22455567255
  30
0.0
   0
LINE
   5
2D8
 100
AcDbEntity
   8
LEVEL001
 370
15
 100
AcDbLine
   6
DOT
  62
2
  10
 119.72599270478
  20
 225.16131011934
  30
0.0
  11
 119.23625604517
  21
 223.92455567255
  31
0.0
   0
ARC
   5
2D9
 100
AcDbEntity
   8
LEVEL001
 370
15
   6
DOT
  62
2
 100
AcDbCircle
  10
 119.53625604517
  20
 223.72455567255
  30
0.0
  40
 0.20000000000000
 100
AcDbArc
  50
 341.56505117708
  51
 89.999999999988
   0
POINT
   5
2DA
 100
AcDbEntity
   8
LEVEL001
 100
AcDbPoint
  62
2
  10
 119.81374122252
  20
 223.92455567255
  30
0.0
   0
LINE
   5
2DB
 100
AcDbEntity
   8
LEVEL001
 370
15
 100
AcDbLine
   6
DOT
  62
2
  10
 119.53625604517
  20
 223.92455567255
  30
0.0
  11
 119.23625604517
  21
 223.92455567255
  31
0.0
   0
POINT
   5
2DC
 100
AcDbEntity
   8
LEVEL001
 100
AcDbPoint
  62
2
  10
 119.73625604517
  20
 223.72455567255
  30
0.0
   0
LINE
   5
2DD
 100
AcDbEntity
   8
LEVEL001
 370
15
 100
AcDbLine
   6
DOT
  62
2
  10
 119.28888398934
  20
 225.42455567255
  30
0.0
  11
 119.23625604517
  21
 225.42455567255
  31
0.0
   0
LINE
   5
2DE
 100
AcDbEntity
   8
LEVEL001
 370
15
 100
AcDbLine
   6
DOT
  62
2
  10
 119.24804519083
  20
 225.44813396386
  30
0.0
  11
 119.23625604517
  21
 225.42455567255
  31
0.0
   0
POINT
   5
2DF
 100
AcDbEntity
   8
LEVEL001
 100
AcDbPoint
  62
2
  10
 119.81374122252
  20
 222.42455567255
  30
0.0
   0
LINE
   5
2E0
 100
AcDbEntity
   8
LEVEL001
 370
15
 100
AcDbLine
   6
DOT
  62
2
  10
 118.43625604517
  20
 229.42455567255
  30
0.0
  11
 118.43625604517
  21
 219.92455567255
  31
0.0
   0
LINE
   5
2E1
 100
AcDbEntity
   8
LEVEL001
 370
15
 100
AcDbLine
   6
DOT
  62
2
  10
 107.23625604517
  20
 229.42455567255
  30
0.0
  11
 107.23625604517
  21
 219.92455567255
  31
0.0
   0
LINE
   5
2E2
 100
AcDbEntity
   8
LEVEL001
 370
15
 100
AcDbLine
   6
DOT
  62
2
  10
 118.43625604517
  20
 229.42455567255
  30
0.0
  11
 107.23625604517
  21
 229.42455567255
  31
0.0
   0
LINE
   5
2E3
 100
AcDbEntity
   8
0
 370
30
 100
AcDbLine
   6
CONTINUOUS
  62
7
  10
 119.73625604517
  20
 221.58284604941
  30
0.0
  11
 118.60963563135
  21
 221.13850343168
  31
0.0
   0
LINE
   5
2E4
 100
AcDbEntity
   8
0
 370
30
 100
AcDbLine
   6
CONTINUOUS
  62
7
  10
 119.72599270478
  20
 225.16131011934
  30
0.0
  11
 118.61092947705
  21
 225.61009240360
  31
0.0
   0
ARC
   5
2E5
 100
AcDbEntity
   8
LEVEL001
 370
30
   6
CONTINUOUS
  62
7
 100
AcDbCircle
  10
 118.53625604517
  20
 225.42455567255
  30
0.0
  40
 0.20000000000000
 100
AcDbArc
  50
 68.076570781623
  51
 180.00000000002
   0
LINE
   5
2E6
 100
AcDbEntity
   8
LEVEL001
 370
30
 100
AcDbLine
   6
CONTINUOUS
  62
7
  10
 118.33625604517
  20
 225.42455567255
  30
0.0
  11
 118.33625604517
  21
 221.32455567255
  31
0.0
   0
ARC
   5
2E7
 100
AcDbEntity
   8
LEVEL001
 370
30
   6
CONTINUOUS
  62
7
 100
AcDbCircle
  10
 118.53625604517
  20
 221.32455567255
  30
0.0
  40
 0.20000000000000
 100
AcDbArc
  50
 179.99999999999
  51
 291.52443137825
   0
LINE
   5
2E8
 100
AcDbEntity
   8
0
 370
30
 100
AcDbLine
   6
CONTINUOUS
  62
7
  10
 93.746519385564
  20
 225.16131011934
  30
0.0
  11
 94.861582613294
  21
 225.61009240360
  31
0.0
   0
ARC
   5
2E9
 100
AcDbEntity
   8
LEVEL001
 370
30
   6
CONTINUOUS
  62
7
 100
AcDbCircle
  10
 94.936256045174
  20
 225.42455567255
  30
0.0
  40
 0.20000000000000
 100
AcDbArc
  50
0.0
  51
 111.92342921837
   0
LINE
   5
2EA
 100
AcDbEntity
   8
LEVEL001
 370
30
 100
AcDbLine
   6
CONTINUOUS
  62
7
  10
 95.136256045174
  20
 225.42455567255
  30
0.0
  11
 95.136256045174
  21
 221.32455567255
  31
0.0
   0
LINE
   5
2EB
 100
AcDbEntity
   8
0
 370
30
 100
AcDbLine
   6
CONTINUOUS
  62
7
  10
 93.736256045174
  20
 221.58284604941
  30
0.0
  11
 94.862876458998
  21
 221.13850343168
  31
0.0
   0
ARC
   5
2EC
 100
AcDbEntity
   8
LEVEL001
 370
30
   6
CONTINUOUS
  62
7
 100
AcDbCircle
  10
 94.936256045174
  20
 221.32455567255
  30
0.0
  40
 0.20000000000000
 100
AcDbArc
  50
 248.47556862175
  51
 0.81422199845465E-11
   0
DIMENSION
   5
2ED
 100
AcDbEntity
   8
0
 370
15
   6
CONTINUOUS
  62
8
 100
AcDbDimension
   2
*D1
  10
 119.73625604517
  20
 209.92455567255
  30
0.0
  11
 106.73625604517
  21
 209.92455567255
  31
0.0
  70
0
   3
GMM001
 100
AcDbAlignedDimension
  13
 93.736256045174
  23
 220.92455567255
  33
0.0
  14
 119.73625604517
  24
 220.92455567255
  34
0.0
 100
AcDbRotatedDimension
   0
DIMENSION
   5
2EE
 100
AcDbEntity
   8
0
 370
15
   6
CONTINUOUS
  62
8
 100
AcDbDimension
   2
*D2
  10
 122.73625604517
  20
 238.62455567255
  30
0.0
  11
 106.73625604517
  21
 238.62455567255
  31
0.0
  70
0
   3
GMM001
 100
AcDbAlignedDimension
  13
 90.736256045174
  23
 230.62455567255
  33
0.0
  14
 122.73625604517
  24
 230.62455567255
  34
0.0
 100
AcDbRotatedDimension
   0
DIMENSION
   5
2EF
 100
AcDbEntity
   8
0
 370
15
   6
CONTINUOUS
  62
8
 100
AcDbDimension
   2
*D3
  10
 130.73625604517
  20
 229.42455567255
  30
0.0
  11
 130.73625604517
  21
 224.67455567255
  31
0.0
  70
0
   3
GMM001
 100
AcDbAlignedDimension
  13
 118.43625604517
  23
 219.92455567255
  33
0.0
  14
 122.73625604517
  24
 229.42455567255
  34
0.0
  50
 90.000000000000
 100
AcDbRotatedDimension
   0
DIMENSION
   5
2F0
 100
AcDbEntity
   8
0
 370
15
   6
CONTINUOUS
  62
8
 100
AcDbDimension
   2
*D4
  10
 130.73625604517
  20
 230.62455567255
  30
0.0
  11
 130.73625604517
  21
 231.00226337449
  31
0.0
  70
128
   3
GMM002
 100
AcDbAlignedDimension
  13
 122.73625604517
  23
 229.42455567255
  33
0.0
  14
 122.73625604517
  24
 230.62455567255
  34
0.0
  50
 90.000000000000
 100
AcDbRotatedDimension
   0
LINE
   5
2F1
 100
AcDbEntity
   8
LEVEL001
 370
30
 100
AcDbLine
   6
CONTINUOUS
  62
7
  10
 151.11627337811
  20
 226.42455567255
  30
0.0
  11
 150.61627337811
  21
 225.42455567255
  31
0.0
   0
ARC
   5
2F2
 100
AcDbEntity
   8
LEVEL001
 370
30
   6
CONTINUOUS
  62
7
 100
AcDbCircle
  10
 150.91627337811
  20
 225.22455567255
  30
0.0
  40
 0.20000000000000
 100
AcDbArc
  50
 341.56505117707
  51
 90.000000000000
   0
POINT
   5
2F3
 100
AcDbEntity
   8
LEVEL001
 100
AcDbPoint
  62
7
  10
 151.19375855546
  20
 225.42455567255
  30
0.0
   0
LINE
   5
2F4
 100
AcDbEntity
   8
LEVEL001
 370
30
 100
AcDbLine
   6
CONTINUOUS
  62
7
  10
 151.10601003772
  20
 225.16131011934
  30
0.0
  11
 150.61627337811
  21
 223.92455567255
  31
0.0
   0
ARC
   5
2F5
 100
AcDbEntity
   8
LEVEL001
 370
30
   6
CONTINUOUS
  62
7
 100
AcDbCircle
  10
 150.91627337811
  20
 223.72455567255
  30
0.0
  40
 0.20000000000000
 100
AcDbArc
  50
 341.56505117708
  51
 90.000000000000
   0
POINT
   5
2F6
 100
AcDbEntity
   8
LEVEL001
 100
AcDbPoint
  62
7
  10
 151.19375855546
  20
 223.92455567255
  30
0.0
   0
LINE
   5
2F7
 100
AcDbEntity
   8
LEVEL001
 370
30
 100
AcDbLine
   6
CONTINUOUS
  62
7
  10
 151.10601003772
  20
 223.66131011934
  30
0.0
  11
 150.61627337811
  21
 222.42455567255
  31
0.0
   0
POINT
   5
2F8
 100
AcDbEntity
   8
LEVEL001
 100
AcDbPoint
  62
7
  10
 151.19375855546
  20
 222.42455567255
  30
0.0
   0
LINE
   5
2F9
 100
AcDbEntity
   8
LEVEL001
 370
30
 100
AcDbLine
   6
CONTINUOUS
  62
7
  10
 151.11627337811
  20
 222.22455567255
  30
0.0
  11
 151.11627337811
  21
 220.92455567255
  31
0.0
   0
LINE
   5
2FA
 100
AcDbEntity
   8
LEVEL001
 370
30
 100
AcDbLine
   6
CONTINUOUS
  62
7
  10
 151.11627337811
  20
 220.92455567255
  30
0.0
  11
 150.11627337811
  21
 219.92455567255
  31
0.0
   0
POINT
   5
2FB
 100
AcDbEntity
   8
LEVEL001
 100
AcDbPoint
  62
7
  10
 151.11627337811
  20
 219.92455567255
  30
0.0
   0
LINE
   5
2FC
 100
AcDbEntity
   8
LEVEL001
 370
30
 100
AcDbLine
   6
CONTINUOUS
  62
7
  10
 150.11627337811
  20
 219.92455567255
  30
0.0
  11
 138.11627337811
  21
 219.92455567255
  31
0.0
   0
ARC
   5
2FD
 100
AcDbEntity
   8
LEVEL001
 370
30
   6
CONTINUOUS
  62
7
 100
AcDbCircle
  10
 150.91627337811
  20
 222.22455567255
  30
0.0
  40
 0.20000000000000
 100
AcDbArc
  50
 0.81422199845471E-11
  51
 90.000000000000
   0
POINT
   5
2FE
 100
AcDbEntity
   8
LEVEL001
 100
AcDbPoint
  62
7
  10
 151.11627337811
  20
 222.22455567255
  30
0.0
   0
POINT
   5
2FF
 100
AcDbEntity
   8
LEVEL001
 100
AcDbPoint
  62
7
  10
 151.11627337811
  20
 223.72455567255
  30
0.0
   0
POINT
   5
300
 100
AcDbEntity
   8
LEVEL001
 100
AcDbPoint
  62
7
  10
 151.11627337811
  20
 225.22455567255
  30
0.0
   0
POINT
   5
301
 100
AcDbEntity
   8
LEVEL001
 100
AcDbPoint
  62
7
  10
 151.36627337811
  20
 227.42455567255
  30
0.0
   0
LINE
   5
302
 100
AcDbEntity
   8
LEVEL001
 370
30
 100
AcDbLine
   6
CONTINUOUS
  62
7
  10
 151.11627337811
  20
 227.12875168339
  30
0.0
  11
 151.11627337811
  21
 226.42455567255
  31
0.0
   0
LINE
   5
303
 100
AcDbEntity
   8
LEVEL001
 370
30
 100
AcDbLine
   6
CONTINUOUS
  62
7
  10
 151.11627337811
  20
 229.42455567255
  30
0.0
  11
 151.11627337811
  21
 227.72035966170
  31
0.0
   0
ARC
   5
304
 100
AcDbEntity
   8
LEVEL001
 370
30
   6
CONTINUOUS
  62
7
 100
AcDbCircle
  10
 151.06627337811
  20
 227.42455567255
  30
0.0
  40
 0.30000000000000
 100
AcDbArc
  50
 279.59406822685
  51
 80.405931773143
   0
LINE
   5
305
 100
AcDbEntity
   8
LEVEL001
 370
30
 100
AcDbLine
   6
CONTINUOUS
  62
7
  10
 154.11627337811
  20
 230.12455567255
  30
0.0
  11
 154.11627337811
  21
 229.42455567255
  31
0.0
   0
ARC
   5
306
 100
AcDbEntity
   8
LEVEL001
 370
30
   6
CONTINUOUS
  62
7
 100
AcDbCircle
  10
 153.61627337811
  20
 230.12455567255
  30
0.0
  40
 0.50000000000000
 100
AcDbArc
  50
0.0
  51
 90.000000000000
   0
POINT
   5
307
 100
AcDbEntity
   8
LEVEL001
 100
AcDbPoint
  62
7
  10
 154.11627337811
  20
 230.62455567255
  30
0.0
   0
LINE
   5
308
 100
AcDbEntity
   8
LEVEL001
 370
30
 100
AcDbLine
   6
CONTINUOUS
  62
7
  10
 153.61627337811
  20
 230.62455567255
  30
0.0
  11
 138.11627337811
  21
 230.62455567255
  31
0.0
   0
LINE
   5
309
 100
AcDbEntity
   8
LEVEL001
 370
30
 100
AcDbLine
   6
CONTINUOUS
  62
7
  10
 154.11627337811
  20
 229.42455567255
  30
0.0
  11
 138.11627337811
  21
 229.42455567255
  31
0.0
   0
LINE
   5
30A
 100
AcDbEntity
   8
LEVEL001
 370
30
 100
AcDbLine
   6
CONTINUOUS
  62
7
  10
 138.11627337811
  20
 230.62455567255
  30
0.0
  11
 138.11627337811
  21
 219.92455567255
  31
0.0
   0
LINE
   5
30B
 100
AcDbEntity
   8
LEVEL001
 370
30
 100
AcDbLine
   6
CONTINUOUS
  62
7
  10
 150.91627337811
  20
 222.42455567255
  30
0.0
  11
 138.11627337811
  21
 222.42455567255
  31
0.0
   0
LINE
   5
30C
 100
AcDbEntity
   8
LEVEL001
 370
30
 100
AcDbLine
   6
CONTINUOUS
  62
7
  10
 150.91627337811
  20
 223.92455567255
  30
0.0
  11
 138.11627337811
  21
 223.92455567255
  31
0.0
   0
LINE
   5
30D
 100
AcDbEntity
   8
LEVEL001
 370
30
 100
AcDbLine
   6
CONTINUOUS
  62
7
  10
 150.91627337811
  20
 225.42455567255
  30
0.0
  11
 138.11627337811
  21
 225.42455567255
  31
0.0
   0
LINE
   5
30E
 100
AcDbEntity
   8
LEVEL001
 370
30
 100
AcDbLine
   6
CONTINUOUS
  62
7
  10
 151.11627337811
  20
 220.92455567255
  30
0.0
  11
 138.11627337811
  21
 220.92455567255
  31
0.0
   0
LINE
   5
30F
 100
AcDbEntity
   8
LEVEL001
 370
30
 100
AcDbLine
   6
CONTINUOUS
  62
7
  10
 151.11627337811
  20
 227.12875168339
  30
0.0
  11
 138.11627337811
  21
 227.12875168339
  31
0.0
   0
LINE
   5
310
 100
AcDbEntity
   8
LEVEL001
 370
30
 100
AcDbLine
   6
CONTINUOUS
  62
7
  10
 151.11627337811
  20
 227.72035966170
  30
0.0
  11
 138.11627337811
  21
 227.72035966170
  31
0.0
   0
LINE
   5
311
 100
AcDbEntity
   8
LEVEL001
 370
15
 100
AcDbLine
   6
DASHDOT
  62
8
  10
 151.68381020056
  20
 227.42455567255
  30
0.0
  11
 151.11627337811
  21
 227.42455567255
  31
0.0
   0
LINE
   5
312
 100
AcDbEntity
   8
LEVEL001
 370
15
 100
AcDbLine
   6
DOT
  62
2
  10
 149.81627337811
  20
 229.42455567255
  30
0.0
  11
 149.81627337811
  21
 219.92455567255
  31
0.0
   0
ARC
   5
313
 100
AcDbEntity
   8
LEVEL001
 370
30
   6
CONTINUOUS
  62
7
 100
AcDbCircle
  10
 137.11627337811
  20
 224.62455567255
  30
0.0
  40
 1.0000000000000
 100
AcDbArc
  50
 90.000000000000
  51
 180.00000000000
   0
POINT
   5
314
 100
AcDbEntity
   8
LEVEL001
 100
AcDbPoint
  62
7
  10
 136.11627337811
  20
 225.62455567255
  30
0.0
   0
LINE
   5
315
 100
AcDbEntity
   8
0
 370
30
 100
AcDbLine
   6
CONTINUOUS
  62
7
  10
 138.11627337811
  20
 225.62455567255
  30
0.0
  11
 137.11627337811
  21
 225.62455567255
  31
0.0
   0
LINE
   5
316
 100
AcDbEntity
   8
LEVEL001
 370
30
 100
AcDbLine
   6
CONTINUOUS
  62
7
  10
 136.11627337811
  20
 224.62455567255
  30
0.0
  11
 136.11627337811
  21
 222.12455567255
  31
0.0
   0
ARC
   5
317
 100
AcDbEntity
   8
LEVEL001
 370
30
   6
CONTINUOUS
  62
7
 100
AcDbCircle
  10
 137.11627337811
  20
 222.12455567255
  30
0.0
  40
 1.0000000000000
 100
AcDbArc
  50
 180.00000000000
  51
 270.00000000000
   0
POINT
   5
318
 100
AcDbEntity
   8
LEVEL001
 100
AcDbPoint
  62
7
  10
 136.11627337811
  20
 221.12455567255
  30
0.0
   0
LINE
   5
319
 100
AcDbEntity
   8
0
 370
30
 100
AcDbLine
   6
CONTINUOUS
  62
7
  10
 138.11627337811
  20
 221.12455567255
  30
0.0
  11
 137.11627337811
  21
 221.12455567255
  31
0.0
   0
LINE
   5
31A
 100
AcDbEntity
   8
LEVEL001
 370
30
 100
AcDbLine
   6
CONTINUOUS
  62
7
  10
 136.28109782098
  20
 225.16626529568
  30
0.0
  11
 138.11627337811
  21
 225.16626529568
  31
0.0
   0
LINE
   5
31B
 100
AcDbEntity
   8
LEVEL001
 370
30
 100
AcDbLine
   6
CONTINUOUS
  62
7
  10
 136.30433372212
  20
 221.58284604941
  30
0.0
  11
 138.11627337811
  21
 221.58284604941
  31
0.0
   0
DIMENSION
   5
31C
 100
AcDbEntity
   8
0
 370
15
   6
CONTINUOUS
  62
8
 100
AcDbDimension
   2
*D5
  10
 154.11627337811
  20
 209.92455567255
  30
0.0
  11
 155.77374544554
  21
 209.92455567255
  31
0.0
  70
128
   3
GMM003
 100
AcDbAlignedDimension
  13
 151.11627337811
  23
 220.92455567255
  33
0.0
  14
 154.11627337811
  24
 229.42455567255
  34
0.0
 100
AcDbRotatedDimension
   0
DIMENSION
   5
31D
 100
AcDbEntity
   8
0
 370
15
   6
CONTINUOUS
  62
8
 100
AcDbDimension
   2
*D6
  10
 154.11627337811
  20
 238.62455567255
  30
0.0
  11
 146.11627337811
  21
 238.62455567255
  31
0.0
  70
0
   3
GMM001
 100
AcDbAlignedDimension
  13
 138.11627337811
  23
 230.62455567255
  33
0.0
  14
 154.11627337811
  24
 230.62455567255
  34
0.0
 100
AcDbRotatedDimension
   0
LINE
   5
31E
 100
AcDbEntity
   8
LEVEL001
 370
30
 100
AcDbLine
   6
CONTINUOUS
  62
7
  10
 90.736256045174
  20
 248.81642529846
  30
0.0
  11
 122.73625604517
  21
 248.81642529846
  31
0.0
   0
LINE
   5
31F
 100
AcDbEntity
   8
LEVEL001
 370
30
 100
AcDbLine
   6
CONTINUOUS
  62
7
  10
 93.736256045174
  20
 246.81642529846
  30
0.0
  11
 93.736256045174
  21
 248.81642529846
  31
0.0
   0
LINE
   5
320
 100
AcDbEntity
   8
LEVEL001
 370
30
 100
AcDbLine
   6
CONTINUOUS
  62
7
  10
 119.73625604517
  20
 246.81642529846
  30
0.0
  11
 119.73625604517
  21
 248.81642529846
  31
0.0
   0
ARC
   5
321
 100
AcDbEntity
   8
LEVEL001
 370
30
   6
CONTINUOUS
  62
7
 100
AcDbCircle
  10
 91.736256045174
  20
 263.81642529846
  30
0.0
  40
 1.0000000000000
 100
AcDbArc
  50
 90.000000000000
  51
 180.00000000000
   0
POINT
   5
322
 100
AcDbEntity
   8
LEVEL001
 100
AcDbPoint
  62
7
  10
 90.736256045174
  20
 264.81642529846
  30
0.0
   0
LINE
   5
323
 100
AcDbEntity
   8
LEVEL001
 370
30
 100
AcDbLine
   6
CONTINUOUS
  62
7
  10
 90.736256045174
  20
 248.81642529846
  30
0.0
  11
 90.736256045174
  21
 263.81642529846
  31
0.0
   0
LINE
   5
324
 100
AcDbEntity
   8
LEVEL001
 370
30
 100
AcDbLine
   6
CONTINUOUS
  62
7
  10
 91.736256045174
  20
 264.81642529846
  30
0.0
  11
 121.73625604517
  21
 264.81642529846
  31
0.0
   0
ARC
   5
325
 100
AcDbEntity
   8
LEVEL001
 370
30
   6
CONTINUOUS
  62
7
 100
AcDbCircle
  10
 121.73625604517
  20
 263.81642529846
  30
0.0
  40
 1.0000000000000
 100
AcDbArc
  50
0.0
  51
 90.000000000000
   0
POINT
   5
326
 100
AcDbEntity
   8
LEVEL001
 100
AcDbPoint
  62
7
  10
 122.73625604517
  20
 264.81642529846
  30
0.0
   0
LINE
   5
327
 100
AcDbEntity
   8
LEVEL001
 370
30
 100
AcDbLine
   6
CONTINUOUS
  62
7
  10
 122.73625604517
  20
 248.81642529846
  30
0.0
  11
 122.73625604517
  21
 263.81642529846
  31
0.0
   0
LINE
   5
328
 100
AcDbEntity
   8
LEVEL001
 370
30
 100
AcDbLine
   6
CONTINUOUS
  62
7
  10
 93.736256045174
  20
 246.81642529846
  30
0.0
  11
 95.136256045174
  21
 246.81642529846
  31
0.0
   0
LINE
   5
329
 100
AcDbEntity
   8
LEVEL001
 370
30
 100
AcDbLine
   6
CONTINUOUS
  62
7
  10
 95.136256045174
  20
 246.81642529846
  30
0.0
  11
 95.136256045174
  21
 248.81642529846
  31
0.0
   0
LINE
   5
32A
 100
AcDbEntity
   8
LEVEL001
 370
30
 100
AcDbLine
   6
CONTINUOUS
  62
7
  10
 119.73625604517
  20
 246.81642529846
  30
0.0
  11
 118.33625604517
  21
 246.81642529846
  31
0.0
   0
LINE
   5
32B
 100
AcDbEntity
   8
LEVEL001
 370
30
 100
AcDbLine
   6
CONTINUOUS
  62
7
  10
 118.33625604517
  20
 246.81642529846
  30
0.0
  11
 118.33625604517
  21
 248.81642529846
  31
0.0
   0
ARC
   5
32C
 100
AcDbEntity
   8
LEVEL001
 370
30
   6
CONTINUOUS
  62
7
 100
AcDbCircle
  10
 95.136256045174
  20
 247.51642529846
  30
0.0
  40
 0.20000000000000
 100
AcDbArc
  50
 270.00000000000
  51
0.0
   0
POINT
   5
32D
 100
AcDbEntity
   8
LEVEL001
 100
AcDbPoint
  62
7
  10
 95.336256045174
  20
 247.31642529846
  30
0.0
   0
LINE
   5
32E
 100
AcDbEntity
   8
LEVEL001
 370
30
 100
AcDbLine
   6
CONTINUOUS
  62
7
  10
 95.336256045174
  20
 247.51642529846
  30
0.0
  11
 95.336256045174
  21
 248.81642529846
  31
0.0
   0
LINE
   5
32F
 100
AcDbEntity
   8
LEVEL001
 370
30
 100
AcDbLine
   6
CONTINUOUS
  62
7
  10
 118.13625604517
  20
 247.51642529846
  30
0.0
  11
 118.13625604517
  21
 248.81642529846
  31
0.0
   0
ARC
   5
330
 100
AcDbEntity
   8
LEVEL001
 370
30
   6
CONTINUOUS
  62
7
 100
AcDbCircle
  10
 118.33625604517
  20
 247.51642529846
  30
0.0
  40
 0.20000000000000
 100
AcDbArc
  50
 180.00000000000
  51
 270.00000000000
   0
POINT
   5
331
 100
AcDbEntity
   8
LEVEL001
 100
AcDbPoint
  62
7
  10
 118.13625604517
  20
 247.31642529846
  30
0.0
   0
LINE
   5
332
 100
AcDbEntity
   8
LEVEL001
 370
15
 100
AcDbLine
   6
DASHDOT
  62
8
  10
 106.73625604517
  20
 247.01815242085
  30
0.0
  11
 106.73625604517
  21
 265.98386523343
  31
0.0
   0
LINE
   5
333
 100
AcDbEntity
   8
LEVEL001
 370
15
 100
AcDbLine
   6
DOT
  62
2
  10
 95.108702562175
  20
 250.11642529846
  30
0.0
  11
 106.23625604517
  21
 250.11642529846
  31
0.0
   0
LINE
   5
334
 100
AcDbEntity
   8
LEVEL001
 370
15
 100
AcDbLine
   6
DOT
  62
2
  10
 106.23625604517
  20
 250.11642529846
  30
0.0
  11
 106.23625604517
  21
 260.50573665542
  31
0.0
   0
LINE
   5
335
 100
AcDbEntity
   8
LEVEL001
 370
15
 100
AcDbLine
   6
DOT
  62
2
  10
 107.23625604517
  20
 250.11642529846
  30
0.0
  11
 118.36380952817
  21
 250.11642529846
  31
0.0
   0
LINE
   5
336
 100
AcDbEntity
   8
LEVEL001
 370
15
 100
AcDbLine
   6
DOT
  62
2
  10
 107.23625604517
  20
 250.11642529846
  30
0.0
  11
 107.23625604517
  21
 260.50573665542
  31
0.0
   0
ARC
   5
337
 100
AcDbEntity
   8
LEVEL001
 370
15
   6
DOT
  62
2
 100
AcDbCircle
  10
 106.73625604517
  20
 248.81642529846
  30
0.0
  40
 13.000000000000
 100
AcDbArc
  50
0.0
  51
 180.00000000000
   0
ARC
   5
338
 100
AcDbEntity
   8
LEVEL001
 370
15
   6
DOT
  62
2
 100
AcDbCircle
  10
 106.73625604517
  20
 248.81642529846
  30
0.0
  40
 11.700000000000
 100
AcDbArc
  50
 6.3793702084426
  51
 173.62062979156
   0
DIMENSION
   5
339
 100
AcDbEntity
   8
0
 370
15
   6
CONTINUOUS
  62
8
 100
AcDbDimension
   2
*D7
  10
 122.73625604517
  20
 268.50185185185
  30
0.0
  11
 106.73625604517
  21
 268.50185185185
  31
0.0
  70
0
   3
GMM001
 100
AcDbAlignedDimension
  13
 90.736256045174
  23
 264.81642529846
  33
0.0
  14
 122.73625604517
  24
 264.81642529846
  34
0.0
 100
AcDbRotatedDimension
   0
DIMENSION
   5
33A
 100
AcDbEntity
   8
0
 370
15
   6
CONTINUOUS
  62
8
 100
AcDbDimension
   2
*D8
  10
 130.73625604517
  20
 264.81642529846
  30
0.0
  11
 130.73625604517
  21
 256.81642529846
  31
0.0
  70
0
   3
GMM001
 100
AcDbAlignedDimension
  13
 122.73625604517
  23
 248.81642529846
  33
0.0
  14
 122.73625604517
  24
 264.81642529846
  34
0.0
  50
 90.000000000000
 100
AcDbRotatedDimension
   0
LINE
   5
33B
 100
AcDbEntity
   8
LEVEL004
 370
30
 100
AcDbLine
   6
CONTINUOUS
  62
7
  10
 36.386262045172
  20
 232.21851851852
  30
0.0
  11
 33.236256045172
  21
 232.21851851852
  31
0.0
   0
LINE
   5
33C
 100
AcDbEntity
   8
LEVEL004
 370
30
 100
AcDbLine
   6
CONTINUOUS
  62
7
  10
 36.386262045172
  20
 232.21851851852
  30
0.0
  11
 36.386262045172
  21
 231.71851851852
  31
0.0
   0
ARC
   5
33D
 100
AcDbEntity
   8
LEVEL004
 370
30
   6
CONTINUOUS
  62
7
 100
AcDbCircle
  10
 36.436262045174
  20
 230.21851851852
  30
0.0
  40
 0.30000000000000
 100
AcDbArc
  50
 99.594068000294
  51
 260.40593199969
   0
LINE
   5
33E
 100
AcDbEntity
   8
LEVEL004
 370
30
 100
AcDbLine
   6
CONTINUOUS
  62
7
  10
 36.386262045172
  20
 232.21851851852
  30
0.0
  11
 36.386262045172
  21
 230.51432251852
  31
0.0
   0
ARC
   5
33F
 100
AcDbEntity
   8
LEVEL004
 370
30
   6
CONTINUOUS
  62
7
 100
AcDbCircle
  10
 38.086262045173
  20
 231.35400851852
  30
0.0
  40
 0.50000000000000
 100
AcDbArc
  50
 107.81441000002
  51
 180.00000000001
   0
ARC
   5
340
 100
AcDbEntity
   8
LEVEL004
 370
30
   6
CONTINUOUS
  62
7
 100
AcDbCircle
  10
 38.086262045173
  20
 230.21851851852
  30
0.0
  40
 0.50000000000000
 100
AcDbArc
  50
 180.00000000000
  51
 269.99999999995
   0
ARC
   5
341
 100
AcDbEntity
   8
LEVEL004
 370
30
   6
CONTINUOUS
  62
7
 100
AcDbCircle
  10
 38.386262045172
  20
 229.21851851852
  30
0.0
  40
 0.50000000000000
 100
AcDbArc
  50
0.0
  51
 89.999999999989
   0
LINE
   5
342
 100
AcDbEntity
   8
LEVEL004
 370
30
 100
AcDbLine
   6
CONTINUOUS
  62
7
  10
 37.586262045173
  20
 230.21851851852
  30
0.0
  11
 37.586262045173
  21
 231.35400851852
  31
0.0
   0
LINE
   5
343
 100
AcDbEntity
   8
LEVEL004
 370
30
 100
AcDbLine
   6
CONTINUOUS
  62
7
  10
 36.386262045172
  20
 229.21851851852
  30
0.0
  11
 36.386262045172
  21
 228.51851851852
  31
0.0
   0
LINE
   5
344
 100
AcDbEntity
   8
LEVEL004
 370
30
 100
AcDbLine
   6
CONTINUOUS
  62
7
  10
 37.386262045172
  20
 222.71851851852
  30
0.0
  11
 36.477013045173
  21
 223.60354151852
  31
0.0
   0
ARC
   5
345
 100
AcDbEntity
   8
LEVEL004
 370
30
   6
CONTINUOUS
  62
7
 100
AcDbCircle
  10
 37.586262045172
  20
 223.99172351852
  30
0.0
  40
 0.30000000000000
 100
AcDbArc
  50
 239.99999999994
  51
0.0
   0
ARC
   5
346
 100
AcDbEntity
   8
LEVEL004
 370
30
   6
CONTINUOUS
  62
7
 100
AcDbCircle
  10
 37.586262045173
  20
 228.34531351852
  30
0.0
  40
 0.30000000000000
 100
AcDbArc
  50
 0.10856293312729E-10
  51
 120.00000000001
   0
LINE
   5
347
 100
AcDbEntity
   8
LEVEL004
 370
30
 100
AcDbLine
   6
CONTINUOUS
  62
7
  10
 37.886262045172
  20
 228.34531351852
  30
0.0
  11
 37.886262045172
  21
 223.99172351852
  31
0.0
   0
LINE
   5
348
 100
AcDbEntity
   8
LEVEL004
 370
30
 100
AcDbLine
   6
CONTINUOUS
  62
7
  10
 37.436262045173
  20
 228.60512051852
  30
0.0
  11
 36.836262045173
  21
 228.25871051852
  31
0.0
   0
LINE
   5
349
 100
AcDbEntity
   8
LEVEL004
 370
30
 100
AcDbLine
   6
CONTINUOUS
  62
7
  10
 36.386262045172
  20
 229.92271451852
  30
0.0
  11
 36.386262045172
  21
 228.51851851852
  31
0.0
   0
ARC
   5
34A
 100
AcDbEntity
   8
LEVEL004
 370
30
   6
CONTINUOUS
  62
7
 100
AcDbCircle
  10
 36.686262045169
  20
 223.81851851852
  30
0.0
  40
 0.30000000000000
 100
AcDbArc
  50
 59.999999999079
  51
 225.77353300094
   0
ARC
   5
34B
 100
AcDbEntity
   8
LEVEL004
 370
30
   6
CONTINUOUS
  62
7
 100
AcDbCircle
  10
 36.686262045172
  20
 228.51851851852
  30
0.0
  40
 0.30000000000000
 100
AcDbArc
  50
 179.99999999996
  51
 300.00000000011
   0
LINE
   5
34C
 100
AcDbEntity
   8
LEVEL004
 370
30
 100
AcDbLine
   6
CONTINUOUS
  62
7
  10
 36.836262045173
  20
 224.07832551852
  30
0.0
  11
 37.436262045173
  21
 223.73191551852
  31
0.0
   0
LINE
   5
34D
 100
AcDbEntity
   8
LEVEL004
 370
30
 100
AcDbLine
   6
CONTINUOUS
  62
7
  10
 38.086262045173
  20
 229.71851851852
  30
0.0
  11
 38.386262045172
  21
 229.71851851852
  31
0.0
   0
ARC
   5
34E
 100
AcDbEntity
   8
LEVEL004
 370
30
   6
CONTINUOUS
  62
7
 100
AcDbCircle
  10
 39.386262045173
  20
 224.51851851852
  30
0.0
  40
 0.50000000000000
 100
AcDbArc
  50
 180.00000000000
  51
 269.99999999997
   0
LINE
   5
34F
 100
AcDbEntity
   8
LEVEL004
 370
30
 100
AcDbLine
   6
CONTINUOUS
  62
7
  10
 38.886262045172
  20
 229.21851851852
  30
0.0
  11
 38.886262045172
  21
 224.51851851852
  31
0.0
   0
LINE
   5
350
 100
AcDbEntity
   8
LEVEL004
 370
30
 100
AcDbLine
   6
CONTINUOUS
  62
7
  10
 62.086250045173
  20
 232.21851851852
  30
0.0
  11
 65.236256045173
  21
 232.21851851852
  31
0.0
   0
LINE
   5
351
 100
AcDbEntity
   8
LEVEL004
 370
30
 100
AcDbLine
   6
CONTINUOUS
  62
7
  10
 62.086250045173
  20
 232.21851851852
  30
0.0
  11
 62.086250045173
  21
 231.71851851852
  31
0.0
   0
LINE
   5
352
 100
AcDbEntity
   8
LEVEL004
 370
30
 100
AcDbLine
   6
CONTINUOUS
  62
7
  10
 65.236256045173
  20
 232.21851851852
  30
0.0
  11
 65.236256045173
  21
 232.91851851852
  31
0.0
   0
ARC
   5
353
 100
AcDbEntity
   8
LEVEL004
 370
30
   6
CONTINUOUS
  62
7
 100
AcDbCircle
  10
 64.736256045173
  20
 232.91851851852
  30
0.0
  40
 0.50000000000000
 100
AcDbArc
  50
0.0
  51
 90.000000000021
   0
ARC
   5
354
 100
AcDbEntity
   8
LEVEL004
 370
30
   6
CONTINUOUS
  62
7
 100
AcDbCircle
  10
 62.036250045174
  20
 230.21851851852
  30
0.0
  40
 0.30000000000000
 100
AcDbArc
  50
 279.59406799976
  51
 80.405932000262
   0
LINE
   5
355
 100
AcDbEntity
   8
LEVEL004
 370
30
 100
AcDbLine
   6
CONTINUOUS
  62
7
  10
 62.086250045173
  20
 232.21851851852
  30
0.0
  11
 62.086250045173
  21
 230.51432251852
  31
0.0
   0
ARC
   5
356
 100
AcDbEntity
   8
LEVEL004
 370
30
   6
CONTINUOUS
  62
7
 100
AcDbCircle
  10
 60.386250045172
  20
 231.35400851852
  30
0.0
  40
 0.50000000000000
 100
AcDbArc
  50
0.0
  51
 72.185589999955
   0
ARC
   5
357
 100
AcDbEntity
   8
LEVEL004
 370
30
   6
CONTINUOUS
  62
7
 100
AcDbCircle
  10
 60.386250045173
  20
 230.21851851852
  30
0.0
  40
 0.50000000000000
 100
AcDbArc
  50
 270.00000000000
  51
0.0
   0
ARC
   5
358
 100
AcDbEntity
   8
LEVEL004
 370
30
   6
CONTINUOUS
  62
7
 100
AcDbCircle
  10
 60.086250045173
  20
 229.21851851852
  30
0.0
  40
 0.50000000000000
 100
AcDbArc
  50
 90.000000000000
  51
 180.00000000005
   0
LINE
   5
359
 100
AcDbEntity
   8
LEVEL004
 370
30
 100
AcDbLine
   6
CONTINUOUS
  62
7
  10
 60.886250045173
  20
 230.21851851852
  30
0.0
  11
 60.886250045173
  21
 231.35400851852
  31
0.0
   0
LINE
   5
35A
 100
AcDbEntity
   8
LEVEL004
 370
30
 100
AcDbLine
   6
CONTINUOUS
  62
7
  10
 62.086250045173
  20
 229.21851851852
  30
0.0
  11
 62.086250045173
  21
 228.51851851852
  31
0.0
   0
LINE
   5
35B
 100
AcDbEntity
   8
LEVEL004
 370
30
 100
AcDbLine
   6
CONTINUOUS
  62
7
  10
 61.086250045173
  20
 222.71851851852
  30
0.0
  11
 61.995499045173
  21
 223.60354151852
  31
0.0
   0
ARC
   5
35C
 100
AcDbEntity
   8
LEVEL004
 370
30
   6
CONTINUOUS
  62
7
 100
AcDbCircle
  10
 60.886250045173
  20
 223.99172351852
  30
0.0
  40
 0.30000000000000
 100
AcDbArc
  50
 180.00000000001
  51
 300.00000000000
   0
ARC
   5
35D
 100
AcDbEntity
   8
LEVEL004
 370
30
   6
CONTINUOUS
  62
7
 100
AcDbCircle
  10
 60.886250045173
  20
 228.34531351852
  30
0.0
  40
 0.30000000000000
 100
AcDbArc
  50
 60.000000000089
  51
 179.99999999980
   0
LINE
   5
35E
 100
AcDbEntity
   8
LEVEL004
 370
30
 100
AcDbLine
   6
CONTINUOUS
  62
7
  10
 60.586250045173
  20
 228.34531351852
  30
0.0
  11
 60.586250045173
  21
 223.99172351852
  31
0.0
   0
LINE
   5
35F
 100
AcDbEntity
   8
LEVEL004
 370
30
 100
AcDbLine
   6
CONTINUOUS
  62
7
  10
 61.036250045173
  20
 228.60512051852
  30
0.0
  11
 61.636250045173
  21
 228.25871051852
  31
0.0
   0
LINE
   5
360
 100
AcDbEntity
   8
LEVEL004
 370
30
 100
AcDbLine
   6
CONTINUOUS
  62
7
  10
 62.086250045173
  20
 229.92271451852
  30
0.0
  11
 62.086250045173
  21
 228.51851851852
  31
0.0
   0
ARC
   5
361
 100
AcDbEntity
   8
LEVEL004
 370
30
   6
CONTINUOUS
  62
7
 100
AcDbCircle
  10
 61.786250045170
  20
 223.81851851852
  30
0.0
  40
 0.30000000000000
 100
AcDbArc
  50
 314.22646700040
  51
 119.99999999959
   0
ARC
   5
362
 100
AcDbEntity
   8
LEVEL004
 370
30
   6
CONTINUOUS
  62
7
 100
AcDbCircle
  10
 61.786250045173
  20
 228.51851851852
  30
0.0
  40
 0.30000000000000
 100
AcDbArc
  50
 239.99999999999
  51
0.0
   0
LINE
   5
363
 100
AcDbEntity
   8
LEVEL004
 370
30
 100
AcDbLine
   6
CONTINUOUS
  62
7
  10
 61.636250045173
  20
 224.07832551852
  30
0.0
  11
 61.036250045173
  21
 223.73191551852
  31
0.0
   0
LINE
   5
364
 100
AcDbEntity
   8
LEVEL004
 370
30
 100
AcDbLine
   6
CONTINUOUS
  62
7
  10
 60.386250045173
  20
 229.71851851852
  30
0.0
  11
 60.086250045173
  21
 229.71851851852
  31
0.0
   0
ARC
   5
365
 100
AcDbEntity
   8
LEVEL004
 370
30
   6
CONTINUOUS
  62
7
 100
AcDbCircle
  10
 59.086250045173
  20
 224.51851851852
  30
0.0
  40
 0.50000000000000
 100
AcDbArc
  50
 270.00000000000
  51
0.0
   0
LINE
   5
366
 100
AcDbEntity
   8
LEVEL004
 370
30
 100
AcDbLine
   6
CONTINUOUS
  62
7
  10
 59.586250045173
  20
 229.21851851852
  30
0.0
  11
 59.586250045173
  21
 224.51851851852
  31
0.0
   0
LINE
   5
367
 100
AcDbEntity
   8
LEVEL004
 370
30
 100
AcDbLine
   6
CONTINUOUS
  62
7
  10
 59.086250045173
  20
 224.01851851852
  30
0.0
  11
 39.386262045172
  21
 224.01851851852
  31
0.0
   0
LINE
   5
368
 100
AcDbEntity
   8
LEVEL004
 370
30
 100
AcDbLine
   6
CONTINUOUS
  62
7
  10
 37.386262045172
  20
 222.71851851852
  30
0.0
  11
 61.086250045173
  21
 222.71851851852
  31
0.0
   0
ARC
   5
369
 100
AcDbEntity
   8
LEVEL004
 370
30
   6
CONTINUOUS
  62
7
 100
AcDbCircle
  10
 39.536256044730
  20
 232.91851851852
  30
0.0
  40
 0.50000000000000
 100
AcDbArc
  50
 284.59602799992
  51
 90.000000000081
   0
LINE
   5
36A
 100
AcDbEntity
   8
LEVEL001
 370
30
 100
AcDbLine
   6
CONTINUOUS
  62
7
  10
 37.921670432000
  20
 231.82614155154
  30
0.0
  11
 39.700847658031
  21
 232.44638548549
  31
0.0
   0
LINE
   5
36B
 100
AcDbEntity
   8
LEVEL004
 370
30
 100
AcDbLine
   6
CONTINUOUS
  62
7
  10
 39.536256044858
  20
 233.41851851852
  30
0.0
  11
 33.736256045172
  21
 233.41851851852
  31
0.0
   0
LINE
   5
36C
 100
AcDbEntity
   8
LEVEL001
 370
30
 100
AcDbLine
   6
CONTINUOUS
  62
7
  10
 60.550841657715
  20
 231.82614155154
  30
0.0
  11
 58.771664431685
  21
 232.44638548549
  31
0.0
   0
ARC
   5
36D
 100
AcDbEntity
   8
LEVEL004
 370
30
   6
CONTINUOUS
  62
7
 100
AcDbCircle
  10
 58.936256044850
  20
 232.91851851852
  30
0.0
  40
 0.50000000000000
 100
AcDbArc
  50
 90.000000000026
  51
 255.40397199998
   0
LINE
   5
36E
 100
AcDbEntity
   8
LEVEL004
 370
30
 100
AcDbLine
   6
CONTINUOUS
  62
7
  10
 58.936256044858
  20
 233.41851851852
  30
0.0
  11
 64.736256045173
  21
 233.41851851852
  31
0.0
   0
LINE
   5
36F
 100
AcDbEntity
   8
LEVEL004
 370
30
 100
AcDbLine
   6
CONTINUOUS
  62
7
  10
 33.236256045172
  20
 232.21851851852
  30
0.0
  11
 33.236256045172
  21
 232.91851851852
  31
0.0
   0
ARC
   5
370
 100
AcDbEntity
   8
LEVEL004
 370
30
   6
CONTINUOUS
  62
7
 100
AcDbCircle
  10
 33.736256045172
  20
 232.91851851852
  30
0.0
  40
 0.50000000000000
 100
AcDbArc
  50
 90.000000000000
  51
 180.00000000000
   0
LINE
   5
371
 100
AcDbEntity
   8
LEVEL001
 370
15
 100
AcDbLine
   6
DASHDOT
  62
8
  10
 49.236256044858
  20
 220.24679771260
  30
0.0
  11
 49.236256044858
  21
 234.09533897990
  31
0.0
   0
DIMENSION
   5
372
 100
AcDbEntity
   8
0
 370
15
   6
CONTINUOUS
  62
8
 100
AcDbDimension
   2
*D9
  10
 58.436256044858
  20
 241.41851851852
  30
0.0
  11
 49.236256044858
  21
 241.41851851852
  31
0.0
  70
0
   3
GMM001
 100
AcDbAlignedDimension
  13
 40.036256044858
  23
 233.25185185185
  33
0.0
  14
 58.436256044858
  24
 233.25185185185
  34
0.0
 100
AcDbRotatedDimension
   0
DIMENSION
   5
373
 100
AcDbEntity
   8
0
 370
15
   6
CONTINUOUS
  62
8
 100
AcDbDimension
   2
*D10
  10
 65.236256045173
  20
 249.41851851852
  30
0.0
  11
 49.236256045172
  21
 249.41851851852
  31
0.0
  70
0
   3
GMM001
 100
AcDbAlignedDimension
  13
 33.236256045172
  23
 233.25185185185
  33
0.0
  14
 65.236256045173
  24
 233.25185185185
  34
0.0
 100
AcDbRotatedDimension
   0
DIMENSION
   5
374
 100
AcDbEntity
   8
0
 370
15
   6
CONTINUOUS
  62
8
 100
AcDbDimension
   2
*D11
  10
 73.236256045173
  20
 232.21851851852
  30
0.0
  11
 73.236256045173
  21
 227.46851851852
  31
0.0
  70
0
   3
GMM001
 100
AcDbAlignedDimension
  13
 61.086250045173
  23
 222.71851851852
  33
0.0
  14
 65.236256045173
  24
 232.21851851852
  34
0.0
  50
 90.000000000000
 100
AcDbRotatedDimension
   0
DIMENSION
   5
375
 100
AcDbEntity
   8
0
 370
15
   6
CONTINUOUS
  62
8
 100
AcDbDimension
   2
*D12
  10
 81.236256045173
  20
 233.41851851852
  30
0.0
  11
 81.236256045173
  21
 228.06851851852
  31
0.0
  70
0
   3
GMM001
 100
AcDbAlignedDimension
  13
 73.236256045173
  23
 222.71851851852
  33
0.0
  14
 64.736256045173
  24
 233.41851851852
  34
0.0
  50
 90.000000000000
 100
AcDbRotatedDimension
   0
DIMENSION
   5
376
 100
AcDbEntity
   8
0
 370
15
   6
CONTINUOUS
  62
8
 100
AcDbDimension
   2
*D13
  10
 62.086256044858
  20
 212.71851851852
  30
0.0
  11
 49.236256044858
  21
 212.71851851852
  31
0.0
  70
0
   3
GMM001
 100
AcDbAlignedDimension
  13
 36.386256044858
  23
 223.31165800489
  33
0.0
  14
 62.086256044858
  24
 223.31589355948
  34
0.0
 100
AcDbRotatedDimension
   0
LINE
   5
377
 100
AcDbEntity
   8
0
 370
15
 100
AcDbLine
   6
CONTINUOUS
  62
8
  10
 35.095442753586
  20
 189.97246317319
  30
0.0
  11
 64.674404595321
  21
 189.97246317319
  31
0.0
   0
MTEXT
   5
379
 100
AcDbEntity
   8
0
 370
15
  62
8
 100
AcDbMText
  10
 49.884923674454
  20
 202.53451394327
  30
0.0
  40
 3.0000000000000
  41
0.0
  71
2
  72
1
   1
{\W1.000000;\T1.000000;アルミロング引手}\P{\W1.000000;\T1.000000;　ＡＬＨ２６}\P{\W0.500000;\T1.000000; (\W1.000000;\T1.000000;Ｓ＝１／１\W0.500000;\T1.000000;)}
   7
GMM002
  44
 0.79999984000003
   0
ARC
   5
37A
 100
AcDbEntity
   8
LEVEL006
 370
30
   6
CONTINUOUS
  62
7
 100
AcDbCircle
  10
 49.404361554360
  20
 133.50632872233
  30
0.0
  40
 0.50000000000000
 100
AcDbArc
  50
0.0
  51
 90.000000000000
   0
LINE
   5
37B
 100
AcDbEntity
   8
LEVEL006
 370
30
 100
AcDbLine
   6
CONTINUOUS
  62
7
  10
 49.904361554360
  20
 133.50632872234
  30
0.0
  11
 49.904361554360
  21
 126.00633062626
  31
0.0
   0
ARC
   5
37C
 100
AcDbEntity
   8
LEVEL006
 370
30
   6
CONTINUOUS
  62
7
 100
AcDbCircle
  10
 34.404361554360
  20
 133.50632872234
  30
0.0
  40
 0.50000000000000
 100
AcDbArc
  50
 89.999999999961
  51
 180.00000000000
   0
LINE
   5
37D
 100
AcDbEntity
   8
LEVEL006
 370
30
 100
AcDbLine
   6
CONTINUOUS
  62
7
  10
 49.404361554360
  20
 134.00632872234
  30
0.0
  11
 34.404361554360
  21
 134.00632872234
  31
0.0
   0
LINE
   5
37E
 100
AcDbEntity
   8
LEVEL006
 370
30
 100
AcDbLine
   6
CONTINUOUS
  62
7
  10
 46.904361554360
  20
 126.00633062626
  30
0.0
  11
 49.904361554360
  21
 126.00633062626
  31
0.0
   0
LINE
   5
37F
 100
AcDbEntity
   8
LEVEL006
 370
30
 100
AcDbLine
   6
CONTINUOUS
  62
7
  10
 33.904361554360
  20
 126.00633062626
  30
0.0
  11
 46.904361554360
  21
 126.00633062626
  31
0.0
   0
LINE
   5
380
 100
AcDbEntity
   8
LEVEL006
 370
30
 100
AcDbLine
   6
CONTINUOUS
  62
7
  10
 33.904361554360
  20
 133.50632872234
  30
0.0
  11
 33.904361554360
  21
 126.00633062626
  31
0.0
   0
LINE
   5
381
 100
AcDbEntity
   8
LEVEL001
 370
30
 100
AcDbLine
   6
CONTINUOUS
  62
7
  10
 33.904361554360
  20
 126.00633062626
  30
0.0
  11
 33.904361554360
  21
 87.424789063803
  31
0.0
   0
LINE
   5
382
 100
AcDbEntity
   8
LEVEL001
 370
30
 100
AcDbLine
   6
CONTINUOUS
  62
7
  10
 46.429358554515
  20
 126.00633062626
  30
0.0
  11
 46.429358554515
  21
 91.983515156132
  31
0.0
   0
LINE
   5
383
 100
AcDbEntity
   8
LEVEL001
 370
30
 100
AcDbLine
   6
CONTINUOUS
  62
7
  10
 49.904361555480
  20
 93.248312812468
  30
0.0
  11
 49.904361556370
  21
 126.00633062626
  31
0.0
   0
LINE
   5
384
 100
AcDbEntity
   8
LEVEL001
 370
30
 100
AcDbLine
   6
CONTINUOUS
  62
7
  10
 37.379364554012
  20
 88.689586719662
  30
0.0
  11
 37.379364553500
  21
 126.00633062626
  31
0.0
   0
ARC
   5
385
 100
AcDbEntity
   8
LEVEL006
 370
30
   6
CONTINUOUS
  62
7
 100
AcDbCircle
  10
 49.404361554360
  20
 44.506328722337
  30
0.0
  40
 0.50000000000000
 100
AcDbArc
  50
 270.00000000000
  51
0.0
   0
LINE
   5
386
 100
AcDbEntity
   8
LEVEL006
 370
30
 100
AcDbLine
   6
CONTINUOUS
  62
7
  10
 49.904361554360
  20
 44.506328722337
  30
0.0
  11
 49.904361554360
  21
 52.006326818417
  31
0.0
   0
ARC
   5
387
 100
AcDbEntity
   8
LEVEL006
 370
30
   6
CONTINUOUS
  62
7
 100
AcDbCircle
  10
 34.404361554360
  20
 44.506328722337
  30
0.0
  40
 0.50000000000000
 100
AcDbArc
  50
 180.00000000001
  51
 269.99999999977
   0
LINE
   5
388
 100
AcDbEntity
   8
LEVEL006
 370
30
 100
AcDbLine
   6
CONTINUOUS
  62
7
  10
 49.404361554360
  20
 44.006328722337
  30
0.0
  11
 34.404361554360
  21
 44.006328722337
  31
0.0
   0
LINE
   5
389
 100
AcDbEntity
   8
LEVEL006
 370
30
 100
AcDbLine
   6
CONTINUOUS
  62
7
  10
 46.904361554360
  20
 52.006326818417
  30
0.0
  11
 49.904361554360
  21
 52.006326818417
  31
0.0
   0
LINE
   5
38A
 100
AcDbEntity
   8
LEVEL006
 370
30
 100
AcDbLine
   6
CONTINUOUS
  62
7
  10
 33.904361554360
  20
 52.006326818417
  30
0.0
  11
 46.904361554360
  21
 52.006326818417
  31
0.0
   0
LINE
   5
38B
 100
AcDbEntity
   8
LEVEL006
 370
30
 100
AcDbLine
   6
CONTINUOUS
  62
7
  10
 33.904361554360
  20
 44.506328722337
  30
0.0
  11
 33.904361554360
  21
 52.006326818417
  31
0.0
   0
LINE
   5
38C
 100
AcDbEntity
   8
LEVEL001
 370
30
 100
AcDbLine
   6
CONTINUOUS
  62
7
  10
 37.379364554515
  20
 52.006326818417
  30
0.0
  11
 37.379364554048
  21
 86.029142288485
  31
0.0
   0
LINE
   5
38D
 100
AcDbEntity
   8
LEVEL001
 370
30
 100
AcDbLine
   6
CONTINUOUS
  62
7
  10
 49.904361554360
  20
 52.006326818417
  30
0.0
  11
 49.904361555408
  21
 90.587868381252
  31
0.0
   0
LINE
   5
38E
 100
AcDbEntity
   8
LEVEL001
 370
30
 100
AcDbLine
   6
HIDDEN
  62
7
  10
 77.813186102430
  20
 126.00633062627
  30
0.0
  11
 77.813186102425
  21
 87.970744415200
  31
0.0
   0
LINE
   5
38F
 100
AcDbEntity
   8
LEVEL001
 370
30
 100
AcDbLine
   6
HIDDEN
  62
7
  10
 90.813186102420
  20
 52.006326818417
  30
0.0
  11
 90.813186102425
  21
 90.041913029470
  31
0.0
   0
ARC
   5
390
 100
AcDbEntity
   8
LEVEL001
 370
30
   6
HIDDEN
  62
7
 100
AcDbCircle
  10
 84.313186102420
  20
 52.006326818417
  30
0.0
  40
 6.5000000000000
 100
AcDbArc
  50
 180.00000000000
  51
0.0
   0
ARC
   5
391
 100
AcDbEntity
   8
LEVEL001
 370
30
   6
HIDDEN
  62
7
 100
AcDbCircle
  10
 84.313186102430
  20
 126.00633062626
  30
0.0
  40
 6.5000000000000
 100
AcDbArc
  50
 0.45095372222104E-10
  51
 180.00000000005
   0
LINE
   5
392
 100
AcDbEntity
   8
LEVEL001
 370
30
 100
AcDbLine
   6
HIDDEN
  62
7
  10
 90.813186102426
  20
 92.702357460660
  30
0.0
  11
 90.813186102430
  21
 126.00633062627
  31
0.0
   0
LINE
   5
393
 100
AcDbEntity
   8
LEVEL001
 370
30
 100
AcDbLine
   6
HIDDEN
  62
7
  10
 77.813186102425
  20
 85.310299984010
  30
0.0
  11
 77.813186102420
  21
 52.006326818417
  31
0.0
   0
LINE
   5
394
 100
AcDbEntity
   8
LEVEL001
 370
30
 100
AcDbLine
   6
CONTINUOUS
  62
7
  10
 46.429358554515
  20
 89.323070724942
  30
0.0
  11
 46.429358554515
  21
 52.006326818417
  31
0.0
   0
LINE
   5
395
 100
AcDbEntity
   8
LEVEL001
 370
30
 100
AcDbLine
   6
CONTINUOUS
  62
7
  10
 33.904361554360
  20
 84.764344632613
  30
0.0
  11
 33.904361554360
  21
 52.006326818417
  31
0.0
   0
DIMENSION
   5
396
 100
AcDbEntity
   8
0
 370
15
   6
CONTINUOUS
  62
8
 100
AcDbDimension
   2
*D14
  10
 56.067810375870
  20
 52.006326818417
  30
0.0
  11
 56.067810375870
  21
 48.006327770377
  31
0.0
  70
0
   1
\A1;16
   3
GMM004
 100
AcDbAlignedDimension
  13
 49.404361554360
  23
 44.006328722337
  33
0.0
  14
 49.904361554360
  24
 52.006326818417
  34
0.0
  50
 90.000000000000
 100
AcDbRotatedDimension
   0
DIMENSION
   5
397
 100
AcDbEntity
   8
0
 370
15
   6
CONTINUOUS
  62
8
 100
AcDbDimension
   2
*D15
  10
 56.067810375870
  20
 126.00633062626
  30
0.0
  11
 56.067810375870
  21
 89.006328722337
  31
0.0
  70
0
   1
\A1;ロング引手長さ
   3
GMM004
 100
AcDbAlignedDimension
  13
 49.904361554360
  23
 52.006326818417
  33
0.0
  14
 49.904361556370
  24
 126.00633062626
  34
0.0
  50
 90.000000000000
 100
AcDbRotatedDimension
   0
DIMENSION
   5
398
 100
AcDbEntity
   8
0
 370
15
   6
CONTINUOUS
  62
8
 100
AcDbDimension
   2
*D16
  10
 56.067810375870
  20
 134.00632872234
  30
0.0
  11
 56.067810375870
  21
 130.00632967430
  31
0.0
  70
0
   1
\A1;16
   3
GMM004
 100
AcDbAlignedDimension
  13
 49.904361556370
  23
 126.00633062626
  33
0.0
  14
 49.404361554360
  24
 134.00632872234
  34
0.0
  50
 90.000000000000
 100
AcDbRotatedDimension
   0
DIMENSION
   5
399
 100
AcDbEntity
   8
0
 370
15
   6
CONTINUOUS
  62
8
 100
AcDbDimension
   2
*D17
  10
 49.904361554360
  20
 36.266393152625
  30
0.0
  11
 41.904361554360
  21
 36.266393152625
  31
0.0
  70
0
   1
\A1;32
   3
GMM005
 100
AcDbAlignedDimension
  13
 33.904361554360
  23
 44.506328722337
  33
0.0
  14
 49.904361554360
  24
 44.506328722337
  34
0.0
 100
AcDbRotatedDimension
   0
DIMENSION
   5
39A
 100
AcDbEntity
   8
0
 370
15
   6
CONTINUOUS
  62
8
 100
AcDbDimension
   2
*D18
  10
 90.813186102420
  20
 36.266393152625
  30
0.0
  11
 84.313186102420
  21
 36.266393152625
  31
0.0
  70
0
   1
\A1;26
   3
GMM005
 100
AcDbAlignedDimension
  13
 77.813186102420
  23
 52.006326818417
  33
0.0
  14
 90.813186102420
  24
 52.006326818417
  34
0.0
 100
AcDbRotatedDimension
   0
DIMENSION
   5
39B
 100
AcDbEntity
   8
0
 370
15
   6
CONTINUOUS
  62
8
 100
AcDbDimension
   2
*D19
  10
 84.313186102420
  20
 52.006326818417
  30
0.0
  11
 92.727003082082
  21
 41.807133893366
  31
0.0
  70
132
   1
\A1;R13
   3
GMM006
 100
AcDbRadialDimension
  15
 88.449524021386
  25
 46.992275699798
  35
0.0
  40
 6.7957724113971
   0
DIMENSION
   5
39C
 100
AcDbEntity
   8
0
 370
15
   6
CONTINUOUS
  62
8
 100
AcDbDimension
   2
*D20
  10
 100.42247633311
  20
 132.50633062626
  30
0.0
  11
 100.42247633311
  21
 89.006328722339
  31
0.0
  70
0
   1
\A1;ロング引手長さ+26mm
   3
GMM005
 100
AcDbAlignedDimension
  13
 84.313186102430
  23
 45.506326818417
  33
0.0
  14
 84.313186102430
  24
 132.50633062626
  34
0.0
  50
 90.000000000000
 100
AcDbRotatedDimension
   0
LINE
   5
39D
 100
AcDbEntity
   8
LEVEL001
 370
30
 100
AcDbLine
   6
CONTINUOUS
  62
7
  10
 128.05939450400
  20
 39.006328722337
  30
0.0
  11
 144.05939450400
  21
 39.006328722337
  31
0.0
   0
LINE
   5
39E
 100
AcDbEntity
   8
LEVEL001
 370
30
 100
AcDbLine
   6
CONTINUOUS
  62
7
  10
 128.05939450400
  20
 139.00632872234
  30
0.0
  11
 128.05939450400
  21
 87.424789063309
  31
0.0
   0
LINE
   5
39F
 100
AcDbEntity
   8
LEVEL001
 370
30
 100
AcDbLine
   6
CONTINUOUS
  62
7
  10
 128.05939450400
  20
 139.00632872234
  30
0.0
  11
 144.05939450672
  21
 139.00632872234
  31
0.0
   0
LINE
   5
3A0
 100
AcDbEntity
   8
LEVEL001
 370
30
 100
AcDbLine
   6
CONTINUOUS
  62
7
  10
 144.05939450400
  20
 39.006328722337
  30
0.0
  11
 144.05939450540
  21
 90.587868380886
  31
0.0
   0
LINE
   5
3A1
 100
AcDbEntity
   8
LEVEL001
 370
30
 100
AcDbLine
   6
CONTINUOUS
  62
7
  10
 131.53439750416
  20
 39.006328722337
  30
0.0
  11
 131.53439750351
  21
 86.029142287926
  31
0.0
   0
LINE
   5
3A2
 100
AcDbEntity
   8
LEVEL001
 370
30
 100
AcDbLine
   6
CONTINUOUS
  62
7
  10
 140.58439150416
  20
 139.00632872234
  30
0.0
  11
 140.58439150416
  21
 91.983515155637
  31
0.0
   0
LINE
   5
3A3
 100
AcDbEntity
   8
LEVEL001
 370
30
 100
AcDbLine
   6
HIDDEN
  62
7
  10
 165.80939450406
  20
 39.006328722337
  30
0.0
  11
 178.80939450406
  21
 39.006328722337
  31
0.0
   0
LINE
   5
3A4
 100
AcDbEntity
   8
LEVEL001
 370
30
 100
AcDbLine
   6
HIDDEN
  62
7
  10
 165.80939450406
  20
 139.00632872234
  30
0.0
  11
 165.80939450406
  21
 87.970744415202
  31
0.0
   0
LINE
   5
3A5
 100
AcDbEntity
   8
LEVEL001
 370
30
 100
AcDbLine
   6
HIDDEN
  62
7
  10
 178.80939450406
  20
 39.006328722337
  30
0.0
  11
 178.80939450406
  21
 90.041913029472
  31
0.0
   0
LINE
   5
3A6
 100
AcDbEntity
   8
LEVEL001
 370
30
 100
AcDbLine
   6
HIDDEN
  62
7
  10
 165.80939450406
  20
 139.00632872234
  30
0.0
  11
 178.80939450406
  21
 139.00632872234
  31
0.0
   0
LINE
   5
3A7
 100
AcDbEntity
   8
LEVEL001
 370
30
 100
AcDbLine
   6
HIDDEN
  62
7
  10
 178.80939450406
  20
 92.702357460661
  30
0.0
  11
 178.80939450406
  21
 139.00632872234
  31
0.0
   0
LINE
   5
3A8
 100
AcDbEntity
   8
LEVEL001
 370
30
 100
AcDbLine
   6
HIDDEN
  62
7
  10
 165.80939450406
  20
 85.310299984012
  30
0.0
  11
 165.80939450406
  21
 39.006328722337
  31
0.0
   0
LINE
   5
3A9
 100
AcDbEntity
   8
LEVEL001
 370
30
 100
AcDbLine
   6
CONTINUOUS
  62
7
  10
 144.05939450547
  20
 93.248312812102
  30
0.0
  11
 144.05939450672
  21
 139.00632872234
  31
0.0
   0
LINE
   5
3AA
 100
AcDbEntity
   8
LEVEL001
 370
30
 100
AcDbLine
   6
CONTINUOUS
  62
7
  10
 140.58439150416
  20
 89.323070724448
  30
0.0
  11
 140.58439150416
  21
 39.006328722337
  31
0.0
   0
LINE
   5
3AB
 100
AcDbEntity
   8
LEVEL001
 370
30
 100
AcDbLine
   6
CONTINUOUS
  62
7
  10
 131.53439750347
  20
 88.689586719102
  30
0.0
  11
 131.53439750278
  21
 139.00632872234
  31
0.0
   0
LINE
   5
3AC
 100
AcDbEntity
   8
LEVEL001
 370
30
 100
AcDbLine
   6
CONTINUOUS
  62
7
  10
 128.05939450400
  20
 84.764344632119
  30
0.0
  11
 128.05939450400
  21
 39.006328722337
  31
0.0
   0
DIMENSION
   5
3AD
 100
AcDbEntity
   8
0
 370
15
   6
CONTINUOUS
  62
8
 100
AcDbDimension
   2
*D21
  10
 144.05939450400
  20
 28.939849942748
  30
0.0
  11
 136.05939450400
  21
 28.939849942748
  31
0.0
  70
0
   1
\A1;32
   3
GMM005
 100
AcDbAlignedDimension
  13
 128.05939450400
  23
 39.006328722337
  33
0.0
  14
 144.05939450400
  24
 39.006328722337
  34
0.0
 100
AcDbRotatedDimension
   0
DIMENSION
   5
3AE
 100
AcDbEntity
   8
0
 370
15
   6
CONTINUOUS
  62
8
 100
AcDbDimension
   2
*D22
  10
 178.80939450406
  20
 28.939849942748
  30
0.0
  11
 172.30939450406
  21
 28.939849942748
  31
0.0
  70
0
   1
\A1;26
   3
GMM005
 100
AcDbAlignedDimension
  13
 165.80939450406
  23
 39.006328722337
  33
0.0
  14
 178.80939450406
  24
 39.006328722337
  34
0.0
 100
AcDbRotatedDimension
   0
DIMENSION
   5
3AF
 100
AcDbEntity
   8
0
 370
15
   6
CONTINUOUS
  62
8
 100
AcDbDimension
   2
*D23
  10
 186.92969324583
  20
 139.00632872234
  30
0.0
  11
 186.92969324583
  21
 89.006328722337
  31
0.0
  70
0
   1
\A1;戸高全長
   3
GMM005
 100
AcDbAlignedDimension
  13
 178.80939450406
  23
 39.006328722337
  33
0.0
  14
 178.80939450406
  24
 139.00632872234
  34
0.0
  50
 90.000000000000
 100
AcDbRotatedDimension
   0
DIMENSION
   5
3B0
 100
AcDbEntity
   8
0
 370
15
   6
CONTINUOUS
  62
8
 100
AcDbDimension
   2
*D24
  10
 152.55939450404
  20
 139.00632872234
  30
0.0
  11
 152.55939450404
  21
 89.006328722337
  31
0.0
  70
0
   1
\A1;ロング引手長さ
   3
GMM005
 100
AcDbAlignedDimension
  13
 144.05939450400
  23
 39.006328722337
  33
0.0
  14
 144.05939450672
  24
 139.00632872234
  34
0.0
  50
 90.000000000000
 100
AcDbRotatedDimension
   0
MTEXT
   5
3B2
 100
AcDbEntity
   8
LEVEL001
 370
15
  62
8
 100
AcDbMText
  10
 84.313186102420
  20
 145.09835929059
  30
0.0
  40
 3.5000000000000
  41
0.0
  71
5
  72
1
   1
\T1.000000;切欠寸法
   7
GMM002
  44
 0.79999984000003
   0
MTEXT
   5
3B4
 100
AcDbEntity
   8
LEVEL001
 370
15
  62
8
 100
AcDbMText
  10
 172.30939450406
  20
 145.09835929059
  30
0.0
  40
 3.5000000000000
  41
0.0
  71
5
  72
1
   1
\T1.000000;切欠寸法
   7
GMM002
  44
 0.79999984000003
   0
LINE
   5
3B5
 100
AcDbEntity
   8
0
 370
15
 100
AcDbLine
   6
DASHDOT
  62
8
  10
 73.894943486605
  20
 86.544620732423
  30
0.0
  11
 93.431844109121
  21
 93.655471028834
  31
0.0
   0
LINE
   5
3B6
 100
AcDbEntity
   8
0
 370
15
 100
AcDbLine
   6
DASHDOT
  62
8
  10
 73.894943486604
  20
 83.884176301233
  30
0.0
  11
 93.431844109121
  21
 90.995026597644
  31
0.0
   0
LINE
   5
3B7
 100
AcDbEntity
   8
0
 370
15
 100
AcDbLine
   6
DASHDOT
  62
8
  10
 161.89115188824
  20
 86.544620732425
  30
0.0
  11
 181.42805251075
  21
 93.655471028836
  31
0.0
   0
LINE
   5
3B8
 100
AcDbEntity
   8
0
 370
15
 100
AcDbLine
   6
DASHDOT
  62
8
  10
 161.89115188824
  20
 83.884176301235
  30
0.0
  11
 181.42805251075
  21
 90.995026597646
  31
0.0
   0
LINE
   5
3B9
 100
AcDbEntity
   8
0
 370
15
 100
AcDbLine
   6
DASHDOT
  62
8
  10
 124.14115188818
  20
 85.998665380532
  30
0.0
  11
 145.52918873880
  21
 93.783274163544
  31
0.0
   0
LINE
   5
3BA
 100
AcDbEntity
   8
0
 370
15
 100
AcDbLine
   6
DASHDOT
  62
8
  10
 124.14115188818
  20
 83.338220949342
  30
0.0
  11
 145.62506168151
  21
 91.157724629770
  31
0.0
   0
LINE
   5
3BB
 100
AcDbEntity
   8
0
 370
15
 100
AcDbLine
   6
DASHDOT
  62
8
  10
 29.986118938540
  20
 83.338220949836
  30
0.0
  11
 51.174986298765
  21
 91.050337966770
  31
0.0
   0
LINE
   5
3BC
 100
AcDbEntity
   8
0
 370
15
 100
AcDbLine
   6
DASHDOT
  62
8
  10
 29.986118938540
  20
 85.998665381026
  30
0.0
  11
 51.079113356063
  21
 93.675887500545
  31
0.0
   0
ARC
   5
3BD
 100
AcDbEntity
   8
LEVEL001
 370
30
   6
CONTINUOUS
  62
7
 100
AcDbCircle
  10
 48.229361554365
  20
 149.89786905166
  30
0.0
  40
 0.10000000000000
 100
AcDbArc
  50
 269.99999999705
  51
 21.616115537788
   0
ARC
   5
3BE
 100
AcDbEntity
   8
LEVEL001
 370
30
   6
CONTINUOUS
  62
7
 100
AcDbCircle
  10
 48.229361554355
  20
 150.64786905168
  30
0.0
  40
 0.10000000000000
 100
AcDbArc
  50
 270.00000000072
  51
 21.616115527909
   0
ARC
   5
3BF
 100
AcDbEntity
   8
LEVEL001
 370
30
   6
CONTINUOUS
  62
7
 100
AcDbCircle
  10
 48.229361554360
  20
 151.39786905168
  30
0.0
  40
 0.10000000000000
 100
AcDbArc
  50
 269.99999999992
  51
0.0
   0
ARC
   5
3C0
 100
AcDbEntity
   8
LEVEL001
 370
30
   6
CONTINUOUS
  62
7
 100
AcDbCircle
  10
 35.579361554355
  20
 149.89786905166
  30
0.0
  40
 0.10000000000000
 100
AcDbArc
  50
 158.38388446095
  51
 270.00000000329
   0
ARC
   5
3C1
 100
AcDbEntity
   8
LEVEL001
 370
30
   6
CONTINUOUS
  62
7
 100
AcDbCircle
  10
 35.579361554360
  20
 150.64786905167
  30
0.0
  40
 0.10000000000000
 100
AcDbArc
  50
 158.38388447086
  51
 269.99999999963
   0
ARC
   5
3C2
 100
AcDbEntity
   8
LEVEL001
 370
30
   6
CONTINUOUS
  62
7
 100
AcDbCircle
  10
 35.579361554360
  20
 151.39786905169
  30
0.0
  40
 0.10000000000000
 100
AcDbArc
  50
 180.00000000689
  51
 269.99999999995
   0
LINE
   5
3C3
 100
AcDbEntity
   8
LEVEL001
 370
30
 100
AcDbLine
   6
CONTINUOUS
  62
7
  10
 48.329361554360
  20
 151.91344080275
  30
0.0
  11
 35.479361554360
  21
 151.91344080275
  31
0.0
   0
LINE
   5
3C4
 100
AcDbEntity
   8
LEVEL001
 370
30
 100
AcDbLine
   6
CONTINUOUS
  62
7
  10
 35.729361554360
  20
 151.29786905167
  30
0.0
  11
 48.079361554360
  21
 151.29786905167
  31
0.0
   0
LINE
   5
3C5
 100
AcDbEntity
   8
LEVEL001
 370
30
 100
AcDbLine
   6
CONTINUOUS
  62
7
  10
 35.729361554360
  20
 150.54786905167
  30
0.0
  11
 48.079361554360
  21
 150.54786905167
  31
0.0
   0
LINE
   5
3C6
 100
AcDbEntity
   8
LEVEL001
 370
30
 100
AcDbLine
   6
CONTINUOUS
  62
7
  10
 35.729361554360
  20
 149.79786905167
  30
0.0
  11
 48.079361554360
  21
 149.79786905167
  31
0.0
   0
LINE
   5
3C7
 100
AcDbEntity
   8
LEVEL001
 370
30
 100
AcDbLine
   6
CONTINUOUS
  62
7
  10
 48.329361554360
  20
 149.29786905167
  30
0.0
  11
 35.479361554360
  21
 149.29786905167
  31
0.0
   0
LINE
   5
3C8
 100
AcDbEntity
   8
LEVEL001
 370
30
 100
AcDbLine
   6
CONTINUOUS
  62
7
  10
 48.329361554360
  20
 148.94577104625
  30
0.0
  11
 35.479361554360
  21
 148.94577104625
  31
0.0
   0
LINE
   5
3C9
 100
AcDbEntity
   8
LEVEL001
 370
30
 100
AcDbLine
   6
CONTINUOUS
  62
7
  10
 48.329361554360
  20
 148.64996705710
  30
0.0
  11
 35.479361554360
  21
 148.64996705710
  31
0.0
   0
LINE
   5
3CA
 100
AcDbEntity
   8
LEVEL001
 370
30
 100
AcDbLine
   6
CONTINUOUS
  62
7
  10
 48.329361554360
  20
 147.79786905167
  30
0.0
  11
 35.479361554360
  21
 147.79786905167
  31
0.0
   0
LINE
   5
3CB
 100
AcDbEntity
   8
LEVEL001
 370
30
 100
AcDbLine
   6
CONTINUOUS
  62
7
  10
 48.329361554360
  20
 148.40416544885
  30
0.0
  11
 48.329361554360
  21
 148.40758617701
  31
0.0
   0
LINE
   5
3CC
 100
AcDbEntity
   8
LEVEL006
 370
30
 100
AcDbLine
   6
CONTINUOUS
  62
7
  10
 41.904361554360
  20
 152.54786905167
  30
0.0
  11
 47.829363458275
  21
 152.54786905167
  31
0.0
   0
LINE
   5
3CD
 100
AcDbEntity
   8
LEVEL001
 370
30
 100
AcDbLine
   6
CONTINUOUS
  62
7
  10
 48.329361554360
  20
 151.74372386322
  30
0.0
  11
 48.329361554360
  21
 151.91344080275
  31
0.0
   0
LINE
   5
3CE
 100
AcDbEntity
   8
LEVEL001
 370
30
 100
AcDbLine
   6
CONTINUOUS
  62
7
  10
 48.329361554360
  20
 151.91344080275
  30
0.0
  11
 47.829363458275
  21
 152.54786905167
  31
0.0
   0
LINE
   5
3CF
 100
AcDbEntity
   8
LEVEL006
 370
30
 100
AcDbLine
   6
CONTINUOUS
  62
7
  10
 48.329361554360
  20
 147.79786905167
  30
0.0
  11
 49.904361554360
  21
 147.79786905167
  31
0.0
   0
LINE
   5
3D0
 100
AcDbEntity
   8
LEVEL006
 370
30
 100
AcDbLine
   6
CONTINUOUS
  62
7
  10
 49.904361554360
  20
 147.79786905167
  30
0.0
  11
 49.904361554360
  21
 147.44786905167
  31
0.0
   0
ARC
   5
3D1
 100
AcDbEntity
   8
LEVEL006
 370
30
   6
CONTINUOUS
  62
7
 100
AcDbCircle
  10
 49.654361554365
  20
 147.44786905167
  30
0.0
  40
 0.25000000000000
 100
AcDbArc
  50
 269.99999999892
  51
0.0
   0
ARC
   5
3D2
 100
AcDbEntity
   8
LEVEL001
 370
30
   6
CONTINUOUS
  62
7
 100
AcDbCircle
  10
 48.304361554400
  20
 148.79786905167
  30
0.0
  40
 0.15000000000000
 100
AcDbArc
  50
 279.59406821046
  51
 80.405931790505
   0
LINE
   5
3D3
 100
AcDbEntity
   8
LEVEL001
 370
30
 100
AcDbLine
   6
CONTINUOUS
  62
7
  10
 48.329361554360
  20
 147.79786905167
  30
0.0
  11
 48.329361554360
  21
 148.64996705710
  31
0.0
   0
LINE
   5
3D4
 100
AcDbEntity
   8
LEVEL001
 370
30
 100
AcDbLine
   6
CONTINUOUS
  62
7
  10
 48.079361554360
  20
 150.54786905167
  30
0.0
  11
 48.322328845065
  21
 149.93470765722
  31
0.0
   0
LINE
   5
3D5
 100
AcDbEntity
   8
LEVEL001
 370
30
 100
AcDbLine
   6
CONTINUOUS
  62
7
  10
 48.079361554360
  20
 150.54786905167
  30
0.0
  11
 48.229361554360
  21
 150.54786905167
  31
0.0
   0
LINE
   5
3D6
 100
AcDbEntity
   8
LEVEL001
 370
30
 100
AcDbLine
   6
CONTINUOUS
  62
7
  10
 48.079361554360
  20
 151.29786905167
  30
0.0
  11
 48.322328845065
  21
 150.68470765722
  31
0.0
   0
LINE
   5
3D7
 100
AcDbEntity
   8
LEVEL001
 370
30
 100
AcDbLine
   6
CONTINUOUS
  62
7
  10
 48.079361554360
  20
 151.29786905167
  30
0.0
  11
 48.229361554360
  21
 151.29786905167
  31
0.0
   0
LINE
   5
3D8
 100
AcDbEntity
   8
LEVEL001
 370
30
 100
AcDbLine
   6
CONTINUOUS
  62
7
  10
 48.079361554360
  20
 149.79786905167
  30
0.0
  11
 48.229361554360
  21
 149.79786905167
  31
0.0
   0
LINE
   5
3D9
 100
AcDbEntity
   8
LEVEL001
 370
30
 100
AcDbLine
   6
CONTINUOUS
  62
7
  10
 48.329361554360
  20
 149.29786905167
  30
0.0
  11
 48.079361554360
  21
 149.79786905167
  31
0.0
   0
LINE
   5
3DA
 100
AcDbEntity
   8
LEVEL001
 370
30
 100
AcDbLine
   6
CONTINUOUS
  62
7
  10
 48.329361554360
  20
 148.94577104625
  30
0.0
  11
 48.329361554360
  21
 149.29786905167
  31
0.0
   0
LINE
   5
3DB
 100
AcDbEntity
   8
LEVEL001
 370
30
 100
AcDbLine
   6
CONTINUOUS
  62
7
  10
 48.329361554360
  20
 149.89786905167
  30
0.0
  11
 48.329361554360
  21
 149.90201424027
  31
0.0
   0
LINE
   5
3DC
 100
AcDbEntity
   8
LEVEL001
 370
30
 100
AcDbLine
   6
CONTINUOUS
  62
7
  10
 48.329361554360
  20
 151.74372386322
  30
0.0
  11
 48.329361554360
  21
 151.39786905167
  31
0.0
   0
LINE
   5
3DD
 100
AcDbEntity
   8
LEVEL001
 370
30
 100
AcDbLine
   6
CONTINUOUS
  62
7
  10
 48.329361554360
  20
 151.39786905167
  30
0.0
  11
 48.329361554360
  21
 151.54768806012
  31
0.0
   0
LINE
   5
3DE
 100
AcDbEntity
   8
LEVEL001
 370
30
 100
AcDbLine
   6
CONTINUOUS
  62
7
  10
 35.479361554360
  20
 148.40416544885
  30
0.0
  11
 35.479361554360
  21
 148.40758617701
  31
0.0
   0
LINE
   5
3DF
 100
AcDbEntity
   8
LEVEL006
 370
30
 100
AcDbLine
   6
CONTINUOUS
  62
7
  10
 35.979359650440
  20
 152.54786905167
  30
0.0
  11
 41.904361554360
  21
 152.54786905167
  31
0.0
   0
LINE
   5
3E0
 100
AcDbEntity
   8
LEVEL006
 370
30
 100
AcDbLine
   6
CONTINUOUS
  62
7
  10
 41.904361554360
  20
 152.54786905167
  30
0.0
  11
 35.979359650440
  21
 152.54786905167
  31
0.0
   0
LINE
   5
3E1
 100
AcDbEntity
   8
LEVEL001
 370
30
 100
AcDbLine
   6
CONTINUOUS
  62
7
  10
 35.479361554360
  20
 151.74372386322
  30
0.0
  11
 35.479361554360
  21
 151.91344080275
  31
0.0
   0
LINE
   5
3E2
 100
AcDbEntity
   8
LEVEL001
 370
30
 100
AcDbLine
   6
CONTINUOUS
  62
7
  10
 35.479361554360
  20
 151.91344080275
  30
0.0
  11
 35.979359650440
  21
 152.54786905167
  31
0.0
   0
LINE
   5
3E3
 100
AcDbEntity
   8
LEVEL006
 370
30
 100
AcDbLine
   6
CONTINUOUS
  62
7
  10
 35.479361554360
  20
 147.79786905167
  30
0.0
  11
 33.904361554360
  21
 147.79786905167
  31
0.0
   0
LINE
   5
3E4
 100
AcDbEntity
   8
LEVEL006
 370
30
 100
AcDbLine
   6
CONTINUOUS
  62
7
  10
 33.904361554360
  20
 147.79786905167
  30
0.0
  11
 33.904361554360
  21
 147.44786905167
  31
0.0
   0
ARC
   5
3E5
 100
AcDbEntity
   8
LEVEL006
 370
30
   6
CONTINUOUS
  62
7
 100
AcDbCircle
  10
 34.154361554370
  20
 147.44786905167
  30
0.0
  40
 0.25000000000000
 100
AcDbArc
  50
 179.99999999995
  51
 269.99999999708
   0
ARC
   5
3E6
 100
AcDbEntity
   8
LEVEL001
 370
30
   6
CONTINUOUS
  62
7
 100
AcDbCircle
  10
 35.504361554315
  20
 148.79786905167
  30
0.0
  40
 0.15000000000000
 100
AcDbArc
  50
 99.594068209516
  51
 260.40593178956
   0
LINE
   5
3E7
 100
AcDbEntity
   8
LEVEL001
 370
30
 100
AcDbLine
   6
CONTINUOUS
  62
7
  10
 35.479361554360
  20
 147.79786905167
  30
0.0
  11
 35.479361554360
  21
 148.64996705710
  31
0.0
   0
LINE
   5
3E8
 100
AcDbEntity
   8
LEVEL001
 370
30
 100
AcDbLine
   6
CONTINUOUS
  62
7
  10
 35.729361554360
  20
 150.54786905167
  30
0.0
  11
 35.486394263650
  21
 149.93470765722
  31
0.0
   0
LINE
   5
3E9
 100
AcDbEntity
   8
LEVEL001
 370
30
 100
AcDbLine
   6
CONTINUOUS
  62
7
  10
 35.729361554360
  20
 150.54786905167
  30
0.0
  11
 35.579361554360
  21
 150.54786905167
  31
0.0
   0
LINE
   5
3EA
 100
AcDbEntity
   8
LEVEL001
 370
30
 100
AcDbLine
   6
CONTINUOUS
  62
7
  10
 35.729361554360
  20
 151.29786905167
  30
0.0
  11
 35.486394263650
  21
 150.68470765722
  31
0.0
   0
LINE
   5
3EB
 100
AcDbEntity
   8
LEVEL001
 370
30
 100
AcDbLine
   6
CONTINUOUS
  62
7
  10
 35.729361554360
  20
 151.29786905167
  30
0.0
  11
 35.579361554360
  21
 151.29786905167
  31
0.0
   0
LINE
   5
3EC
 100
AcDbEntity
   8
LEVEL001
 370
30
 100
AcDbLine
   6
CONTINUOUS
  62
7
  10
 35.729361554360
  20
 149.79786905167
  30
0.0
  11
 35.579361554360
  21
 149.79786905167
  31
0.0
   0
LINE
   5
3ED
 100
AcDbEntity
   8
LEVEL001
 370
30
 100
AcDbLine
   6
CONTINUOUS
  62
7
  10
 35.479361554360
  20
 149.29786905167
  30
0.0
  11
 35.729361554360
  21
 149.79786905167
  31
0.0
   0
LINE
   5
3EE
 100
AcDbEntity
   8
LEVEL001
 370
30
 100
AcDbLine
   6
CONTINUOUS
  62
7
  10
 35.479361554360
  20
 148.94577104625
  30
0.0
  11
 35.479361554360
  21
 149.29786905167
  31
0.0
   0
LINE
   5
3EF
 100
AcDbEntity
   8
LEVEL001
 370
30
 100
AcDbLine
   6
CONTINUOUS
  62
7
  10
 35.479361554360
  20
 149.89786905167
  30
0.0
  11
 35.479361554360
  21
 149.90201424027
  31
0.0
   0
LINE
   5
3F0
 100
AcDbEntity
   8
LEVEL001
 370
30
 100
AcDbLine
   6
CONTINUOUS
  62
7
  10
 35.479361554360
  20
 151.74372386322
  30
0.0
  11
 35.479361554360
  21
 151.39786905167
  31
0.0
   0
LINE
   5
3F1
 100
AcDbEntity
   8
LEVEL001
 370
30
 100
AcDbLine
   6
CONTINUOUS
  62
7
  10
 35.479361554360
  20
 151.39786905167
  30
0.0
  11
 35.479361554360
  21
 151.54768806012
  31
0.0
   0
LINE
   5
3F2
 100
AcDbEntity
   8
LEVEL001
 370
30
 100
AcDbLine
   6
CONTINUOUS
  62
7
  10
 34.154361554360
  20
 147.19786905167
  30
0.0
  11
 41.904361554360
  21
 147.19786905167
  31
0.0
   0
LINE
   5
3F3
 100
AcDbEntity
   8
LEVEL006
 370
30
 100
AcDbLine
   6
CONTINUOUS
  62
7
  10
 47.829363458275
  20
 152.54786905167
  30
0.0
  11
 41.904361554360
  21
 152.54786905167
  31
0.0
   0
LINE
   5
3F4
 100
AcDbEntity
   8
LEVEL001
 370
30
 100
AcDbLine
   6
CONTINUOUS
  62
7
  10
 49.654361554360
  20
 147.19786905167
  30
0.0
  11
 41.904361554360
  21
 147.19786905167
  31
0.0
   0
DIMENSION
   5
3F5
 100
AcDbEntity
   8
0
 370
15
   6
CONTINUOUS
  62
8
 100
AcDbDimension
   2
*D25
  10
 56.067810375870
  20
 147.79786905167
  30
0.0
  11
 56.067810375870
  21
 146.04407948093
  31
0.0
  70
128
   1
\A1;1.2
   3
GMM007
 100
AcDbAlignedDimension
  13
 49.654361554360
  23
 147.19786905167
  33
0.0
  14
 49.904361554360
  24
 147.79786905167
  34
0.0
  50
 90.000000000000
 100
AcDbRotatedDimension
   0
DIMENSION
   5
3F6
 100
AcDbEntity
   8
0
 370
15
   6
CONTINUOUS
  62
8
 100
AcDbDimension
   2
*D26
  10
 56.067810375870
  20
 152.54786905167
  30
0.0
  11
 56.067810375870
  21
 152.96497568578
  31
0.0
  70
128
   1
\A1;9.5
   3
GMM008
 100
AcDbAlignedDimension
  13
 49.904361554360
  23
 147.79786905167
  33
0.0
  14
 47.829363458275
  24
 152.54786905167
  34
0.0
  50
 90.000000000000
 100
AcDbRotatedDimension
   0
MTEXT
   5
3F8
 100
AcDbEntity
   8
LEVEL001
 370
15
  62
8
 100
AcDbMText
  10
 334.49999999995
  20
 244.50000000000
  30
0.0
  40
 4.5000000000000
  41
0.0
  71
7
  72
1
   1
\T1.000000;　アルミロング引手②
   7
GMM004
  44
 0.79999984000003
   0
MTEXT
   5
3FA
 100
AcDbEntity
   8
LEVEL001
 370
15
  62
8
 100
AcDbMText
  10
 354.49999999995
  20
 226.75000000000
  30
0.0
  40
 4.0000000000000
  41
0.0
  71
5
  72
1
   1
\T1.000000;ＡＬＨ２６シリーズ
   7
GMM002
  44
 0.79999984000003
   0
MTEXT
   5
3FC
 100
AcDbEntity
   8
LEVEL001
 370
15
  62
8
 100
AcDbMText
  10
 312.16666666662
  20
 207.91666666670
  30
0.0
  40
 3.5000000000000
  41
0.0
  71
1
  72
1
   3
{\W1.000000;\T1.000000;・ロング引手}\P{\W1.000000;\T1.000000;　ＡＬＨ２６}\P{\W1.000000;\T1.000000;　　材質／Ａ６０６３Ｓ－Ｔ５}\P{\W1.000000;\T1.000000;　　カラー／シルバー（Ｂ２）}\P{\W0.500000;\T1.000000;            \W1.000000;\T1.000000;アーバン
   3
ブラウンＭ（ＵＢＭ）}\P{\W1.000000;\T1.000000;　　　　　　ブラック艶消し（ＢＫＭ）}\P{\W1.000000;\T1.000000;　　長さ／２１００\W0.500000;\T1.000000;m/m\W1.000000;\T1.000000;・２６００\W0.500000;\T1.000000;m/m\W1.000000;\T1.000000;　　}\P\P{\W1.000000
   3
;\T1.000000;・エンドキャップ}\P{\W1.000000;\T1.000000;　ＡＬＨ２６Ｃ・ＡＬＨ２６ＣＣ}\P{\W1.000000;\T1.000000;　ＡＬＨ２６ＣＵＢＭ・ＡＬＨ２６ＣＢＫＭ}\P{\W1.000000;\T1.000000;　　材質／ＡＢＳ}\P{\W1.000000;\T1.000000;　　カラー／ＡＬＨ２６Ｃ　グレイ
   1
}\P{\W1.000000;\T1.000000;　　　　　　ＡＬＨ２６ＣＣ　クロームメッキ}\P{\W1.000000;\T1.000000;　　　　　　ＡＬＨ２６ＣＵＢＭ　アーバンブラウンＭ}\P{\W1.000000;\T1.000000;　　　　　　ＡＬＨ２６ＣＢＫＭ　ブラック艶消し　　　　}
   7
GMM002
  44
 0.79999984000003
   0
MTEXT
   5
3FE
 100
AcDbEntity
   8
0
 370
15
  62
8
 100
AcDbMText
  10
 126.97283811752
  20
 202.56457386384
  30
0.0
  40
 3.0000000000000
  41
0.0
  71
2
  72
1
   3
{\W1.000000;\T0.833333;エンドキャップ}\P{\W1.000000;\T0.833333;ＡＬＨ２６Ｃ／ＡＬＨ２６ＣＣ}\P{\W1.000000;\T0.833333;ＡＬＨ２６ＣＵＢＭ・ＡＬＨ２６ＣＢＫＭ}\P{\W1.000000;\T0.833333;　　　　　　\W0.500000;\T0.750000; (\W1.000000;\T0.833333;Ｓ＝１／１\
   1
W0.500000;\T0.750000;)}
   7
GMM002
  44
 0.79999984000003
   0
LINE
   5
3FF
 100
AcDbEntity
   8
0
 370
15
 100
AcDbLine
   6
CONTINUOUS
  62
8
  10
 101.44051211706
  20
 187.03912983986
  30
0.0
  11
 152.93680841335
  21
 187.03912983986
  31
0.0
   0
MTEXT
   5
401
 100
AcDbEntity
   8
0
 370
15
  62
8
 100
AcDbMText
  10
 174.05216825369
  20
 260.97407407407
  30
0.0
  40
 3.0000000000000
  41
0.0
  71
1
  72
1
   3
{\W1.000000;\T1.000000;注）・ツバ厚１\W0.500000;\T1.000000;.\W1.000000;\T1.000000;２\W0.500000;\T1.000000;m/m\W1.000000;\T1.000000;のため引き違いの場合は建具間のクリアランスは通常より}\P{\W1.000000;\T1.000000;　　　２\W0.500000;\T1.000000;.\W1.000000
   3
;\T1.000000;４\W0.500000;\T1.000000;m/m\W1.000000;\T1.000000;以上広く設定している。}\P{\W1.000000;\T1.000000;　　・ツバしろ３\W0.500000;\T1.000000;.\W1.000000;\T1.000000;１５\W0.500000;\T1.000000;m/m\W1.000000;\T1.000000;のためエンドキャップ仕様の切
   3
り欠き寸法は戸高寸法}\P{\W1.000000;\T1.000000;　　　から上下下端３\W0.500000;\T1.000000;.\W1.000000;\T1.000000;１５\W0.500000;\T1.000000;m/m\W1.000000;\T1.000000;以上のクリアランスが必要です。}\P{\W1.000000;\T1.000000;　　・エンドキャップ仕様の場合は
   1
切り欠き長さは正確に行って下さい。}\P{\W1.000000;\T1.000000;　　・必ず接着剤を併用して下さい。}\P{\W1.000000;\T1.000000;　　　}
   7
GMM002
  44
 0.79999984000003
   0
LINE
   5
402
 100
AcDbEntity
   8
LEVEL004
 370
30
 100
AcDbLine
   6
CONTINUOUS
  62
7
  10
 214.84687351488
  20
 90.367010414023
  30
0.0
  11
 214.84687351488
  21
 87.217004414023
  31
0.0
   0
LINE
   5
403
 100
AcDbEntity
   8
LEVEL004
 370
30
 100
AcDbLine
   6
CONTINUOUS
  62
7
  10
 214.84687351488
  20
 90.367010414023
  30
0.0
  11
 215.34687351488
  21
 90.367010414023
  31
0.0
   0
ARC
   5
404
 100
AcDbEntity
   8
LEVEL004
 370
30
   6
CONTINUOUS
  62
7
 100
AcDbCircle
  10
 216.84687351488
  20
 90.417010414025
  30
0.0
  40
 0.30000000000000
 100
AcDbArc
  50
 189.59406800031
  51
 350.40593199968
   0
LINE
   5
405
 100
AcDbEntity
   8
LEVEL004
 370
30
 100
AcDbLine
   6
CONTINUOUS
  62
7
  10
 214.84687351488
  20
 90.367010414023
  30
0.0
  11
 216.55106951488
  21
 90.367010414023
  31
0.0
   0
ARC
   5
406
 100
AcDbEntity
   8
LEVEL004
 370
30
   6
CONTINUOUS
  62
7
 100
AcDbCircle
  10
 215.71138351488
  20
 92.067010414024
  30
0.0
  40
 0.50000000000000
 100
AcDbArc
  50
 197.81441000002
  51
 270.00000000001
   0
ARC
   5
407
 100
AcDbEntity
   8
LEVEL004
 370
30
   6
CONTINUOUS
  62
7
 100
AcDbCircle
  10
 216.84687351488
  20
 92.067010414024
  30
0.0
  40
 0.50000000000000
 100
AcDbArc
  50
 270.00000000000
  51
0.0
   0
ARC
   5
408
 100
AcDbEntity
   8
LEVEL004
 370
30
   6
CONTINUOUS
  62
7
 100
AcDbCircle
  10
 217.84687351488
  20
 92.367010414023
  30
0.0
  40
 0.50000000000000
 100
AcDbArc
  50
 90.000000000000
  51
 179.99999999999
   0
LINE
   5
409
 100
AcDbEntity
   8
LEVEL004
 370
30
 100
AcDbLine
   6
CONTINUOUS
  62
7
  10
 216.84687351488
  20
 91.567010414024
  30
0.0
  11
 215.71138351488
  21
 91.567010414024
  31
0.0
   0
LINE
   5
40A
 100
AcDbEntity
   8
LEVEL004
 370
30
 100
AcDbLine
   6
CONTINUOUS
  62
7
  10
 217.84687351488
  20
 90.367010414023
  30
0.0
  11
 218.54687351488
  21
 90.367010414023
  31
0.0
   0
LINE
   5
40B
 100
AcDbEntity
   8
LEVEL004
 370
30
 100
AcDbLine
   6
CONTINUOUS
  62
7
  10
 224.34687351488
  20
 91.367010414023
  30
0.0
  11
 223.46185051488
  21
 90.457761414024
  31
0.0
   0
ARC
   5
40C
 100
AcDbEntity
   8
LEVEL004
 370
30
   6
CONTINUOUS
  62
7
 100
AcDbCircle
  10
 223.07366851488
  20
 91.567010414023
  30
0.0
  40
 0.30000000000000
 100
AcDbArc
  50
 329.99999999994
  51
 90.000000000000
   0
ARC
   5
40D
 100
AcDbEntity
   8
LEVEL004
 370
30
   6
CONTINUOUS
  62
7
 100
AcDbCircle
  10
 218.72007851488
  20
 91.567010414024
  30
0.0
  40
 0.30000000000000
 100
AcDbArc
  50
 90.000000000011
  51
 210.00000000001
   0
LINE
   5
40E
 100
AcDbEntity
   8
LEVEL004
 370
30
 100
AcDbLine
   6
CONTINUOUS
  62
7
  10
 218.72007851488
  20
 91.867010414023
  30
0.0
  11
 223.07366851488
  21
 91.867010414023
  31
0.0
   0
LINE
   5
40F
 100
AcDbEntity
   8
LEVEL004
 370
30
 100
AcDbLine
   6
CONTINUOUS
  62
7
  10
 218.46027151488
  20
 91.417010414024
  30
0.0
  11
 218.80668151488
  21
 90.817010414024
  31
0.0
   0
LINE
   5
410
 100
AcDbEntity
   8
LEVEL004
 370
30
 100
AcDbLine
   6
CONTINUOUS
  62
7
  10
 217.14267751488
  20
 90.367010414023
  30
0.0
  11
 218.54687351488
  21
 90.367010414023
  31
0.0
   0
ARC
   5
411
 100
AcDbEntity
   8
LEVEL004
 370
30
   6
CONTINUOUS
  62
7
 100
AcDbCircle
  10
 223.24687351488
  20
 90.667010414020
  30
0.0
  40
 0.30000000000000
 100
AcDbArc
  50
 149.99999999907
  51
 315.77353300094
   0
ARC
   5
412
 100
AcDbEntity
   8
LEVEL004
 370
30
   6
CONTINUOUS
  62
7
 100
AcDbCircle
  10
 218.54687351488
  20
 90.667010414023
  30
0.0
  40
 0.30000000000000
 100
AcDbArc
  50
 269.99999999996
  51
 30.000000000110
   0
LINE
   5
413
 100
AcDbEntity
   8
LEVEL004
 370
30
 100
AcDbLine
   6
CONTINUOUS
  62
7
  10
 222.98706651488
  20
 90.817010414024
  30
0.0
  11
 223.33347651488
  21
 91.417010414024
  31
0.0
   0
LINE
   5
414
 100
AcDbEntity
   8
LEVEL004
 370
30
 100
AcDbLine
   6
CONTINUOUS
  62
7
  10
 217.34687351488
  20
 92.067010414024
  30
0.0
  11
 217.34687351488
  21
 92.367010414023
  31
0.0
   0
ARC
   5
415
 100
AcDbEntity
   8
LEVEL004
 370
30
   6
CONTINUOUS
  62
7
 100
AcDbCircle
  10
 222.54687351488
  20
 93.367010414024
  30
0.0
  40
 0.50000000000000
 100
AcDbArc
  50
 270.00000000000
  51
0.0
   0
LINE
   5
416
 100
AcDbEntity
   8
LEVEL004
 370
30
 100
AcDbLine
   6
CONTINUOUS
  62
7
  10
 217.84687351488
  20
 92.867010414023
  30
0.0
  11
 222.54687351488
  21
 92.867010414023
  31
0.0
   0
LINE
   5
417
 100
AcDbEntity
   8
LEVEL004
 370
30
 100
AcDbLine
   6
CONTINUOUS
  62
7
  10
 214.84687351488
  20
 116.06699841402
  30
0.0
  11
 214.84687351488
  21
 119.21700441402
  31
0.0
   0
LINE
   5
418
 100
AcDbEntity
   8
LEVEL004
 370
30
 100
AcDbLine
   6
CONTINUOUS
  62
7
  10
 214.84687351488
  20
 116.06699841402
  30
0.0
  11
 215.34687351488
  21
 116.06699841402
  31
0.0
   0
LINE
   5
419
 100
AcDbEntity
   8
LEVEL004
 370
30
 100
AcDbLine
   6
CONTINUOUS
  62
7
  10
 214.84687351488
  20
 119.21700441402
  30
0.0
  11
 214.14687351488
  21
 119.21700441402
  31
0.0
   0
ARC
   5
41A
 100
AcDbEntity
   8
LEVEL004
 370
30
   6
CONTINUOUS
  62
7
 100
AcDbCircle
  10
 214.14687351488
  20
 118.71700441402
  30
0.0
  40
 0.50000000000000
 100
AcDbArc
  50
 90.000000000000
  51
 180.00000000002
   0
ARC
   5
41B
 100
AcDbEntity
   8
LEVEL004
 370
30
   6
CONTINUOUS
  62
7
 100
AcDbCircle
  10
 216.84687351488
  20
 116.01699841402
  30
0.0
  40
 0.30000000000000
 100
AcDbArc
  50
 9.5940679997532
  51
 170.40593200026
   0
LINE
   5
41C
 100
AcDbEntity
   8
LEVEL004
 370
30
 100
AcDbLine
   6
CONTINUOUS
  62
7
  10
 214.84687351488
  20
 116.06699841402
  30
0.0
  11
 216.55106951488
  21
 116.06699841402
  31
0.0
   0
ARC
   5
41D
 100
AcDbEntity
   8
LEVEL004
 370
30
   6
CONTINUOUS
  62
7
 100
AcDbCircle
  10
 215.71138351488
  20
 114.36699841402
  30
0.0
  40
 0.50000000000000
 100
AcDbArc
  50
 90.000000000000
  51
 162.18558999995
   0
ARC
   5
41E
 100
AcDbEntity
   8
LEVEL004
 370
30
   6
CONTINUOUS
  62
7
 100
AcDbCircle
  10
 216.84687351488
  20
 114.36699841402
  30
0.0
  40
 0.50000000000000
 100
AcDbArc
  50
0.0
  51
 90.000000000000
   0
ARC
   5
41F
 100
AcDbEntity
   8
LEVEL004
 370
30
   6
CONTINUOUS
  62
7
 100
AcDbCircle
  10
 217.84687351488
  20
 114.06699841402
  30
0.0
  40
 0.50000000000000
 100
AcDbArc
  50
 180.00000000000
  51
 270.00000000005
   0
LINE
   5
420
 100
AcDbEntity
   8
LEVEL004
 370
30
 100
AcDbLine
   6
CONTINUOUS
  62
7
  10
 216.84687351488
  20
 114.86699841402
  30
0.0
  11
 215.71138351488
  21
 114.86699841402
  31
0.0
   0
LINE
   5
421
 100
AcDbEntity
   8
LEVEL004
 370
30
 100
AcDbLine
   6
CONTINUOUS
  62
7
  10
 217.84687351488
  20
 116.06699841402
  30
0.0
  11
 218.54687351488
  21
 116.06699841402
  31
0.0
   0
LINE
   5
422
 100
AcDbEntity
   8
LEVEL004
 370
30
 100
AcDbLine
   6
CONTINUOUS
  62
7
  10
 224.34687351488
  20
 115.06699841402
  30
0.0
  11
 223.46185051488
  21
 115.97624741402
  31
0.0
   0
ARC
   5
423
 100
AcDbEntity
   8
LEVEL004
 370
30
   6
CONTINUOUS
  62
7
 100
AcDbCircle
  10
 223.07366851488
  20
 114.86699841402
  30
0.0
  40
 0.30000000000000
 100
AcDbArc
  50
 270.00000000001
  51
 29.999999999998
   0
ARC
   5
424
 100
AcDbEntity
   8
LEVEL004
 370
30
   6
CONTINUOUS
  62
7
 100
AcDbCircle
  10
 218.72007851488
  20
 114.86699841402
  30
0.0
  40
 0.30000000000000
 100
AcDbArc
  50
 150.00000000009
  51
 269.99999999980
   0
LINE
   5
425
 100
AcDbEntity
   8
LEVEL004
 370
30
 100
AcDbLine
   6
CONTINUOUS
  62
7
  10
 218.72007851488
  20
 114.56699841402
  30
0.0
  11
 223.07366851488
  21
 114.56699841402
  31
0.0
   0
LINE
   5
426
 100
AcDbEntity
   8
LEVEL004
 370
30
 100
AcDbLine
   6
CONTINUOUS
  62
7
  10
 218.46027151488
  20
 115.01699841402
  30
0.0
  11
 218.80668151488
  21
 115.61699841402
  31
0.0
   0
LINE
   5
427
 100
AcDbEntity
   8
LEVEL004
 370
30
 100
AcDbLine
   6
CONTINUOUS
  62
7
  10
 217.14267751488
  20
 116.06699841402
  30
0.0
  11
 218.54687351488
  21
 116.06699841402
  31
0.0
   0
ARC
   5
428
 100
AcDbEntity
   8
LEVEL004
 370
30
   6
CONTINUOUS
  62
7
 100
AcDbCircle
  10
 223.24687351488
  20
 115.76699841402
  30
0.0
  40
 0.30000000000000
 100
AcDbArc
  50
 44.226467000392
  51
 209.99999999960
   0
ARC
   5
429
 100
AcDbEntity
   8
LEVEL004
 370
30
   6
CONTINUOUS
  62
7
 100
AcDbCircle
  10
 218.54687351488
  20
 115.76699841402
  30
0.0
  40
 0.30000000000000
 100
AcDbArc
  50
 329.99999999999
  51
 89.999999999995
   0
LINE
   5
42A
 100
AcDbEntity
   8
LEVEL004
 370
30
 100
AcDbLine
   6
CONTINUOUS
  62
7
  10
 222.98706651488
  20
 115.61699841402
  30
0.0
  11
 223.33347651488
  21
 115.01699841402
  31
0.0
   0
LINE
   5
42B
 100
AcDbEntity
   8
LEVEL004
 370
30
 100
AcDbLine
   6
CONTINUOUS
  62
7
  10
 217.34687351488
  20
 114.36699841402
  30
0.0
  11
 217.34687351488
  21
 114.06699841402
  31
0.0
   0
ARC
   5
42C
 100
AcDbEntity
   8
LEVEL004
 370
30
   6
CONTINUOUS
  62
7
 100
AcDbCircle
  10
 222.54687351488
  20
 113.06699841402
  30
0.0
  40
 0.50000000000000
 100
AcDbArc
  50
0.0
  51
 90.000000000000
   0
LINE
   5
42D
 100
AcDbEntity
   8
LEVEL004
 370
30
 100
AcDbLine
   6
CONTINUOUS
  62
7
  10
 217.84687351488
  20
 113.56699841402
  30
0.0
  11
 222.54687351488
  21
 113.56699841402
  31
0.0
   0
LINE
   5
42E
 100
AcDbEntity
   8
LEVEL004
 370
30
 100
AcDbLine
   6
CONTINUOUS
  62
7
  10
 223.04687351488
  20
 113.06699841402
  30
0.0
  11
 223.04687351488
  21
 93.367010414023
  31
0.0
   0
LINE
   5
42F
 100
AcDbEntity
   8
LEVEL004
 370
30
 100
AcDbLine
   6
CONTINUOUS
  62
7
  10
 224.34687351488
  20
 91.367010414023
  30
0.0
  11
 224.34687351488
  21
 115.06699841402
  31
0.0
   0
ARC
   5
430
 100
AcDbEntity
   8
LEVEL004
 370
30
   6
CONTINUOUS
  62
7
 100
AcDbCircle
  10
 214.14687351488
  20
 93.517004413581
  30
0.0
  40
 0.50000000000000
 100
AcDbArc
  50
 14.596027999931
  51
 180.00000000007
   0
LINE
   5
431
 100
AcDbEntity
   8
LEVEL001
 370
30
 100
AcDbLine
   6
CONTINUOUS
  62
7
  10
 215.23925048186
  20
 91.902418800851
  30
0.0
  11
 214.61900654791
  21
 93.681596026882
  31
0.0
   0
LINE
   5
432
 100
AcDbEntity
   8
LEVEL004
 370
30
 100
AcDbLine
   6
CONTINUOUS
  62
7
  10
 213.64687351488
  20
 93.517004413709
  30
0.0
  11
 213.64687351488
  21
 87.717004414023
  31
0.0
   0
LINE
   5
433
 100
AcDbEntity
   8
LEVEL001
 370
30
 100
AcDbLine
   6
CONTINUOUS
  62
7
  10
 215.23925048186
  20
 114.53159002657
  30
0.0
  11
 214.61900654791
  21
 112.75241280054
  31
0.0
   0
ARC
   5
434
 100
AcDbEntity
   8
LEVEL004
 370
30
   6
CONTINUOUS
  62
7
 100
AcDbCircle
  10
 214.14687351488
  20
 112.91700441370
  30
0.0
  40
 0.50000000000000
 100
AcDbArc
  50
 180.00000000003
  51
 345.40397199997
   0
LINE
   5
435
 100
AcDbEntity
   8
LEVEL004
 370
30
 100
AcDbLine
   6
CONTINUOUS
  62
7
  10
 213.64687351488
  20
 112.91700441371
  30
0.0
  11
 213.64687351488
  21
 118.71700441402
  31
0.0
   0
LINE
   5
436
 100
AcDbEntity
   8
LEVEL004
 370
30
 100
AcDbLine
   6
CONTINUOUS
  62
7
  10
 214.84687351488
  20
 87.217004414023
  30
0.0
  11
 214.14687351488
  21
 87.217004414023
  31
0.0
   0
ARC
   5
437
 100
AcDbEntity
   8
LEVEL004
 370
30
   6
CONTINUOUS
  62
7
 100
AcDbCircle
  10
 214.14687351488
  20
 87.717004414023
  30
0.0
  40
 0.50000000000000
 100
AcDbArc
  50
 180.00000000000
  51
 270.00000000000
   0
LINE
   5
438
 100
AcDbEntity
   8
LEVEL001
 370
15
 100
AcDbLine
   6
DASHDOT
  62
8
  10
 226.81859432080
  20
 103.21700441371
  30
0.0
  11
 212.97005305350
  21
 103.21700441371
  31
0.0
   0
LWPOLYLINE
   5
439
 100
AcDbEntity
   8
0
 370
40
   6
CONTINUOUS
  62
3
 100
AcDbPolyline
  90
6
  70
0
  10
 214.84687351488
  20
 139.84759336300
  10
 214.84687351488
  20
 116.21700441371
  10
 224.34687351488
  20
 116.21700441371
  10
 224.34687351488
  20
 90.217004413709
  10
 214.84687351488
  20
 90.217004413709
  10
 214.84687351488
  20
 66.586415464418
   0
LWPOLYLINE
   5
43A
 100
AcDbEntity
   8
0
 370
40
   6
CONTINUOUS
  62
3
 100
AcDbPolyline
  90
6
  70
0
  10
 244.84687351488
  20
 139.84759336300
  10
 244.84687351488
  20
 116.21700441371
  10
 235.34687351488
  20
 116.21700441371
  10
 235.34687351488
  20
 90.217004413709
  10
 244.84687351488
  20
 90.217004413709
  10
 244.84687351488
  20
 66.586415464418
   0
DIMENSION
   5
43B
 100
AcDbEntity
   8
0
 370
15
   6
CONTINUOUS
  62
8
 100
AcDbDimension
   2
*D27
  10
 208.20116736475
  20
 119.21700441402
  30
0.0
  11
 208.20116736475
  21
 103.21700441402
  31
0.0
  70
0
   3
GMM001
 100
AcDbAlignedDimension
  13
 214.14687351488
  23
 87.217004414023
  33
0.0
  14
 214.14687351488
  24
 119.21700441402
  34
0.0
  50
 90.000000000000
 100
AcDbRotatedDimension
   0
DIMENSION
   5
43C
 100
AcDbEntity
   8
0
 370
15
   6
CONTINUOUS
  62
8
 100
AcDbDimension
   2
*D28
  10
 253.76050623003
  20
 116.21700441371
  30
0.0
  11
 253.76050623003
  21
 103.21700441371
  31
0.0
  70
0
   3
GMM001
 100
AcDbAlignedDimension
  13
 244.84687351488
  23
 90.217004413709
  33
0.0
  14
 244.84687351488
  24
 116.21700441371
  34
0.0
  50
 90.000000000000
 100
AcDbRotatedDimension
   0
DIMENSION
   5
43D
 100
AcDbEntity
   8
0
 370
15
   6
CONTINUOUS
  62
8
 100
AcDbDimension
   2
*D29
  10
 214.84687351488
  20
 81.012480796655
  30
0.0
  11
 212.00399270375
  21
 81.012480796655
  31
0.0
  70
128
   3
GMM009
 100
AcDbAlignedDimension
  13
 213.64687351488
  23
 87.717004414023
  33
0.0
  14
 214.84687351488
  24
 81.012480796655
  34
0.0
 100
AcDbRotatedDimension
   0
DIMENSION
   5
43E
 100
AcDbEntity
   8
0
 370
15
   6
CONTINUOUS
  62
8
 100
AcDbDimension
   2
*D30
  10
 244.84687351488
  20
 81.012480796655
  30
0.0
  11
 240.09687351488
  21
 81.012480796655
  31
0.0
  70
0
   3
GMM001
 100
AcDbAlignedDimension
  13
 235.34687351488
  23
 90.217004413709
  33
0.0
  14
 244.84687351488
  24
 81.012480796655
  34
0.0
 100
AcDbRotatedDimension
   0
DIMENSION
   5
43F
 100
AcDbEntity
   8
0
 370
15
   6
CONTINUOUS
  62
8
 100
AcDbDimension
   2
*D31
  10
 244.84687351488
  20
 70.163243800096
  30
0.0
  11
 229.84687351488
  21
 70.163243800096
  31
0.0
  70
0
   1
\A1;扉厚30mm以上
   3
GMM010
 100
AcDbAlignedDimension
  13
 214.84687351488
  23
 70.163243800096
  33
0.0
  14
 244.84687351488
  24
 70.163243800096
  34
0.0
 100
AcDbRotatedDimension
   0
MTEXT
   5
441
 100
AcDbEntity
   8
0
 370
25
  62
1
 100
AcDbMText
  10
 50.723538222066
  20
 171.45829820538
  30
0.0
  40
 4.0000000000000
  41
0.0
  71
5
  72
1
   1
\T1.000000;キャップ仕様
   7
GMM002
  44
 0.79999984000003
   0
LWPOLYLINE
   5
442
 100
AcDbEntity
   8
0
 370
30
   6
CONTINUOUS
  62
7
 100
AcDbPolyline
  90
4
  70
1
  10
 35.723538222066
  20
 167.45829820538
  10
 65.723538222066
  20
 167.45829820538
  10
 65.723538222066
  20
 175.45829820538
  10
 35.723538222066
  20
 175.45829820538
   0
MTEXT
   5
444
 100
AcDbEntity
   8
0
 370
25
  62
1
 100
AcDbMText
  10
 142.04853178747
  20
 171.45829820538
  30
0.0
  40
 4.0000000000000
  41
0.0
  71
5
  72
1
   1
\T1.000000;通し仕様
   7
GMM002
  44
 0.79999984000003
   0
LWPOLYLINE
   5
445
 100
AcDbEntity
   8
0
 370
30
   6
CONTINUOUS
  62
7
 100
AcDbPolyline
  90
4
  70
1
  10
 127.04853178747
  20
 167.45829820538
  10
 157.04853178747
  20
 167.45829820538
  10
 157.04853178747
  20
 175.45829820538
  10
 127.04853178747
  20
 175.45829820538
   0
LWPOLYLINE
   5
446
 100
AcDbEntity
   8
0
 370
30
   6
CONTINUOUS
  62
7
 100
AcDbPolyline
  90
4
  70
1
  10
 210.04006585112
  20
 167.45829820538
  10
 240.04006585112
  20
 167.45829820538
  10
 240.04006585112
  20
 175.45829820538
  10
 210.04006585112
  20
 175.45829820538
   0
MTEXT
   5
448
 100
AcDbEntity
   8
0
 370
25
  62
1
 100
AcDbMText
  10
 225.04006585112
  20
 171.45829820538
  30
0.0
  40
 4.0000000000000
  41
0.0
  71
5
  72
1
   1
\T1.000000;圧入接着
   7
GMM002
  44
 0.79999984000003
   0
MTEXT
   5
44A
 100
AcDbEntity
   8
LEVEL001
 370
15
  62
8
 100
AcDbMText
  10
 387.21508456075
  20
 48.666666666680
  30
0.0
  40
 3.0000000000000
  41
0.0
  71
5
  72
1
   1
\T1.000000;令和０５年０５月１８日
   7
GMM002
  44
 0.79999984000003
   0
LEADER
   5
44B
 100
AcDbEntity
   8
0
 370
15
   6
CONTINUOUS
  62
8
 100
AcDbLeader
   3
GMM011
  73
0
  74
1
  75
0
  40
 3.0000000000000
  41
 13.000000000000
  76
2
  10
 214.59857482185
  20
 117.40736342043
  30
0.0
  10
 209.73871733967
  20
 124.93230403800
  30
0.0
  77
8
 340
44C
 213
0.0
 223
-1.0000000000000
 233
0.0
   0
MTEXT
   5
44C
 102
{ACAD_REACTORS
 330
44B
 102
}
 100
AcDbEntity
   8
0
 370
15
  62
8
 100
AcDbMText
  10
 196.73871733967
  20
 125.93230403800
  30
0.0
  40
 3.0000000000000
  41
0.0
  71
7
  72
1
   1
\A1;ＡＬＨ２６
   7
GMM002
   0
LINE
   5
44D
 100
AcDbEntity
   8
0
 370
15
 100
AcDbLine
   6
DASHDOT
  62
8
  10
 229.84687351488
  20
 146.25296912114
  30
0.0
  11
 229.84687351488
  21
 76.412114014252
  31
0.0
   0
LINE
   5
44E
 100
AcDbEntity
   8
0
 370
15
 100
AcDbLine
   6
DASHDOT
  62
8
  10
 229.84687351488
  20
 67.946555819477
  30
0.0
  11
 229.84687351488
  21
 56.188836104513
  31
0.0
   0
ENDSEC
  0
SECTION
  2
OBJECTS
  0
DICTIONARY
  5
C
100
AcDbDictionary
  3
ACAD_GROUP
350
D
  3
ACAD_MLINESTYLE
350
1B
  3
DWGPROPS
350
1C
  0
DICTIONARY
  5
D
102
{ACAD_REACTORS
330
C
102
}
100
AcDbDictionary
  0
DICTIONARY
  5
1B
102
{ACAD_REACTORS
330
C
102
}
100
AcDbDictionary
  3
STANDARD
350
1D
  0
MLINESTYLE
  5
1D
102
{ACAD_REACTORS
330
1B
102
}
100
AcDbMlineStyle
  2
STANDARD
 70
     0
  3

 62
   256
 51
90.0
 52
90.0
 71
     2
 49
0.5
 62
   256
  6
BYLAYER
 49
-0.5
 62
   256
  6
BYLAYER
   0
XRECORD
   5
1C
 102
{ACAD_REACTORS
 330
C
 102
}
 330
C
 100
AcDbXrecord
 280
1
   1
DWGPROPS COOKIE
   2
 
   3
 
   4
ﾊﾙﾅ
   6
 
   7
ALH26
   8
ﾊﾙﾅ
   9

 300
 = 
 301
 = 
 302
 = 
 303
 = 
 304
 = 
 305
 = 
 306
 = 
 307
 = 
 308
 = 
 309
 = 
  40
0.0
  41
 2459512.5000000
  42
 2460114.5000000
   1

  90
10
   0
ENDSEC
   0
EOF
