   0
SECTION
   2
HEADER
   9
$ACADVER
   1
AC1015
   9
$DWGCODEPAGE
   3
ANSI_932
   9
$LIMMIN
  10
0.0
  20
0.0
   9
$LIMMAX
  10
 420.00000000000
  20
 297.00000000000
   9
$EXTMIN
  10
0.0
  20
0.0
  30
0.0
   9
$EXTMAX
  10
 420.00000000000
  20
 297.00000000000
  30
0.0
   9
$LTSCALE
  40
 8.4000000000000
   9
$HANDSEED
   5
4B2
   0
ENDSEC
   0
SECTION
   2
TABLES
  0
TABLE
  2
VPORT
  5
8
100
AcDbSymbolTable
 70
     1
  0
VPORT
  5
4B1
100
AcDbSymbolTableRecord
100
AcDbViewportTableRecord
  2
*ACTIVE
 70
     0
 10
0.0
 20
0.0
 11
1.0
 21
1.0
  12
 210.00000000000
  22
 148.50000000000
 13
0.0
 23
0.0
 14
1.0
 24
1.0
 15
0.0
 25
0.0
 16
0.0
 26
0.0
 36
1.0
 17
0.0
 27
0.0
 37
0.0
  40
 420.00000000000
  41
 1.4787878787879
 42
50.0
 43
0.0
 44
0.0
 50
0.0
 51
0.0
 71
     0
 72
   100
 73
     1
 74
     1
 75
     0
 76
     0
 77
     0
 78
     0
  0
ENDTAB
  0
TABLE
  2
LTYPE
  5
5
100
AcDbSymbolTable
 70
    25
  0
LTYPE
  5
12
100
AcDbSymbolTableRecord
100
AcDbLinetypeTableRecord
  2
BYBLOCK
 70
     0
  3

 72
    65
 73
     0
 40
0.0
  0
LTYPE
  5
13
100
AcDbSymbolTableRecord
100
AcDbLinetypeTableRecord
  2
BYLAYER
 70
     0
  3

 72
    65
 73
     0
 40
0.0
  0
LTYPE
  5
14
100
AcDbSymbolTableRecord
100
AcDbLinetypeTableRecord
  2
CONTINUOUS
 70
     0
  3
Solid line
 72
    65
 73
     0
 40
0.0
  0
LTYPE
  5
20
100
AcDbSymbolTableRecord
100
AcDbLinetypeTableRecord
  2
BORDER
 70
     0
  3
__ __ . __ __ . __ __ . __ __ . __ __ . __ __ .
 72
    65
 73
     6
 40
1.75
 49
0.5
 74
     0
 49
-0.25
 74
     0
 49
0.5
 74
     0
 49
-0.25
 74
     0
 49
0.0
 74
     0
 49
-0.25
 74
     0
  0
LTYPE
  5
21
100
AcDbSymbolTableRecord
100
AcDbLinetypeTableRecord
  2
BORDER2
 70
     0
  3
__.__.__.__.__.__.__.__.__.__.__.__.__.__.__.__
 72
    65
 73
     6
 40
0.875
 49
0.25
 74
     0
 49
-0.125
 74
     0
 49
0.25
 74
     0
 49
-0.125
 74
     0
 49
0.0
 74
     0
 49
-0.125
 74
     0
  0
LTYPE
  5
22
100
AcDbSymbolTableRecord
100
AcDbLinetypeTableRecord
  2
BORDERX2
 70
     0
  3
____  ____  .  ____  ____  .  ____  ____  .  __
 72
    65
 73
     6
 40
3.5
 49
1.0
 74
     0
 49
-0.5
 74
     0
 49
1.0
 74
     0
 49
-0.5
 74
     0
 49
0.0
 74
     0
 49
-0.5
 74
     0
  0
LTYPE
  5
23
100
AcDbSymbolTableRecord
100
AcDbLinetypeTableRecord
  2
CENTER
 70
     0
  3
____ _ ____ _ ____ _ ____ _ ____ _ ____ _ ____ 
 72
    65
 73
     4
 40
2.0
 49
1.25
 74
     0
 49
-0.25
 74
     0
 49
0.25
 74
     0
 49
-0.25
 74
     0
  0
LTYPE
  5
24
100
AcDbSymbolTableRecord
100
AcDbLinetypeTableRecord
  2
CENTER2
 70
     0
  3
___ _ ___ _ ___ _ ___ _ ___ _ ___ _ ___ _ ___ _
 72
    65
 73
     4
 40
1.125
 49
0.75
 74
     0
 49
-0.125
 74
     0
 49
0.125
 74
     0
 49
-0.125
 74
     0
  0
LTYPE
  5
25
100
AcDbSymbolTableRecord
100
AcDbLinetypeTableRecord
  2
CENTERX2
 70
     0
  3
________  __  ________  __  ________  __  _____
 72
    65
 73
     4
 40
4.0
 49
2.5
 74
     0
 49
-0.5
 74
     0
 49
0.5
 74
     0
 49
-0.5
 74
     0
  0
LTYPE
  5
26
100
AcDbSymbolTableRecord
100
AcDbLinetypeTableRecord
  2
DASHDOT
 70
     0
  3
__ . __ . __ . __ . __ . __ . __ . __ . __ . __
 72
    65
 73
     4
 40
1.0
 49
0.5
 74
     0
 49
-0.25
 74
     0
 49
0.0
 74
     0
 49
-0.25
 74
     0
  0
LTYPE
  5
27
100
AcDbSymbolTableRecord
100
AcDbLinetypeTableRecord
  2
DASHDOT2
 70
     0
  3
_._._._._._._._._._._._._._._._._._._._._._._._
 72
    65
 73
     4
 40
0.5
 49
0.25
 74
     0
 49
-0.125
 74
     0
 49
0.0
 74
     0
 49
-0.125
 74
     0
  0
LTYPE
  5
28
100
AcDbSymbolTableRecord
100
AcDbLinetypeTableRecord
  2
DASHDOTX2
 70
     0
  3
____  .  ____  .  ____  .  ____  .  ____  .  __
 72
    65
 73
     4
 40
2.0
 49
1.0
 74
     0
 49
-0.5
 74
     0
 49
0.0
 74
     0
 49
-0.5
 74
     0
  0
LTYPE
  5
29
100
AcDbSymbolTableRecord
100
AcDbLinetypeTableRecord
  2
DASHED
 70
     0
  3
__ __ __ __ __ __ __ __ __ __ __ __ __ __ __ __
 72
    65
 73
     2
 40
0.75
 49
0.5
 74
     0
 49
-0.25
 74
     0
  0
LTYPE
  5
2A
100
AcDbSymbolTableRecord
100
AcDbLinetypeTableRecord
  2
DASHED2
 70
     0
  3
_ _ _ _ _ _ _ _ _ _ _ _ _ _ _ _ _ _ _ _ _ _ _ _
 72
    65
 73
     2
 40
0.375
 49
0.25
 74
     0
 49
-0.125
 74
     0
  0
LTYPE
  5
2B
100
AcDbSymbolTableRecord
100
AcDbLinetypeTableRecord
  2
DASHEDX2
 70
     0
  3
____  ____  ____  ____  ____  ____  ____  ____ 
 72
    65
 73
     2
 40
1.5
 49
1.0
 74
     0
 49
-0.5
 74
     0
  0
LTYPE
  5
2C
100
AcDbSymbolTableRecord
100
AcDbLinetypeTableRecord
  2
DIVIDE
 70
     0
  3
____ . . ____ . . ____ . . ____ . . ____ . . __
 72
    65
 73
     6
 40
1.25
 49
0.5
 74
     0
 49
-0.25
 74
     0
 49
0.0
 74
     0
 49
-0.25
 74
     0
 49
0.0
 74
     0
 49
-0.25
 74
     0
  0
LTYPE
  5
2D
100
AcDbSymbolTableRecord
100
AcDbLinetypeTableRecord
  2
DIVIDE2
 70
     0
  3
__..__..__..__..__..__..__..__..__..__..__..__.
 72
    65
 73
     6
 40
0.625
 49
0.25
 74
     0
 49
-0.125
 74
     0
 49
0.0
 74
     0
 49
-0.125
 74
     0
 49
0.0
 74
     0
 49
-0.125
 74
     0
  0
LTYPE
  5
2E
100
AcDbSymbolTableRecord
100
AcDbLinetypeTableRecord
  2
DIVIDEX2
 70
     0
  3
________  .  .  ________  .  .  ________  .  . 
 72
    65
 73
     6
 40
2.5
 49
1.0
 74
     0
 49
-0.5
 74
     0
 49
0.0
 74
     0
 49
-0.5
 74
     0
 49
0.0
 74
     0
 49
-0.5
 74
     0
  0
LTYPE
  5
2F
100
AcDbSymbolTableRecord
100
AcDbLinetypeTableRecord
  2
DOT
 70
     0
  3
. . . . . . . . . . . . . . . . . . . . . . . .
 72
    65
 73
     2
 40
0.25
 49
0.0
 74
     0
 49
-0.25
 74
     0
  0
LTYPE
  5
30
100
AcDbSymbolTableRecord
100
AcDbLinetypeTableRecord
  2
DOT2
 70
     0
  3
...............................................
 72
    65
 73
     2
 40
0.125
 49
0.0
 74
     0
 49
-0.125
 74
     0
  0
LTYPE
  5
31
100
AcDbSymbolTableRecord
100
AcDbLinetypeTableRecord
  2
DOTX2
 70
     0
  3
.  .  .  .  .  .  .  .  .  .  .  .  .  .  .  . 
 72
    65
 73
     2
 40
0.5
 49
0.0
 74
     0
 49
-0.5
 74
     0
  0
LTYPE
  5
32
100
AcDbSymbolTableRecord
100
AcDbLinetypeTableRecord
  2
HIDDEN
 70
     0
  3
__ __ __ __ __ __ __ __ __ __ __ __ __ __ __ __
 72
    65
 73
     2
 40
0.375
 49
0.25
 74
     0
 49
-0.125
 74
     0
  0
LTYPE
  5
33
100
AcDbSymbolTableRecord
100
AcDbLinetypeTableRecord
  2
HIDDEN2
 70
     0
  3
_ _ _ _ _ _ _ _ _ _ _ _ _ _ _ _ _ _ _ _ _ _ _ _
 72
    65
 73
     2
 40
0.1875
 49
0.125
 74
     0
 49
-0.0625
 74
     0
  0
LTYPE
  5
34
100
AcDbSymbolTableRecord
100
AcDbLinetypeTableRecord
  2
HIDDENX2
 70
     0
  3
____ ____ ____ ____ ____ ____ ____ ____ ____ __
 72
    65
 73
     2
 40
0.75
 49
0.5
 74
     0
 49
-0.25
 74
     0
  0
LTYPE
  5
35
100
AcDbSymbolTableRecord
100
AcDbLinetypeTableRecord
  2
PHANTOM
 70
     0
  3
______  __  __  ______  __  __  ______  __  __ 
 72
    65
 73
     6
 40
2.5
 49
1.25
 74
     0
 49
-0.25
 74
     0
 49
0.25
 74
     0
 49
-0.25
 74
     0
 49
0.25
 74
     0
 49
-0.25
 74
     0
  0
LTYPE
  5
36
100
AcDbSymbolTableRecord
100
AcDbLinetypeTableRecord
  2
PHANTOM2
 70
     0
  3
___ _ _ ___ _ _ ___ _ _ ___ _ _ ___ _ _ ___ _ _
 72
    65
 73
     6
 40
1.25
 49
0.625
 74
     0
 49
-0.125
 74
     0
 49
0.125
 74
     0
 49
-0.125
 74
     0
 49
0.125
 74
     0
 49
-0.125
 74
     0
  0
LTYPE
  5
37
100
AcDbSymbolTableRecord
100
AcDbLinetypeTableRecord
  2
PHANTOMX2
 70
     0
  3
____________    ____    ____    ____________   
 72
    65
 73
     6
 40
5.0
 49
2.5
 74
     0
 49
-0.5
 74
     0
 49
0.5
 74
     0
 49
-0.5
 74
     0
 49
0.5
 74
     0
 49
-0.5
 74
     0
  0
ENDTAB
   0
TABLE
   2
LAYER
   5
2
 100
AcDbSymbolTable
  70
4
   0
LAYER
   5
E
 100
AcDbSymbolTableRecord
 100
AcDbLayerTableRecord
   2
0
  70
0
  62
7
   6
CONTINUOUS
 390
30
   0
LAYER
   5
39
 100
AcDbSymbolTableRecord
 100
AcDbLayerTableRecord
   2
LEVEL001
  70
0
  62
7
   6
CONTINUOUS
 390
30
   0
LAYER
   5
3A
 100
AcDbSymbolTableRecord
 100
AcDbLayerTableRecord
   2
LEVEL002
  70
0
  62
7
   6
CONTINUOUS
 390
30
   0
LAYER
   5
3B
 100
AcDbSymbolTableRecord
 100
AcDbLayerTableRecord
   2
LEVEL007
  70
0
  62
7
   6
CONTINUOUS
 390
30
   0
ENDTAB
  0
TABLE
  2
STYLE
  5
3
100
AcDbSymbolTable
  70
6
  0
STYLE
  5
F
100
AcDbSymbolTableRecord
100
AcDbTextStyleTableRecord
  2
STANDARD
 70
     0
 40
0.0
 41
1.0
 50
0.0
 71
     0
 42
0.2
  3
TXT
  4
BIGFONT
  0
STYLE
  5
38
100
AcDbSymbolTableRecord
100
AcDbTextStyleTableRecord
  2
STANDARD1
 70
     4
 40
0.0
 41
1.0
 50
0.0
 71
     0
 42
0.2
  3
TXT
  4
BIGFONT
   0
STYLE
   5
3C
 100
AcDbSymbolTableRecord
 100
AcDbTextStyleTableRecord
   2
GMM001
  70
0
  40
0.0
  41
 1.0000000000000
  50
0.0
  71
     0
  42
1.0
   3
txt.shx
   4
bigfont.shx
   0
STYLE
   5
3D
 100
AcDbSymbolTableRecord
 100
AcDbTextStyleTableRecord
   2
GMM002
  70
0
  40
0.0
  41
 0.80000000000000
  50
0.0
  71
     0
  42
1.0
   3
txt.shx
   4
bigfont.shx
   0
STYLE
   5
3E
 100
AcDbSymbolTableRecord
 100
AcDbTextStyleTableRecord
   2
GMM003
  70
0
  40
0.0
  41
 1.0714285714286
  50
0.0
  71
     0
  42
1.0
   3
txt.shx
   4
bigfont.shx
   0
STYLE
   5
3F
 100
AcDbSymbolTableRecord
 100
AcDbTextStyleTableRecord
   2
GMM004
  70
0
  40
0.0
  41
 0.88888888888889
  50
0.0
  71
     0
  42
1.0
   3
txt.shx
   4
bigfont.shx
   0
ENDTAB
  0
TABLE
  2
VIEW
  5
6
100
AcDbSymbolTable
 70
     0
  0
ENDTAB
  0
TABLE
  2
UCS
  5
7
100
AcDbSymbolTable
 70
     0
  0
ENDTAB
  0
TABLE
  2
APPID
  5
9
100
AcDbSymbolTable
 70
     1
  0
APPID
  5
10
100
AcDbSymbolTableRecord
100
AcDbRegAppTableRecord
  2
ACAD
 70
     0
  0
ENDTAB
   0
TABLE
   2
DIMSTYLE
   5
A
 100
AcDbSymbolTable
  70
20
 100
AcDbDimStyleTable
  0
DIMSTYLE
105
1D
100
AcDbSymbolTableRecord
100
AcDbDimStyleTableRecord
  2
STANDARD
 70
     0
  3

  4

  5

  6

  7

 40
1.0
 41
0.18
 42
0.0625
 43
0.38
 44
0.18
 45
0.0
 46
0.0
 47
0.0
 48
0.0
140
0.18
141
0.09
142
0.0
143
25.4
144
1.0
145
0.0
146
1.0
147
0.09
 71
     0
 72
     0
 73
     1
 74
     1
 75
     0
 76
     0
 77
     0
 78
     0
170
     0
171
     2
172
     0
173
     0
174
     0
175
     0
176
     0
177
     0
178
     0
270
     2
271
     4
272
     4
273
     2
274
     2
340
F
275
     0
280
     0
281
     0
282
     0
283
     1
284
     0
285
     0
286
     0
287
     3
288
     0
   0
DIMSTYLE
 105
40
 100
AcDbSymbolTableRecord
 100
AcDbDimStyleTableRecord
   2
GMM001
  70
0
   3

   4

   5

   6

   7

  40
 1.0000000000000
  41
 2.0000000000000
  42
 1.0000000000000
  43
 8.0000000000000
  44
 1.0000000000000
  45
0.0
  46
0.0
  47
0.0
  48
0.0
 140
 2.5000000000000
 141
 1.0000000000000
 142
0.0
 143
 0.39400000000000E-1
 144
 1.0000000000000
 145
0.0
 146
 1.0000000000000
 147
 1.0000000000000
  71
0
  72
0
  73
0
  74
0
  75
0
  76
0
  77
3
  78
8
 170
0
 171
2
 172
1
 173
1
 174
0
 175
0
 176
8
 177
8
 178
8
 270
2
 271
6
 272
0
 273
2
 274
2
 340
3C
 275
1
 280
0
 281
0
 282
0
 283
1
 284
0
 285
0
 286
0
 287
3
 288
0
   0
DIMSTYLE
 105
41
 100
AcDbSymbolTableRecord
 100
AcDbDimStyleTableRecord
   2
GMM002
  70
0
   3

   4

   5

   6

   7

  40
 1.0000000000000
  41
 2.0000000000000
  42
 1.0000000000000
  43
 8.0000000000000
  44
 1.0000000000000
  45
0.0
  46
0.0
  47
0.0
  48
0.0
 140
 2.5000000000000
 141
 1.0000000000000
 142
0.0
 143
 0.39400000000000E-1
 144
 1.0000000000000
 145
0.0
 146
 1.0000000000000
 147
 0.65047800000000
  71
0
  72
0
  73
0
  74
0
  75
0
  76
0
  77
3
  78
8
 170
0
 171
2
 172
1
 173
1
 174
0
 175
0
 176
8
 177
8
 178
8
 270
2
 271
6
 272
0
 273
2
 274
2
 340
3C
 275
1
 280
0
 281
0
 282
0
 283
1
 284
0
 285
0
 286
0
 287
3
 288
1
   0
DIMSTYLE
 105
42
 100
AcDbSymbolTableRecord
 100
AcDbDimStyleTableRecord
   2
GMM003
  70
0
   3

   4

   5

   6

   7

  40
 1.0000000000000
  41
 2.0000000000000
  42
 1.0000000000000
  43
 8.0000000000000
  44
 1.0000000000000
  45
0.0
  46
0.0
  47
0.0
  48
0.0
 140
 2.5000000000000
 141
 1.0000000000000
 142
0.0
 143
 0.39400000000000E-1
 144
 1.0000000000000
 145
0.0
 146
 1.0000000000000
 147
 1.0000000000000
  71
0
  72
0
  73
0
  74
0
  75
0
  76
0
  77
3
  78
0
 170
0
 171
2
 172
1
 173
1
 174
0
 175
0
 176
8
 177
8
 178
8
 270
2
 271
0
 272
0
 273
2
 274
2
 340
3C
 275
0
 280
0
 281
0
 282
0
 283
1
 284
0
 285
0
 286
0
 287
3
 288
0
   0
DIMSTYLE
 105
43
 100
AcDbSymbolTableRecord
 100
AcDbDimStyleTableRecord
   2
GMM004
  70
0
   3

   4

   5

   6

   7
_NONE
  40
 1.0000000000000
  41
 2.0000000000000
  42
 1.0000000000000
  43
 8.0000000000000
  44
 1.0000000000000
  45
0.0
  46
0.0
  47
0.0
  48
0.0
 140
 2.5000000000000
 141
 1.0000000000000
 142
0.0
 143
 0.39400000000000E-1
 144
 1.0000000000000
 145
0.0
 146
 1.0000000000000
 147
 0.76890003113947
  71
0
  72
0
  73
0
  74
0
  75
0
  76
0
  77
3
  78
8
 170
0
 171
2
 172
1
 173
1
 174
0
 175
0
 176
8
 177
8
 178
8
 270
2
 271
6
 272
0
 273
2
 274
2
 340
3C
 275
0
 280
0
 281
0
 282
0
 283
1
 284
0
 285
0
 286
0
 287
3
 288
1
   0
DIMSTYLE
 105
44
 100
AcDbSymbolTableRecord
 100
AcDbDimStyleTableRecord
   2
GMM005
  70
0
   3

   4

   5

   6

   7

  40
 1.0000000000000
  41
 2.0000000000000
  42
 1.0000000000000
  43
 8.0000000000000
  44
 1.0000000000000
  45
0.0
  46
0.0
  47
0.0
  48
0.0
 140
 2.5000000000000
 141
 1.0000000000000
 142
0.0
 143
 0.39400000000000E-1
 144
 1.0000000000000
 145
0.0
 146
 1.0000000000000
 147
 1.0000000000000
  71
0
  72
0
  73
0
  74
0
  75
0
  76
0
  77
3
  78
8
 170
0
 171
2
 172
1
 173
1
 174
0
 175
0
 176
8
 177
8
 178
8
 270
2
 271
6
 272
0
 273
2
 274
2
 340
3C
 275
0
 280
0
 281
0
 282
0
 283
1
 284
0
 285
0
 286
0
 287
3
 288
0
   0
DIMSTYLE
 105
45
 100
AcDbSymbolTableRecord
 100
AcDbDimStyleTableRecord
   2
GMM006
  70
0
   3

   4

   5

   6

   7
_NONE
  40
 1.0000000000000
  41
 2.0000000000000
  42
 1.0000000000000
  43
 8.0000000000000
  44
 1.0000000000000
  45
0.0
  46
0.0
  47
0.0
  48
0.0
 140
 2.5000000000000
 141
 1.0000000000000
 142
0.0
 143
 0.39400000000000E-1
 144
 1.0000000000000
 145
0.0
 146
 1.0000000000000
 147
 0.86919133954893
  71
0
  72
0
  73
0
  74
0
  75
0
  76
0
  77
3
  78
8
 170
0
 171
2
 172
1
 173
1
 174
0
 175
0
 176
8
 177
8
 178
8
 270
2
 271
6
 272
0
 273
2
 274
2
 340
3C
 275
0
 280
0
 281
0
 282
0
 283
1
 284
0
 285
0
 286
0
 287
3
 288
1
   0
DIMSTYLE
 105
46
 100
AcDbSymbolTableRecord
 100
AcDbDimStyleTableRecord
   2
GMM007
  70
0
   3

   4

   5

   6
_DOT
   7

  40
 1.0000000000000
  41
 2.0000000000000
  42
 1.0000000000000
  43
 8.0000000000000
  44
 1.0000000000000
  45
0.0
  46
0.0
  47
0.0
  48
0.0
 140
 2.5000000000000
 141
 1.0000000000000
 142
0.0
 143
 0.39400000000000E-1
 144
 1.0000000000000
 145
0.0
 146
 1.0000000000000
 147
 1.1366348286409
  71
0
  72
0
  73
0
  74
0
  75
0
  76
0
  77
3
  78
8
 170
0
 171
2
 172
1
 173
1
 174
0
 175
0
 176
8
 177
8
 178
8
 270
2
 271
6
 272
0
 273
2
 274
2
 340
3C
 275
0
 280
0
 281
0
 282
0
 283
1
 284
0
 285
0
 286
0
 287
3
 288
1
   0
DIMSTYLE
 105
47
 100
AcDbSymbolTableRecord
 100
AcDbDimStyleTableRecord
   2
GMM008
  70
0
   3

   4

   5

   6

   7

  40
 1.0000000000000
  41
 2.0000000000000
  42
 1.0000000000000
  43
 8.0000000000000
  44
 1.0000000000000
  45
0.0
  46
0.0
  47
0.0
  48
0.0
 140
 2.5000000000000
 141
 1.0000000000000
 142
0.0
 143
 0.39400000000000E-1
 144
 1.0000000000000
 145
0.0
 146
 1.0000000000000
 147
 1.1361397729946
  71
0
  72
0
  73
0
  74
0
  75
0
  76
0
  77
3
  78
8
 170
0
 171
2
 172
1
 173
1
 174
0
 175
0
 176
8
 177
8
 178
8
 270
2
 271
6
 272
0
 273
2
 274
2
 340
3C
 275
0
 280
0
 281
0
 282
0
 283
1
 284
0
 285
0
 286
0
 287
3
 288
1
   0
DIMSTYLE
 105
48
 100
AcDbSymbolTableRecord
 100
AcDbDimStyleTableRecord
   2
GMM009
  70
0
   3

   4

   5

   6

   7

  40
 1.0000000000000
  41
 2.0000000000000
  42
 1.0000000000000
  43
 8.0000000000000
  44
 1.0000000000000
  45
0.0
  46
0.0
  47
0.0
  48
0.0
 140
 2.5000000000000
 141
 1.0000000000000
 142
0.0
 143
 0.39400000000000E-1
 144
 1.0000000000000
 145
0.0
 146
 1.0000000000000
 147
 0.80233046727597
  71
0
  72
0
  73
0
  74
0
  75
0
  76
0
  77
3
  78
8
 170
0
 171
2
 172
1
 173
1
 174
0
 175
0
 176
8
 177
8
 178
8
 270
2
 271
6
 272
0
 273
2
 274
2
 340
3C
 275
0
 280
0
 281
0
 282
0
 283
1
 284
0
 285
0
 286
0
 287
3
 288
1
   0
DIMSTYLE
 105
49
 100
AcDbSymbolTableRecord
 100
AcDbDimStyleTableRecord
   2
GMM010
  70
0
   3

   4

   5

   6

   7
_NONE
  40
 1.0000000000000
  41
 2.0000000000000
  42
 1.0000000000000
  43
 8.0000000000000
  44
 1.0000000000000
  45
0.0
  46
0.0
  47
0.0
  48
0.0
 140
 2.5000000000000
 141
 1.0000000000000
 142
0.0
 143
 0.39400000000000E-1
 144
 1.0000000000000
 145
0.0
 146
 1.0000000000000
 147
 0.77168590081749
  71
0
  72
0
  73
0
  74
0
  75
0
  76
0
  77
3
  78
8
 170
0
 171
2
 172
1
 173
1
 174
0
 175
0
 176
8
 177
8
 178
8
 270
2
 271
6
 272
0
 273
2
 274
2
 340
3C
 275
0
 280
0
 281
0
 282
0
 283
1
 284
0
 285
0
 286
0
 287
3
 288
1
   0
DIMSTYLE
 105
4A
 100
AcDbSymbolTableRecord
 100
AcDbDimStyleTableRecord
   2
GMM011
  70
0
   3

   4

   5

   6
_DOT
   7

  40
 1.0000000000000
  41
 2.0000000000000
  42
 1.0000000000000
  43
 8.0000000000000
  44
 1.0000000000000
  45
0.0
  46
0.0
  47
0.0
  48
0.0
 140
 2.5000000000000
 141
 1.0000000000000
 142
0.0
 143
 0.39400000000000E-1
 144
 1.0000000000000
 145
0.0
 146
 1.0000000000000
 147
 1.2397120067285
  71
0
  72
0
  73
0
  74
0
  75
0
  76
0
  77
3
  78
8
 170
0
 171
2
 172
1
 173
1
 174
0
 175
0
 176
8
 177
8
 178
8
 270
2
 271
6
 272
0
 273
2
 274
2
 340
3C
 275
0
 280
0
 281
0
 282
0
 283
1
 284
0
 285
0
 286
0
 287
3
 288
1
   0
DIMSTYLE
 105
4B
 100
AcDbSymbolTableRecord
 100
AcDbDimStyleTableRecord
   2
GMM012
  70
0
   3

   4

   5

   6

   7

  40
 1.0000000000000
  41
 2.0000000000000
  42
 1.0000000000000
  43
 8.0000000000000
  44
 1.0000000000000
  45
0.0
  46
0.0
  47
0.0
  48
0.0
 140
 2.5000000000000
 141
 1.0000000000000
 142
0.0
 143
 0.39400000000000E-1
 144
 1.0000000000000
 145
0.0
 146
 1.0000000000000
 147
 1.0112706931291
  71
0
  72
0
  73
0
  74
0
  75
0
  76
0
  77
3
  78
8
 170
0
 171
2
 172
1
 173
1
 174
0
 175
0
 176
8
 177
8
 178
8
 270
2
 271
6
 272
0
 273
2
 274
2
 340
3C
 275
0
 280
0
 281
0
 282
0
 283
1
 284
0
 285
0
 286
0
 287
3
 288
1
   0
DIMSTYLE
 105
4C
 100
AcDbSymbolTableRecord
 100
AcDbDimStyleTableRecord
   2
GMM013
  70
0
   3

   4

   5

   6

   7
_NONE
  40
 1.0000000000000
  41
 2.0000000000000
  42
 1.0000000000000
  43
 8.0000000000000
  44
 1.0000000000000
  45
0.0
  46
0.0
  47
0.0
  48
0.0
 140
 2.5000000000000
 141
 1.0000000000000
 142
0.0
 143
 0.39400000000000E-1
 144
 1.0000000000000
 145
0.0
 146
 1.0000000000000
 147
 0.90262177568547
  71
0
  72
0
  73
0
  74
0
  75
0
  76
0
  77
3
  78
8
 170
0
 171
2
 172
1
 173
1
 174
0
 175
0
 176
8
 177
8
 178
8
 270
2
 271
6
 272
0
 273
2
 274
2
 340
3C
 275
0
 280
0
 281
0
 282
0
 283
1
 284
0
 285
0
 286
0
 287
3
 288
1
   0
DIMSTYLE
 105
4D
 100
AcDbSymbolTableRecord
 100
AcDbDimStyleTableRecord
   2
GMM014
  70
0
   3

   4

   5

   6
_DOT
   7

  40
 1.0000000000000
  41
 2.0000000000000
  42
 1.0000000000000
  43
 8.0000000000000
  44
 1.0000000000000
  45
0.0
  46
0.0
  47
0.0
  48
0.0
 140
 2.5000000000000
 141
 1.0000000000000
 142
0.0
 143
 0.39400000000000E-1
 144
 1.0000000000000
 145
0.0
 146
 1.0000000000000
 147
 1.1366348286410
  71
0
  72
0
  73
0
  74
0
  75
0
  76
0
  77
3
  78
8
 170
0
 171
2
 172
1
 173
1
 174
0
 175
0
 176
8
 177
8
 178
8
 270
2
 271
6
 272
0
 273
2
 274
2
 340
3C
 275
0
 280
0
 281
0
 282
0
 283
1
 284
0
 285
0
 286
0
 287
3
 288
1
   0
DIMSTYLE
 105
4E
 100
AcDbSymbolTableRecord
 100
AcDbDimStyleTableRecord
   2
GMM015
  70
0
   3

   4

   5

   6

   7
_NONE
  40
 1.0000000000000
  41
 2.0000000000000
  42
 1.0000000000000
  43
 8.0000000000000
  44
 1.0000000000000
  45
0.0
  46
0.0
  47
0.0
  48
0.0
 140
 2.5000000000000
 141
 1.0000000000000
 142
0.0
 143
 0.39400000000000E-1
 144
 1.0000000000000
 145
0.0
 146
 1.0000000000000
 147
 0.67056095236796
  71
0
  72
0
  73
0
  74
0
  75
0
  76
0
  77
3
  78
8
 170
0
 171
2
 172
1
 173
1
 174
0
 175
0
 176
8
 177
8
 178
8
 270
2
 271
6
 272
0
 273
2
 274
2
 340
3C
 275
0
 280
0
 281
0
 282
0
 283
1
 284
0
 285
0
 286
0
 287
3
 288
1
   0
DIMSTYLE
 105
4F
 100
AcDbSymbolTableRecord
 100
AcDbDimStyleTableRecord
   2
GMM016
  70
0
   3

   4

   5

   6

   7

  40
 1.0000000000000
  41
 2.0000000000000
  42
 1.0000000000000
  43
 8.0000000000000
  44
 1.0000000000000
  45
0.0
  46
0.0
  47
0.0
  48
0.0
 140
 2.5000000000000
 141
 1.0000000000000
 142
0.0
 143
 0.39400000000000E-1
 144
 1.0000000000000
 145
0.0
 146
 1.0000000000000
 147
 1.0154494976462
  71
0
  72
0
  73
0
  74
0
  75
0
  76
0
  77
3
  78
8
 170
0
 171
2
 172
1
 173
1
 174
0
 175
0
 176
8
 177
8
 178
8
 270
2
 271
6
 272
0
 273
2
 274
2
 340
3C
 275
0
 280
0
 281
0
 282
0
 283
1
 284
0
 285
0
 286
0
 287
3
 288
1
   0
DIMSTYLE
 105
50
 100
AcDbSymbolTableRecord
 100
AcDbDimStyleTableRecord
   2
GMM017
  70
0
   3

   4

   5

   6

   7

  40
 1.0000000000000
  41
 2.0000000000000
  42
 1.0000000000000
  43
 8.0000000000000
  44
 1.0000000000000
  45
0.0
  46
0.0
  47
0.0
  48
0.0
 140
 2.5000000000000
 141
 1.0000000000000
 142
0.0
 143
 0.39400000000000E-1
 144
 1.0000000000000
 145
0.0
 146
 1.0000000000000
 147
 0.98410846376819
  71
0
  72
0
  73
0
  74
0
  75
0
  76
0
  77
3
  78
8
 170
0
 171
2
 172
1
 173
1
 174
0
 175
0
 176
8
 177
8
 178
8
 270
2
 271
6
 272
0
 273
2
 274
2
 340
3C
 275
0
 280
0
 281
0
 282
0
 283
1
 284
0
 285
0
 286
0
 287
3
 288
1
   0
DIMSTYLE
 105
51
 100
AcDbSymbolTableRecord
 100
AcDbDimStyleTableRecord
   2
GMM018
  70
0
   3

   4

   5

   6

   7
_NONE
  40
 1.0000000000000
  41
 2.0000000000000
  42
 1.0000000000000
  43
 8.0000000000000
  44
 1.0000000000000
  45
0.0
  46
0.0
  47
0.0
  48
0.0
 140
 2.5000000000000
 141
 1.0000000000000
 142
0.0
 143
 0.39400000000000E-1
 144
 1.0000000000000
 145
0.0
 146
 1.0000000000000
 147
 0.84327558575683
  71
0
  72
0
  73
0
  74
0
  75
0
  76
0
  77
3
  78
8
 170
0
 171
2
 172
1
 173
1
 174
0
 175
0
 176
8
 177
8
 178
8
 270
2
 271
6
 272
0
 273
2
 274
2
 340
3C
 275
0
 280
0
 281
0
 282
0
 283
1
 284
0
 285
0
 286
0
 287
3
 288
1
   0
ENDTAB
  0
TABLE
  2
BLOCK_RECORD
  5
1
100
AcDbSymbolTable
 70
     0
  0
BLOCK_RECORD
  5
18
100
AcDbSymbolTableRecord
100
AcDbBlockTableRecord
  2
*MODEL_SPACE
  0
BLOCK_RECORD
  5
15
100
AcDbSymbolTableRecord
100
AcDbBlockTableRecord
  2
*PAPER_SPACE
   0
BLOCK_RECORD
   5
52
 100
AcDbSymbolTableRecord
 100
AcDbBlockTableRecord
   2
*D1
   0
BLOCK_RECORD
   5
53
 100
AcDbSymbolTableRecord
 100
AcDbBlockTableRecord
   2
*D2
   0
BLOCK_RECORD
   5
54
 100
AcDbSymbolTableRecord
 100
AcDbBlockTableRecord
   2
*D3
   0
BLOCK_RECORD
   5
55
 100
AcDbSymbolTableRecord
 100
AcDbBlockTableRecord
   2
*D4
   0
BLOCK_RECORD
   5
56
 100
AcDbSymbolTableRecord
 100
AcDbBlockTableRecord
   2
*D5
   0
BLOCK_RECORD
   5
57
 100
AcDbSymbolTableRecord
 100
AcDbBlockTableRecord
   2
*D6
   0
BLOCK_RECORD
   5
58
 100
AcDbSymbolTableRecord
 100
AcDbBlockTableRecord
   2
*D7
   0
BLOCK_RECORD
   5
59
 100
AcDbSymbolTableRecord
 100
AcDbBlockTableRecord
   2
*D8
   0
BLOCK_RECORD
   5
5A
 100
AcDbSymbolTableRecord
 100
AcDbBlockTableRecord
   2
*D9
   0
BLOCK_RECORD
   5
5B
 100
AcDbSymbolTableRecord
 100
AcDbBlockTableRecord
   2
*D10
   0
BLOCK_RECORD
   5
5C
 100
AcDbSymbolTableRecord
 100
AcDbBlockTableRecord
   2
*D11
   0
BLOCK_RECORD
   5
5D
 100
AcDbSymbolTableRecord
 100
AcDbBlockTableRecord
   2
*D12
   0
BLOCK_RECORD
   5
5E
 100
AcDbSymbolTableRecord
 100
AcDbBlockTableRecord
   2
*D13
   0
BLOCK_RECORD
   5
5F
 100
AcDbSymbolTableRecord
 100
AcDbBlockTableRecord
   2
*D14
   0
BLOCK_RECORD
   5
60
 100
AcDbSymbolTableRecord
 100
AcDbBlockTableRecord
   2
*D15
   0
BLOCK_RECORD
   5
61
 100
AcDbSymbolTableRecord
 100
AcDbBlockTableRecord
   2
*D16
   0
BLOCK_RECORD
   5
62
 100
AcDbSymbolTableRecord
 100
AcDbBlockTableRecord
   2
*D17
   0
BLOCK_RECORD
   5
63
 100
AcDbSymbolTableRecord
 100
AcDbBlockTableRecord
   2
*D18
   0
BLOCK_RECORD
   5
64
 100
AcDbSymbolTableRecord
 100
AcDbBlockTableRecord
   2
*D19
   0
BLOCK_RECORD
   5
65
 100
AcDbSymbolTableRecord
 100
AcDbBlockTableRecord
   2
*D20
   0
BLOCK_RECORD
   5
66
 100
AcDbSymbolTableRecord
 100
AcDbBlockTableRecord
   2
*D21
   0
BLOCK_RECORD
   5
67
 100
AcDbSymbolTableRecord
 100
AcDbBlockTableRecord
   2
*D22
   0
BLOCK_RECORD
   5
68
 100
AcDbSymbolTableRecord
 100
AcDbBlockTableRecord
   2
*D23
   0
BLOCK_RECORD
   5
69
 100
AcDbSymbolTableRecord
 100
AcDbBlockTableRecord
   2
*D24
   0
BLOCK_RECORD
   5
6A
 100
AcDbSymbolTableRecord
 100
AcDbBlockTableRecord
   2
*D25
   0
BLOCK_RECORD
   5
6B
 100
AcDbSymbolTableRecord
 100
AcDbBlockTableRecord
   2
*D26
   0
BLOCK_RECORD
   5
6C
 100
AcDbSymbolTableRecord
 100
AcDbBlockTableRecord
   2
*D27
   0
BLOCK_RECORD
   5
6D
 100
AcDbSymbolTableRecord
 100
AcDbBlockTableRecord
   2
*D28
   0
BLOCK_RECORD
   5
6E
 100
AcDbSymbolTableRecord
 100
AcDbBlockTableRecord
   2
*D29
   0
BLOCK_RECORD
   5
6F
 100
AcDbSymbolTableRecord
 100
AcDbBlockTableRecord
   2
*D30
   0
BLOCK_RECORD
   5
70
 100
AcDbSymbolTableRecord
 100
AcDbBlockTableRecord
   2
*D31
   0
BLOCK_RECORD
   5
71
 100
AcDbSymbolTableRecord
 100
AcDbBlockTableRecord
   2
*D32
   0
BLOCK_RECORD
   5
72
 100
AcDbSymbolTableRecord
 100
AcDbBlockTableRecord
   2
*D33
   0
BLOCK_RECORD
   5
73
 100
AcDbSymbolTableRecord
 100
AcDbBlockTableRecord
   2
*D34
   0
BLOCK_RECORD
   5
74
 100
AcDbSymbolTableRecord
 100
AcDbBlockTableRecord
   2
*D35
   0
BLOCK_RECORD
   5
75
 100
AcDbSymbolTableRecord
 100
AcDbBlockTableRecord
   2
*D36
   0
BLOCK_RECORD
   5
76
 100
AcDbSymbolTableRecord
 100
AcDbBlockTableRecord
   2
*D37
   0
BLOCK_RECORD
   5
77
 100
AcDbSymbolTableRecord
 100
AcDbBlockTableRecord
   2
*D38
   0
BLOCK_RECORD
   5
78
 100
AcDbSymbolTableRecord
 100
AcDbBlockTableRecord
   2
*D39
   0
BLOCK_RECORD
   5
79
 100
AcDbSymbolTableRecord
 100
AcDbBlockTableRecord
   2
*D40
   0
BLOCK_RECORD
   5
7A
 100
AcDbSymbolTableRecord
 100
AcDbBlockTableRecord
   2
*D41
   0
BLOCK_RECORD
   5
7B
 100
AcDbSymbolTableRecord
 100
AcDbBlockTableRecord
   2
*D42
   0
BLOCK_RECORD
   5
7C
 100
AcDbSymbolTableRecord
 100
AcDbBlockTableRecord
   2
*D43
   0
BLOCK_RECORD
   5
7D
 100
AcDbSymbolTableRecord
 100
AcDbBlockTableRecord
   2
*D44
   0
BLOCK_RECORD
   5
7E
 100
AcDbSymbolTableRecord
 100
AcDbBlockTableRecord
   2
*D45
   0
BLOCK_RECORD
   5
7F
 100
AcDbSymbolTableRecord
 100
AcDbBlockTableRecord
   2
*D46
   0
BLOCK_RECORD
   5
80
 100
AcDbSymbolTableRecord
 100
AcDbBlockTableRecord
   2
*D47
   0
BLOCK_RECORD
   5
81
 100
AcDbSymbolTableRecord
 100
AcDbBlockTableRecord
   2
*D48
   0
BLOCK_RECORD
   5
82
 100
AcDbSymbolTableRecord
 100
AcDbBlockTableRecord
   2
*D49
   0
BLOCK_RECORD
   5
83
 100
AcDbSymbolTableRecord
 100
AcDbBlockTableRecord
   2
*D50
   0
BLOCK_RECORD
   5
84
 100
AcDbSymbolTableRecord
 100
AcDbBlockTableRecord
   2
*D51
   0
BLOCK_RECORD
   5
85
 100
AcDbSymbolTableRecord
 100
AcDbBlockTableRecord
   2
*D52
   0
BLOCK_RECORD
   5
86
 100
AcDbSymbolTableRecord
 100
AcDbBlockTableRecord
   2
*D53
   0
BLOCK_RECORD
   5
87
 100
AcDbSymbolTableRecord
 100
AcDbBlockTableRecord
   2
*D54
   0
BLOCK_RECORD
   5
88
 100
AcDbSymbolTableRecord
 100
AcDbBlockTableRecord
   2
*D55
   0
BLOCK_RECORD
   5
89
 100
AcDbSymbolTableRecord
 100
AcDbBlockTableRecord
   2
*D56
   0
BLOCK_RECORD
   5
8A
 100
AcDbSymbolTableRecord
 100
AcDbBlockTableRecord
   2
*D57
   0
BLOCK_RECORD
   5
8B
 100
AcDbSymbolTableRecord
 100
AcDbBlockTableRecord
   2
_ARCHTICK
   0
BLOCK_RECORD
   5
8C
 100
AcDbSymbolTableRecord
 100
AcDbBlockTableRecord
   2
_BOXBLANK
   0
BLOCK_RECORD
   5
8D
 100
AcDbSymbolTableRecord
 100
AcDbBlockTableRecord
   2
_BOXFILLED
   0
BLOCK_RECORD
   5
8E
 100
AcDbSymbolTableRecord
 100
AcDbBlockTableRecord
   2
_CLOSED
   0
BLOCK_RECORD
   5
8F
 100
AcDbSymbolTableRecord
 100
AcDbBlockTableRecord
   2
_CLOSEDBLANK
   0
BLOCK_RECORD
   5
90
 100
AcDbSymbolTableRecord
 100
AcDbBlockTableRecord
   2
_DATUMBLANK
   0
BLOCK_RECORD
   5
91
 100
AcDbSymbolTableRecord
 100
AcDbBlockTableRecord
   2
_DATUMFILLED
   0
BLOCK_RECORD
   5
92
 100
AcDbSymbolTableRecord
 100
AcDbBlockTableRecord
   2
_DOT
   0
BLOCK_RECORD
   5
93
 100
AcDbSymbolTableRecord
 100
AcDbBlockTableRecord
   2
_DOTBLANK
   0
BLOCK_RECORD
   5
94
 100
AcDbSymbolTableRecord
 100
AcDbBlockTableRecord
   2
_DOTSMALL
   0
BLOCK_RECORD
   5
95
 100
AcDbSymbolTableRecord
 100
AcDbBlockTableRecord
   2
_INTEGRAL
   0
BLOCK_RECORD
   5
96
 100
AcDbSymbolTableRecord
 100
AcDbBlockTableRecord
   2
_NONE
   0
BLOCK_RECORD
   5
97
 100
AcDbSymbolTableRecord
 100
AcDbBlockTableRecord
   2
_OBLIQUE
   0
BLOCK_RECORD
   5
98
 100
AcDbSymbolTableRecord
 100
AcDbBlockTableRecord
   2
_OPEN
   0
BLOCK_RECORD
   5
99
 100
AcDbSymbolTableRecord
 100
AcDbBlockTableRecord
   2
_OPEN30
   0
BLOCK_RECORD
   5
9A
 100
AcDbSymbolTableRecord
 100
AcDbBlockTableRecord
   2
_OPEN90
   0
BLOCK_RECORD
   5
9B
 100
AcDbSymbolTableRecord
 100
AcDbBlockTableRecord
   2
_ORIGIN
   0
ENDTAB
   0
ENDSEC
  0
SECTION
  2
BLOCKS
  0
BLOCK
  5
19
100
AcDbEntity
  8
0
100
AcDbBlockBegin
  2
*MODEL_SPACE
 70
     0
 10
0.0
 20
0.0
 30
0.0
  3
*MODEL_SPACE
  1

  0
ENDBLK
  5
1A
100
AcDbEntity
  8
0
100
AcDbBlockEnd
  0
BLOCK
  5
16
100
AcDbEntity
 67
     1
  8
0
100
AcDbBlockBegin
  2
*PAPER_SPACE
 70
     0
 10
0.0
 20
0.0
 30
0.0
  3
*PAPER_SPACE
  1

  0
ENDBLK
  5
17
100
AcDbEntity
 67
     1
  8
0
100
AcDbBlockEnd
   0
BLOCK
   5
9C
 100
AcDbEntity
   8
0
 100
AcDbBlockBegin
   2
_ARCHTICK
  70
0
  10
0.0
  20
0.0
  30
0.0
   3
_ARCHTICK
   0
POLYLINE
   5
9D
 100
AcDbEntity
   8
0
 370
-2
   6
BYBLOCK
  62
0
 100
AcDb2dPolyline
  66
1
  10
0.0
  20
0.0
  30
0.0
  70
1
  40
 0.15000000000000
  41
 0.15000000000000
   0
VERTEX
   5
9E
 100
AcDbEntity
   8
0
   6
BYBLOCK
  62
0
 100
AcDbVertex
 100
AcDb2dVertex
  10
-0.50000000000000
  20
-0.50000000000000
  30
0.0
  40
 0.15000000000000
  41
 0.15000000000000
   0
VERTEX
   5
9F
 100
AcDbEntity
   8
0
   6
BYBLOCK
  62
0
 100
AcDbVertex
 100
AcDb2dVertex
  10
 0.50000000000000
  20
 0.50000000000000
  30
0.0
  40
 0.15000000000000
  41
 0.15000000000000
   0
SEQEND
   5
A0
 100
AcDbEntity
   8
0
   6
BYBLOCK
  62
0
   0
ENDBLK
   5
A1
 100
AcDbEntity
   8
0
 100
AcDbBlockEnd
   0
BLOCK
   5
A2
 100
AcDbEntity
   8
0
 100
AcDbBlockBegin
   2
_OBLIQUE
  70
0
  10
0.0
  20
0.0
  30
0.0
   3
_OBLIQUE
   0
LINE
   5
A3
 100
AcDbEntity
   8
0
 370
-2
 100
AcDbLine
   6
BYBLOCK
  62
0
  10
-0.50000000000000
  20
-0.50000000000000
  30
0.0
  11
 0.50000000000000
  21
 0.50000000000000
  31
0.0
   0
ENDBLK
   5
A4
 100
AcDbEntity
   8
0
 100
AcDbBlockEnd
   0
BLOCK
   5
A5
 100
AcDbEntity
   8
0
 100
AcDbBlockBegin
   2
_BOXBLANK
  70
0
  10
0.0
  20
0.0
  30
0.0
   3
_BOXBLANK
   0
LINE
   5
A6
 100
AcDbEntity
   8
0
 370
-2
 100
AcDbLine
   6
BYBLOCK
  62
0
  10
-0.50000000000000
  20
-0.50000000000000
  30
0.0
  11
 0.50000000000000
  21
-0.50000000000000
  31
0.0
   0
LINE
   5
A7
 100
AcDbEntity
   8
0
 370
-2
 100
AcDbLine
   6
BYBLOCK
  62
0
  10
 0.50000000000000
  20
-0.50000000000000
  30
0.0
  11
 0.50000000000000
  21
 0.50000000000000
  31
0.0
   0
LINE
   5
A8
 100
AcDbEntity
   8
0
 370
-2
 100
AcDbLine
   6
BYBLOCK
  62
0
  10
 0.50000000000000
  20
 0.50000000000000
  30
0.0
  11
-0.50000000000000
  21
 0.50000000000000
  31
0.0
   0
LINE
   5
A9
 100
AcDbEntity
   8
0
 370
-2
 100
AcDbLine
   6
BYBLOCK
  62
0
  10
-0.50000000000000
  20
 0.50000000000000
  30
0.0
  11
-0.50000000000000
  21
-0.50000000000000
  31
0.0
   0
LINE
   5
AA
 100
AcDbEntity
   8
0
 370
-2
 100
AcDbLine
   6
BYBLOCK
  62
0
  10
-0.50000000000000
  20
0.0
  30
0.0
  11
-1.0000000000000
  21
0.0
  31
0.0
   0
ENDBLK
   5
AB
 100
AcDbEntity
   8
0
 100
AcDbBlockEnd
   0
BLOCK
   5
AC
 100
AcDbEntity
   8
0
 100
AcDbBlockBegin
   2
_BOXFILLED
  70
0
  10
0.0
  20
0.0
  30
0.0
   3
_BOXFILLED
   0
SOLID
   5
AD
 100
AcDbEntity
   8
0
 100
AcDbTrace
   6
BYBLOCK
  62
0
  10
-0.50000000000000
  20
 0.50000000000000
  30
0.0
  11
 0.50000000000000
  21
 0.50000000000000
  31
0.0
  12
-0.50000000000000
  22
-0.50000000000000
  32
0.0
  13
 0.50000000000000
  23
-0.50000000000000
  33
0.0
   0
LINE
   5
AE
 100
AcDbEntity
   8
0
 370
-2
 100
AcDbLine
   6
BYBLOCK
  62
0
  10
-0.50000000000000
  20
0.0
  30
0.0
  11
-1.0000000000000
  21
0.0
  31
0.0
   0
ENDBLK
   5
AF
 100
AcDbEntity
   8
0
 100
AcDbBlockEnd
   0
BLOCK
   5
B0
 100
AcDbEntity
   8
0
 100
AcDbBlockBegin
   2
_CLOSED
  70
0
  10
0.0
  20
0.0
  30
0.0
   3
_CLOSED
   0
LINE
   5
B1
 100
AcDbEntity
   8
0
 370
-2
 100
AcDbLine
   6
BYBLOCK
  62
0
  10
-1.0000000000000
  20
 0.16666666666667
  30
0.0
  11
0.0
  21
0.0
  31
0.0
   0
LINE
   5
B2
 100
AcDbEntity
   8
0
 370
-2
 100
AcDbLine
   6
BYBLOCK
  62
0
  10
0.0
  20
0.0
  30
0.0
  11
-1.0000000000000
  21
-0.16666666666667
  31
0.0
   0
LINE
   5
B3
 100
AcDbEntity
   8
0
 370
-2
 100
AcDbLine
   6
BYBLOCK
  62
0
  10
-1.0000000000000
  20
 0.16666666666667
  30
0.0
  11
-1.0000000000000
  21
-0.16666666666667
  31
0.0
   0
LINE
   5
B4
 100
AcDbEntity
   8
0
 370
-2
 100
AcDbLine
   6
BYBLOCK
  62
0
  10
0.0
  20
0.0
  30
0.0
  11
-1.0000000000000
  21
0.0
  31
0.0
   0
ENDBLK
   5
B5
 100
AcDbEntity
   8
0
 100
AcDbBlockEnd
   0
BLOCK
   5
B6
 100
AcDbEntity
   8
0
 100
AcDbBlockBegin
   2
_OPEN
  70
0
  10
0.0
  20
0.0
  30
0.0
   3
_OPEN
   0
LINE
   5
B7
 100
AcDbEntity
   8
0
 370
-2
 100
AcDbLine
   6
BYBLOCK
  62
0
  10
-1.0000000000000
  20
 0.16666666666667
  30
0.0
  11
0.0
  21
0.0
  31
0.0
   0
LINE
   5
B8
 100
AcDbEntity
   8
0
 370
-2
 100
AcDbLine
   6
BYBLOCK
  62
0
  10
0.0
  20
0.0
  30
0.0
  11
-1.0000000000000
  21
-0.16666666666667
  31
0.0
   0
LINE
   5
B9
 100
AcDbEntity
   8
0
 370
-2
 100
AcDbLine
   6
BYBLOCK
  62
0
  10
0.0
  20
0.0
  30
0.0
  11
-1.0000000000000
  21
0.0
  31
0.0
   0
ENDBLK
   5
BA
 100
AcDbEntity
   8
0
 100
AcDbBlockEnd
   0
BLOCK
   5
BB
 100
AcDbEntity
   8
0
 100
AcDbBlockBegin
   2
_OPEN30
  70
0
  10
0.0
  20
0.0
  30
0.0
   3
_OPEN30
   0
LINE
   5
BC
 100
AcDbEntity
   8
0
 370
-2
 100
AcDbLine
   6
BYBLOCK
  62
0
  10
-1.0000000000000
  20
 0.26794919243110
  30
0.0
  11
0.0
  21
0.0
  31
0.0
   0
LINE
   5
BD
 100
AcDbEntity
   8
0
 370
-2
 100
AcDbLine
   6
BYBLOCK
  62
0
  10
0.0
  20
0.0
  30
0.0
  11
-1.0000000000000
  21
-0.26794919243110
  31
0.0
   0
LINE
   5
BE
 100
AcDbEntity
   8
0
 370
-2
 100
AcDbLine
   6
BYBLOCK
  62
0
  10
0.0
  20
0.0
  30
0.0
  11
-1.0000000000000
  21
0.0
  31
0.0
   0
ENDBLK
   5
BF
 100
AcDbEntity
   8
0
 100
AcDbBlockEnd
   0
BLOCK
   5
C0
 100
AcDbEntity
   8
0
 100
AcDbBlockBegin
   2
_OPEN90
  70
0
  10
0.0
  20
0.0
  30
0.0
   3
_OPEN90
   0
LINE
   5
C1
 100
AcDbEntity
   8
0
 370
-2
 100
AcDbLine
   6
BYBLOCK
  62
0
  10
-0.50000000000000
  20
 0.50000000000000
  30
0.0
  11
0.0
  21
0.0
  31
0.0
   0
LINE
   5
C2
 100
AcDbEntity
   8
0
 370
-2
 100
AcDbLine
   6
BYBLOCK
  62
0
  10
0.0
  20
0.0
  30
0.0
  11
-0.50000000000000
  21
-0.50000000000000
  31
0.0
   0
LINE
   5
C3
 100
AcDbEntity
   8
0
 370
-2
 100
AcDbLine
   6
BYBLOCK
  62
0
  10
0.0
  20
0.0
  30
0.0
  11
-1.0000000000000
  21
0.0
  31
0.0
   0
ENDBLK
   5
C4
 100
AcDbEntity
   8
0
 100
AcDbBlockEnd
   0
BLOCK
   5
C5
 100
AcDbEntity
   8
0
 100
AcDbBlockBegin
   2
_CLOSEDBLANK
  70
0
  10
0.0
  20
0.0
  30
0.0
   3
_CLOSEDBLANK
   0
LINE
   5
C6
 100
AcDbEntity
   8
0
 370
-2
 100
AcDbLine
   6
BYBLOCK
  62
0
  10
-1.0000000000000
  20
 0.16666666666667
  30
0.0
  11
0.0
  21
0.0
  31
0.0
   0
LINE
   5
C7
 100
AcDbEntity
   8
0
 370
-2
 100
AcDbLine
   6
BYBLOCK
  62
0
  10
0.0
  20
0.0
  30
0.0
  11
-1.0000000000000
  21
-0.16666666666667
  31
0.0
   0
LINE
   5
C8
 100
AcDbEntity
   8
0
 370
-2
 100
AcDbLine
   6
BYBLOCK
  62
0
  10
-1.0000000000000
  20
 0.16666666666667
  30
0.0
  11
-1.0000000000000
  21
-0.16666666666667
  31
0.0
   0
ENDBLK
   5
C9
 100
AcDbEntity
   8
0
 100
AcDbBlockEnd
   0
BLOCK
   5
CA
 100
AcDbEntity
   8
0
 100
AcDbBlockBegin
   2
_DOT
  70
0
  10
0.0
  20
0.0
  30
0.0
   3
_DOT
   0
POLYLINE
   5
CB
 100
AcDbEntity
   8
0
 370
-2
   6
BYBLOCK
  62
0
 100
AcDb2dPolyline
  66
1
  10
0.0
  20
0.0
  30
0.0
  70
1
  40
 0.50000000000000
  41
 0.50000000000000
   0
VERTEX
   5
CC
 100
AcDbEntity
   8
0
   6
BYBLOCK
  62
0
 100
AcDbVertex
 100
AcDb2dVertex
  10
-0.25000000000000
  20
0.0
  30
0.0
  42
 1.0000000000000
  40
 0.50000000000000
  41
 0.50000000000000
   0
VERTEX
   5
CD
 100
AcDbEntity
   8
0
   6
BYBLOCK
  62
0
 100
AcDbVertex
 100
AcDb2dVertex
  10
 0.25000000000000
  20
0.0
  30
0.0
  42
 1.0000000000000
  40
 0.50000000000000
  41
 0.50000000000000
   0
SEQEND
   5
CE
 100
AcDbEntity
   8
0
   6
BYBLOCK
  62
0
   0
LINE
   5
CF
 100
AcDbEntity
   8
0
 370
-2
 100
AcDbLine
   6
BYBLOCK
  62
0
  10
-0.50000000000000
  20
0.0
  30
0.0
  11
-1.0000000000000
  21
0.0
  31
0.0
   0
ENDBLK
   5
D0
 100
AcDbEntity
   8
0
 100
AcDbBlockEnd
   0
BLOCK
   5
D1
 100
AcDbEntity
   8
0
 100
AcDbBlockBegin
   2
_DOTSMALL
  70
0
  10
0.0
  20
0.0
  30
0.0
   3
_DOTSMALL
   0
POLYLINE
   5
D2
 100
AcDbEntity
   8
0
 370
-2
   6
BYBLOCK
  62
0
 100
AcDb2dPolyline
  66
1
  10
0.0
  20
0.0
  30
0.0
  70
1
  40
 0.50000000000000
  41
 0.50000000000000
   0
VERTEX
   5
D3
 100
AcDbEntity
   8
0
   6
BYBLOCK
  62
0
 100
AcDbVertex
 100
AcDb2dVertex
  10
-0.62500000000000E-1
  20
0.0
  30
0.0
  42
 1.0000000000000
  40
 0.50000000000000
  41
 0.50000000000000
   0
VERTEX
   5
D4
 100
AcDbEntity
   8
0
   6
BYBLOCK
  62
0
 100
AcDbVertex
 100
AcDb2dVertex
  10
 0.62500000000000E-1
  20
0.0
  30
0.0
  42
 1.0000000000000
  40
 0.50000000000000
  41
 0.50000000000000
   0
SEQEND
   5
D5
 100
AcDbEntity
   8
0
   6
BYBLOCK
  62
0
   0
ENDBLK
   5
D6
 100
AcDbEntity
   8
0
 100
AcDbBlockEnd
   0
BLOCK
   5
D7
 100
AcDbEntity
   8
0
 100
AcDbBlockBegin
   2
_DATUMBLANK
  70
0
  10
0.0
  20
0.0
  30
0.0
   3
_DATUMBLANK
   0
LINE
   5
D8
 100
AcDbEntity
   8
0
 370
-2
 100
AcDbLine
   6
BYBLOCK
  62
0
  10
0.0
  20
 0.57735027000000
  30
0.0
  11
-1.0000000000000
  21
0.0
  31
0.0
   0
LINE
   5
D9
 100
AcDbEntity
   8
0
 370
-2
 100
AcDbLine
   6
BYBLOCK
  62
0
  10
-1.0000000000000
  20
0.0
  30
0.0
  11
0.0
  21
-0.57735027000000
  31
0.0
   0
LINE
   5
DA
 100
AcDbEntity
   8
0
 370
-2
 100
AcDbLine
   6
BYBLOCK
  62
0
  10
0.0
  20
-0.57735027000000
  30
0.0
  11
0.0
  21
 0.57735027000000
  31
0.0
   0
ENDBLK
   5
DB
 100
AcDbEntity
   8
0
 100
AcDbBlockEnd
   0
BLOCK
   5
DC
 100
AcDbEntity
   8
0
 100
AcDbBlockBegin
   2
_DATUMFILLED
  70
0
  10
0.0
  20
0.0
  30
0.0
   3
_DATUMFILLED
   0
SOLID
   5
DD
 100
AcDbEntity
   8
0
 100
AcDbTrace
   6
BYBLOCK
  62
0
  10
0.0
  20
 0.57735027000000
  30
0.0
  11
-1.0000000000000
  21
0.0
  31
0.0
  12
0.0
  22
-0.57735027000000
  32
0.0
  13
0.0
  23
-0.57735027000000
  33
0.0
   0
ENDBLK
   5
DE
 100
AcDbEntity
   8
0
 100
AcDbBlockEnd
   0
BLOCK
   5
DF
 100
AcDbEntity
   8
0
 100
AcDbBlockBegin
   2
_ORIGIN
  70
0
  10
0.0
  20
0.0
  30
0.0
   3
_ORIGIN
   0
CIRCLE
   5
E0
 100
AcDbEntity
   8
0
 370
-2
 100
AcDbCircle
   6
BYBLOCK
  62
0
  10
0.0
  20
0.0
  30
0.0
  40
 0.50000000000000
   0
LINE
   5
E1
 100
AcDbEntity
   8
0
 370
-2
 100
AcDbLine
   6
BYBLOCK
  62
0
  10
0.0
  20
0.0
  30
0.0
  11
-1.0000000000000
  21
0.0
  31
0.0
   0
ENDBLK
   5
E2
 100
AcDbEntity
   8
0
 100
AcDbBlockEnd
   0
BLOCK
   5
E3
 100
AcDbEntity
   8
0
 100
AcDbBlockBegin
   2
_NONE
  70
0
  10
0.0
  20
0.0
  30
0.0
   3
_NONE
   0
CIRCLE
   5
E4
 100
AcDbEntity
   8
0
 370
-2
 100
AcDbCircle
   6
BYBLOCK
  62
0
  10
0.0
  20
0.0
  30
0.0
  40
 0.25000000000000
   0
ENDBLK
   5
E5
 100
AcDbEntity
   8
0
 100
AcDbBlockEnd
   0
BLOCK
   5
E6
 100
AcDbEntity
   8
0
 100
AcDbBlockBegin
   2
_DOTBLANK
  70
0
  10
0.0
  20
0.0
  30
0.0
   3
_DOTBLANK
   0
CIRCLE
   5
E7
 100
AcDbEntity
   8
0
 370
-2
 100
AcDbCircle
   6
BYBLOCK
  62
0
  10
0.0
  20
0.0
  30
0.0
  40
 0.50000000000000
   0
LINE
   5
E8
 100
AcDbEntity
   8
0
 370
-2
 100
AcDbLine
   6
BYBLOCK
  62
0
  10
-0.50000000000000
  20
0.0
  30
0.0
  11
-1.0000000000000
  21
0.0
  31
0.0
   0
ENDBLK
   5
E9
 100
AcDbEntity
   8
0
 100
AcDbBlockEnd
   0
BLOCK
   5
EA
 100
AcDbEntity
   8
0
 100
AcDbBlockBegin
   2
_INTEGRAL
  70
0
  10
0.0
  20
0.0
  30
0.0
   3
_INTEGRAL
   0
ARC
   5
EB
 100
AcDbEntity
   8
0
 370
-2
   6
BYBLOCK
  62
0
 100
AcDbCircle
  10
 0.44488800000000
  20
-0.91335000000000E-1
  30
0.0
  40
 0.45416700000000
 100
AcDbArc
  50
 102.00000000000
  51
 168.00000000000
   0
ARC
   5
EC
 100
AcDbEntity
   8
0
 370
-2
   6
BYBLOCK
  62
0
 100
AcDbCircle
  10
-0.44488800000000
  20
 0.91335000000000E-1
  30
0.0
  40
 0.45416700000000
 100
AcDbArc
  50
 282.00000000000
  51
 348.00000000000
   0
ENDBLK
   5
ED
 100
AcDbEntity
   8
0
 100
AcDbBlockEnd
   0
BLOCK
   5
EE
 100
AcDbEntity
   8
0
 100
AcDbBlockBegin
   2
*D1
  70
65
  10
0.0
  20
0.0
  30
0.0
   3
*D1
   0
LINE
   5
EF
 100
AcDbEntity
   8
LEVEL001
 370
15
 100
AcDbLine
   6
CONTINUOUS
  62
8
  10
 69.089639239962
  20
 161.74200735020
  30
0.0
  11
 79.089639239962
  21
 161.74200735020
  31
0.0
   0
LINE
   5
F0
 100
AcDbEntity
   8
LEVEL001
 370
15
 100
AcDbLine
   6
CONTINUOUS
  62
8
  10
 58.276492166286
  20
 168.99200735020
  30
0.0
  11
 79.089639239962
  21
 168.99200735020
  31
0.0
   0
LINE
   5
F1
 100
AcDbEntity
   8
LEVEL001
 370
15
 100
AcDbLine
   6
CONTINUOUS
  62
8
  10
 78.089639239962
  20
 161.74200735020
  30
0.0
  11
 78.089639239962
  21
 165.36700735020
  31
0.0
   0
LINE
   5
F2
 100
AcDbEntity
   8
LEVEL001
 370
15
 100
AcDbLine
   6
CONTINUOUS
  62
8
  10
 78.089639239962
  20
 168.99200735020
  30
0.0
  11
 78.089639239962
  21
 165.36700735020
  31
0.0
   0
SOLID
   5
F3
 100
AcDbEntity
   8
LEVEL001
 100
AcDbTrace
   6
CONTINUOUS
  62
8
  10
 78.089639239962
  20
 161.74200735020
  30
0.0
  11
 78.442293201379
  21
 163.74200735020
  31
0.0
  12
 77.736985278545
  22
 163.74200735020
  32
0.0
  13
 77.736985278545
  23
 163.74200735020
  33
0.0
   0
SOLID
   5
F4
 100
AcDbEntity
   8
LEVEL001
 100
AcDbTrace
   6
CONTINUOUS
  62
8
  10
 78.089639239962
  20
 168.99200735020
  30
0.0
  11
 77.736985278545
  21
 166.99200735020
  31
0.0
  12
 78.442293201379
  22
 166.99200735020
  32
0.0
  13
 78.442293201379
  23
 166.99200735020
  33
0.0
   0
MTEXT
   5
F5
 100
AcDbEntity
   8
LEVEL001
 370
15
  62
8
 100
AcDbMText
  10
 77.089639239962
  20
 165.36700735020
  30
0.0
  40
 2.5000000000000
  41
0.0
  71
8
  72
1
   1
\A1;14.5
   7
GMM001
  11
0.0
  21
 1.0000000000000
  31
0.0
   0
ENDBLK
   5
F6
 100
AcDbEntity
   8
0
 100
AcDbBlockEnd
   0
BLOCK
   5
F7
 100
AcDbEntity
   8
0
 100
AcDbBlockBegin
   2
*D2
  70
65
  10
0.0
  20
0.0
  30
0.0
   3
*D2
   0
LINE
   5
F8
 100
AcDbEntity
   8
LEVEL001
 370
15
 100
AcDbLine
   6
CONTINUOUS
  62
8
  10
 66.489639239962
  20
 161.74200735020
  30
0.0
  11
 72.604133274245
  21
 161.74200735020
  31
0.0
   0
LINE
   5
F9
 100
AcDbEntity
   8
LEVEL001
 370
15
 100
AcDbLine
   6
CONTINUOUS
  62
8
  10
 66.489639239962
  20
 162.49200735020
  30
0.0
  11
 72.604133274245
  21
 162.49200735020
  31
0.0
   0
LINE
   5
FA
 100
AcDbEntity
   8
LEVEL001
 370
15
 100
AcDbLine
   6
CONTINUOUS
  62
8
  10
 71.604133274245
  20
 154.68816931625
  30
0.0
  11
 71.604133274245
  21
 162.11700735020
  31
0.0
   0
LINE
   5
FB
 100
AcDbEntity
   8
LEVEL001
 370
15
 100
AcDbLine
   6
CONTINUOUS
  62
8
  10
 71.604133274245
  20
 164.99200735020
  30
0.0
  11
 71.604133274245
  21
 162.11700735020
  31
0.0
   0
SOLID
   5
FC
 100
AcDbEntity
   8
LEVEL001
 100
AcDbTrace
   6
CONTINUOUS
  62
8
  10
 71.604133274245
  20
 161.74200735020
  30
0.0
  11
 71.251479312828
  21
 159.74200735020
  31
0.0
  12
 71.956787235662
  22
 159.74200735020
  32
0.0
  13
 71.956787235662
  23
 159.74200735020
  33
0.0
   0
SOLID
   5
FD
 100
AcDbEntity
   8
LEVEL001
 100
AcDbTrace
   6
CONTINUOUS
  62
8
  10
 71.604133274245
  20
 162.49200735020
  30
0.0
  11
 71.956787235662
  21
 164.49200735020
  31
0.0
  12
 71.251479312828
  22
 164.49200735020
  32
0.0
  13
 71.251479312828
  23
 164.49200735020
  33
0.0
   0
MTEXT
   5
FE
 100
AcDbEntity
   8
LEVEL001
 370
15
  62
8
 100
AcDbMText
  10
 70.953655274245
  20
 160.18816931625
  30
0.0
  40
 2.5000000000000
  41
0.0
  71
9
  72
1
   1
\A1;1.5
   7
GMM001
  11
0.0
  21
 1.0000000000000
  31
0.0
   0
ENDBLK
   5
FF
 100
AcDbEntity
   8
0
 100
AcDbBlockEnd
   0
BLOCK
   5
100
 100
AcDbEntity
   8
0
 100
AcDbBlockBegin
   2
*D3
  70
65
  10
0.0
  20
0.0
  30
0.0
   3
*D3
   0
LINE
   5
101
 100
AcDbEntity
   8
LEVEL001
 370
15
 100
AcDbLine
   6
CONTINUOUS
  62
8
  10
 58.089639239962
  20
 168.49200735020
  30
0.0
  11
 58.089639239962
  21
 176.00490293374
  31
0.0
   0
LINE
   5
102
 100
AcDbEntity
   8
LEVEL001
 370
15
 100
AcDbLine
   6
CONTINUOUS
  62
8
  10
 65.589639239962
  20
 163.39200735020
  30
0.0
  11
 65.589639239962
  21
 176.00490293374
  31
0.0
   0
LINE
   5
103
 100
AcDbEntity
   8
LEVEL001
 370
15
 100
AcDbLine
   6
CONTINUOUS
  62
8
  10
 58.089639239962
  20
 175.00490293374
  30
0.0
  11
 61.839639239962
  21
 175.00490293374
  31
0.0
   0
LINE
   5
104
 100
AcDbEntity
   8
LEVEL001
 370
15
 100
AcDbLine
   6
CONTINUOUS
  62
8
  10
 65.589639239962
  20
 175.00490293374
  30
0.0
  11
 61.839639239962
  21
 175.00490293374
  31
0.0
   0
SOLID
   5
105
 100
AcDbEntity
   8
LEVEL001
 100
AcDbTrace
   6
CONTINUOUS
  62
8
  10
 58.089639239962
  20
 175.00490293374
  30
0.0
  11
 60.089639239962
  21
 174.65224897232
  31
0.0
  12
 60.089639239962
  22
 175.35755689515
  32
0.0
  13
 60.089639239962
  23
 175.35755689515
  33
0.0
   0
SOLID
   5
106
 100
AcDbEntity
   8
LEVEL001
 100
AcDbTrace
   6
CONTINUOUS
  62
8
  10
 65.589639239962
  20
 175.00490293374
  30
0.0
  11
 63.589639239962
  21
 175.35755689515
  31
0.0
  12
 63.589639239962
  22
 174.65224897232
  32
0.0
  13
 63.589639239962
  23
 174.65224897232
  33
0.0
   0
MTEXT
   5
107
 100
AcDbEntity
   8
LEVEL001
 370
15
  62
8
 100
AcDbMText
  10
 61.839639239962
  20
 176.00490293374
  30
0.0
  40
 2.5000000000000
  41
0.0
  71
8
  72
1
   1
\A1;15
   7
GMM001
   0
ENDBLK
   5
108
 100
AcDbEntity
   8
0
 100
AcDbBlockEnd
   0
BLOCK
   5
109
 100
AcDbEntity
   8
0
 100
AcDbBlockBegin
   2
*D4
  70
65
  10
0.0
  20
0.0
  30
0.0
   3
*D4
   0
LINE
   5
10A
 100
AcDbEntity
   8
LEVEL001
 370
15
 100
AcDbLine
   6
CONTINUOUS
  62
8
  10
 28.089639239962
  20
 164.74654947987
  30
0.0
  11
 28.089639239962
  21
 182.49200735020
  31
0.0
   0
LINE
   5
10B
 100
AcDbEntity
   8
LEVEL001
 370
15
 100
AcDbLine
   6
CONTINUOUS
  62
8
  10
 65.589639239962
  20
 172.49200735020
  30
0.0
  11
 65.589639239962
  21
 182.49200735020
  31
0.0
   0
LINE
   5
10C
 100
AcDbEntity
   8
LEVEL001
 370
15
 100
AcDbLine
   6
CONTINUOUS
  62
8
  10
 28.089639239962
  20
 181.49200735020
  30
0.0
  11
 46.839639239962
  21
 181.49200735020
  31
0.0
   0
LINE
   5
10D
 100
AcDbEntity
   8
LEVEL001
 370
15
 100
AcDbLine
   6
CONTINUOUS
  62
8
  10
 65.589639239962
  20
 181.49200735020
  30
0.0
  11
 46.839639239962
  21
 181.49200735020
  31
0.0
   0
SOLID
   5
10E
 100
AcDbEntity
   8
LEVEL001
 100
AcDbTrace
   6
CONTINUOUS
  62
8
  10
 28.089639239962
  20
 181.49200735020
  30
0.0
  11
 30.089639239962
  21
 181.13935338878
  31
0.0
  12
 30.089639239962
  22
 181.84466131161
  32
0.0
  13
 30.089639239962
  23
 181.84466131161
  33
0.0
   0
SOLID
   5
10F
 100
AcDbEntity
   8
LEVEL001
 100
AcDbTrace
   6
CONTINUOUS
  62
8
  10
 65.589639239962
  20
 181.49200735020
  30
0.0
  11
 63.589639239962
  21
 181.84466131161
  31
0.0
  12
 63.589639239962
  22
 181.13935338878
  32
0.0
  13
 63.589639239962
  23
 181.13935338878
  33
0.0
   0
MTEXT
   5
110
 100
AcDbEntity
   8
LEVEL001
 370
15
  62
8
 100
AcDbMText
  10
 46.839639239962
  20
 182.49200735020
  30
0.0
  40
 2.5000000000000
  41
0.0
  71
8
  72
1
   1
\A1;75
   7
GMM001
   0
ENDBLK
   5
111
 100
AcDbEntity
   8
0
 100
AcDbBlockEnd
   0
BLOCK
   5
112
 100
AcDbEntity
   8
0
 100
AcDbBlockBegin
   2
*D5
  70
65
  10
0.0
  20
0.0
  30
0.0
   3
*D5
   0
LINE
   5
113
 100
AcDbEntity
   8
LEVEL001
 370
15
 100
AcDbLine
   6
CONTINUOUS
  62
8
  10
 32.039590451039
  20
 233.73266517233
  30
0.0
  11
 32.039590451039
  21
 247.73266517233
  31
0.0
   0
LINE
   5
114
 100
AcDbEntity
   8
LEVEL001
 370
15
 100
AcDbLine
   6
CONTINUOUS
  62
8
  10
 50.039404210982
  20
 239.73266517233
  30
0.0
  11
 50.039404210982
  21
 247.73266517233
  31
0.0
   0
LINE
   5
115
 100
AcDbEntity
   8
LEVEL001
 370
15
 100
AcDbLine
   6
CONTINUOUS
  62
8
  10
 32.039590451039
  20
 246.73266517233
  30
0.0
  11
 41.039497331011
  21
 246.73266517233
  31
0.0
   0
LINE
   5
116
 100
AcDbEntity
   8
LEVEL001
 370
15
 100
AcDbLine
   6
CONTINUOUS
  62
8
  10
 50.039404210982
  20
 246.73266517233
  30
0.0
  11
 41.039497331011
  21
 246.73266517233
  31
0.0
   0
SOLID
   5
117
 100
AcDbEntity
   8
LEVEL001
 100
AcDbTrace
   6
CONTINUOUS
  62
8
  10
 32.039590451039
  20
 246.73266517233
  30
0.0
  11
 34.039590451039
  21
 246.38001121091
  31
0.0
  12
 34.039590451039
  22
 247.08531913375
  32
0.0
  13
 34.039590451039
  23
 247.08531913375
  33
0.0
   0
SOLID
   5
118
 100
AcDbEntity
   8
LEVEL001
 100
AcDbTrace
   6
CONTINUOUS
  62
8
  10
 50.039404210982
  20
 246.73266517233
  30
0.0
  11
 48.039404210982
  21
 247.08531913375
  31
0.0
  12
 48.039404210982
  22
 246.38001121091
  32
0.0
  13
 48.039404210982
  23
 246.38001121091
  33
0.0
   0
MTEXT
   5
119
 100
AcDbEntity
   8
LEVEL001
 370
15
  62
8
 100
AcDbMText
  10
 41.039497331011
  20
 247.73266517233
  30
0.0
  40
 2.5000000000000
  41
0.0
  71
8
  72
1
   1
\A1;18
   7
GMM001
   0
ENDBLK
   5
11A
 100
AcDbEntity
   8
0
 100
AcDbBlockEnd
   0
BLOCK
   5
11B
 100
AcDbEntity
   8
0
 100
AcDbBlockBegin
   2
*D6
  70
65
  10
0.0
  20
0.0
  30
0.0
   3
*D6
   0
LINE
   5
11C
 100
AcDbEntity
   8
LEVEL001
 370
15
 100
AcDbLine
   6
CONTINUOUS
  62
8
  10
 32.039590451039
  20
 228.73266517233
  30
0.0
  11
 32.039590451039
  21
 220.73266517233
  31
0.0
   0
LINE
   5
11D
 100
AcDbEntity
   8
LEVEL001
 370
15
 100
AcDbLine
   6
CONTINUOUS
  62
8
  10
 70.039404210982
  20
 228.73266517233
  30
0.0
  11
 70.039404210982
  21
 220.73266517233
  31
0.0
   0
LINE
   5
11E
 100
AcDbEntity
   8
LEVEL001
 370
15
 100
AcDbLine
   6
CONTINUOUS
  62
8
  10
 32.039590451039
  20
 221.73266517233
  30
0.0
  11
 51.039497331011
  21
 221.73266517233
  31
0.0
   0
LINE
   5
11F
 100
AcDbEntity
   8
LEVEL001
 370
15
 100
AcDbLine
   6
CONTINUOUS
  62
8
  10
 70.039404210982
  20
 221.73266517233
  30
0.0
  11
 51.039497331011
  21
 221.73266517233
  31
0.0
   0
SOLID
   5
120
 100
AcDbEntity
   8
LEVEL001
 100
AcDbTrace
   6
CONTINUOUS
  62
8
  10
 32.039590451039
  20
 221.73266517233
  30
0.0
  11
 34.039590451039
  21
 221.38001121091
  31
0.0
  12
 34.039590451039
  22
 222.08531913375
  32
0.0
  13
 34.039590451039
  23
 222.08531913375
  33
0.0
   0
SOLID
   5
121
 100
AcDbEntity
   8
LEVEL001
 100
AcDbTrace
   6
CONTINUOUS
  62
8
  10
 70.039404210982
  20
 221.73266517233
  30
0.0
  11
 68.039404210982
  21
 222.08531913375
  31
0.0
  12
 68.039404210982
  22
 221.38001121091
  32
0.0
  13
 68.039404210982
  23
 221.38001121091
  33
0.0
   0
MTEXT
   5
122
 100
AcDbEntity
   8
LEVEL001
 370
15
  62
8
 100
AcDbMText
  10
 51.039497331011
  20
 222.73266517233
  30
0.0
  40
 2.5000000000000
  41
0.0
  71
8
  72
1
   1
\A1;38
   7
GMM001
   0
ENDBLK
   5
123
 100
AcDbEntity
   8
0
 100
AcDbBlockEnd
   0
BLOCK
   5
124
 100
AcDbEntity
   8
0
 100
AcDbBlockBegin
   2
*D7
  70
65
  10
0.0
  20
0.0
  30
0.0
   3
*D7
   0
LINE
   5
125
 100
AcDbEntity
   8
LEVEL001
 370
15
 100
AcDbLine
   6
CONTINUOUS
  62
8
  10
 71.039404210982
  20
 229.73266517233
  30
0.0
  11
 78.653088934455
  21
 229.73266517233
  31
0.0
   0
LINE
   5
126
 100
AcDbEntity
   8
LEVEL001
 370
15
 100
AcDbLine
   6
CONTINUOUS
  62
8
  10
 77.653088934455
  20
 222.43953571053
  30
0.0
  11
 77.653088934455
  21
 230.33266517233
  31
0.0
   0
LINE
   5
127
 100
AcDbEntity
   8
LEVEL001
 370
15
 100
AcDbLine
   6
CONTINUOUS
  62
8
  10
 77.653088934455
  20
 230.93266517233
  30
0.0
  11
 77.653088934455
  21
 230.33266517233
  31
0.0
   0
SOLID
   5
128
 100
AcDbEntity
   8
LEVEL001
 100
AcDbTrace
   6
CONTINUOUS
  62
8
  10
 77.653088934455
  20
 229.73266517233
  30
0.0
  11
 77.300434973039
  21
 227.73266517233
  31
0.0
  12
 78.005742895872
  22
 227.73266517233
  32
0.0
  13
 78.005742895872
  23
 227.73266517233
  33
0.0
   0
MTEXT
   5
129
 100
AcDbEntity
   8
LEVEL001
 370
15
  62
8
 100
AcDbMText
  10
 76.884188903316
  20
 227.93953571053
  30
0.0
  40
 2.5000000000000
  41
0.0
  71
9
  72
1
   1
\A1;1.2
   7
GMM001
  11
0.0
  21
 1.0000000000000
  31
0.0
   0
ENDBLK
   5
12A
 100
AcDbEntity
   8
0
 100
AcDbBlockEnd
   0
BLOCK
   5
12B
 100
AcDbEntity
   8
0
 100
AcDbBlockBegin
   2
*D8
  70
65
  10
0.0
  20
0.0
  30
0.0
   3
*D8
   0
LINE
   5
12C
 100
AcDbEntity
   8
LEVEL001
 370
15
 100
AcDbLine
   6
CONTINUOUS
  62
8
  10
 71.039404210982
  20
 230.93266517233
  30
0.0
  11
 78.653088934455
  21
 230.93266517233
  31
0.0
   0
LINE
   5
12D
 100
AcDbEntity
   8
LEVEL001
 370
15
 100
AcDbLine
   6
CONTINUOUS
  62
8
  10
 51.039404210982
  20
 237.53266517233
  30
0.0
  11
 78.653088934455
  21
 237.53266517233
  31
0.0
   0
LINE
   5
12E
 100
AcDbEntity
   8
LEVEL001
 370
15
 100
AcDbLine
   6
CONTINUOUS
  62
8
  10
 77.653088934455
  20
 230.93266517233
  30
0.0
  11
 77.653088934455
  21
 234.23266517233
  31
0.0
   0
LINE
   5
12F
 100
AcDbEntity
   8
LEVEL001
 370
15
 100
AcDbLine
   6
CONTINUOUS
  62
8
  10
 77.653088934455
  20
 237.53266517233
  30
0.0
  11
 77.653088934455
  21
 234.23266517233
  31
0.0
   0
SOLID
   5
130
 100
AcDbEntity
   8
LEVEL001
 100
AcDbTrace
   6
CONTINUOUS
  62
8
  10
 77.653088934455
  20
 230.93266517233
  30
0.0
  11
 78.005742895872
  21
 232.93266517233
  31
0.0
  12
 77.300434973039
  22
 232.93266517233
  32
0.0
  13
 77.300434973039
  23
 232.93266517233
  33
0.0
   0
SOLID
   5
131
 100
AcDbEntity
   8
LEVEL001
 100
AcDbTrace
   6
CONTINUOUS
  62
8
  10
 77.653088934455
  20
 237.53266517233
  30
0.0
  11
 77.300434973039
  21
 235.53266517233
  31
0.0
  12
 78.005742895872
  22
 235.53266517233
  32
0.0
  13
 78.005742895872
  23
 235.53266517233
  33
0.0
   0
MTEXT
   5
132
 100
AcDbEntity
   8
LEVEL001
 370
15
  62
8
 100
AcDbMText
  10
 76.653088934455
  20
 234.23266517233
  30
0.0
  40
 2.5000000000000
  41
0.0
  71
8
  72
1
   1
\A1;6.6
   7
GMM001
  11
0.0
  21
 1.0000000000000
  31
0.0
   0
ENDBLK
   5
133
 100
AcDbEntity
   8
0
 100
AcDbBlockEnd
   0
BLOCK
   5
134
 100
AcDbEntity
   8
0
 100
AcDbBlockBegin
   2
*D9
  70
65
  10
0.0
  20
0.0
  30
0.0
   3
*D9
   0
LINE
   5
135
 100
AcDbEntity
   8
LEVEL001
 370
15
 100
AcDbLine
   6
CONTINUOUS
  62
8
  10
 32.633562151722
  20
 229.73266517233
  30
0.0
  11
 24.585184651860
  21
 229.73266517233
  31
0.0
   0
LINE
   5
136
 100
AcDbEntity
   8
LEVEL001
 370
15
 100
AcDbLine
   6
CONTINUOUS
  62
8
  10
 44.290617374544
  20
 238.73266517233
  30
0.0
  11
 24.585184651860
  21
 238.73266517233
  31
0.0
   0
LINE
   5
137
 100
AcDbEntity
   8
LEVEL001
 370
15
 100
AcDbLine
   6
CONTINUOUS
  62
8
  10
 25.585184651860
  20
 229.73266517233
  30
0.0
  11
 25.585184651860
  21
 234.23266517233
  31
0.0
   0
LINE
   5
138
 100
AcDbEntity
   8
LEVEL001
 370
15
 100
AcDbLine
   6
CONTINUOUS
  62
8
  10
 25.585184651860
  20
 238.73266517233
  30
0.0
  11
 25.585184651860
  21
 234.23266517233
  31
0.0
   0
SOLID
   5
139
 100
AcDbEntity
   8
LEVEL001
 100
AcDbTrace
   6
CONTINUOUS
  62
8
  10
 25.585184651860
  20
 229.73266517233
  30
0.0
  11
 25.937838613277
  21
 231.73266517233
  31
0.0
  12
 25.232530690443
  22
 231.73266517233
  32
0.0
  13
 25.232530690443
  23
 231.73266517233
  33
0.0
   0
SOLID
   5
13A
 100
AcDbEntity
   8
LEVEL001
 100
AcDbTrace
   6
CONTINUOUS
  62
8
  10
 25.585184651860
  20
 238.73266517233
  30
0.0
  11
 25.232530690443
  21
 236.73266517233
  31
0.0
  12
 25.937838613277
  22
 236.73266517233
  32
0.0
  13
 25.937838613277
  23
 236.73266517233
  33
0.0
   0
MTEXT
   5
13B
 100
AcDbEntity
   8
LEVEL001
 370
15
  62
8
 100
AcDbMText
  10
 24.585184651860
  20
 234.23266517233
  30
0.0
  40
 2.5000000000000
  41
0.0
  71
8
  72
1
   1
\A1;9
   7
GMM001
  11
0.0
  21
 1.0000000000000
  31
0.0
   0
ENDBLK
   5
13C
 100
AcDbEntity
   8
0
 100
AcDbBlockEnd
   0
BLOCK
   5
13D
 100
AcDbEntity
   8
0
 100
AcDbBlockBegin
   2
*D10
  70
65
  10
0.0
  20
0.0
  30
0.0
   3
*D10
   0
LINE
   5
13E
 100
AcDbEntity
   8
LEVEL001
 370
15
 100
AcDbLine
   6
CONTINUOUS
  62
8
  10
 148.56259924109
  20
 229.73266517233
  30
0.0
  11
 156.17628396456
  21
 229.73266517233
  31
0.0
   0
LINE
   5
13F
 100
AcDbEntity
   8
LEVEL001
 370
15
 100
AcDbLine
   6
CONTINUOUS
  62
8
  10
 155.17628396456
  20
 222.43953571053
  30
0.0
  11
 155.17628396456
  21
 230.33266517233
  31
0.0
   0
LINE
   5
140
 100
AcDbEntity
   8
LEVEL001
 370
15
 100
AcDbLine
   6
CONTINUOUS
  62
8
  10
 155.17628396456
  20
 230.93266517233
  30
0.0
  11
 155.17628396456
  21
 230.33266517233
  31
0.0
   0
SOLID
   5
141
 100
AcDbEntity
   8
LEVEL001
 100
AcDbTrace
   6
CONTINUOUS
  62
8
  10
 155.17628396456
  20
 229.73266517233
  30
0.0
  11
 154.82363000314
  21
 227.73266517233
  31
0.0
  12
 155.52893792598
  22
 227.73266517233
  32
0.0
  13
 155.52893792598
  23
 227.73266517233
  33
0.0
   0
MTEXT
   5
142
 100
AcDbEntity
   8
LEVEL001
 370
15
  62
8
 100
AcDbMText
  10
 154.40738393342
  20
 227.93953571053
  30
0.0
  40
 2.5000000000000
  41
0.0
  71
9
  72
1
   1
\A1;1.2
   7
GMM001
  11
0.0
  21
 1.0000000000000
  31
0.0
   0
ENDBLK
   5
143
 100
AcDbEntity
   8
0
 100
AcDbBlockEnd
   0
BLOCK
   5
144
 100
AcDbEntity
   8
0
 100
AcDbBlockBegin
   2
*D11
  70
65
  10
0.0
  20
0.0
  30
0.0
   3
*D11
   0
LINE
   5
145
 100
AcDbEntity
   8
LEVEL001
 370
15
 100
AcDbLine
   6
CONTINUOUS
  62
8
  10
 148.56259924109
  20
 230.93266517233
  30
0.0
  11
 156.17628396456
  21
 230.93266517233
  31
0.0
   0
LINE
   5
146
 100
AcDbEntity
   8
LEVEL001
 370
15
 100
AcDbLine
   6
CONTINUOUS
  62
8
  10
 131.56259924109
  20
 240.53266517233
  30
0.0
  11
 156.17628396456
  21
 240.53266517233
  31
0.0
   0
LINE
   5
147
 100
AcDbEntity
   8
LEVEL001
 370
15
 100
AcDbLine
   6
CONTINUOUS
  62
8
  10
 155.17628396456
  20
 230.93266517233
  30
0.0
  11
 155.17628396456
  21
 235.73266517233
  31
0.0
   0
LINE
   5
148
 100
AcDbEntity
   8
LEVEL001
 370
15
 100
AcDbLine
   6
CONTINUOUS
  62
8
  10
 155.17628396456
  20
 240.53266517233
  30
0.0
  11
 155.17628396456
  21
 235.73266517233
  31
0.0
   0
SOLID
   5
149
 100
AcDbEntity
   8
LEVEL001
 100
AcDbTrace
   6
CONTINUOUS
  62
8
  10
 155.17628396456
  20
 230.93266517233
  30
0.0
  11
 155.52893792598
  21
 232.93266517233
  31
0.0
  12
 154.82363000314
  22
 232.93266517233
  32
0.0
  13
 154.82363000314
  23
 232.93266517233
  33
0.0
   0
SOLID
   5
14A
 100
AcDbEntity
   8
LEVEL001
 100
AcDbTrace
   6
CONTINUOUS
  62
8
  10
 155.17628396456
  20
 240.53266517233
  30
0.0
  11
 154.82363000314
  21
 238.53266517233
  31
0.0
  12
 155.52893792598
  22
 238.53266517233
  32
0.0
  13
 155.52893792598
  23
 238.53266517233
  33
0.0
   0
MTEXT
   5
14B
 100
AcDbEntity
   8
LEVEL001
 370
15
  62
8
 100
AcDbMText
  10
 154.17628396456
  20
 235.73266517233
  30
0.0
  40
 2.5000000000000
  41
0.0
  71
8
  72
1
   1
\A1;9.6
   7
GMM001
  11
0.0
  21
 1.0000000000000
  31
0.0
   0
ENDBLK
   5
14C
 100
AcDbEntity
   8
0
 100
AcDbBlockEnd
   0
BLOCK
   5
14D
 100
AcDbEntity
   8
0
 100
AcDbBlockBegin
   2
*D12
  70
65
  10
0.0
  20
0.0
  30
0.0
   3
*D12
   0
LINE
   5
14E
 100
AcDbEntity
   8
LEVEL001
 370
15
 100
AcDbLine
   6
CONTINUOUS
  62
8
  10
 103.56259924109
  20
 233.06599850566
  30
0.0
  11
 103.56259924109
  21
 248.09781867402
  31
0.0
   0
LINE
   5
14F
 100
AcDbEntity
   8
LEVEL001
 370
15
 100
AcDbLine
   6
CONTINUOUS
  62
8
  10
 130.56259924109
  20
 242.73266517233
  30
0.0
  11
 130.56259924109
  21
 248.09781867402
  31
0.0
   0
LINE
   5
150
 100
AcDbEntity
   8
LEVEL001
 370
15
 100
AcDbLine
   6
CONTINUOUS
  62
8
  10
 103.56259924109
  20
 247.09781867402
  30
0.0
  11
 117.06259924109
  21
 247.09781867402
  31
0.0
   0
LINE
   5
151
 100
AcDbEntity
   8
LEVEL001
 370
15
 100
AcDbLine
   6
CONTINUOUS
  62
8
  10
 130.56259924109
  20
 247.09781867402
  30
0.0
  11
 117.06259924109
  21
 247.09781867402
  31
0.0
   0
SOLID
   5
152
 100
AcDbEntity
   8
LEVEL001
 100
AcDbTrace
   6
CONTINUOUS
  62
8
  10
 103.56259924109
  20
 247.09781867402
  30
0.0
  11
 105.56259924109
  21
 246.74516471260
  31
0.0
  12
 105.56259924109
  22
 247.45047263543
  32
0.0
  13
 105.56259924109
  23
 247.45047263543
  33
0.0
   0
SOLID
   5
153
 100
AcDbEntity
   8
LEVEL001
 100
AcDbTrace
   6
CONTINUOUS
  62
8
  10
 130.56259924109
  20
 247.09781867402
  30
0.0
  11
 128.56259924109
  21
 247.45047263543
  31
0.0
  12
 128.56259924109
  22
 246.74516471260
  32
0.0
  13
 128.56259924109
  23
 246.74516471260
  33
0.0
   0
MTEXT
   5
154
 100
AcDbEntity
   8
LEVEL001
 370
15
  62
8
 100
AcDbMText
  10
 117.06259924109
  20
 248.09781867402
  30
0.0
  40
 2.5000000000000
  41
0.0
  71
8
  72
1
   1
\A1;27
   7
GMM001
   0
ENDBLK
   5
155
 100
AcDbEntity
   8
0
 100
AcDbBlockEnd
   0
BLOCK
   5
156
 100
AcDbEntity
   8
0
 100
AcDbBlockBegin
   2
*D13
  70
65
  10
0.0
  20
0.0
  30
0.0
   3
*D13
   0
LINE
   5
157
 100
AcDbEntity
   8
LEVEL001
 370
15
 100
AcDbLine
   6
CONTINUOUS
  62
8
  10
 104.22926590775
  20
 229.73266517233
  30
0.0
  11
 98.955669417304
  21
 229.73266517233
  31
0.0
   0
LINE
   5
158
 100
AcDbEntity
   8
LEVEL001
 370
15
 100
AcDbLine
   6
CONTINUOUS
  62
8
  10
 119.22926590775
  20
 241.73266517233
  30
0.0
  11
 98.955669417304
  21
 241.73266517233
  31
0.0
   0
LINE
   5
159
 100
AcDbEntity
   8
LEVEL001
 370
15
 100
AcDbLine
   6
CONTINUOUS
  62
8
  10
 99.955669417304
  20
 229.73266517233
  30
0.0
  11
 99.955669417304
  21
 235.73266517233
  31
0.0
   0
LINE
   5
15A
 100
AcDbEntity
   8
LEVEL001
 370
15
 100
AcDbLine
   6
CONTINUOUS
  62
8
  10
 99.955669417304
  20
 241.73266517233
  30
0.0
  11
 99.955669417304
  21
 235.73266517233
  31
0.0
   0
SOLID
   5
15B
 100
AcDbEntity
   8
LEVEL001
 100
AcDbTrace
   6
CONTINUOUS
  62
8
  10
 99.955669417304
  20
 229.73266517233
  30
0.0
  11
 100.30832337872
  21
 231.73266517233
  31
0.0
  12
 99.603015455887
  22
 231.73266517233
  32
0.0
  13
 99.603015455887
  23
 231.73266517233
  33
0.0
   0
SOLID
   5
15C
 100
AcDbEntity
   8
LEVEL001
 100
AcDbTrace
   6
CONTINUOUS
  62
8
  10
 99.955669417304
  20
 241.73266517233
  30
0.0
  11
 99.603015455887
  21
 239.73266517233
  31
0.0
  12
 100.30832337872
  22
 239.73266517233
  32
0.0
  13
 100.30832337872
  23
 239.73266517233
  33
0.0
   0
MTEXT
   5
15D
 100
AcDbEntity
   8
LEVEL001
 370
15
  62
8
 100
AcDbMText
  10
 98.955669417304
  20
 235.73266517233
  30
0.0
  40
 2.5000000000000
  41
0.0
  71
8
  72
1
   1
\A1;12
   7
GMM001
  11
0.0
  21
 1.0000000000000
  31
0.0
   0
ENDBLK
   5
15E
 100
AcDbEntity
   8
0
 100
AcDbBlockEnd
   0
BLOCK
   5
15F
 100
AcDbEntity
   8
0
 100
AcDbBlockBegin
   2
*D14
  70
65
  10
0.0
  20
0.0
  30
0.0
   3
*D14
   0
LINE
   5
160
 100
AcDbEntity
   8
LEVEL001
 370
15
 100
AcDbLine
   6
CONTINUOUS
  62
8
  10
 103.56259924109
  20
 228.39933183900
  30
0.0
  11
 103.56259924109
  21
 220.73266517233
  31
0.0
   0
LINE
   5
161
 100
AcDbEntity
   8
LEVEL001
 370
15
 100
AcDbLine
   6
CONTINUOUS
  62
8
  10
 147.56259924109
  20
 228.73266517233
  30
0.0
  11
 147.56259924109
  21
 220.73266517233
  31
0.0
   0
LINE
   5
162
 100
AcDbEntity
   8
LEVEL001
 370
15
 100
AcDbLine
   6
CONTINUOUS
  62
8
  10
 103.56259924109
  20
 221.73266517233
  30
0.0
  11
 125.56259924109
  21
 221.73266517233
  31
0.0
   0
LINE
   5
163
 100
AcDbEntity
   8
LEVEL001
 370
15
 100
AcDbLine
   6
CONTINUOUS
  62
8
  10
 147.56259924109
  20
 221.73266517233
  30
0.0
  11
 125.56259924109
  21
 221.73266517233
  31
0.0
   0
SOLID
   5
164
 100
AcDbEntity
   8
LEVEL001
 100
AcDbTrace
   6
CONTINUOUS
  62
8
  10
 103.56259924109
  20
 221.73266517233
  30
0.0
  11
 105.56259924109
  21
 221.38001121091
  31
0.0
  12
 105.56259924109
  22
 222.08531913375
  32
0.0
  13
 105.56259924109
  23
 222.08531913375
  33
0.0
   0
SOLID
   5
165
 100
AcDbEntity
   8
LEVEL001
 100
AcDbTrace
   6
CONTINUOUS
  62
8
  10
 147.56259924109
  20
 221.73266517233
  30
0.0
  11
 145.56259924109
  21
 222.08531913375
  31
0.0
  12
 145.56259924109
  22
 221.38001121091
  32
0.0
  13
 145.56259924109
  23
 221.38001121091
  33
0.0
   0
MTEXT
   5
166
 100
AcDbEntity
   8
LEVEL001
 370
15
  62
8
 100
AcDbMText
  10
 125.56259924109
  20
 222.73266517233
  30
0.0
  40
 2.5000000000000
  41
0.0
  71
8
  72
1
   1
\A1;44
   7
GMM001
   0
ENDBLK
   5
167
 100
AcDbEntity
   8
0
 100
AcDbBlockEnd
   0
BLOCK
   5
168
 100
AcDbEntity
   8
0
 100
AcDbBlockBegin
   2
*D15
  70
65
  10
0.0
  20
0.0
  30
0.0
   3
*D15
   0
LINE
   5
169
 100
AcDbEntity
   8
LEVEL001
 370
15
 100
AcDbLine
   6
CONTINUOUS
  62
8
  10
 178.84766716409
  20
 232.12522218980
  30
0.0
  11
 178.84766716409
  21
 243.63266517233
  31
0.0
   0
LINE
   5
16A
 100
AcDbEntity
   8
LEVEL001
 370
15
 100
AcDbLine
   6
CONTINUOUS
  62
8
  10
 193.84766716409
  20
 235.23266517233
  30
0.0
  11
 193.84766716409
  21
 243.63266517233
  31
0.0
   0
LINE
   5
16B
 100
AcDbEntity
   8
LEVEL001
 370
15
 100
AcDbLine
   6
CONTINUOUS
  62
8
  10
 178.84766716409
  20
 242.63266517233
  30
0.0
  11
 186.34766716409
  21
 242.63266517233
  31
0.0
   0
LINE
   5
16C
 100
AcDbEntity
   8
LEVEL001
 370
15
 100
AcDbLine
   6
CONTINUOUS
  62
8
  10
 193.84766716409
  20
 242.63266517233
  30
0.0
  11
 186.34766716409
  21
 242.63266517233
  31
0.0
   0
SOLID
   5
16D
 100
AcDbEntity
   8
LEVEL001
 100
AcDbTrace
   6
CONTINUOUS
  62
8
  10
 178.84766716409
  20
 242.63266517233
  30
0.0
  11
 180.84766716409
  21
 242.28001121091
  31
0.0
  12
 180.84766716409
  22
 242.98531913375
  32
0.0
  13
 180.84766716409
  23
 242.98531913375
  33
0.0
   0
SOLID
   5
16E
 100
AcDbEntity
   8
LEVEL001
 100
AcDbTrace
   6
CONTINUOUS
  62
8
  10
 193.84766716409
  20
 242.63266517233
  30
0.0
  11
 191.84766716409
  21
 242.98531913375
  31
0.0
  12
 191.84766716409
  22
 242.28001121091
  32
0.0
  13
 191.84766716409
  23
 242.28001121091
  33
0.0
   0
MTEXT
   5
16F
 100
AcDbEntity
   8
LEVEL001
 370
15
  62
8
 100
AcDbMText
  10
 186.34766716409
  20
 243.63266517233
  30
0.0
  40
 2.5000000000000
  41
0.0
  71
8
  72
1
   1
\A1;15
   7
GMM001
   0
ENDBLK
   5
170
 100
AcDbEntity
   8
0
 100
AcDbBlockEnd
   0
BLOCK
   5
171
 100
AcDbEntity
   8
0
 100
AcDbBlockBegin
   2
*D16
  70
65
  10
0.0
  20
0.0
  30
0.0
   3
*D16
   0
LINE
   5
172
 100
AcDbEntity
   8
LEVEL001
 370
15
 100
AcDbLine
   6
CONTINUOUS
  62
8
  10
 178.84766716409
  20
 229.53266517233
  30
0.0
  11
 178.84766716409
  21
 220.73266517233
  31
0.0
   0
LINE
   5
173
 100
AcDbEntity
   8
LEVEL001
 370
15
 100
AcDbLine
   6
CONTINUOUS
  62
8
  10
 213.84766716409
  20
 228.73266517233
  30
0.0
  11
 213.84766716409
  21
 220.73266517233
  31
0.0
   0
LINE
   5
174
 100
AcDbEntity
   8
LEVEL001
 370
15
 100
AcDbLine
   6
CONTINUOUS
  62
8
  10
 178.84766716409
  20
 221.73266517233
  30
0.0
  11
 196.34766716409
  21
 221.73266517233
  31
0.0
   0
LINE
   5
175
 100
AcDbEntity
   8
LEVEL001
 370
15
 100
AcDbLine
   6
CONTINUOUS
  62
8
  10
 213.84766716409
  20
 221.73266517233
  30
0.0
  11
 196.34766716409
  21
 221.73266517233
  31
0.0
   0
SOLID
   5
176
 100
AcDbEntity
   8
LEVEL001
 100
AcDbTrace
   6
CONTINUOUS
  62
8
  10
 178.84766716409
  20
 221.73266517233
  30
0.0
  11
 180.84766716409
  21
 221.38001121091
  31
0.0
  12
 180.84766716409
  22
 222.08531913375
  32
0.0
  13
 180.84766716409
  23
 222.08531913375
  33
0.0
   0
SOLID
   5
177
 100
AcDbEntity
   8
LEVEL001
 100
AcDbTrace
   6
CONTINUOUS
  62
8
  10
 213.84766716409
  20
 221.73266517233
  30
0.0
  11
 211.84766716409
  21
 222.08531913375
  31
0.0
  12
 211.84766716409
  22
 221.38001121091
  32
0.0
  13
 211.84766716409
  23
 221.38001121091
  33
0.0
   0
MTEXT
   5
178
 100
AcDbEntity
   8
LEVEL001
 370
15
  62
8
 100
AcDbMText
  10
 196.34766716409
  20
 222.73266517233
  30
0.0
  40
 2.5000000000000
  41
0.0
  71
8
  72
1
   1
\A1;35
   7
GMM001
   0
ENDBLK
   5
179
 100
AcDbEntity
   8
0
 100
AcDbBlockEnd
   0
BLOCK
   5
17A
 100
AcDbEntity
   8
0
 100
AcDbBlockBegin
   2
*D17
  70
65
  10
0.0
  20
0.0
  30
0.0
   3
*D17
   0
LINE
   5
17B
 100
AcDbEntity
   8
LEVEL001
 370
15
 100
AcDbLine
   6
CONTINUOUS
  62
8
  10
 214.84766716409
  20
 229.73266517233
  30
0.0
  11
 219.98002554569
  21
 229.73266517233
  31
0.0
   0
LINE
   5
17C
 100
AcDbEntity
   8
LEVEL001
 370
15
 100
AcDbLine
   6
CONTINUOUS
  62
8
  10
 218.98002554569
  20
 222.06851203911
  30
0.0
  11
 218.98002554569
  21
 230.13266517233
  31
0.0
   0
LINE
   5
17D
 100
AcDbEntity
   8
LEVEL001
 370
15
 100
AcDbLine
   6
CONTINUOUS
  62
8
  10
 218.98002554569
  20
 230.53266517233
  30
0.0
  11
 218.98002554569
  21
 230.13266517233
  31
0.0
   0
SOLID
   5
17E
 100
AcDbEntity
   8
LEVEL001
 100
AcDbTrace
   6
CONTINUOUS
  62
8
  10
 218.98002554569
  20
 229.73266517233
  30
0.0
  11
 218.62737158428
  21
 227.73266517233
  31
0.0
  12
 219.33267950711
  22
 227.73266517233
  32
0.0
  13
 219.33267950711
  23
 227.73266517233
  33
0.0
   0
MTEXT
   5
17F
 100
AcDbEntity
   8
LEVEL001
 370
15
  62
8
 100
AcDbMText
  10
 218.11083420615
  20
 227.56851203911
  30
0.0
  40
 2.5000000000000
  41
0.0
  71
9
  72
1
   1
\A1;0.8
   7
GMM001
  11
0.0
  21
 1.0000000000000
  31
0.0
   0
ENDBLK
   5
180
 100
AcDbEntity
   8
0
 100
AcDbBlockEnd
   0
BLOCK
   5
181
 100
AcDbEntity
   8
0
 100
AcDbBlockBegin
   2
*D18
  70
65
  10
0.0
  20
0.0
  30
0.0
   3
*D18
   0
LINE
   5
182
 100
AcDbEntity
   8
LEVEL001
 370
15
 100
AcDbLine
   6
CONTINUOUS
  62
8
  10
 214.84766716409
  20
 230.53266517233
  30
0.0
  11
 219.98002554569
  21
 230.53266517233
  31
0.0
   0
LINE
   5
183
 100
AcDbEntity
   8
LEVEL001
 370
15
 100
AcDbLine
   6
CONTINUOUS
  62
8
  10
 194.44766716409
  20
 233.03266517233
  30
0.0
  11
 219.98002554569
  21
 233.03266517233
  31
0.0
   0
LINE
   5
184
 100
AcDbEntity
   8
LEVEL001
 370
15
 100
AcDbLine
   6
CONTINUOUS
  62
8
  10
 218.98002554569
  20
 230.53266517233
  30
0.0
  11
 218.98002554569
  21
 231.78266517233
  31
0.0
   0
LINE
   5
185
 100
AcDbEntity
   8
LEVEL001
 370
15
 100
AcDbLine
   6
CONTINUOUS
  62
8
  10
 218.98002554569
  20
 240.02204275550
  30
0.0
  11
 218.98002554569
  21
 231.78266517233
  31
0.0
   0
INSERT
   5
186
 100
AcDbEntity
   8
LEVEL001
   6
CONTINUOUS
  62
8
 100
AcDbBlockReference
   2
_DOT
  10
 218.98002554569
  20
 230.53266517233
  30
0.0
  41
 0.40000000000000
  42
 0.40000000000000
  43
 0.40000000000000
  50
 270.00000000000
   0
SOLID
   5
187
 100
AcDbEntity
   8
LEVEL001
 100
AcDbTrace
   6
CONTINUOUS
  62
8
  10
 218.98002554569
  20
 233.03266517233
  30
0.0
  11
 219.33267950711
  21
 235.03266517233
  31
0.0
  12
 218.62737158428
  22
 235.03266517233
  32
0.0
  13
 218.62737158428
  23
 235.03266517233
  33
0.0
   0
MTEXT
   5
188
 100
AcDbEntity
   8
LEVEL001
 370
15
  62
8
 100
AcDbMText
  10
 217.84339071705
  20
 234.52204275550
  30
0.0
  40
 2.5000000000000
  41
0.0
  71
7
  72
1
   1
\A1;2.5
   7
GMM001
  11
0.0
  21
 1.0000000000000
  31
0.0
   0
ENDBLK
   5
189
 100
AcDbEntity
   8
0
 100
AcDbBlockEnd
   0
BLOCK
   5
18A
 100
AcDbEntity
   8
0
 100
AcDbBlockBegin
   2
*D19
  70
65
  10
0.0
  20
0.0
  30
0.0
   3
*D19
   0
LINE
   5
18B
 100
AcDbEntity
   8
LEVEL001
 370
15
 100
AcDbLine
   6
CONTINUOUS
  62
8
  10
 178.64766716409
  20
 229.73266517233
  30
0.0
  11
 174.49280128324
  21
 229.73266517233
  31
0.0
   0
LINE
   5
18C
 100
AcDbEntity
   8
LEVEL001
 370
15
 100
AcDbLine
   6
CONTINUOUS
  62
8
  10
 188.24766716409
  20
 234.63266517233
  30
0.0
  11
 174.49280128324
  21
 234.63266517233
  31
0.0
   0
LINE
   5
18D
 100
AcDbEntity
   8
LEVEL001
 370
15
 100
AcDbLine
   6
CONTINUOUS
  62
8
  10
 175.49280128324
  20
 227.23266517233
  30
0.0
  11
 175.49280128324
  21
 232.18266517233
  31
0.0
   0
LINE
   5
18E
 100
AcDbEntity
   8
LEVEL001
 370
15
 100
AcDbLine
   6
CONTINUOUS
  62
8
  10
 175.49280128324
  20
 242.20337871341
  30
0.0
  11
 175.49280128324
  21
 232.18266517233
  31
0.0
   0
SOLID
   5
18F
 100
AcDbEntity
   8
LEVEL001
 100
AcDbTrace
   6
CONTINUOUS
  62
8
  10
 175.49280128324
  20
 229.73266517233
  30
0.0
  11
 175.14014732182
  21
 227.73266517233
  31
0.0
  12
 175.84545524466
  22
 227.73266517233
  32
0.0
  13
 175.84545524466
  23
 227.73266517233
  33
0.0
   0
SOLID
   5
190
 100
AcDbEntity
   8
LEVEL001
 100
AcDbTrace
   6
CONTINUOUS
  62
8
  10
 175.49280128324
  20
 234.63266517233
  30
0.0
  11
 175.84545524466
  21
 236.63266517233
  31
0.0
  12
 175.14014732182
  22
 236.63266517233
  32
0.0
  13
 175.14014732182
  23
 236.63266517233
  33
0.0
   0
MTEXT
   5
191
 100
AcDbEntity
   8
LEVEL001
 370
15
  62
8
 100
AcDbMText
  10
 174.35666151024
  20
 236.70337871341
  30
0.0
  40
 2.5000000000000
  41
0.0
  71
7
  72
1
   1
\A1;4.9
   7
GMM001
  11
0.0
  21
 1.0000000000000
  31
0.0
   0
ENDBLK
   5
192
 100
AcDbEntity
   8
0
 100
AcDbBlockEnd
   0
BLOCK
   5
193
 100
AcDbEntity
   8
0
 100
AcDbBlockBegin
   2
*D20
  70
65
  10
0.0
  20
0.0
  30
0.0
   3
*D20
   0
LINE
   5
194
 100
AcDbEntity
   8
LEVEL001
 370
15
 100
AcDbLine
   6
CONTINUOUS
  62
8
  10
 247.86856734058
  20
 224.42533007453
  30
0.0
  11
 247.86856734058
  21
 246.22533007453
  31
0.0
   0
LINE
   5
195
 100
AcDbEntity
   8
LEVEL001
 370
15
 100
AcDbLine
   6
CONTINUOUS
  62
8
  10
 247.86856734058
  20
 245.22533007453
  30
0.0
  11
 257.86856734058
  21
 245.22533007453
  31
0.0
   0
LINE
   5
196
 100
AcDbEntity
   8
LEVEL001
 370
15
 100
AcDbLine
   6
CONTINUOUS
  62
8
  10
 267.86856734058
  20
 245.22533007453
  30
0.0
  11
 257.86856734058
  21
 245.22533007453
  31
0.0
   0
SOLID
   5
197
 100
AcDbEntity
   8
LEVEL001
 100
AcDbTrace
   6
CONTINUOUS
  62
8
  10
 247.86856734058
  20
 245.22533007453
  30
0.0
  11
 249.86856734058
  21
 244.87267611311
  31
0.0
  12
 249.86856734058
  22
 245.57798403594
  32
0.0
  13
 249.86856734058
  23
 245.57798403594
  33
0.0
   0
SOLID
   5
198
 100
AcDbEntity
   8
LEVEL001
 100
AcDbTrace
   6
CONTINUOUS
  62
8
  10
 267.86856734058
  20
 245.22533007453
  30
0.0
  11
 265.86856734058
  21
 245.57798403594
  31
0.0
  12
 265.86856734058
  22
 244.87267611311
  32
0.0
  13
 265.86856734058
  23
 244.87267611311
  33
0.0
   0
MTEXT
   5
199
 100
AcDbEntity
   8
LEVEL001
 370
15
  62
8
 100
AcDbMText
  10
 257.86856734058
  20
 246.22533007453
  30
0.0
  40
 2.5000000000000
  41
0.0
  71
8
  72
1
   1
\A1;20
   7
GMM001
   0
ENDBLK
   5
19A
 100
AcDbEntity
   8
0
 100
AcDbBlockEnd
   0
BLOCK
   5
19B
 100
AcDbEntity
   8
0
 100
AcDbBlockBegin
   2
*D21
  70
65
  10
0.0
  20
0.0
  30
0.0
   3
*D21
   0
LINE
   5
19C
 100
AcDbEntity
   8
LEVEL001
 370
15
 100
AcDbLine
   6
CONTINUOUS
  62
8
  10
 267.86856734058
  20
 237.35866340786
  30
0.0
  11
 267.86856734058
  21
 246.22533007453
  31
0.0
   0
LINE
   5
19D
 100
AcDbEntity
   8
LEVEL001
 370
15
 100
AcDbLine
   6
CONTINUOUS
  62
8
  10
 287.86856734058
  20
 224.42533007453
  30
0.0
  11
 287.86856734058
  21
 246.22533007453
  31
0.0
   0
LINE
   5
19E
 100
AcDbEntity
   8
LEVEL001
 370
15
 100
AcDbLine
   6
CONTINUOUS
  62
8
  10
 267.86856734058
  20
 245.22533007453
  30
0.0
  11
 277.86856734058
  21
 245.22533007453
  31
0.0
   0
LINE
   5
19F
 100
AcDbEntity
   8
LEVEL001
 370
15
 100
AcDbLine
   6
CONTINUOUS
  62
8
  10
 287.86856734058
  20
 245.22533007453
  30
0.0
  11
 277.86856734058
  21
 245.22533007453
  31
0.0
   0
SOLID
   5
1A0
 100
AcDbEntity
   8
LEVEL001
 100
AcDbTrace
   6
CONTINUOUS
  62
8
  10
 267.86856734058
  20
 245.22533007453
  30
0.0
  11
 269.86856734058
  21
 244.87267611311
  31
0.0
  12
 269.86856734058
  22
 245.57798403594
  32
0.0
  13
 269.86856734058
  23
 245.57798403594
  33
0.0
   0
SOLID
   5
1A1
 100
AcDbEntity
   8
LEVEL001
 100
AcDbTrace
   6
CONTINUOUS
  62
8
  10
 287.86856734058
  20
 245.22533007453
  30
0.0
  11
 285.86856734058
  21
 245.57798403594
  31
0.0
  12
 285.86856734058
  22
 244.87267611311
  32
0.0
  13
 285.86856734058
  23
 244.87267611311
  33
0.0
   0
MTEXT
   5
1A2
 100
AcDbEntity
   8
LEVEL001
 370
15
  62
8
 100
AcDbMText
  10
 277.86856734058
  20
 246.22533007453
  30
0.0
  40
 2.5000000000000
  41
0.0
  71
8
  72
1
   1
\A1;20
   7
GMM001
   0
ENDBLK
   5
1A3
 100
AcDbEntity
   8
0
 100
AcDbBlockEnd
   0
BLOCK
   5
1A4
 100
AcDbEntity
   8
0
 100
AcDbBlockBegin
   2
*D22
  70
65
  10
0.0
  20
0.0
  30
0.0
   3
*D22
   0
LINE
   5
1A5
 100
AcDbEntity
   8
LEVEL001
 370
15
 100
AcDbLine
   6
CONTINUOUS
  62
8
  10
 247.77447613337
  20
 222.22533007453
  30
0.0
  11
 242.71812794503
  21
 222.22533007453
  31
0.0
   0
LINE
   5
1A6
 100
AcDbEntity
   8
LEVEL001
 370
15
 100
AcDbLine
   6
CONTINUOUS
  62
8
  10
 265.53166978261
  20
 237.22533007453
  30
0.0
  11
 242.71812794503
  21
 237.22533007453
  31
0.0
   0
LINE
   5
1A7
 100
AcDbEntity
   8
LEVEL001
 370
15
 100
AcDbLine
   6
CONTINUOUS
  62
8
  10
 243.71812794503
  20
 222.22533007453
  30
0.0
  11
 243.71812794503
  21
 229.72533007453
  31
0.0
   0
LINE
   5
1A8
 100
AcDbEntity
   8
LEVEL001
 370
15
 100
AcDbLine
   6
CONTINUOUS
  62
8
  10
 243.71812794503
  20
 237.22533007453
  30
0.0
  11
 243.71812794503
  21
 229.72533007453
  31
0.0
   0
SOLID
   5
1A9
 100
AcDbEntity
   8
LEVEL001
 100
AcDbTrace
   6
CONTINUOUS
  62
8
  10
 243.71812794503
  20
 222.22533007453
  30
0.0
  11
 244.07078190645
  21
 224.22533007453
  31
0.0
  12
 243.36547398362
  22
 224.22533007453
  32
0.0
  13
 243.36547398362
  23
 224.22533007453
  33
0.0
   0
SOLID
   5
1AA
 100
AcDbEntity
   8
LEVEL001
 100
AcDbTrace
   6
CONTINUOUS
  62
8
  10
 243.71812794503
  20
 237.22533007453
  30
0.0
  11
 243.36547398362
  21
 235.22533007453
  31
0.0
  12
 244.07078190645
  22
 235.22533007453
  32
0.0
  13
 244.07078190645
  23
 235.22533007453
  33
0.0
   0
MTEXT
   5
1AB
 100
AcDbEntity
   8
LEVEL001
 370
15
  62
8
 100
AcDbMText
  10
 242.71812794503
  20
 229.72533007453
  30
0.0
  40
 2.5000000000000
  41
0.0
  71
8
  72
1
   1
\A1;15
   7
GMM001
  11
0.0
  21
 1.0000000000000
  31
0.0
   0
ENDBLK
   5
1AC
 100
AcDbEntity
   8
0
 100
AcDbBlockEnd
   0
BLOCK
   5
1AD
 100
AcDbEntity
   8
0
 100
AcDbBlockBegin
   2
*D23
  70
65
  10
0.0
  20
0.0
  30
0.0
   3
*D23
   0
LINE
   5
1AE
 100
AcDbEntity
   8
LEVEL001
 370
15
 100
AcDbLine
   6
CONTINUOUS
  62
8
  10
 288.86856734058
  20
 222.22533007453
  30
0.0
  11
 294.17009532264
  21
 222.22533007453
  31
0.0
   0
LINE
   5
1AF
 100
AcDbEntity
   8
LEVEL001
 370
15
 100
AcDbLine
   6
CONTINUOUS
  62
8
  10
 288.86856734058
  20
 223.42533007453
  30
0.0
  11
 294.17009532264
  21
 223.42533007453
  31
0.0
   0
LINE
   5
1B0
 100
AcDbEntity
   8
LEVEL001
 370
15
 100
AcDbLine
   6
CONTINUOUS
  62
8
  10
 293.17009532264
  20
 219.72533007453
  30
0.0
  11
 293.17009532264
  21
 222.82533007453
  31
0.0
   0
LINE
   5
1B1
 100
AcDbEntity
   8
LEVEL001
 370
15
 100
AcDbLine
   6
CONTINUOUS
  62
8
  10
 293.17009532264
  20
 230.35368533286
  30
0.0
  11
 293.17009532264
  21
 222.82533007453
  31
0.0
   0
SOLID
   5
1B2
 100
AcDbEntity
   8
LEVEL001
 100
AcDbTrace
   6
CONTINUOUS
  62
8
  10
 293.17009532264
  20
 222.22533007453
  30
0.0
  11
 292.81744136122
  21
 220.22533007453
  31
0.0
  12
 293.52274928406
  22
 220.22533007453
  32
0.0
  13
 293.52274928406
  23
 220.22533007453
  33
0.0
   0
SOLID
   5
1B3
 100
AcDbEntity
   8
LEVEL001
 100
AcDbTrace
   6
CONTINUOUS
  62
8
  10
 293.17009532264
  20
 223.42533007453
  30
0.0
  11
 293.52274928406
  21
 225.42533007453
  31
0.0
  12
 292.81744136122
  22
 225.42533007453
  32
0.0
  13
 292.81744136122
  23
 225.42533007453
  33
0.0
   0
MTEXT
   5
1B4
 100
AcDbEntity
   8
LEVEL001
 370
15
  62
8
 100
AcDbMText
  10
 292.36776485536
  20
 224.85368533286
  30
0.0
  40
 2.5000000000000
  41
0.0
  71
7
  72
1
   1
\A1;1.2
   7
GMM001
  11
0.0
  21
 1.0000000000000
  31
0.0
   0
ENDBLK
   5
1B5
 100
AcDbEntity
   8
0
 100
AcDbBlockEnd
   0
BLOCK
   5
1B6
 100
AcDbEntity
   8
0
 100
AcDbBlockBegin
   2
*D24
  70
65
  10
0.0
  20
0.0
  30
0.0
   3
*D24
   0
LINE
   5
1B7
 100
AcDbEntity
   8
LEVEL001
 370
15
 100
AcDbLine
   6
CONTINUOUS
  62
8
  10
 247.86856734058
  20
 246.22533007453
  30
0.0
  11
 247.86856734058
  21
 254.22533007453
  31
0.0
   0
LINE
   5
1B8
 100
AcDbEntity
   8
LEVEL001
 370
15
 100
AcDbLine
   6
CONTINUOUS
  62
8
  10
 287.86856734058
  20
 246.22533007453
  30
0.0
  11
 287.86856734058
  21
 254.22533007453
  31
0.0
   0
LINE
   5
1B9
 100
AcDbEntity
   8
LEVEL001
 370
15
 100
AcDbLine
   6
CONTINUOUS
  62
8
  10
 247.86856734058
  20
 253.22533007453
  30
0.0
  11
 267.86856734058
  21
 253.22533007453
  31
0.0
   0
LINE
   5
1BA
 100
AcDbEntity
   8
LEVEL001
 370
15
 100
AcDbLine
   6
CONTINUOUS
  62
8
  10
 287.86856734058
  20
 253.22533007453
  30
0.0
  11
 267.86856734058
  21
 253.22533007453
  31
0.0
   0
SOLID
   5
1BB
 100
AcDbEntity
   8
LEVEL001
 100
AcDbTrace
   6
CONTINUOUS
  62
8
  10
 247.86856734058
  20
 253.22533007453
  30
0.0
  11
 249.86856734058
  21
 252.87267611311
  31
0.0
  12
 249.86856734058
  22
 253.57798403594
  32
0.0
  13
 249.86856734058
  23
 253.57798403594
  33
0.0
   0
SOLID
   5
1BC
 100
AcDbEntity
   8
LEVEL001
 100
AcDbTrace
   6
CONTINUOUS
  62
8
  10
 287.86856734058
  20
 253.22533007453
  30
0.0
  11
 285.86856734058
  21
 253.57798403594
  31
0.0
  12
 285.86856734058
  22
 252.87267611311
  32
0.0
  13
 285.86856734058
  23
 252.87267611311
  33
0.0
   0
MTEXT
   5
1BD
 100
AcDbEntity
   8
LEVEL001
 370
15
  62
8
 100
AcDbMText
  10
 267.86856734058
  20
 254.22533007453
  30
0.0
  40
 2.5000000000000
  41
0.0
  71
8
  72
1
   1
\A1;40
   7
GMM001
   0
ENDBLK
   5
1BE
 100
AcDbEntity
   8
0
 100
AcDbBlockEnd
   0
BLOCK
   5
1BF
 100
AcDbEntity
   8
0
 100
AcDbBlockBegin
   2
*D25
  70
65
  10
0.0
  20
0.0
  30
0.0
   3
*D25
   0
LINE
   5
1C0
 100
AcDbEntity
   8
LEVEL001
 370
15
 100
AcDbLine
   6
CONTINUOUS
  62
8
  10
 110.87499999995
  20
 99.572612294090
  30
0.0
  11
 110.87499999995
  21
 108.32261229409
  31
0.0
   0
LINE
   5
1C1
 100
AcDbEntity
   8
LEVEL001
 370
15
 100
AcDbLine
   6
CONTINUOUS
  62
8
  10
 117.87499999995
  20
 100.65594562742
  30
0.0
  11
 117.87499999995
  21
 108.32261229409
  31
0.0
   0
LINE
   5
1C2
 100
AcDbEntity
   8
LEVEL001
 370
15
 100
AcDbLine
   6
CONTINUOUS
  62
8
  10
 110.87499999995
  20
 107.32261229409
  30
0.0
  11
 114.37499999995
  21
 107.32261229409
  31
0.0
   0
LINE
   5
1C3
 100
AcDbEntity
   8
LEVEL001
 370
15
 100
AcDbLine
   6
CONTINUOUS
  62
8
  10
 117.87499999995
  20
 107.32261229409
  30
0.0
  11
 114.37499999995
  21
 107.32261229409
  31
0.0
   0
SOLID
   5
1C4
 100
AcDbEntity
   8
LEVEL001
 100
AcDbTrace
   6
CONTINUOUS
  62
8
  10
 110.87499999995
  20
 107.32261229409
  30
0.0
  11
 112.87499999995
  21
 106.96995833267
  31
0.0
  12
 112.87499999995
  22
 107.67526625551
  32
0.0
  13
 112.87499999995
  23
 107.67526625551
  33
0.0
   0
SOLID
   5
1C5
 100
AcDbEntity
   8
LEVEL001
 100
AcDbTrace
   6
CONTINUOUS
  62
8
  10
 117.87499999995
  20
 107.32261229409
  30
0.0
  11
 115.87499999995
  21
 107.67526625551
  31
0.0
  12
 115.87499999995
  22
 106.96995833267
  32
0.0
  13
 115.87499999995
  23
 106.96995833267
  33
0.0
   0
MTEXT
   5
1C6
 100
AcDbEntity
   8
LEVEL001
 370
15
  62
8
 100
AcDbMText
  10
 114.37499999995
  20
 108.32261229409
  30
0.0
  40
 2.5000000000000
  41
0.0
  71
8
  72
1
   1
\A1;7
   7
GMM001
   0
ENDBLK
   5
1C7
 100
AcDbEntity
   8
0
 100
AcDbBlockEnd
   0
BLOCK
   5
1C8
 100
AcDbEntity
   8
0
 100
AcDbBlockBegin
   2
*D26
  70
65
  10
0.0
  20
0.0
  30
0.0
   3
*D26
   0
LINE
   5
1C9
 100
AcDbEntity
   8
LEVEL001
 370
15
 100
AcDbLine
   6
CONTINUOUS
  62
8
  10
 110.62499999995
  20
 95.322612294090
  30
0.0
  11
 105.14022158427
  21
 95.322612294090
  31
0.0
   0
LINE
   5
1CA
 100
AcDbEntity
   8
LEVEL001
 370
15
 100
AcDbLine
   6
CONTINUOUS
  62
8
  10
 110.62499999995
  20
 99.322612294090
  30
0.0
  11
 105.14022158427
  21
 99.322612294090
  31
0.0
   0
LINE
   5
1CB
 100
AcDbEntity
   8
LEVEL001
 370
15
 100
AcDbLine
   6
CONTINUOUS
  62
8
  10
 106.14022158427
  20
 92.822612294090
  30
0.0
  11
 106.14022158427
  21
 97.322612294090
  31
0.0
   0
LINE
   5
1CC
 100
AcDbEntity
   8
LEVEL001
 370
15
 100
AcDbLine
   6
CONTINUOUS
  62
8
  10
 106.14022158427
  20
 101.82261229409
  30
0.0
  11
 106.14022158427
  21
 97.322612294090
  31
0.0
   0
SOLID
   5
1CD
 100
AcDbEntity
   8
LEVEL001
 100
AcDbTrace
   6
CONTINUOUS
  62
8
  10
 106.14022158427
  20
 95.322612294090
  30
0.0
  11
 105.78756762285
  21
 93.322612294090
  31
0.0
  12
 106.49287554569
  22
 93.322612294090
  32
0.0
  13
 106.49287554569
  23
 93.322612294090
  33
0.0
   0
SOLID
   5
1CE
 100
AcDbEntity
   8
LEVEL001
 100
AcDbTrace
   6
CONTINUOUS
  62
8
  10
 106.14022158427
  20
 99.322612294090
  30
0.0
  11
 106.49287554569
  21
 101.32261229409
  31
0.0
  12
 105.78756762285
  22
 101.32261229409
  32
0.0
  13
 105.78756762285
  23
 101.32261229409
  33
0.0
   0
MTEXT
   5
1CF
 100
AcDbEntity
   8
LEVEL001
 370
15
  62
8
 100
AcDbMText
  10
 105.14022158427
  20
 97.322612294090
  30
0.0
  40
 2.5000000000000
  41
0.0
  71
8
  72
1
   1
\A1;4
   7
GMM001
  11
0.0
  21
 1.0000000000000
  31
0.0
   0
ENDBLK
   5
1D0
 100
AcDbEntity
   8
0
 100
AcDbBlockEnd
   0
BLOCK
   5
1D1
 100
AcDbEntity
   8
0
 100
AcDbBlockBegin
   2
*D27
  70
65
  10
0.0
  20
0.0
  30
0.0
   3
*D27
   0
LINE
   5
1D2
 100
AcDbEntity
   8
LEVEL001
 370
15
 100
AcDbLine
   6
CONTINUOUS
  62
8
  10
 137.87499999995
  20
 95.322612294090
  30
0.0
  11
 142.09894933736
  21
 95.322612294090
  31
0.0
   0
LINE
   5
1D3
 100
AcDbEntity
   8
LEVEL001
 370
15
 100
AcDbLine
   6
CONTINUOUS
  62
8
  10
 141.09894933736
  20
 88.481633221278
  30
0.0
  11
 141.09894933736
  21
 95.722612294090
  31
0.0
   0
LINE
   5
1D4
 100
AcDbEntity
   8
LEVEL001
 370
15
 100
AcDbLine
   6
CONTINUOUS
  62
8
  10
 141.09894933736
  20
 96.122612294090
  30
0.0
  11
 141.09894933736
  21
 95.722612294090
  31
0.0
   0
SOLID
   5
1D5
 100
AcDbEntity
   8
LEVEL001
 100
AcDbTrace
   6
CONTINUOUS
  62
8
  10
 141.09894933736
  20
 95.322612294090
  30
0.0
  11
 140.74629537594
  21
 93.322612294090
  31
0.0
  12
 141.45160329877
  22
 93.322612294090
  32
0.0
  13
 141.45160329877
  23
 93.322612294090
  33
0.0
   0
MTEXT
   5
1D6
 100
AcDbEntity
   8
LEVEL001
 370
15
  62
8
 100
AcDbMText
  10
 140.32726343654
  20
 93.981633221278
  30
0.0
  40
 2.5000000000000
  41
0.0
  71
9
  72
1
   1
\A1;0.8
   7
GMM001
  11
0.0
  21
 1.0000000000000
  31
0.0
   0
ENDBLK
   5
1D7
 100
AcDbEntity
   8
0
 100
AcDbBlockEnd
   0
BLOCK
   5
1D8
 100
AcDbEntity
   8
0
 100
AcDbBlockBegin
   2
*D28
  70
65
  10
0.0
  20
0.0
  30
0.0
   3
*D28
   0
LINE
   5
1D9
 100
AcDbEntity
   8
LEVEL001
 370
15
 100
AcDbLine
   6
CONTINUOUS
  62
8
  10
 137.87499999995
  20
 96.122612294090
  30
0.0
  11
 142.09894933736
  21
 96.122612294090
  31
0.0
   0
LINE
   5
1DA
 100
AcDbEntity
   8
LEVEL001
 370
15
 100
AcDbLine
   6
CONTINUOUS
  62
8
  10
 118.87499999995
  20
 98.522612294090
  30
0.0
  11
 142.09894933736
  21
 98.522612294090
  31
0.0
   0
LINE
   5
1DB
 100
AcDbEntity
   8
LEVEL001
 370
15
 100
AcDbLine
   6
CONTINUOUS
  62
8
  10
 141.09894933736
  20
 96.122612294090
  30
0.0
  11
 141.09894933736
  21
 97.322612294090
  31
0.0
   0
LINE
   5
1DC
 100
AcDbEntity
   8
LEVEL001
 370
15
 100
AcDbLine
   6
CONTINUOUS
  62
8
  10
 141.09894933736
  20
 105.43225085358
  30
0.0
  11
 141.09894933736
  21
 97.322612294090
  31
0.0
   0
INSERT
   5
1DD
 100
AcDbEntity
   8
LEVEL001
   6
CONTINUOUS
  62
8
 100
AcDbBlockReference
   2
_DOT
  10
 141.09894933736
  20
 96.122612294090
  30
0.0
  41
 0.40000000000000
  42
 0.40000000000000
  43
 0.40000000000000
  50
 270.00000000000
   0
SOLID
   5
1DE
 100
AcDbEntity
   8
LEVEL001
 100
AcDbTrace
   6
CONTINUOUS
  62
8
  10
 141.09894933736
  20
 98.522612294090
  30
0.0
  11
 141.45160329877
  21
 100.52261229409
  31
0.0
  12
 140.74629537594
  22
 100.52261229409
  32
0.0
  13
 140.74629537594
  23
 100.52261229409
  33
0.0
   0
MTEXT
   5
1DF
 100
AcDbEntity
   8
LEVEL001
 370
15
  62
8
 100
AcDbMText
  10
 139.85923733063
  20
 99.932250853575
  30
0.0
  40
 2.5000000000000
  41
0.0
  71
7
  72
1
   1
\A1;2.4
   7
GMM001
  11
0.0
  21
 1.0000000000000
  31
0.0
   0
ENDBLK
   5
1E0
 100
AcDbEntity
   8
0
 100
AcDbBlockEnd
   0
BLOCK
   5
1E1
 100
AcDbEntity
   8
0
 100
AcDbBlockBegin
   2
*D29
  70
65
  10
0.0
  20
0.0
  30
0.0
   3
*D29
   0
LINE
   5
1E2
 100
AcDbEntity
   8
LEVEL001
 370
15
 100
AcDbLine
   6
CONTINUOUS
  62
8
  10
 110.87499999995
  20
 95.072612294090
  30
0.0
  11
 110.87499999995
  21
 87.306359604206
  31
0.0
   0
LINE
   5
1E3
 100
AcDbEntity
   8
LEVEL001
 370
15
 100
AcDbLine
   6
CONTINUOUS
  62
8
  10
 136.87499999995
  20
 94.322612294090
  30
0.0
  11
 136.87499999995
  21
 87.306359604206
  31
0.0
   0
LINE
   5
1E4
 100
AcDbEntity
   8
LEVEL001
 370
15
 100
AcDbLine
   6
CONTINUOUS
  62
8
  10
 110.87499999995
  20
 88.306359604206
  30
0.0
  11
 123.87499999995
  21
 88.306359604206
  31
0.0
   0
LINE
   5
1E5
 100
AcDbEntity
   8
LEVEL001
 370
15
 100
AcDbLine
   6
CONTINUOUS
  62
8
  10
 136.87499999995
  20
 88.306359604206
  30
0.0
  11
 123.87499999995
  21
 88.306359604206
  31
0.0
   0
SOLID
   5
1E6
 100
AcDbEntity
   8
LEVEL001
 100
AcDbTrace
   6
CONTINUOUS
  62
8
  10
 110.87499999995
  20
 88.306359604206
  30
0.0
  11
 112.87499999995
  21
 87.953705642790
  31
0.0
  12
 112.87499999995
  22
 88.659013565623
  32
0.0
  13
 112.87499999995
  23
 88.659013565623
  33
0.0
   0
SOLID
   5
1E7
 100
AcDbEntity
   8
LEVEL001
 100
AcDbTrace
   6
CONTINUOUS
  62
8
  10
 136.87499999995
  20
 88.306359604206
  30
0.0
  11
 134.87499999995
  21
 88.659013565623
  31
0.0
  12
 134.87499999995
  22
 87.953705642790
  32
0.0
  13
 134.87499999995
  23
 87.953705642790
  33
0.0
   0
MTEXT
   5
1E8
 100
AcDbEntity
   8
LEVEL001
 370
15
  62
8
 100
AcDbMText
  10
 123.87499999995
  20
 89.306359604206
  30
0.0
  40
 2.5000000000000
  41
0.0
  71
8
  72
1
   1
\A1;26
   7
GMM001
   0
ENDBLK
   5
1E9
 100
AcDbEntity
   8
0
 100
AcDbBlockEnd
   0
BLOCK
   5
1EA
 100
AcDbEntity
   8
0
 100
AcDbBlockBegin
   2
*D30
  70
65
  10
0.0
  20
0.0
  30
0.0
   3
*D30
   0
LINE
   5
1EB
 100
AcDbEntity
   8
LEVEL001
 370
15
 100
AcDbLine
   6
CONTINUOUS
  62
8
  10
 42.991185701295
  20
 99.593521559866
  30
0.0
  11
 42.991185701295
  21
 107.29782332004
  31
0.0
   0
LINE
   5
1EC
 100
AcDbEntity
   8
LEVEL001
 370
15
 100
AcDbLine
   6
CONTINUOUS
  62
8
  10
 61.991185701295
  20
 101.09352155987
  30
0.0
  11
 61.991185701295
  21
 107.29782332004
  31
0.0
   0
LINE
   5
1ED
 100
AcDbEntity
   8
LEVEL001
 370
15
 100
AcDbLine
   6
CONTINUOUS
  62
8
  10
 42.991185701295
  20
 106.29782332004
  30
0.0
  11
 52.491185701295
  21
 106.29782332004
  31
0.0
   0
LINE
   5
1EE
 100
AcDbEntity
   8
LEVEL001
 370
15
 100
AcDbLine
   6
CONTINUOUS
  62
8
  10
 61.991185701295
  20
 106.29782332004
  30
0.0
  11
 52.491185701295
  21
 106.29782332004
  31
0.0
   0
SOLID
   5
1EF
 100
AcDbEntity
   8
LEVEL001
 100
AcDbTrace
   6
CONTINUOUS
  62
8
  10
 42.991185701295
  20
 106.29782332004
  30
0.0
  11
 44.991185701295
  21
 105.94516935862
  31
0.0
  12
 44.991185701295
  22
 106.65047728146
  32
0.0
  13
 44.991185701295
  23
 106.65047728146
  33
0.0
   0
SOLID
   5
1F0
 100
AcDbEntity
   8
LEVEL001
 100
AcDbTrace
   6
CONTINUOUS
  62
8
  10
 61.991185701295
  20
 106.29782332004
  30
0.0
  11
 59.991185701295
  21
 106.65047728146
  31
0.0
  12
 59.991185701295
  22
 105.94516935862
  32
0.0
  13
 59.991185701295
  23
 105.94516935862
  33
0.0
   0
MTEXT
   5
1F1
 100
AcDbEntity
   8
LEVEL001
 370
15
  62
8
 100
AcDbMText
  10
 52.491185701295
  20
 107.29782332004
  30
0.0
  40
 2.5000000000000
  41
0.0
  71
8
  72
1
   1
\A1;19
   7
GMM001
   0
ENDBLK
   5
1F2
 100
AcDbEntity
   8
0
 100
AcDbBlockEnd
   0
BLOCK
   5
1F3
 100
AcDbEntity
   8
0
 100
AcDbBlockBegin
   2
*D31
  70
65
  10
0.0
  20
0.0
  30
0.0
   3
*D31
   0
LINE
   5
1F4
 100
AcDbEntity
   8
LEVEL001
 370
15
 100
AcDbLine
   6
CONTINUOUS
  62
8
  10
 62.991185701295
  20
 100.09352155987
  30
0.0
  11
 67.945737733017
  21
 100.09352155987
  31
0.0
   0
LINE
   5
1F5
 100
AcDbEntity
   8
LEVEL001
 370
15
 100
AcDbLine
   6
CONTINUOUS
  62
8
  10
 63.191185701295
  20
 98.893521559866
  30
0.0
  11
 67.945737733017
  21
 98.893521559866
  31
0.0
   0
LINE
   5
1F6
 100
AcDbEntity
   8
LEVEL001
 370
15
 100
AcDbLine
   6
CONTINUOUS
  62
8
  10
 66.945737733017
  20
 102.59352155987
  30
0.0
  11
 66.945737733017
  21
 99.493521559866
  31
0.0
   0
LINE
   5
1F7
 100
AcDbEntity
   8
LEVEL001
 370
15
 100
AcDbLine
   6
CONTINUOUS
  62
8
  10
 66.945737733017
  20
 91.512519683126
  30
0.0
  11
 66.945737733017
  21
 99.493521559866
  31
0.0
   0
SOLID
   5
1F8
 100
AcDbEntity
   8
LEVEL001
 100
AcDbTrace
   6
CONTINUOUS
  62
8
  10
 66.945737733017
  20
 100.09352155987
  30
0.0
  11
 67.298391694434
  21
 102.09352155987
  31
0.0
  12
 66.593083771600
  22
 102.09352155987
  32
0.0
  13
 66.593083771600
  23
 102.09352155987
  33
0.0
   0
SOLID
   5
1F9
 100
AcDbEntity
   8
LEVEL001
 100
AcDbTrace
   6
CONTINUOUS
  62
8
  10
 66.945737733017
  20
 98.893521559866
  30
0.0
  11
 66.593083771600
  21
 96.893521559866
  31
0.0
  12
 67.298391694434
  22
 96.893521559866
  32
0.0
  13
 67.298391694434
  23
 96.893521559866
  33
0.0
   0
MTEXT
   5
1FA
 100
AcDbEntity
   8
LEVEL001
 370
15
  62
8
 100
AcDbMText
  10
 66.143407265741
  20
 97.012519683126
  30
0.0
  40
 2.5000000000000
  41
0.0
  71
9
  72
1
   1
\A1;1.2
   7
GMM001
  11
0.0
  21
 1.0000000000000
  31
0.0
   0
ENDBLK
   5
1FB
 100
AcDbEntity
   8
0
 100
AcDbBlockEnd
   0
BLOCK
   5
1FC
 100
AcDbEntity
   8
0
 100
AcDbBlockBegin
   2
*D32
  70
65
  10
0.0
  20
0.0
  30
0.0
   3
*D32
   0
LINE
   5
1FD
 100
AcDbEntity
   8
LEVEL001
 370
15
 100
AcDbLine
   6
CONTINUOUS
  62
8
  10
 41.991185701295
  20
 96.593521559866
  30
0.0
  11
 37.150988740780
  21
 96.593521559866
  31
0.0
   0
LINE
   5
1FE
 100
AcDbEntity
   8
LEVEL001
 370
15
 100
AcDbLine
   6
CONTINUOUS
  62
8
  10
 43.491185701295
  20
 100.09352155987
  30
0.0
  11
 37.150988740780
  21
 100.09352155987
  31
0.0
   0
LINE
   5
1FF
 100
AcDbEntity
   8
LEVEL001
 370
15
 100
AcDbLine
   6
CONTINUOUS
  62
8
  10
 38.150988740780
  20
 94.093521559866
  30
0.0
  11
 38.150988740780
  21
 98.343521559866
  31
0.0
   0
LINE
   5
200
 100
AcDbEntity
   8
LEVEL001
 370
15
 100
AcDbLine
   6
CONTINUOUS
  62
8
  10
 38.150988740780
  20
 107.20949596030
  30
0.0
  11
 38.150988740780
  21
 98.343521559866
  31
0.0
   0
SOLID
   5
201
 100
AcDbEntity
   8
LEVEL001
 100
AcDbTrace
   6
CONTINUOUS
  62
8
  10
 38.150988740780
  20
 96.593521559866
  30
0.0
  11
 37.798334779363
  21
 94.593521559866
  31
0.0
  12
 38.503642702197
  22
 94.593521559866
  32
0.0
  13
 38.503642702197
  23
 94.593521559866
  33
0.0
   0
SOLID
   5
202
 100
AcDbEntity
   8
LEVEL001
 100
AcDbTrace
   6
CONTINUOUS
  62
8
  10
 38.150988740780
  20
 100.09352155987
  30
0.0
  11
 38.503642702197
  21
 102.09352155987
  31
0.0
  12
 37.798334779363
  22
 102.09352155987
  32
0.0
  13
 37.798334779363
  23
 102.09352155987
  33
0.0
   0
MTEXT
   5
203
 100
AcDbEntity
   8
LEVEL001
 370
15
  62
8
 100
AcDbMText
  10
 37.139718047651
  20
 101.70949596030
  30
0.0
  40
 2.5000000000000
  41
0.0
  71
7
  72
1
   1
\A1;3.5
   7
GMM001
  11
0.0
  21
 1.0000000000000
  31
0.0
   0
ENDBLK
   5
204
 100
AcDbEntity
   8
0
 100
AcDbBlockEnd
   0
BLOCK
   5
205
 100
AcDbEntity
   8
0
 100
AcDbBlockBegin
   2
*D33
  70
65
  10
0.0
  20
0.0
  30
0.0
   3
*D33
   0
LINE
   5
206
 100
AcDbEntity
   8
LEVEL001
 370
15
 100
AcDbLine
   6
CONTINUOUS
  62
8
  10
 180.84715098223
  20
 100.27261229409
  30
0.0
  11
 180.84715098223
  21
 108.32261229409
  31
0.0
   0
LINE
   5
207
 100
AcDbEntity
   8
LEVEL001
 370
15
 100
AcDbLine
   6
CONTINUOUS
  62
8
  10
 187.84715098223
  20
 101.02261229409
  30
0.0
  11
 187.84715098223
  21
 108.32261229409
  31
0.0
   0
LINE
   5
208
 100
AcDbEntity
   8
LEVEL001
 370
15
 100
AcDbLine
   6
CONTINUOUS
  62
8
  10
 180.84715098223
  20
 107.32261229409
  30
0.0
  11
 184.34715098223
  21
 107.32261229409
  31
0.0
   0
LINE
   5
209
 100
AcDbEntity
   8
LEVEL001
 370
15
 100
AcDbLine
   6
CONTINUOUS
  62
8
  10
 187.84715098223
  20
 107.32261229409
  30
0.0
  11
 184.34715098223
  21
 107.32261229409
  31
0.0
   0
SOLID
   5
20A
 100
AcDbEntity
   8
LEVEL001
 100
AcDbTrace
   6
CONTINUOUS
  62
8
  10
 180.84715098223
  20
 107.32261229409
  30
0.0
  11
 182.84715098223
  21
 106.96995833267
  31
0.0
  12
 182.84715098223
  22
 107.67526625551
  32
0.0
  13
 182.84715098223
  23
 107.67526625551
  33
0.0
   0
SOLID
   5
20B
 100
AcDbEntity
   8
LEVEL001
 100
AcDbTrace
   6
CONTINUOUS
  62
8
  10
 187.84715098223
  20
 107.32261229409
  30
0.0
  11
 185.84715098223
  21
 107.67526625551
  31
0.0
  12
 185.84715098223
  22
 106.96995833267
  32
0.0
  13
 185.84715098223
  23
 106.96995833267
  33
0.0
   0
MTEXT
   5
20C
 100
AcDbEntity
   8
LEVEL001
 370
15
  62
8
 100
AcDbMText
  10
 184.34715098223
  20
 108.32261229409
  30
0.0
  40
 2.5000000000000
  41
0.0
  71
8
  72
1
   1
\A1;7
   7
GMM001
   0
ENDBLK
   5
20D
 100
AcDbEntity
   8
0
 100
AcDbBlockEnd
   0
BLOCK
   5
20E
 100
AcDbEntity
   8
0
 100
AcDbBlockBegin
   2
*D34
  70
65
  10
0.0
  20
0.0
  30
0.0
   3
*D34
   0
LINE
   5
20F
 100
AcDbEntity
   8
LEVEL001
 370
15
 100
AcDbLine
   6
CONTINUOUS
  62
8
  10
 180.84715098223
  20
 95.072612294090
  30
0.0
  11
 180.84715098223
  21
 88.288313398052
  31
0.0
   0
LINE
   5
210
 100
AcDbEntity
   8
LEVEL001
 370
15
 100
AcDbLine
   6
CONTINUOUS
  62
8
  10
 206.84715098224
  20
 94.945148993733
  30
0.0
  11
 206.84715098224
  21
 88.288313398052
  31
0.0
   0
LINE
   5
211
 100
AcDbEntity
   8
LEVEL001
 370
15
 100
AcDbLine
   6
CONTINUOUS
  62
8
  10
 180.84715098223
  20
 89.288313398052
  30
0.0
  11
 193.84715098224
  21
 89.288313398052
  31
0.0
   0
LINE
   5
212
 100
AcDbEntity
   8
LEVEL001
 370
15
 100
AcDbLine
   6
CONTINUOUS
  62
8
  10
 206.84715098224
  20
 89.288313398052
  30
0.0
  11
 193.84715098224
  21
 89.288313398052
  31
0.0
   0
SOLID
   5
213
 100
AcDbEntity
   8
LEVEL001
 100
AcDbTrace
   6
CONTINUOUS
  62
8
  10
 180.84715098223
  20
 89.288313398052
  30
0.0
  11
 182.84715098223
  21
 88.935659436635
  31
0.0
  12
 182.84715098223
  22
 89.640967359469
  32
0.0
  13
 182.84715098223
  23
 89.640967359469
  33
0.0
   0
SOLID
   5
214
 100
AcDbEntity
   8
LEVEL001
 100
AcDbTrace
   6
CONTINUOUS
  62
8
  10
 206.84715098224
  20
 89.288313398052
  30
0.0
  11
 204.84715098224
  21
 89.640967359469
  31
0.0
  12
 204.84715098224
  22
 88.935659436635
  32
0.0
  13
 204.84715098224
  23
 88.935659436635
  33
0.0
   0
MTEXT
   5
215
 100
AcDbEntity
   8
LEVEL001
 370
15
  62
8
 100
AcDbMText
  10
 193.84715098224
  20
 90.288313398052
  30
0.0
  40
 2.5000000000000
  41
0.0
  71
8
  72
1
   1
\A1;26
   7
GMM001
   0
ENDBLK
   5
216
 100
AcDbEntity
   8
0
 100
AcDbBlockEnd
   0
BLOCK
   5
217
 100
AcDbEntity
   8
0
 100
AcDbBlockBegin
   2
*D35
  70
65
  10
0.0
  20
0.0
  30
0.0
   3
*D35
   0
LINE
   5
218
 100
AcDbEntity
   8
LEVEL001
 370
15
 100
AcDbLine
   6
CONTINUOUS
  62
8
  10
 180.59715098224
  20
 95.322612294090
  30
0.0
  11
 176.82694411123
  21
 95.322612294090
  31
0.0
   0
LINE
   5
219
 100
AcDbEntity
   8
LEVEL001
 370
15
 100
AcDbLine
   6
CONTINUOUS
  62
8
  10
 180.59715098223
  20
 100.02261229409
  30
0.0
  11
 176.82694411123
  21
 100.02261229409
  31
0.0
   0
LINE
   5
21A
 100
AcDbEntity
   8
LEVEL001
 370
15
 100
AcDbLine
   6
CONTINUOUS
  62
8
  10
 177.82694411123
  20
 92.822612294090
  30
0.0
  11
 177.82694411123
  21
 97.672612294091
  31
0.0
   0
LINE
   5
21B
 100
AcDbEntity
   8
LEVEL001
 370
15
 100
AcDbLine
   6
CONTINUOUS
  62
8
  10
 177.82694411123
  20
 102.52261229409
  30
0.0
  11
 177.82694411123
  21
 97.672612294091
  31
0.0
   0
SOLID
   5
21C
 100
AcDbEntity
   8
LEVEL001
 100
AcDbTrace
   6
CONTINUOUS
  62
8
  10
 177.82694411123
  20
 95.322612294090
  30
0.0
  11
 177.47429014981
  21
 93.322612294090
  31
0.0
  12
 178.17959807264
  22
 93.322612294090
  32
0.0
  13
 178.17959807264
  23
 93.322612294090
  33
0.0
   0
SOLID
   5
21D
 100
AcDbEntity
   8
LEVEL001
 100
AcDbTrace
   6
CONTINUOUS
  62
8
  10
 177.82694411123
  20
 100.02261229409
  30
0.0
  11
 178.17959807264
  21
 102.02261229409
  31
0.0
  12
 177.47429014981
  22
 102.02261229409
  32
0.0
  13
 177.47429014981
  23
 102.02261229409
  33
0.0
   0
MTEXT
   5
21E
 100
AcDbEntity
   8
LEVEL001
 370
15
  62
8
 100
AcDbMText
  10
 176.82694411123
  20
 97.672612294091
  30
0.0
  40
 2.5000000000000
  41
0.0
  71
8
  72
1
   1
\A1;4.7
   7
GMM001
  11
0.0
  21
 1.0000000000000
  31
0.0
   0
ENDBLK
   5
21F
 100
AcDbEntity
   8
0
 100
AcDbBlockEnd
   0
BLOCK
   5
220
 100
AcDbEntity
   8
0
 100
AcDbBlockBegin
   2
*D36
  70
65
  10
0.0
  20
0.0
  30
0.0
   3
*D36
   0
LINE
   5
221
 100
AcDbEntity
   8
LEVEL001
 370
15
 100
AcDbLine
   6
CONTINUOUS
  62
8
  10
 207.84715098224
  20
 95.322612294090
  30
0.0
  11
 213.07642593307
  21
 95.322612294090
  31
0.0
   0
LINE
   5
222
 100
AcDbEntity
   8
LEVEL001
 370
15
 100
AcDbLine
   6
CONTINUOUS
  62
8
  10
 212.07642593307
  20
 88.589759788157
  30
0.0
  11
 212.07642593307
  21
 95.722612294090
  31
0.0
   0
LINE
   5
223
 100
AcDbEntity
   8
LEVEL001
 370
15
 100
AcDbLine
   6
CONTINUOUS
  62
8
  10
 212.07642593307
  20
 96.122612294090
  30
0.0
  11
 212.07642593307
  21
 95.722612294090
  31
0.0
   0
SOLID
   5
224
 100
AcDbEntity
   8
LEVEL001
 100
AcDbTrace
   6
CONTINUOUS
  62
8
  10
 212.07642593307
  20
 95.322612294090
  30
0.0
  11
 211.72377197165
  21
 93.322612294090
  31
0.0
  12
 212.42907989449
  22
 93.322612294090
  32
0.0
  13
 212.42907989449
  23
 93.322612294090
  33
0.0
   0
MTEXT
   5
225
 100
AcDbEntity
   8
LEVEL001
 370
15
  62
8
 100
AcDbMText
  10
 211.17380415739
  20
 94.089759788157
  30
0.0
  40
 2.5000000000000
  41
0.0
  71
9
  72
1
   1
\A1;0.8
   7
GMM001
  11
0.0
  21
 1.0000000000000
  31
0.0
   0
ENDBLK
   5
226
 100
AcDbEntity
   8
0
 100
AcDbBlockEnd
   0
BLOCK
   5
227
 100
AcDbEntity
   8
0
 100
AcDbBlockBegin
   2
*D37
  70
65
  10
0.0
  20
0.0
  30
0.0
   3
*D37
   0
LINE
   5
228
 100
AcDbEntity
   8
LEVEL001
 370
15
 100
AcDbLine
   6
CONTINUOUS
  62
8
  10
 207.84715098224
  20
 96.122612294090
  30
0.0
  11
 213.07642593307
  21
 96.122612294090
  31
0.0
   0
LINE
   5
229
 100
AcDbEntity
   8
LEVEL001
 370
15
 100
AcDbLine
   6
CONTINUOUS
  62
8
  10
 188.84715098223
  20
 99.222612294090
  30
0.0
  11
 213.07642593307
  21
 99.222612294090
  31
0.0
   0
LINE
   5
22A
 100
AcDbEntity
   8
LEVEL001
 370
15
 100
AcDbLine
   6
CONTINUOUS
  62
8
  10
 212.07642593307
  20
 96.122612294090
  30
0.0
  11
 212.07642593307
  21
 97.672612294090
  31
0.0
   0
LINE
   5
22B
 100
AcDbEntity
   8
LEVEL001
 370
15
 100
AcDbLine
   6
CONTINUOUS
  62
8
  10
 212.07642593307
  20
 105.67409916500
  30
0.0
  11
 212.07642593307
  21
 97.672612294090
  31
0.0
   0
INSERT
   5
22C
 100
AcDbEntity
   8
LEVEL001
   6
CONTINUOUS
  62
8
 100
AcDbBlockReference
   2
_DOT
  10
 212.07642593307
  20
 96.122612294090
  30
0.0
  41
 0.40000000000000
  42
 0.40000000000000
  43
 0.40000000000000
  50
 270.00000000000
   0
SOLID
   5
22D
 100
AcDbEntity
   8
LEVEL001
 100
AcDbTrace
   6
CONTINUOUS
  62
8
  10
 212.07642593307
  20
 99.222612294090
  30
0.0
  11
 212.42907989449
  21
 101.22261229409
  31
0.0
  12
 211.72377197165
  22
 101.22261229409
  32
0.0
  13
 211.72377197165
  23
 101.22261229409
  33
0.0
   0
MTEXT
   5
22E
 100
AcDbEntity
   8
LEVEL001
 370
15
  62
8
 100
AcDbMText
  10
 210.93979110443
  20
 100.17409916500
  30
0.0
  40
 2.5000000000000
  41
0.0
  71
7
  72
1
   1
\A1;3.1
   7
GMM001
  11
0.0
  21
 1.0000000000000
  31
0.0
   0
ENDBLK
   5
22F
 100
AcDbEntity
   8
0
 100
AcDbBlockEnd
   0
BLOCK
   5
230
 100
AcDbEntity
   8
0
 100
AcDbBlockBegin
   2
*D38
  70
65
  10
0.0
  20
0.0
  30
0.0
   3
*D38
   0
LINE
   5
231
 100
AcDbEntity
   8
LEVEL001
 370
15
 100
AcDbLine
   6
CONTINUOUS
  62
8
  10
 251.01246249166
  20
 95.072612294090
  30
0.0
  11
 251.01246249166
  21
 88.288313398052
  31
0.0
   0
LINE
   5
232
 100
AcDbEntity
   8
LEVEL001
 370
15
 100
AcDbLine
   6
CONTINUOUS
  62
8
  10
 277.01246249166
  20
 94.322612294090
  30
0.0
  11
 277.01246249166
  21
 88.288313398052
  31
0.0
   0
LINE
   5
233
 100
AcDbEntity
   8
LEVEL001
 370
15
 100
AcDbLine
   6
CONTINUOUS
  62
8
  10
 251.01246249166
  20
 89.288313398052
  30
0.0
  11
 264.01246249166
  21
 89.288313398052
  31
0.0
   0
LINE
   5
234
 100
AcDbEntity
   8
LEVEL001
 370
15
 100
AcDbLine
   6
CONTINUOUS
  62
8
  10
 277.01246249166
  20
 89.288313398052
  30
0.0
  11
 264.01246249166
  21
 89.288313398052
  31
0.0
   0
SOLID
   5
235
 100
AcDbEntity
   8
LEVEL001
 100
AcDbTrace
   6
CONTINUOUS
  62
8
  10
 251.01246249166
  20
 89.288313398052
  30
0.0
  11
 253.01246249166
  21
 88.935659436635
  31
0.0
  12
 253.01246249166
  22
 89.640967359469
  32
0.0
  13
 253.01246249166
  23
 89.640967359469
  33
0.0
   0
SOLID
   5
236
 100
AcDbEntity
   8
LEVEL001
 100
AcDbTrace
   6
CONTINUOUS
  62
8
  10
 277.01246249166
  20
 89.288313398052
  30
0.0
  11
 275.01246249166
  21
 89.640967359469
  31
0.0
  12
 275.01246249166
  22
 88.935659436635
  32
0.0
  13
 275.01246249166
  23
 88.935659436635
  33
0.0
   0
MTEXT
   5
237
 100
AcDbEntity
   8
LEVEL001
 370
15
  62
8
 100
AcDbMText
  10
 264.01246249166
  20
 90.288313398052
  30
0.0
  40
 2.5000000000000
  41
0.0
  71
8
  72
1
   1
\A1;26
   7
GMM001
   0
ENDBLK
   5
238
 100
AcDbEntity
   8
0
 100
AcDbBlockEnd
   0
BLOCK
   5
239
 100
AcDbEntity
   8
0
 100
AcDbBlockBegin
   2
*D39
  70
65
  10
0.0
  20
0.0
  30
0.0
   3
*D39
   0
LINE
   5
23A
 100
AcDbEntity
   8
LEVEL001
 370
15
 100
AcDbLine
   6
CONTINUOUS
  62
8
  10
 278.01246249166
  20
 95.322612294090
  30
0.0
  11
 285.63156571379
  21
 95.322612294090
  31
0.0
   0
LINE
   5
23B
 100
AcDbEntity
   8
LEVEL001
 370
15
 100
AcDbLine
   6
CONTINUOUS
  62
8
  10
 284.63156571379
  20
 88.229443071960
  30
0.0
  11
 284.63156571379
  21
 95.722612294090
  31
0.0
   0
LINE
   5
23C
 100
AcDbEntity
   8
LEVEL001
 370
15
 100
AcDbLine
   6
CONTINUOUS
  62
8
  10
 284.63156571379
  20
 96.122612294090
  30
0.0
  11
 284.63156571379
  21
 95.722612294090
  31
0.0
   0
SOLID
   5
23D
 100
AcDbEntity
   8
LEVEL001
 100
AcDbTrace
   6
CONTINUOUS
  62
8
  10
 284.63156571379
  20
 95.322612294090
  30
0.0
  11
 284.27891175238
  21
 93.322612294090
  31
0.0
  12
 284.98421967521
  22
 93.322612294090
  32
0.0
  13
 284.98421967521
  23
 93.322612294090
  33
0.0
   0
MTEXT
   5
23E
 100
AcDbEntity
   8
LEVEL001
 370
15
  62
8
 100
AcDbMText
  10
 283.96100476142
  20
 93.729443071960
  30
0.0
  40
 2.5000000000000
  41
0.0
  71
9
  72
1
   1
\A1;0.8
   7
GMM001
  11
0.0
  21
 1.0000000000000
  31
0.0
   0
ENDBLK
   5
23F
 100
AcDbEntity
   8
0
 100
AcDbBlockEnd
   0
BLOCK
   5
240
 100
AcDbEntity
   8
0
 100
AcDbBlockBegin
   2
*D40
  70
65
  10
0.0
  20
0.0
  30
0.0
   3
*D40
   0
LINE
   5
241
 100
AcDbEntity
   8
LEVEL001
 370
15
 100
AcDbLine
   6
CONTINUOUS
  62
8
  10
 278.01246249166
  20
 96.122612294090
  30
0.0
  11
 285.63156571379
  21
 96.122612294090
  31
0.0
   0
LINE
   5
242
 100
AcDbEntity
   8
LEVEL001
 370
15
 100
AcDbLine
   6
CONTINUOUS
  62
8
  10
 259.01246249166
  20
 101.52261229409
  30
0.0
  11
 285.63156571379
  21
 101.52261229409
  31
0.0
   0
LINE
   5
243
 100
AcDbEntity
   8
LEVEL001
 370
15
 100
AcDbLine
   6
CONTINUOUS
  62
8
  10
 284.63156571379
  20
 96.122612294090
  30
0.0
  11
 284.63156571379
  21
 98.822612294090
  31
0.0
   0
LINE
   5
244
 100
AcDbEntity
   8
LEVEL001
 370
15
 100
AcDbLine
   6
CONTINUOUS
  62
8
  10
 284.63156571379
  20
 101.52261229409
  30
0.0
  11
 284.63156571379
  21
 98.822612294090
  31
0.0
   0
SOLID
   5
245
 100
AcDbEntity
   8
LEVEL001
 100
AcDbTrace
   6
CONTINUOUS
  62
8
  10
 284.63156571379
  20
 96.122612294090
  30
0.0
  11
 284.98421967521
  21
 98.122612294090
  31
0.0
  12
 284.27891175238
  22
 98.122612294090
  32
0.0
  13
 284.27891175238
  23
 98.122612294090
  33
0.0
   0
SOLID
   5
246
 100
AcDbEntity
   8
LEVEL001
 100
AcDbTrace
   6
CONTINUOUS
  62
8
  10
 284.63156571379
  20
 101.52261229409
  30
0.0
  11
 284.27891175238
  21
 99.522612294090
  31
0.0
  12
 284.98421967521
  22
 99.522612294090
  32
0.0
  13
 284.98421967521
  23
 99.522612294090
  33
0.0
   0
MTEXT
   5
247
 100
AcDbEntity
   8
LEVEL001
 370
15
  62
8
 100
AcDbMText
  10
 283.63156571379
  20
 98.822612294090
  30
0.0
  40
 2.5000000000000
  41
0.0
  71
8
  72
1
   1
\A1;5.4
   7
GMM001
  11
0.0
  21
 1.0000000000000
  31
0.0
   0
ENDBLK
   5
248
 100
AcDbEntity
   8
0
 100
AcDbBlockEnd
   0
BLOCK
   5
249
 100
AcDbEntity
   8
0
 100
AcDbBlockBegin
   2
*D41
  70
65
  10
0.0
  20
0.0
  30
0.0
   3
*D41
   0
LINE
   5
24A
 100
AcDbEntity
   8
LEVEL001
 370
15
 100
AcDbLine
   6
CONTINUOUS
  62
8
  10
 251.01246249166
  20
 102.57261229409
  30
0.0
  11
 251.01246249166
  21
 108.32261229409
  31
0.0
   0
LINE
   5
24B
 100
AcDbEntity
   8
LEVEL001
 370
15
 100
AcDbLine
   6
CONTINUOUS
  62
8
  10
 258.01246249166
  20
 103.32261229409
  30
0.0
  11
 258.01246249166
  21
 108.32261229409
  31
0.0
   0
LINE
   5
24C
 100
AcDbEntity
   8
LEVEL001
 370
15
 100
AcDbLine
   6
CONTINUOUS
  62
8
  10
 251.01246249166
  20
 107.32261229409
  30
0.0
  11
 254.51246249166
  21
 107.32261229409
  31
0.0
   0
LINE
   5
24D
 100
AcDbEntity
   8
LEVEL001
 370
15
 100
AcDbLine
   6
CONTINUOUS
  62
8
  10
 258.01246249166
  20
 107.32261229409
  30
0.0
  11
 254.51246249166
  21
 107.32261229409
  31
0.0
   0
SOLID
   5
24E
 100
AcDbEntity
   8
LEVEL001
 100
AcDbTrace
   6
CONTINUOUS
  62
8
  10
 251.01246249166
  20
 107.32261229409
  30
0.0
  11
 253.01246249166
  21
 106.96995833267
  31
0.0
  12
 253.01246249166
  22
 107.67526625551
  32
0.0
  13
 253.01246249166
  23
 107.67526625551
  33
0.0
   0
SOLID
   5
24F
 100
AcDbEntity
   8
LEVEL001
 100
AcDbTrace
   6
CONTINUOUS
  62
8
  10
 258.01246249166
  20
 107.32261229409
  30
0.0
  11
 256.01246249166
  21
 107.67526625551
  31
0.0
  12
 256.01246249166
  22
 106.96995833267
  32
0.0
  13
 256.01246249166
  23
 106.96995833267
  33
0.0
   0
MTEXT
   5
250
 100
AcDbEntity
   8
LEVEL001
 370
15
  62
8
 100
AcDbMText
  10
 254.51246249166
  20
 108.32261229409
  30
0.0
  40
 2.5000000000000
  41
0.0
  71
8
  72
1
   1
\A1;7
   7
GMM001
   0
ENDBLK
   5
251
 100
AcDbEntity
   8
0
 100
AcDbBlockEnd
   0
BLOCK
   5
252
 100
AcDbEntity
   8
0
 100
AcDbBlockBegin
   2
*D42
  70
65
  10
0.0
  20
0.0
  30
0.0
   3
*D42
   0
LINE
   5
253
 100
AcDbEntity
   8
LEVEL001
 370
15
 100
AcDbLine
   6
CONTINUOUS
  62
8
  10
 250.76246249166
  20
 95.322612294090
  30
0.0
  11
 243.18923277028
  21
 95.322612294090
  31
0.0
   0
LINE
   5
254
 100
AcDbEntity
   8
LEVEL001
 370
15
 100
AcDbLine
   6
CONTINUOUS
  62
8
  10
 250.76246249166
  20
 102.32261229409
  30
0.0
  11
 243.18923277028
  21
 102.32261229409
  31
0.0
   0
LINE
   5
255
 100
AcDbEntity
   8
LEVEL001
 370
15
 100
AcDbLine
   6
CONTINUOUS
  62
8
  10
 244.18923277028
  20
 95.322612294090
  30
0.0
  11
 244.18923277028
  21
 98.822612294090
  31
0.0
   0
LINE
   5
256
 100
AcDbEntity
   8
LEVEL001
 370
15
 100
AcDbLine
   6
CONTINUOUS
  62
8
  10
 244.18923277028
  20
 102.32261229409
  30
0.0
  11
 244.18923277028
  21
 98.822612294090
  31
0.0
   0
SOLID
   5
257
 100
AcDbEntity
   8
LEVEL001
 100
AcDbTrace
   6
CONTINUOUS
  62
8
  10
 244.18923277028
  20
 95.322612294090
  30
0.0
  11
 244.54188673170
  21
 97.322612294090
  31
0.0
  12
 243.83657880887
  22
 97.322612294090
  32
0.0
  13
 243.83657880887
  23
 97.322612294090
  33
0.0
   0
SOLID
   5
258
 100
AcDbEntity
   8
LEVEL001
 100
AcDbTrace
   6
CONTINUOUS
  62
8
  10
 244.18923277028
  20
 102.32261229409
  30
0.0
  11
 243.83657880887
  21
 100.32261229409
  31
0.0
  12
 244.54188673170
  22
 100.32261229409
  32
0.0
  13
 244.54188673170
  23
 100.32261229409
  33
0.0
   0
MTEXT
   5
259
 100
AcDbEntity
   8
LEVEL001
 370
15
  62
8
 100
AcDbMText
  10
 243.18923277028
  20
 98.822612294090
  30
0.0
  40
 2.5000000000000
  41
0.0
  71
8
  72
1
   1
\A1;7
   7
GMM001
  11
0.0
  21
 1.0000000000000
  31
0.0
   0
ENDBLK
   5
25A
 100
AcDbEntity
   8
0
 100
AcDbBlockEnd
   0
BLOCK
   5
25B
 100
AcDbEntity
   8
0
 100
AcDbBlockBegin
   2
*D43
  70
65
  10
0.0
  20
0.0
  30
0.0
   3
*D43
   0
LINE
   5
25C
 100
AcDbEntity
   8
LEVEL001
 370
15
 100
AcDbLine
   6
CONTINUOUS
  62
8
  10
 189.11371071393
  20
 43.143521559876
  30
0.0
  11
 189.11371071393
  21
 49.361451953786
  31
0.0
   0
LINE
   5
25D
 100
AcDbEntity
   8
LEVEL001
 370
15
 100
AcDbLine
   6
CONTINUOUS
  62
8
  10
 191.51371071393
  20
 43.143521559876
  30
0.0
  11
 191.51371071393
  21
 49.361451953786
  31
0.0
   0
LINE
   5
25E
 100
AcDbEntity
   8
LEVEL001
 370
15
 100
AcDbLine
   6
CONTINUOUS
  62
8
  10
 181.76660233999
  20
 48.361451953786
  30
0.0
  11
 190.31371071393
  21
 48.361451953786
  31
0.0
   0
LINE
   5
25F
 100
AcDbEntity
   8
LEVEL001
 370
15
 100
AcDbLine
   6
CONTINUOUS
  62
8
  10
 194.01371071393
  20
 48.361451953786
  30
0.0
  11
 190.31371071393
  21
 48.361451953786
  31
0.0
   0
SOLID
   5
260
 100
AcDbEntity
   8
LEVEL001
 100
AcDbTrace
   6
CONTINUOUS
  62
8
  10
 189.11371071393
  20
 48.361451953786
  30
0.0
  11
 187.11371071393
  21
 48.714105915203
  31
0.0
  12
 187.11371071393
  22
 48.008797992369
  32
0.0
  13
 187.11371071393
  23
 48.008797992369
  33
0.0
   0
SOLID
   5
261
 100
AcDbEntity
   8
LEVEL001
 100
AcDbTrace
   6
CONTINUOUS
  62
8
  10
 191.51371071393
  20
 48.361451953786
  30
0.0
  11
 193.51371071393
  21
 48.008797992369
  31
0.0
  12
 193.51371071393
  22
 48.714105915203
  32
0.0
  13
 193.51371071393
  23
 48.714105915203
  33
0.0
   0
MTEXT
   5
262
 100
AcDbEntity
   8
LEVEL001
 370
15
  62
8
 100
AcDbMText
  10
 187.26660233999
  20
 49.376901451432
  30
0.0
  40
 2.5000000000000
  41
0.0
  71
9
  72
1
   1
\A1;2.4
   7
GMM001
   0
ENDBLK
   5
263
 100
AcDbEntity
   8
0
 100
AcDbBlockEnd
   0
BLOCK
   5
264
 100
AcDbEntity
   8
0
 100
AcDbBlockBegin
   2
*D44
  70
65
  10
0.0
  20
0.0
  30
0.0
   3
*D44
   0
LINE
   5
265
 100
AcDbEntity
   8
LEVEL001
 370
15
 100
AcDbLine
   6
CONTINUOUS
  62
8
  10
 188.11371071393
  20
 28.343521559876
  30
0.0
  11
 183.64161663585
  21
 28.343521559876
  31
0.0
   0
LINE
   5
266
 100
AcDbEntity
   8
LEVEL001
 370
15
 100
AcDbLine
   6
CONTINUOUS
  62
8
  10
 189.31371071393
  20
 40.343521559876
  30
0.0
  11
 183.64161663585
  21
 40.343521559876
  31
0.0
   0
LINE
   5
267
 100
AcDbEntity
   8
LEVEL001
 370
15
 100
AcDbLine
   6
CONTINUOUS
  62
8
  10
 184.64161663585
  20
 28.343521559876
  30
0.0
  11
 184.64161663585
  21
 34.343521559876
  31
0.0
   0
LINE
   5
268
 100
AcDbEntity
   8
LEVEL001
 370
15
 100
AcDbLine
   6
CONTINUOUS
  62
8
  10
 184.64161663585
  20
 40.343521559876
  30
0.0
  11
 184.64161663585
  21
 34.343521559876
  31
0.0
   0
SOLID
   5
269
 100
AcDbEntity
   8
LEVEL001
 100
AcDbTrace
   6
CONTINUOUS
  62
8
  10
 184.64161663585
  20
 28.343521559876
  30
0.0
  11
 184.99427059727
  21
 30.343521559876
  31
0.0
  12
 184.28896267444
  22
 30.343521559876
  32
0.0
  13
 184.28896267444
  23
 30.343521559876
  33
0.0
   0
SOLID
   5
26A
 100
AcDbEntity
   8
LEVEL001
 100
AcDbTrace
   6
CONTINUOUS
  62
8
  10
 184.64161663585
  20
 40.343521559876
  30
0.0
  11
 184.28896267444
  21
 38.343521559876
  31
0.0
  12
 184.99427059727
  22
 38.343521559876
  32
0.0
  13
 184.99427059727
  23
 38.343521559876
  33
0.0
   0
MTEXT
   5
26B
 100
AcDbEntity
   8
LEVEL001
 370
15
  62
8
 100
AcDbMText
  10
 183.64161663585
  20
 34.343521559876
  30
0.0
  40
 2.5000000000000
  41
0.0
  71
8
  72
1
   1
\A1;12
   7
GMM001
  11
0.0
  21
 1.0000000000000
  31
0.0
   0
ENDBLK
   5
26C
 100
AcDbEntity
   8
0
 100
AcDbBlockEnd
   0
BLOCK
   5
26D
 100
AcDbEntity
   8
0
 100
AcDbBlockBegin
   2
*D45
  70
65
  10
0.0
  20
0.0
  30
0.0
   3
*D45
   0
LINE
   5
26E
 100
AcDbEntity
   8
LEVEL001
 370
15
 100
AcDbLine
   6
CONTINUOUS
  62
8
  10
 210.11371071393
  20
 28.343521559876
  30
0.0
  11
 215.90939422036
  21
 28.343521559876
  31
0.0
   0
LINE
   5
26F
 100
AcDbEntity
   8
LEVEL001
 370
15
 100
AcDbLine
   6
CONTINUOUS
  62
8
  10
 210.11371071393
  20
 29.543521559876
  30
0.0
  11
 215.90939422036
  21
 29.543521559876
  31
0.0
   0
LINE
   5
270
 100
AcDbEntity
   8
LEVEL001
 370
15
 100
AcDbLine
   6
CONTINUOUS
  62
8
  10
 214.90939422036
  20
 25.843521559876
  30
0.0
  11
 214.90939422036
  21
 28.943521559876
  31
0.0
   0
LINE
   5
271
 100
AcDbEntity
   8
LEVEL001
 370
15
 100
AcDbLine
   6
CONTINUOUS
  62
8
  10
 214.90939422036
  20
 36.081020376937
  30
0.0
  11
 214.90939422036
  21
 28.943521559876
  31
0.0
   0
SOLID
   5
272
 100
AcDbEntity
   8
LEVEL001
 100
AcDbTrace
   6
CONTINUOUS
  62
8
  10
 214.90939422036
  20
 28.343521559876
  30
0.0
  11
 214.55674025894
  21
 26.343521559876
  31
0.0
  12
 215.26204818177
  22
 26.343521559876
  32
0.0
  13
 215.26204818177
  23
 26.343521559876
  33
0.0
   0
SOLID
   5
273
 100
AcDbEntity
   8
LEVEL001
 100
AcDbTrace
   6
CONTINUOUS
  62
8
  10
 214.90939422036
  20
 29.543521559876
  30
0.0
  11
 215.26204818177
  21
 31.543521559876
  31
0.0
  12
 214.55674025894
  22
 31.543521559876
  32
0.0
  13
 214.55674025894
  23
 31.543521559876
  33
0.0
   0
MTEXT
   5
274
 100
AcDbEntity
   8
LEVEL001
 370
15
  62
8
 100
AcDbMText
  10
 213.92528575659
  20
 30.581020376937
  30
0.0
  40
 2.5000000000000
  41
0.0
  71
7
  72
1
   1
\A1;1.2
   7
GMM001
  11
0.0
  21
 1.0000000000000
  31
0.0
   0
ENDBLK
   5
275
 100
AcDbEntity
   8
0
 100
AcDbBlockEnd
   0
BLOCK
   5
276
 100
AcDbEntity
   8
0
 100
AcDbBlockBegin
   2
*D46
  70
65
  10
0.0
  20
0.0
  30
0.0
   3
*D46
   0
LINE
   5
277
 100
AcDbEntity
   8
LEVEL001
 370
15
 100
AcDbLine
   6
CONTINUOUS
  62
8
  10
 189.11371071393
  20
 27.343521559876
  30
0.0
  11
 189.11371071393
  21
 15.088926311765
  31
0.0
   0
LINE
   5
278
 100
AcDbEntity
   8
LEVEL001
 370
15
 100
AcDbLine
   6
CONTINUOUS
  62
8
  10
 209.11371071393
  20
 27.343521559876
  30
0.0
  11
 209.11371071393
  21
 15.088926311765
  31
0.0
   0
LINE
   5
279
 100
AcDbEntity
   8
LEVEL001
 370
15
 100
AcDbLine
   6
CONTINUOUS
  62
8
  10
 189.11371071393
  20
 16.088926311765
  30
0.0
  11
 199.11371071393
  21
 16.088926311765
  31
0.0
   0
LINE
   5
27A
 100
AcDbEntity
   8
LEVEL001
 370
15
 100
AcDbLine
   6
CONTINUOUS
  62
8
  10
 209.11371071393
  20
 16.088926311765
  30
0.0
  11
 199.11371071393
  21
 16.088926311765
  31
0.0
   0
SOLID
   5
27B
 100
AcDbEntity
   8
LEVEL001
 100
AcDbTrace
   6
CONTINUOUS
  62
8
  10
 189.11371071393
  20
 16.088926311765
  30
0.0
  11
 191.11371071393
  21
 15.736272350348
  31
0.0
  12
 191.11371071393
  22
 16.441580273181
  32
0.0
  13
 191.11371071393
  23
 16.441580273181
  33
0.0
   0
SOLID
   5
27C
 100
AcDbEntity
   8
LEVEL001
 100
AcDbTrace
   6
CONTINUOUS
  62
8
  10
 209.11371071393
  20
 16.088926311765
  30
0.0
  11
 207.11371071393
  21
 16.441580273181
  31
0.0
  12
 207.11371071393
  22
 15.736272350348
  32
0.0
  13
 207.11371071393
  23
 15.736272350348
  33
0.0
   0
MTEXT
   5
27D
 100
AcDbEntity
   8
LEVEL001
 370
15
  62
8
 100
AcDbMText
  10
 199.11371071393
  20
 17.088926311765
  30
0.0
  40
 2.5000000000000
  41
0.0
  71
8
  72
1
   1
\A1;20
   7
GMM001
   0
ENDBLK
   5
27E
 100
AcDbEntity
   8
0
 100
AcDbBlockEnd
   0
BLOCK
   5
27F
 100
AcDbEntity
   8
0
 100
AcDbBlockBegin
   2
*D47
  70
65
  10
0.0
  20
0.0
  30
0.0
   3
*D47
   0
LINE
   5
280
 100
AcDbEntity
   8
LEVEL001
 370
15
 100
AcDbLine
   6
CONTINUOUS
  62
8
  10
 191.51371071393
  20
 29.043521559876
  30
0.0
  11
 191.51371071393
  21
 20.667630342043
  31
0.0
   0
LINE
   5
281
 100
AcDbEntity
   8
LEVEL001
 370
15
 100
AcDbLine
   6
CONTINUOUS
  62
8
  10
 209.11371071393
  20
 27.343521559876
  30
0.0
  11
 209.11371071393
  21
 20.667630342043
  31
0.0
   0
LINE
   5
282
 100
AcDbEntity
   8
LEVEL001
 370
15
 100
AcDbLine
   6
CONTINUOUS
  62
8
  10
 191.51371071393
  20
 21.667630342043
  30
0.0
  11
 200.31371071393
  21
 21.667630342043
  31
0.0
   0
LINE
   5
283
 100
AcDbEntity
   8
LEVEL001
 370
15
 100
AcDbLine
   6
CONTINUOUS
  62
8
  10
 209.11371071393
  20
 21.667630342043
  30
0.0
  11
 200.31371071393
  21
 21.667630342043
  31
0.0
   0
SOLID
   5
284
 100
AcDbEntity
   8
LEVEL001
 100
AcDbTrace
   6
CONTINUOUS
  62
8
  10
 191.51371071393
  20
 21.667630342043
  30
0.0
  11
 193.51371071393
  21
 21.314976380626
  31
0.0
  12
 193.51371071393
  22
 22.020284303460
  32
0.0
  13
 193.51371071393
  23
 22.020284303460
  33
0.0
   0
SOLID
   5
285
 100
AcDbEntity
   8
LEVEL001
 100
AcDbTrace
   6
CONTINUOUS
  62
8
  10
 209.11371071393
  20
 21.667630342043
  30
0.0
  11
 207.11371071393
  21
 22.020284303460
  31
0.0
  12
 207.11371071393
  22
 21.314976380626
  32
0.0
  13
 207.11371071393
  23
 21.314976380626
  33
0.0
   0
MTEXT
   5
286
 100
AcDbEntity
   8
LEVEL001
 370
15
  62
8
 100
AcDbMText
  10
 200.31371071393
  20
 22.667630342043
  30
0.0
  40
 2.5000000000000
  41
0.0
  71
8
  72
1
   1
\A1;17.6
   7
GMM001
   0
ENDBLK
   5
287
 100
AcDbEntity
   8
0
 100
AcDbBlockEnd
   0
BLOCK
   5
288
 100
AcDbEntity
   8
0
 100
AcDbBlockBegin
   2
*D48
  70
65
  10
0.0
  20
0.0
  30
0.0
   3
*D48
   0
LINE
   5
289
 100
AcDbEntity
   8
LEVEL001
 370
15
 100
AcDbLine
   6
CONTINUOUS
  62
8
  10
 113.51343130006
  20
 28.343521559876
  30
0.0
  11
 109.04133722197
  21
 28.343521559876
  31
0.0
   0
LINE
   5
28A
 100
AcDbEntity
   8
LEVEL001
 370
15
 100
AcDbLine
   6
CONTINUOUS
  62
8
  10
 114.71343130006
  20
 40.343521559876
  30
0.0
  11
 109.04133722197
  21
 40.343521559876
  31
0.0
   0
LINE
   5
28B
 100
AcDbEntity
   8
LEVEL001
 370
15
 100
AcDbLine
   6
CONTINUOUS
  62
8
  10
 110.04133722197
  20
 28.343521559876
  30
0.0
  11
 110.04133722197
  21
 34.343521559876
  31
0.0
   0
LINE
   5
28C
 100
AcDbEntity
   8
LEVEL001
 370
15
 100
AcDbLine
   6
CONTINUOUS
  62
8
  10
 110.04133722197
  20
 40.343521559876
  30
0.0
  11
 110.04133722197
  21
 34.343521559876
  31
0.0
   0
SOLID
   5
28D
 100
AcDbEntity
   8
LEVEL001
 100
AcDbTrace
   6
CONTINUOUS
  62
8
  10
 110.04133722197
  20
 28.343521559876
  30
0.0
  11
 110.39399118339
  21
 30.343521559876
  31
0.0
  12
 109.68868326056
  22
 30.343521559876
  32
0.0
  13
 109.68868326056
  23
 30.343521559876
  33
0.0
   0
SOLID
   5
28E
 100
AcDbEntity
   8
LEVEL001
 100
AcDbTrace
   6
CONTINUOUS
  62
8
  10
 110.04133722197
  20
 40.343521559876
  30
0.0
  11
 109.68868326056
  21
 38.343521559876
  31
0.0
  12
 110.39399118339
  22
 38.343521559876
  32
0.0
  13
 110.39399118339
  23
 38.343521559876
  33
0.0
   0
MTEXT
   5
28F
 100
AcDbEntity
   8
LEVEL001
 370
15
  62
8
 100
AcDbMText
  10
 109.04133722197
  20
 34.343521559876
  30
0.0
  40
 2.5000000000000
  41
0.0
  71
8
  72
1
   1
\A1;12
   7
GMM001
  11
0.0
  21
 1.0000000000000
  31
0.0
   0
ENDBLK
   5
290
 100
AcDbEntity
   8
0
 100
AcDbBlockEnd
   0
BLOCK
   5
291
 100
AcDbEntity
   8
0
 100
AcDbBlockBegin
   2
*D49
  70
65
  10
0.0
  20
0.0
  30
0.0
   3
*D49
   0
LINE
   5
292
 100
AcDbEntity
   8
LEVEL001
 370
15
 100
AcDbLine
   6
CONTINUOUS
  62
8
  10
 114.51343130006
  20
 27.343521559876
  30
0.0
  11
 114.51343130006
  21
 15.088926311764
  31
0.0
   0
LINE
   5
293
 100
AcDbEntity
   8
LEVEL001
 370
15
 100
AcDbLine
   6
CONTINUOUS
  62
8
  10
 134.51343130006
  20
 27.343521559876
  30
0.0
  11
 134.51343130006
  21
 15.088926311764
  31
0.0
   0
LINE
   5
294
 100
AcDbEntity
   8
LEVEL001
 370
15
 100
AcDbLine
   6
CONTINUOUS
  62
8
  10
 114.51343130006
  20
 16.088926311764
  30
0.0
  11
 124.51343130006
  21
 16.088926311764
  31
0.0
   0
LINE
   5
295
 100
AcDbEntity
   8
LEVEL001
 370
15
 100
AcDbLine
   6
CONTINUOUS
  62
8
  10
 134.51343130006
  20
 16.088926311764
  30
0.0
  11
 124.51343130006
  21
 16.088926311764
  31
0.0
   0
SOLID
   5
296
 100
AcDbEntity
   8
LEVEL001
 100
AcDbTrace
   6
CONTINUOUS
  62
8
  10
 114.51343130006
  20
 16.088926311764
  30
0.0
  11
 116.51343130006
  21
 15.736272350348
  31
0.0
  12
 116.51343130006
  22
 16.441580273181
  32
0.0
  13
 116.51343130006
  23
 16.441580273181
  33
0.0
   0
SOLID
   5
297
 100
AcDbEntity
   8
LEVEL001
 100
AcDbTrace
   6
CONTINUOUS
  62
8
  10
 134.51343130006
  20
 16.088926311764
  30
0.0
  11
 132.51343130006
  21
 16.441580273181
  31
0.0
  12
 132.51343130006
  22
 15.736272350348
  32
0.0
  13
 132.51343130006
  23
 15.736272350348
  33
0.0
   0
MTEXT
   5
298
 100
AcDbEntity
   8
LEVEL001
 370
15
  62
8
 100
AcDbMText
  10
 124.51343130006
  20
 17.088926311764
  30
0.0
  40
 2.5000000000000
  41
0.0
  71
8
  72
1
   1
\A1;20
   7
GMM001
   0
ENDBLK
   5
299
 100
AcDbEntity
   8
0
 100
AcDbBlockEnd
   0
BLOCK
   5
29A
 100
AcDbEntity
   8
0
 100
AcDbBlockBegin
   2
*D50
  70
65
  10
0.0
  20
0.0
  30
0.0
   3
*D50
   0
LINE
   5
29B
 100
AcDbEntity
   8
LEVEL001
 370
15
 100
AcDbLine
   6
CONTINUOUS
  62
8
  10
 114.51343130006
  20
 40.143521559876
  30
0.0
  11
 114.51343130006
  21
 46.361451953786
  31
0.0
   0
LINE
   5
29C
 100
AcDbEntity
   8
LEVEL001
 370
15
 100
AcDbLine
   6
CONTINUOUS
  62
8
  10
 116.91343130006
  20
 40.143521559876
  30
0.0
  11
 116.91343130006
  21
 46.361451953786
  31
0.0
   0
LINE
   5
29D
 100
AcDbEntity
   8
LEVEL001
 370
15
 100
AcDbLine
   6
CONTINUOUS
  62
8
  10
 107.16632292611
  20
 45.361451953786
  30
0.0
  11
 115.71343130006
  21
 45.361451953786
  31
0.0
   0
LINE
   5
29E
 100
AcDbEntity
   8
LEVEL001
 370
15
 100
AcDbLine
   6
CONTINUOUS
  62
8
  10
 119.41343130006
  20
 45.361451953786
  30
0.0
  11
 115.71343130006
  21
 45.361451953786
  31
0.0
   0
SOLID
   5
29F
 100
AcDbEntity
   8
LEVEL001
 100
AcDbTrace
   6
CONTINUOUS
  62
8
  10
 114.51343130006
  20
 45.361451953786
  30
0.0
  11
 112.51343130006
  21
 45.714105915203
  31
0.0
  12
 112.51343130006
  22
 45.008797992369
  32
0.0
  13
 112.51343130006
  23
 45.008797992369
  33
0.0
   0
SOLID
   5
2A0
 100
AcDbEntity
   8
LEVEL001
 100
AcDbTrace
   6
CONTINUOUS
  62
8
  10
 116.91343130006
  20
 45.361451953786
  30
0.0
  11
 118.91343130006
  21
 45.008797992369
  31
0.0
  12
 118.91343130006
  22
 45.714105915203
  32
0.0
  13
 118.91343130006
  23
 45.714105915203
  33
0.0
   0
MTEXT
   5
2A1
 100
AcDbEntity
   8
LEVEL001
 370
15
  62
8
 100
AcDbMText
  10
 112.66632292611
  20
 46.376901451432
  30
0.0
  40
 2.5000000000000
  41
0.0
  71
9
  72
1
   1
\A1;2.4
   7
GMM001
   0
ENDBLK
   5
2A2
 100
AcDbEntity
   8
0
 100
AcDbBlockEnd
   0
BLOCK
   5
2A3
 100
AcDbEntity
   8
0
 100
AcDbBlockBegin
   2
*D51
  70
65
  10
0.0
  20
0.0
  30
0.0
   3
*D51
   0
LINE
   5
2A4
 100
AcDbEntity
   8
LEVEL001
 370
15
 100
AcDbLine
   6
CONTINUOUS
  62
8
  10
 135.51343130006
  20
 28.343521559876
  30
0.0
  11
 141.30911480648
  21
 28.343521559876
  31
0.0
   0
LINE
   5
2A5
 100
AcDbEntity
   8
LEVEL001
 370
15
 100
AcDbLine
   6
CONTINUOUS
  62
8
  10
 135.51343130006
  20
 29.543521559876
  30
0.0
  11
 141.30911480648
  21
 29.543521559876
  31
0.0
   0
LINE
   5
2A6
 100
AcDbEntity
   8
LEVEL001
 370
15
 100
AcDbLine
   6
CONTINUOUS
  62
8
  10
 140.30911480648
  20
 25.843521559876
  30
0.0
  11
 140.30911480648
  21
 28.943521559876
  31
0.0
   0
LINE
   5
2A7
 100
AcDbEntity
   8
LEVEL001
 370
15
 100
AcDbLine
   6
CONTINUOUS
  62
8
  10
 140.30911480648
  20
 36.081020376937
  30
0.0
  11
 140.30911480648
  21
 28.943521559876
  31
0.0
   0
SOLID
   5
2A8
 100
AcDbEntity
   8
LEVEL001
 100
AcDbTrace
   6
CONTINUOUS
  62
8
  10
 140.30911480648
  20
 28.343521559876
  30
0.0
  11
 139.95646084506
  21
 26.343521559876
  31
0.0
  12
 140.66176876789
  22
 26.343521559876
  32
0.0
  13
 140.66176876789
  23
 26.343521559876
  33
0.0
   0
SOLID
   5
2A9
 100
AcDbEntity
   8
LEVEL001
 100
AcDbTrace
   6
CONTINUOUS
  62
8
  10
 140.30911480648
  20
 29.543521559876
  30
0.0
  11
 140.66176876789
  21
 31.543521559876
  31
0.0
  12
 139.95646084506
  22
 31.543521559876
  32
0.0
  13
 139.95646084506
  23
 31.543521559876
  33
0.0
   0
MTEXT
   5
2AA
 100
AcDbEntity
   8
LEVEL001
 370
15
  62
8
 100
AcDbMText
  10
 139.32500634271
  20
 30.581020376937
  30
0.0
  40
 2.5000000000000
  41
0.0
  71
7
  72
1
   1
\A1;1.2
   7
GMM001
  11
0.0
  21
 1.0000000000000
  31
0.0
   0
ENDBLK
   5
2AB
 100
AcDbEntity
   8
0
 100
AcDbBlockEnd
   0
BLOCK
   5
2AC
 100
AcDbEntity
   8
0
 100
AcDbBlockBegin
   2
*D52
  70
65
  10
0.0
  20
0.0
  30
0.0
   3
*D52
   0
LINE
   5
2AD
 100
AcDbEntity
   8
LEVEL001
 370
15
 100
AcDbLine
   6
CONTINUOUS
  62
8
  10
 116.91343130006
  20
 29.043521559876
  30
0.0
  11
 116.91343130006
  21
 20.667630342043
  31
0.0
   0
LINE
   5
2AE
 100
AcDbEntity
   8
LEVEL001
 370
15
 100
AcDbLine
   6
CONTINUOUS
  62
8
  10
 134.51343130006
  20
 27.343521559876
  30
0.0
  11
 134.51343130006
  21
 20.667630342043
  31
0.0
   0
LINE
   5
2AF
 100
AcDbEntity
   8
LEVEL001
 370
15
 100
AcDbLine
   6
CONTINUOUS
  62
8
  10
 116.91343130006
  20
 21.667630342043
  30
0.0
  11
 125.71343130006
  21
 21.667630342043
  31
0.0
   0
LINE
   5
2B0
 100
AcDbEntity
   8
LEVEL001
 370
15
 100
AcDbLine
   6
CONTINUOUS
  62
8
  10
 134.51343130006
  20
 21.667630342043
  30
0.0
  11
 125.71343130006
  21
 21.667630342043
  31
0.0
   0
SOLID
   5
2B1
 100
AcDbEntity
   8
LEVEL001
 100
AcDbTrace
   6
CONTINUOUS
  62
8
  10
 116.91343130006
  20
 21.667630342043
  30
0.0
  11
 118.91343130006
  21
 21.314976380626
  31
0.0
  12
 118.91343130006
  22
 22.020284303460
  32
0.0
  13
 118.91343130006
  23
 22.020284303460
  33
0.0
   0
SOLID
   5
2B2
 100
AcDbEntity
   8
LEVEL001
 100
AcDbTrace
   6
CONTINUOUS
  62
8
  10
 134.51343130006
  20
 21.667630342043
  30
0.0
  11
 132.51343130006
  21
 22.020284303460
  31
0.0
  12
 132.51343130006
  22
 21.314976380626
  32
0.0
  13
 132.51343130006
  23
 21.314976380626
  33
0.0
   0
MTEXT
   5
2B3
 100
AcDbEntity
   8
LEVEL001
 370
15
  62
8
 100
AcDbMText
  10
 125.71343130006
  20
 22.667630342043
  30
0.0
  40
 2.5000000000000
  41
0.0
  71
8
  72
1
   1
\A1;17.6
   7
GMM001
   0
ENDBLK
   5
2B4
 100
AcDbEntity
   8
0
 100
AcDbBlockEnd
   0
BLOCK
   5
2B5
 100
AcDbEntity
   8
0
 100
AcDbBlockBegin
   2
*D53
  70
65
  10
0.0
  20
0.0
  30
0.0
   3
*D53
   0
LINE
   5
2B6
 100
AcDbEntity
   8
LEVEL001
 370
15
 100
AcDbLine
   6
CONTINUOUS
  62
8
  10
 35.354306524730
  20
 27.072612294100
  30
0.0
  11
 27.564861285382
  21
 27.072612294100
  31
0.0
   0
LINE
   5
2B7
 100
AcDbEntity
   8
LEVEL001
 370
15
 100
AcDbLine
   6
CONTINUOUS
  62
8
  10
 35.354306524730
  20
 38.072612294100
  30
0.0
  11
 27.564861285382
  21
 38.072612294100
  31
0.0
   0
LINE
   5
2B8
 100
AcDbEntity
   8
LEVEL001
 370
15
 100
AcDbLine
   6
CONTINUOUS
  62
8
  10
 28.564861285382
  20
 27.072612294100
  30
0.0
  11
 28.564861285382
  21
 32.572612294100
  31
0.0
   0
LINE
   5
2B9
 100
AcDbEntity
   8
LEVEL001
 370
15
 100
AcDbLine
   6
CONTINUOUS
  62
8
  10
 28.564861285382
  20
 38.072612294100
  30
0.0
  11
 28.564861285382
  21
 32.572612294100
  31
0.0
   0
SOLID
   5
2BA
 100
AcDbEntity
   8
LEVEL001
 100
AcDbTrace
   6
CONTINUOUS
  62
8
  10
 28.564861285382
  20
 27.072612294100
  30
0.0
  11
 28.917515246799
  21
 29.072612294100
  31
0.0
  12
 28.212207323965
  22
 29.072612294100
  32
0.0
  13
 28.212207323965
  23
 29.072612294100
  33
0.0
   0
SOLID
   5
2BB
 100
AcDbEntity
   8
LEVEL001
 100
AcDbTrace
   6
CONTINUOUS
  62
8
  10
 28.564861285382
  20
 38.072612294100
  30
0.0
  11
 28.212207323965
  21
 36.072612294100
  31
0.0
  12
 28.917515246799
  22
 36.072612294100
  32
0.0
  13
 28.917515246799
  23
 36.072612294100
  33
0.0
   0
MTEXT
   5
2BC
 100
AcDbEntity
   8
LEVEL001
 370
15
  62
8
 100
AcDbMText
  10
 27.564861285382
  20
 32.572612294100
  30
0.0
  40
 2.5000000000000
  41
0.0
  71
8
  72
1
   1
\A1;11
   7
GMM001
  11
0.0
  21
 1.0000000000000
  31
0.0
   0
ENDBLK
   5
2BD
 100
AcDbEntity
   8
0
 100
AcDbBlockEnd
   0
BLOCK
   5
2BE
 100
AcDbEntity
   8
0
 100
AcDbBlockBegin
   2
*D54
  70
65
  10
0.0
  20
0.0
  30
0.0
   3
*D54
   0
LINE
   5
2BF
 100
AcDbEntity
   8
LEVEL001
 370
15
 100
AcDbLine
   6
CONTINUOUS
  62
8
  10
 35.604306524730
  20
 38.322612294100
  30
0.0
  11
 35.604306524730
  21
 46.600386821625
  31
0.0
   0
LINE
   5
2C0
 100
AcDbEntity
   8
LEVEL001
 370
15
 100
AcDbLine
   6
CONTINUOUS
  62
8
  10
 46.604306524730
  20
 39.072612294100
  30
0.0
  11
 46.604306524730
  21
 46.600386821625
  31
0.0
   0
LINE
   5
2C1
 100
AcDbEntity
   8
LEVEL001
 370
15
 100
AcDbLine
   6
CONTINUOUS
  62
8
  10
 35.604306524730
  20
 45.600386821625
  30
0.0
  11
 41.104306524730
  21
 45.600386821625
  31
0.0
   0
LINE
   5
2C2
 100
AcDbEntity
   8
LEVEL001
 370
15
 100
AcDbLine
   6
CONTINUOUS
  62
8
  10
 46.604306524730
  20
 45.600386821625
  30
0.0
  11
 41.104306524730
  21
 45.600386821625
  31
0.0
   0
SOLID
   5
2C3
 100
AcDbEntity
   8
LEVEL001
 100
AcDbTrace
   6
CONTINUOUS
  62
8
  10
 35.604306524730
  20
 45.600386821625
  30
0.0
  11
 37.604306524730
  21
 45.247732860208
  31
0.0
  12
 37.604306524730
  22
 45.953040783042
  32
0.0
  13
 37.604306524730
  23
 45.953040783042
  33
0.0
   0
SOLID
   5
2C4
 100
AcDbEntity
   8
LEVEL001
 100
AcDbTrace
   6
CONTINUOUS
  62
8
  10
 46.604306524730
  20
 45.600386821625
  30
0.0
  11
 44.604306524730
  21
 45.953040783042
  31
0.0
  12
 44.604306524730
  22
 45.247732860208
  32
0.0
  13
 44.604306524730
  23
 45.247732860208
  33
0.0
   0
MTEXT
   5
2C5
 100
AcDbEntity
   8
LEVEL001
 370
15
  62
8
 100
AcDbMText
  10
 41.104306524730
  20
 46.600386821625
  30
0.0
  40
 2.5000000000000
  41
0.0
  71
8
  72
1
   1
\A1;11
   7
GMM001
   0
ENDBLK
   5
2C6
 100
AcDbEntity
   8
0
 100
AcDbBlockEnd
   0
BLOCK
   5
2C7
 100
AcDbEntity
   8
0
 100
AcDbBlockBegin
   2
*D55
  70
65
  10
0.0
  20
0.0
  30
0.0
   3
*D55
   0
LINE
   5
2C8
 100
AcDbEntity
   8
LEVEL001
 370
15
 100
AcDbLine
   6
CONTINUOUS
  62
8
  10
 35.604306524730
  20
 26.822612294100
  30
0.0
  11
 35.604306524730
  21
 20.038313398062
  31
0.0
   0
LINE
   5
2C9
 100
AcDbEntity
   8
LEVEL001
 370
15
 100
AcDbLine
   6
CONTINUOUS
  62
8
  10
 70.604306524730
  20
 26.072612294100
  30
0.0
  11
 70.604306524730
  21
 20.038313398062
  31
0.0
   0
LINE
   5
2CA
 100
AcDbEntity
   8
LEVEL001
 370
15
 100
AcDbLine
   6
CONTINUOUS
  62
8
  10
 35.604306524730
  20
 21.038313398062
  30
0.0
  11
 53.104306524730
  21
 21.038313398062
  31
0.0
   0
LINE
   5
2CB
 100
AcDbEntity
   8
LEVEL001
 370
15
 100
AcDbLine
   6
CONTINUOUS
  62
8
  10
 70.604306524730
  20
 21.038313398062
  30
0.0
  11
 53.104306524730
  21
 21.038313398062
  31
0.0
   0
SOLID
   5
2CC
 100
AcDbEntity
   8
LEVEL001
 100
AcDbTrace
   6
CONTINUOUS
  62
8
  10
 35.604306524730
  20
 21.038313398062
  30
0.0
  11
 37.604306524730
  21
 20.685659436645
  31
0.0
  12
 37.604306524730
  22
 21.390967359479
  32
0.0
  13
 37.604306524730
  23
 21.390967359479
  33
0.0
   0
SOLID
   5
2CD
 100
AcDbEntity
   8
LEVEL001
 100
AcDbTrace
   6
CONTINUOUS
  62
8
  10
 70.604306524730
  20
 21.038313398062
  30
0.0
  11
 68.604306524730
  21
 21.390967359479
  31
0.0
  12
 68.604306524730
  22
 20.685659436645
  32
0.0
  13
 68.604306524730
  23
 20.685659436645
  33
0.0
   0
MTEXT
   5
2CE
 100
AcDbEntity
   8
LEVEL001
 370
15
  62
8
 100
AcDbMText
  10
 53.104306524730
  20
 22.038313398062
  30
0.0
  40
 2.5000000000000
  41
0.0
  71
8
  72
1
   1
\A1;35
   7
GMM001
   0
ENDBLK
   5
2CF
 100
AcDbEntity
   8
0
 100
AcDbBlockEnd
   0
BLOCK
   5
2D0
 100
AcDbEntity
   8
0
 100
AcDbBlockBegin
   2
*D56
  70
65
  10
0.0
  20
0.0
  30
0.0
   3
*D56
   0
LINE
   5
2D1
 100
AcDbEntity
   8
LEVEL001
 370
15
 100
AcDbLine
   6
CONTINUOUS
  62
8
  10
 71.604306524730
  20
 27.072612294100
  30
0.0
  11
 78.545875505440
  21
 27.072612294100
  31
0.0
   0
LINE
   5
2D2
 100
AcDbEntity
   8
LEVEL001
 370
15
 100
AcDbLine
   6
CONTINUOUS
  62
8
  10
 77.545875505440
  20
 19.678569146741
  30
0.0
  11
 77.545875505440
  21
 27.472612294100
  31
0.0
   0
LINE
   5
2D3
 100
AcDbEntity
   8
LEVEL001
 370
15
 100
AcDbLine
   6
CONTINUOUS
  62
8
  10
 77.545875505440
  20
 27.872612294100
  30
0.0
  11
 77.545875505440
  21
 27.472612294100
  31
0.0
   0
SOLID
   5
2D4
 100
AcDbEntity
   8
LEVEL001
 100
AcDbTrace
   6
CONTINUOUS
  62
8
  10
 77.545875505440
  20
 27.072612294100
  30
0.0
  11
 77.193221544023
  21
 25.072612294100
  31
0.0
  12
 77.898529466857
  22
 25.072612294100
  32
0.0
  13
 77.898529466857
  23
 25.072612294100
  33
0.0
   0
MTEXT
   5
2D5
 100
AcDbEntity
   8
LEVEL001
 370
15
  62
8
 100
AcDbMText
  10
 76.702599919684
  20
 25.178569146741
  30
0.0
  40
 2.5000000000000
  41
0.0
  71
9
  72
1
   1
\A1;0.8
   7
GMM001
  11
0.0
  21
 1.0000000000000
  31
0.0
   0
ENDBLK
   5
2D6
 100
AcDbEntity
   8
0
 100
AcDbBlockEnd
   0
BLOCK
   5
2D7
 100
AcDbEntity
   8
0
 100
AcDbBlockBegin
   2
*D57
  70
65
  10
0.0
  20
0.0
  30
0.0
   3
*D57
   0
LINE
   5
2D8
 100
AcDbEntity
   8
LEVEL001
 370
15
 100
AcDbLine
   6
CONTINUOUS
  62
8
  10
 71.604306524730
  20
 27.872612294100
  30
0.0
  11
 78.545875505440
  21
 27.872612294100
  31
0.0
   0
LINE
   5
2D9
 100
AcDbEntity
   8
LEVEL001
 370
15
 100
AcDbLine
   6
CONTINUOUS
  62
8
  10
 47.604306524730
  20
 37.272612294100
  30
0.0
  11
 78.545875505440
  21
 37.272612294100
  31
0.0
   0
LINE
   5
2DA
 100
AcDbEntity
   8
LEVEL001
 370
15
 100
AcDbLine
   6
CONTINUOUS
  62
8
  10
 77.545875505440
  20
 27.872612294100
  30
0.0
  11
 77.545875505440
  21
 32.572612294100
  31
0.0
   0
LINE
   5
2DB
 100
AcDbEntity
   8
LEVEL001
 370
15
 100
AcDbLine
   6
CONTINUOUS
  62
8
  10
 77.545875505440
  20
 37.272612294100
  30
0.0
  11
 77.545875505440
  21
 32.572612294100
  31
0.0
   0
SOLID
   5
2DC
 100
AcDbEntity
   8
LEVEL001
 100
AcDbTrace
   6
CONTINUOUS
  62
8
  10
 77.545875505440
  20
 27.872612294100
  30
0.0
  11
 77.898529466857
  21
 29.872612294100
  31
0.0
  12
 77.193221544023
  22
 29.872612294100
  32
0.0
  13
 77.193221544023
  23
 29.872612294100
  33
0.0
   0
SOLID
   5
2DD
 100
AcDbEntity
   8
LEVEL001
 100
AcDbTrace
   6
CONTINUOUS
  62
8
  10
 77.545875505440
  20
 37.272612294100
  30
0.0
  11
 77.193221544023
  21
 35.272612294100
  31
0.0
  12
 77.898529466857
  22
 35.272612294100
  32
0.0
  13
 77.898529466857
  23
 35.272612294100
  33
0.0
   0
MTEXT
   5
2DE
 100
AcDbEntity
   8
LEVEL001
 370
15
  62
8
 100
AcDbMText
  10
 76.545875505440
  20
 32.572612294100
  30
0.0
  40
 2.5000000000000
  41
0.0
  71
8
  72
1
   1
\A1;9.4
   7
GMM001
  11
0.0
  21
 1.0000000000000
  31
0.0
   0
ENDBLK
   5
2DF
 100
AcDbEntity
   8
0
 100
AcDbBlockEnd
   0
ENDSEC
   0
SECTION
   2
ENTITIES
   0
LINE
   5
2E0
 100
AcDbEntity
   8
LEVEL007
 370
30
 100
AcDbLine
   6
CONTINUOUS
  62
7
  10
 58.089639239962
  20
 163.24200735020
  30
0.0
  11
 58.089639239962
  21
 167.49200735020
  31
0.0
   0
LINE
   5
2E1
 100
AcDbEntity
   8
LEVEL007
 370
30
 100
AcDbLine
   6
CONTINUOUS
  62
7
  10
 57.339639239962
  20
 163.24200735020
  30
0.0
  11
 57.339639239962
  21
 167.49200735020
  31
0.0
   0
LINE
   5
2E2
 100
AcDbEntity
   8
LEVEL007
 370
30
 100
AcDbLine
   6
CONTINUOUS
  62
7
  10
 56.290207338032
  20
 168.96181704404
  30
0.0
  11
 28.688463724502
  21
 163.22661334222
  31
0.0
   0
LINE
   5
2E3
 100
AcDbEntity
   8
LEVEL007
 370
30
 100
AcDbLine
   6
CONTINUOUS
  62
7
  10
 56.439923288997
  20
 168.22691219712
  30
0.0
  11
 28.841041707237
  21
 162.49230318003
  31
0.0
   0
ARC
   5
2E4
 100
AcDbEntity
   8
LEVEL007
 370
30
   6
CONTINUOUS
  62
7
 100
AcDbCircle
  10
 58.839639239962
  20
 163.24200735020
  30
0.0
  40
 1.5000000000000
 100
AcDbArc
  50
 180.00000000000
  51
 270.00000000000
   0
ARC
   5
2E5
 100
AcDbEntity
   8
LEVEL007
 370
30
   6
CONTINUOUS
  62
7
 100
AcDbCircle
  10
 58.839639239962
  20
 163.24200735020
  30
0.0
  40
 0.75000000000000
 100
AcDbArc
  50
 180.00000000000
  51
 270.00000000000
   0
ARC
   5
2E6
 100
AcDbEntity
   8
LEVEL007
 370
30
   6
CONTINUOUS
  62
7
 100
AcDbCircle
  10
 56.589639239962
  20
 167.49200735020
  30
0.0
  40
 1.5000000000000
 100
AcDbArc
  50
0.0
  51
 101.51481269354
   0
ARC
   5
2E7
 100
AcDbEntity
   8
LEVEL007
 370
30
   6
CONTINUOUS
  62
7
 100
AcDbCircle
  10
 56.589639239962
  20
 167.49200735020
  30
0.0
  40
 0.75000000000000
 100
AcDbArc
  50
0.0
  51
 101.51481269354
   0
ARC
   5
2E8
 100
AcDbEntity
   8
LEVEL007
 370
30
   6
CONTINUOUS
  62
7
 100
AcDbCircle
  10
 28.841042286693
  20
 162.49230039129
  30
0.0
  40
 0.74999715169726
 100
AcDbArc
  50
 101.73812638214
  51
 281.73812638214
   0
LINE
   5
2E9
 100
AcDbEntity
   8
LEVEL007
 370
30
 100
AcDbLine
   6
CONTINUOUS
  62
7
  10
 28.841041707237
  20
 162.49230318003
  30
0.0
  11
 32.659486342291
  21
 163.28571529604
  31
0.0
   0
LINE
   5
2EA
 100
AcDbEntity
   8
LEVEL007
 370
30
 100
AcDbLine
   6
CONTINUOUS
  62
7
  10
 32.757395107578
  20
 163.30605918161
  30
0.0
  11
 32.909974249227
  21
 162.57174344192
  31
0.0
   0
LINE
   5
2EB
 100
AcDbEntity
   8
LEVEL007
 370
30
 100
AcDbLine
   6
CONTINUOUS
  62
7
  10
 32.909974249227
  20
 162.57174344192
  30
0.0
  11
 28.993620848883
  21
 161.75798744035
  31
0.0
   0
LINE
   5
2EC
 100
AcDbEntity
   8
LEVEL007
 370
30
 100
AcDbLine
   6
CONTINUOUS
  62
7
  10
 65.589639239962
  20
 162.49200735020
  30
0.0
  11
 58.839639239962
  21
 162.49200735020
  31
0.0
   0
LINE
   5
2ED
 100
AcDbEntity
   8
LEVEL007
 370
30
 100
AcDbLine
   6
CONTINUOUS
  62
7
  10
 65.589639239962
  20
 162.49200735020
  30
0.0
  11
 65.589639239962
  21
 161.74200735020
  31
0.0
   0
LINE
   5
2EE
 100
AcDbEntity
   8
LEVEL007
 370
30
 100
AcDbLine
   6
CONTINUOUS
  62
7
  10
 65.589639239962
  20
 161.74200735020
  30
0.0
  11
 58.839639239962
  21
 161.74200735020
  31
0.0
   0
DIMENSION
   5
2EF
 100
AcDbEntity
   8
LEVEL001
 370
15
   6
CONTINUOUS
  62
8
 100
AcDbDimension
   2
*D1
  10
 78.089639239962
  20
 168.99200735020
  30
0.0
  11
 78.089639239962
  21
 165.36700735020
  31
0.0
  70
0
   1
\A1;14.5
   3
GMM001
 100
AcDbAlignedDimension
  13
 68.089639239962
  23
 161.74200735020
  33
0.0
  14
 57.276492166286
  24
 168.99200735020
  34
0.0
  50
 90.000000000000
 100
AcDbRotatedDimension
   0
DIMENSION
   5
2F0
 100
AcDbEntity
   8
LEVEL001
 370
15
   6
CONTINUOUS
  62
8
 100
AcDbDimension
   2
*D2
  10
 71.604133274245
  20
 162.49200735020
  30
0.0
  11
 71.604133274245
  21
 160.18816931625
  31
0.0
  70
128
   1
\A1;1.5
   3
GMM002
 100
AcDbAlignedDimension
  13
 65.489639239962
  23
 161.74200735020
  33
0.0
  14
 65.489639239962
  24
 162.49200735020
  34
0.0
  50
 90.000000000000
 100
AcDbRotatedDimension
   0
DIMENSION
   5
2F1
 100
AcDbEntity
   8
LEVEL001
 370
15
   6
CONTINUOUS
  62
8
 100
AcDbDimension
   2
*D3
  10
 65.589639239962
  20
 175.00490293374
  30
0.0
  11
 61.839639239962
  21
 175.00490293374
  31
0.0
  70
0
   1
\A1;15
   3
GMM001
 100
AcDbAlignedDimension
  13
 58.089639239962
  23
 167.49200735020
  33
0.0
  14
 65.589639239962
  24
 162.39200735020
  34
0.0
 100
AcDbRotatedDimension
   0
DIMENSION
   5
2F2
 100
AcDbEntity
   8
LEVEL001
 370
15
   6
CONTINUOUS
  62
8
 100
AcDbDimension
   2
*D4
  10
 65.589639239962
  20
 181.49200735020
  30
0.0
  11
 46.839639239962
  21
 181.49200735020
  31
0.0
  70
0
   1
\A1;75
   3
GMM001
 100
AcDbAlignedDimension
  13
 28.089639239962
  23
 163.74654947987
  33
0.0
  14
 65.589639239962
  24
 171.49200735020
  34
0.0
 100
AcDbRotatedDimension
   0
LINE
   5
2F3
 100
AcDbEntity
   8
LEVEL002
 370
30
 100
AcDbLine
   6
CONTINUOUS
  62
7
  10
 344.15000000000
  20
 272.07500000000
  30
0.0
  11
 336.95000000000
  21
 272.07500000000
  31
0.0
   0
LINE
   5
2F4
 100
AcDbEntity
   8
LEVEL002
 370
30
 100
AcDbLine
   6
CONTINUOUS
  62
7
  10
 336.95000000000
  20
 272.07500000000
  30
0.0
  11
 336.95000000000
  21
 261.27500000000
  31
0.0
   0
LINE
   5
2F5
 100
AcDbEntity
   8
LEVEL002
 370
30
 100
AcDbLine
   6
CONTINUOUS
  62
7
  10
 336.95000000000
  20
 261.27500000000
  30
0.0
  11
 340.55000000000
  21
 261.27500000000
  31
0.0
   0
LINE
   5
2F6
 100
AcDbEntity
   8
LEVEL002
 370
30
 100
AcDbLine
   6
CONTINUOUS
  62
7
  10
 340.55000000000
  20
 261.27500000000
  30
0.0
  11
 340.55000000000
  21
 263.07500000000
  31
0.0
   0
LINE
   5
2F7
 100
AcDbEntity
   8
LEVEL002
 370
30
 100
AcDbLine
   6
CONTINUOUS
  62
7
  10
 340.55000000000
  20
 263.07500000000
  30
0.0
  11
 344.15000000000
  21
 263.07500000000
  31
0.0
   0
ARC
   5
2F8
 100
AcDbEntity
   8
LEVEL002
 370
30
   6
CONTINUOUS
  62
7
 100
AcDbCircle
  10
 344.15000000000
  20
 267.57500000000
  30
0.0
  40
 4.5000000000000
 100
AcDbArc
  50
 270.00000000000
  51
 90.000000000000
   0
LINE
   5
2F9
 100
AcDbEntity
   8
LEVEL002
 370
30
 100
AcDbLine
   6
CONTINUOUS
  62
7
  10
 340.55000000000
  20
 266.67500000000
  30
0.0
  11
 344.15000000000
  21
 266.67500000000
  31
0.0
   0
ARC
   5
2FA
 100
AcDbEntity
   8
LEVEL002
 370
30
   6
CONTINUOUS
  62
7
 100
AcDbCircle
  10
 344.15000000000
  20
 267.57500000000
  30
0.0
  40
 0.90000000000000
 100
AcDbArc
  50
 270.00000000000
  51
 90.000000000000
   0
LINE
   5
2FB
 100
AcDbEntity
   8
LEVEL002
 370
30
 100
AcDbLine
   6
CONTINUOUS
  62
7
  10
 344.15000000000
  20
 268.47500000000
  30
0.0
  11
 340.55000000000
  21
 268.47500000000
  31
0.0
   0
LINE
   5
2FC
 100
AcDbEntity
   8
LEVEL002
 370
30
 100
AcDbLine
   6
CONTINUOUS
  62
7
  10
 340.55000000000
  20
 268.47500000000
  30
0.0
  11
 340.55000000000
  21
 266.67500000000
  31
0.0
   0
LINE
   5
2FD
 100
AcDbEntity
   8
LEVEL002
 370
30
 100
AcDbLine
   6
CONTINUOUS
  62
7
  10
 345.95000000000
  20
 261.27500000000
  30
0.0
  11
 353.15000000000
  21
 272.07500000000
  31
0.0
   0
LINE
   5
2FE
 100
AcDbEntity
   8
LEVEL002
 370
30
 100
AcDbLine
   6
CONTINUOUS
  62
7
  10
 353.15000000000
  20
 272.07500000000
  30
0.0
  11
 362.15000000000
  21
 272.07500000000
  31
0.0
   0
LINE
   5
2FF
 100
AcDbEntity
   8
LEVEL002
 370
30
 100
AcDbLine
   6
CONTINUOUS
  62
7
  10
 362.15000000000
  20
 272.07500000000
  30
0.0
  11
 362.15000000000
  21
 264.87500000000
  31
0.0
   0
LINE
   5
300
 100
AcDbEntity
   8
LEVEL002
 370
30
 100
AcDbLine
   6
CONTINUOUS
  62
7
  10
 362.15000000000
  20
 264.87500000000
  30
0.0
  11
 367.55000000000
  21
 264.87500000000
  31
0.0
   0
LINE
   5
301
 100
AcDbEntity
   8
LEVEL002
 370
30
 100
AcDbLine
   6
CONTINUOUS
  62
7
  10
 367.55000000000
  20
 264.87500000000
  30
0.0
  11
 367.55000000000
  21
 268.47500000000
  31
0.0
   0
LINE
   5
302
 100
AcDbEntity
   8
LEVEL002
 370
30
 100
AcDbLine
   6
CONTINUOUS
  62
7
  10
 367.55000000000
  20
 268.47500000000
  30
0.0
  11
 363.95000000000
  21
 268.47500000000
  31
0.0
   0
LINE
   5
303
 100
AcDbEntity
   8
LEVEL002
 370
30
 100
AcDbLine
   6
CONTINUOUS
  62
7
  10
 363.95000000000
  20
 268.47500000000
  30
0.0
  11
 363.95000000000
  21
 272.07500000000
  31
0.0
   0
LINE
   5
304
 100
AcDbEntity
   8
LEVEL002
 370
30
 100
AcDbLine
   6
CONTINUOUS
  62
7
  10
 363.95000000000
  20
 272.07500000000
  30
0.0
  11
 385.55000000000
  21
 272.07500000000
  31
0.0
   0
LINE
   5
305
 100
AcDbEntity
   8
LEVEL002
 370
30
 100
AcDbLine
   6
CONTINUOUS
  62
7
  10
 385.55000000000
  20
 272.07500000000
  30
0.0
  11
 385.55000000000
  21
 268.47500000000
  31
0.0
   0
LINE
   5
306
 100
AcDbEntity
   8
LEVEL002
 370
30
 100
AcDbLine
   6
CONTINUOUS
  62
7
  10
 385.55000000000
  20
 268.47500000000
  30
0.0
  11
 378.35000000000
  21
 268.47500000000
  31
0.0
   0
LINE
   5
307
 100
AcDbEntity
   8
LEVEL002
 370
30
 100
AcDbLine
   6
CONTINUOUS
  62
7
  10
 378.35000000000
  20
 268.47500000000
  30
0.0
  11
 378.35000000000
  21
 267.57500000000
  31
0.0
   0
LINE
   5
308
 100
AcDbEntity
   8
LEVEL002
 370
30
 100
AcDbLine
   6
CONTINUOUS
  62
7
  10
 378.35000000000
  20
 267.57500000000
  30
0.0
  11
 384.65000000000
  21
 267.57500000000
  31
0.0
   0
LINE
   5
309
 100
AcDbEntity
   8
LEVEL002
 370
30
 100
AcDbLine
   6
CONTINUOUS
  62
7
  10
 384.65000000000
  20
 267.57500000000
  30
0.0
  11
 384.65000000000
  21
 265.77500000000
  31
0.0
   0
LINE
   5
30A
 100
AcDbEntity
   8
LEVEL002
 370
30
 100
AcDbLine
   6
CONTINUOUS
  62
7
  10
 384.65000000000
  20
 265.77500000000
  30
0.0
  11
 378.35000000000
  21
 265.77500000000
  31
0.0
   0
LINE
   5
30B
 100
AcDbEntity
   8
LEVEL002
 370
30
 100
AcDbLine
   6
CONTINUOUS
  62
7
  10
 378.35000000000
  20
 265.77500000000
  30
0.0
  11
 378.35000000000
  21
 264.87500000000
  31
0.0
   0
LINE
   5
30C
 100
AcDbEntity
   8
LEVEL002
 370
30
 100
AcDbLine
   6
CONTINUOUS
  62
7
  10
 378.35000000000
  20
 264.87500000000
  30
0.0
  11
 385.55000000000
  21
 264.87500000000
  31
0.0
   0
LINE
   5
30D
 100
AcDbEntity
   8
LEVEL002
 370
30
 100
AcDbLine
   6
CONTINUOUS
  62
7
  10
 385.55000000000
  20
 264.87500000000
  30
0.0
  11
 385.55000000000
  21
 261.27500000000
  31
0.0
   0
LINE
   5
30E
 100
AcDbEntity
   8
LEVEL002
 370
30
 100
AcDbLine
   6
CONTINUOUS
  62
7
  10
 385.55000000000
  20
 261.27500000000
  30
0.0
  11
 374.75000000000
  21
 261.27500000000
  31
0.0
   0
LINE
   5
30F
 100
AcDbEntity
   8
LEVEL002
 370
30
 100
AcDbLine
   6
CONTINUOUS
  62
7
  10
 374.75000000000
  20
 261.27500000000
  30
0.0
  11
 374.75000000000
  21
 268.47500000000
  31
0.0
   0
LINE
   5
310
 100
AcDbEntity
   8
LEVEL002
 370
30
 100
AcDbLine
   6
CONTINUOUS
  62
7
  10
 374.75000000000
  20
 268.47500000000
  30
0.0
  11
 371.15000000000
  21
 268.47500000000
  31
0.0
   0
LINE
   5
311
 100
AcDbEntity
   8
LEVEL002
 370
30
 100
AcDbLine
   6
CONTINUOUS
  62
7
  10
 371.15000000000
  20
 268.47500000000
  30
0.0
  11
 371.15000000000
  21
 261.27500000000
  31
0.0
   0
LINE
   5
312
 100
AcDbEntity
   8
LEVEL002
 370
30
 100
AcDbLine
   6
CONTINUOUS
  62
7
  10
 371.15000000000
  20
 261.27500000000
  30
0.0
  11
 358.55000000000
  21
 261.27500000000
  31
0.0
   0
LINE
   5
313
 100
AcDbEntity
   8
LEVEL002
 370
30
 100
AcDbLine
   6
CONTINUOUS
  62
7
  10
 358.55000000000
  20
 261.27500000000
  30
0.0
  11
 358.55000000000
  21
 272.07500000000
  31
0.0
   0
LINE
   5
314
 100
AcDbEntity
   8
LEVEL002
 370
30
 100
AcDbLine
   6
CONTINUOUS
  62
7
  10
 358.55000000000
  20
 272.07500000000
  30
0.0
  11
 351.35000000000
  21
 261.27500000000
  31
0.0
   0
LINE
   5
315
 100
AcDbEntity
   8
LEVEL002
 370
30
 100
AcDbLine
   6
CONTINUOUS
  62
7
  10
 351.35000000000
  20
 261.27500000000
  30
0.0
  11
 345.95000000000
  21
 261.27500000000
  31
0.0
   0
LINE
   5
316
 100
AcDbEntity
   8
LEVEL002
 370
30
 100
AcDbLine
   6
CONTINUOUS
  62
7
  10
 357.35000000000
  20
 268.11166923470
  30
0.0
  11
 352.79222051020
  21
 261.27500000000
  31
0.0
   0
LINE
   5
317
 100
AcDbEntity
   8
LEVEL002
 370
30
 100
AcDbLine
   6
CONTINUOUS
  62
7
  10
 352.79222051020
  20
 261.27500000000
  30
0.0
  11
 357.35000000000
  21
 261.27500000000
  31
0.0
   0
LINE
   5
318
 100
AcDbEntity
   8
LEVEL002
 370
30
 100
AcDbLine
   6
CONTINUOUS
  62
7
  10
 357.35000000000
  20
 261.27500000000
  30
0.0
  11
 357.35000000000
  21
 268.11166923470
  31
0.0
   0
ARC
   5
319
 100
AcDbEntity
   8
LEVEL002
 370
30
   6
CONTINUOUS
  62
7
 100
AcDbCircle
  10
 390.95000000000
  20
 266.67500000000
  30
0.0
  40
 5.4000000000000
 100
AcDbArc
  50
 90.000000000000
  51
 270.00000000000
   0
ARC
   5
31A
 100
AcDbEntity
   8
LEVEL002
 370
30
   6
CONTINUOUS
  62
7
 100
AcDbCircle
  10
 390.95000000000
  20
 266.67500000000
  30
0.0
  40
 1.8000000000000
 100
AcDbArc
  50
 90.000000000000
  51
 270.00000000000
   0
LINE
   5
31B
 100
AcDbEntity
   8
LEVEL002
 370
30
 100
AcDbLine
   6
CONTINUOUS
  62
7
  10
 390.95000000000
  20
 272.07500000000
  30
0.0
  11
 396.35000000000
  21
 272.07500000000
  31
0.0
   0
LINE
   5
31C
 100
AcDbEntity
   8
LEVEL002
 370
30
 100
AcDbLine
   6
CONTINUOUS
  62
7
  10
 396.35000000000
  20
 272.07500000000
  30
0.0
  11
 396.35000000000
  21
 268.47500000000
  31
0.0
   0
LINE
   5
31D
 100
AcDbEntity
   8
LEVEL002
 370
30
 100
AcDbLine
   6
CONTINUOUS
  62
7
  10
 396.35000000000
  20
 268.47500000000
  30
0.0
  11
 390.95000000000
  21
 268.47500000000
  31
0.0
   0
LINE
   5
31E
 100
AcDbEntity
   8
LEVEL002
 370
30
 100
AcDbLine
   6
CONTINUOUS
  62
7
  10
 336.95000000000
  20
 272.07500000000
  30
0.0
  11
 336.95000000000
  21
 261.27500000000
  31
0.0
   0
LINE
   5
31F
 100
AcDbEntity
   8
LEVEL002
 370
30
 100
AcDbLine
   6
CONTINUOUS
  62
7
  10
 336.95000000000
  20
 261.27500000000
  30
0.0
  11
 340.55000000000
  21
 261.27500000000
  31
0.0
   0
LINE
   5
320
 100
AcDbEntity
   8
LEVEL002
 370
30
 100
AcDbLine
   6
CONTINUOUS
  62
7
  10
 340.55000000000
  20
 261.27500000000
  30
0.0
  11
 340.55000000000
  21
 263.07500000000
  31
0.0
   0
LINE
   5
321
 100
AcDbEntity
   8
LEVEL002
 370
30
 100
AcDbLine
   6
CONTINUOUS
  62
7
  10
 340.55000000000
  20
 263.07500000000
  30
0.0
  11
 344.15000000000
  21
 263.07500000000
  31
0.0
   0
ARC
   5
322
 100
AcDbEntity
   8
LEVEL002
 370
30
   6
CONTINUOUS
  62
7
 100
AcDbCircle
  10
 344.15000000000
  20
 267.57500000000
  30
0.0
  40
 4.5000000000000
 100
AcDbArc
  50
 270.00000000000
  51
 90.000000000000
   0
LINE
   5
323
 100
AcDbEntity
   8
LEVEL002
 370
30
 100
AcDbLine
   6
CONTINUOUS
  62
7
  10
 344.15000000000
  20
 272.07500000000
  30
0.0
  11
 336.95000000000
  21
 272.07500000000
  31
0.0
   0
LINE
   5
324
 100
AcDbEntity
   8
LEVEL002
 370
30
 100
AcDbLine
   6
CONTINUOUS
  62
7
  10
 340.55000000000
  20
 268.47500000000
  30
0.0
  11
 340.55000000000
  21
 266.67500000000
  31
0.0
   0
LINE
   5
325
 100
AcDbEntity
   8
LEVEL002
 370
30
 100
AcDbLine
   6
CONTINUOUS
  62
7
  10
 340.55000000000
  20
 266.67500000000
  30
0.0
  11
 344.15000000000
  21
 266.67500000000
  31
0.0
   0
ARC
   5
326
 100
AcDbEntity
   8
LEVEL002
 370
30
   6
CONTINUOUS
  62
7
 100
AcDbCircle
  10
 344.15000000000
  20
 267.57500000000
  30
0.0
  40
 0.90000000000000
 100
AcDbArc
  50
 270.00000000000
  51
 90.000000000000
   0
LINE
   5
327
 100
AcDbEntity
   8
LEVEL002
 370
30
 100
AcDbLine
   6
CONTINUOUS
  62
7
  10
 344.15000000000
  20
 268.47500000000
  30
0.0
  11
 340.55000000000
  21
 268.47500000000
  31
0.0
   0
LINE
   5
328
 100
AcDbEntity
   8
LEVEL002
 370
30
 100
AcDbLine
   6
CONTINUOUS
  62
7
  10
 353.15000000000
  20
 272.07500000000
  30
0.0
  11
 345.95000000000
  21
 261.27500000000
  31
0.0
   0
LINE
   5
329
 100
AcDbEntity
   8
LEVEL002
 370
30
 100
AcDbLine
   6
CONTINUOUS
  62
7
  10
 345.95000000000
  20
 261.27500000000
  30
0.0
  11
 351.35000000000
  21
 261.27500000000
  31
0.0
   0
LINE
   5
32A
 100
AcDbEntity
   8
LEVEL002
 370
30
 100
AcDbLine
   6
CONTINUOUS
  62
7
  10
 351.35000000000
  20
 261.27500000000
  30
0.0
  11
 358.55000000000
  21
 272.07500000000
  31
0.0
   0
LINE
   5
32B
 100
AcDbEntity
   8
LEVEL002
 370
30
 100
AcDbLine
   6
CONTINUOUS
  62
7
  10
 358.55000000000
  20
 272.07500000000
  30
0.0
  11
 353.15000000000
  21
 272.07500000000
  31
0.0
   0
LINE
   5
32C
 100
AcDbEntity
   8
LEVEL002
 370
30
 100
AcDbLine
   6
CONTINUOUS
  62
7
  10
 357.35000000000
  20
 261.27500000000
  30
0.0
  11
 357.35000000000
  21
 268.11166923470
  31
0.0
   0
LINE
   5
32D
 100
AcDbEntity
   8
LEVEL002
 370
30
 100
AcDbLine
   6
CONTINUOUS
  62
7
  10
 357.35000000000
  20
 268.11166923470
  30
0.0
  11
 352.79222051020
  21
 261.27500000000
  31
0.0
   0
LINE
   5
32E
 100
AcDbEntity
   8
LEVEL002
 370
30
 100
AcDbLine
   6
CONTINUOUS
  62
7
  10
 352.79222051020
  20
 261.27500000000
  30
0.0
  11
 357.35000000000
  21
 261.27500000000
  31
0.0
   0
LINE
   5
32F
 100
AcDbEntity
   8
LEVEL002
 370
30
 100
AcDbLine
   6
CONTINUOUS
  62
7
  10
 358.55000000000
  20
 261.27500000000
  30
0.0
  11
 371.15000000000
  21
 261.27500000000
  31
0.0
   0
LINE
   5
330
 100
AcDbEntity
   8
LEVEL002
 370
30
 100
AcDbLine
   6
CONTINUOUS
  62
7
  10
 371.15000000000
  20
 261.27500000000
  30
0.0
  11
 371.15000000000
  21
 268.47500000000
  31
0.0
   0
LINE
   5
331
 100
AcDbEntity
   8
LEVEL002
 370
30
 100
AcDbLine
   6
CONTINUOUS
  62
7
  10
 371.15000000000
  20
 268.47500000000
  30
0.0
  11
 374.75000000000
  21
 268.47500000000
  31
0.0
   0
LINE
   5
332
 100
AcDbEntity
   8
LEVEL002
 370
30
 100
AcDbLine
   6
CONTINUOUS
  62
7
  10
 374.75000000000
  20
 268.47500000000
  30
0.0
  11
 374.75000000000
  21
 261.27500000000
  31
0.0
   0
LINE
   5
333
 100
AcDbEntity
   8
LEVEL002
 370
30
 100
AcDbLine
   6
CONTINUOUS
  62
7
  10
 374.75000000000
  20
 261.27500000000
  30
0.0
  11
 385.55000000000
  21
 261.27500000000
  31
0.0
   0
LINE
   5
334
 100
AcDbEntity
   8
LEVEL002
 370
30
 100
AcDbLine
   6
CONTINUOUS
  62
7
  10
 385.55000000000
  20
 261.27500000000
  30
0.0
  11
 385.55000000000
  21
 264.87500000000
  31
0.0
   0
LINE
   5
335
 100
AcDbEntity
   8
LEVEL002
 370
30
 100
AcDbLine
   6
CONTINUOUS
  62
7
  10
 385.55000000000
  20
 264.87500000000
  30
0.0
  11
 378.35000000000
  21
 264.87500000000
  31
0.0
   0
LINE
   5
336
 100
AcDbEntity
   8
LEVEL002
 370
30
 100
AcDbLine
   6
CONTINUOUS
  62
7
  10
 378.35000000000
  20
 264.87500000000
  30
0.0
  11
 378.35000000000
  21
 265.77500000000
  31
0.0
   0
LINE
   5
337
 100
AcDbEntity
   8
LEVEL002
 370
30
 100
AcDbLine
   6
CONTINUOUS
  62
7
  10
 378.35000000000
  20
 265.77500000000
  30
0.0
  11
 384.65000000000
  21
 265.77500000000
  31
0.0
   0
LINE
   5
338
 100
AcDbEntity
   8
LEVEL002
 370
30
 100
AcDbLine
   6
CONTINUOUS
  62
7
  10
 384.65000000000
  20
 265.77500000000
  30
0.0
  11
 384.65000000000
  21
 267.57500000000
  31
0.0
   0
LINE
   5
339
 100
AcDbEntity
   8
LEVEL002
 370
30
 100
AcDbLine
   6
CONTINUOUS
  62
7
  10
 384.65000000000
  20
 267.57500000000
  30
0.0
  11
 378.35000000000
  21
 267.57500000000
  31
0.0
   0
LINE
   5
33A
 100
AcDbEntity
   8
LEVEL002
 370
30
 100
AcDbLine
   6
CONTINUOUS
  62
7
  10
 378.35000000000
  20
 267.57500000000
  30
0.0
  11
 378.35000000000
  21
 268.47500000000
  31
0.0
   0
LINE
   5
33B
 100
AcDbEntity
   8
LEVEL002
 370
30
 100
AcDbLine
   6
CONTINUOUS
  62
7
  10
 378.35000000000
  20
 268.47500000000
  30
0.0
  11
 385.55000000000
  21
 268.47500000000
  31
0.0
   0
LINE
   5
33C
 100
AcDbEntity
   8
LEVEL002
 370
30
 100
AcDbLine
   6
CONTINUOUS
  62
7
  10
 385.55000000000
  20
 268.47500000000
  30
0.0
  11
 385.55000000000
  21
 272.07500000000
  31
0.0
   0
LINE
   5
33D
 100
AcDbEntity
   8
LEVEL002
 370
30
 100
AcDbLine
   6
CONTINUOUS
  62
7
  10
 385.55000000000
  20
 272.07500000000
  30
0.0
  11
 363.95000000000
  21
 272.07500000000
  31
0.0
   0
LINE
   5
33E
 100
AcDbEntity
   8
LEVEL002
 370
30
 100
AcDbLine
   6
CONTINUOUS
  62
7
  10
 363.95000000000
  20
 272.07500000000
  30
0.0
  11
 363.95000000000
  21
 268.47500000000
  31
0.0
   0
LINE
   5
33F
 100
AcDbEntity
   8
LEVEL002
 370
30
 100
AcDbLine
   6
CONTINUOUS
  62
7
  10
 363.95000000000
  20
 268.47500000000
  30
0.0
  11
 367.55000000000
  21
 268.47500000000
  31
0.0
   0
LINE
   5
340
 100
AcDbEntity
   8
LEVEL002
 370
30
 100
AcDbLine
   6
CONTINUOUS
  62
7
  10
 367.55000000000
  20
 268.47500000000
  30
0.0
  11
 367.55000000000
  21
 264.87500000000
  31
0.0
   0
LINE
   5
341
 100
AcDbEntity
   8
LEVEL002
 370
30
 100
AcDbLine
   6
CONTINUOUS
  62
7
  10
 367.55000000000
  20
 264.87500000000
  30
0.0
  11
 362.15000000000
  21
 264.87500000000
  31
0.0
   0
LINE
   5
342
 100
AcDbEntity
   8
LEVEL002
 370
30
 100
AcDbLine
   6
CONTINUOUS
  62
7
  10
 362.15000000000
  20
 264.87500000000
  30
0.0
  11
 362.15000000000
  21
 272.07500000000
  31
0.0
   0
LINE
   5
343
 100
AcDbEntity
   8
LEVEL002
 370
30
 100
AcDbLine
   6
CONTINUOUS
  62
7
  10
 362.15000000000
  20
 272.07500000000
  30
0.0
  11
 358.55000000000
  21
 272.07500000000
  31
0.0
   0
LINE
   5
344
 100
AcDbEntity
   8
LEVEL002
 370
30
 100
AcDbLine
   6
CONTINUOUS
  62
7
  10
 358.55000000000
  20
 272.07500000000
  30
0.0
  11
 358.55000000000
  21
 261.27500000000
  31
0.0
   0
LINE
   5
345
 100
AcDbEntity
   8
LEVEL002
 370
30
 100
AcDbLine
   6
CONTINUOUS
  62
7
  10
 390.95000000000
  20
 261.27500000000
  30
0.0
  11
 396.35000000000
  21
 261.27500000000
  31
0.0
   0
LINE
   5
346
 100
AcDbEntity
   8
LEVEL002
 370
30
 100
AcDbLine
   6
CONTINUOUS
  62
7
  10
 396.35000000000
  20
 261.27500000000
  30
0.0
  11
 396.35000000000
  21
 264.87500000000
  31
0.0
   0
LINE
   5
347
 100
AcDbEntity
   8
LEVEL002
 370
30
 100
AcDbLine
   6
CONTINUOUS
  62
7
  10
 396.35000000000
  20
 264.87500000000
  30
0.0
  11
 390.95000000000
  21
 264.87500000000
  31
0.0
   0
ARC
   5
348
 100
AcDbEntity
   8
LEVEL002
 370
30
   6
CONTINUOUS
  62
7
 100
AcDbCircle
  10
 390.95000000000
  20
 266.67500000000
  30
0.0
  40
 1.8000000000000
 100
AcDbArc
  50
 90.000000000000
  51
 270.00000000000
   0
LINE
   5
349
 100
AcDbEntity
   8
LEVEL002
 370
30
 100
AcDbLine
   6
CONTINUOUS
  62
7
  10
 390.95000000000
  20
 268.47500000000
  30
0.0
  11
 396.35000000000
  21
 268.47500000000
  31
0.0
   0
LINE
   5
34A
 100
AcDbEntity
   8
LEVEL002
 370
30
 100
AcDbLine
   6
CONTINUOUS
  62
7
  10
 396.35000000000
  20
 268.47500000000
  30
0.0
  11
 396.35000000000
  21
 272.07500000000
  31
0.0
   0
LINE
   5
34B
 100
AcDbEntity
   8
LEVEL002
 370
30
 100
AcDbLine
   6
CONTINUOUS
  62
7
  10
 396.35000000000
  20
 272.07500000000
  30
0.0
  11
 390.95000000000
  21
 272.07500000000
  31
0.0
   0
ARC
   5
34C
 100
AcDbEntity
   8
LEVEL002
 370
30
   6
CONTINUOUS
  62
7
 100
AcDbCircle
  10
 390.95000000000
  20
 266.67500000000
  30
0.0
  40
 5.4000000000000
 100
AcDbArc
  50
 90.000000000000
  51
 270.00000000000
   0
MTEXT
   5
34E
 100
AcDbEntity
   8
LEVEL002
 370
30
  62
7
 100
AcDbMText
  10
 336.95000000000
  20
 273.87500000000
  30
0.0
  40
 3.7500000000000
  41
0.0
  71
7
  72
1
   1
\T1.000000;ケージーパルテック株式会社
   7
GMM002
  44
 0.79999984000003
   0
LINE
   5
34F
 100
AcDbEntity
   8
LEVEL002
 370
30
 100
AcDbLine
   6
CONTINUOUS
  62
7
  10
 333.35000000000
  20
 263.67500000000
  30
0.0
  11
 328.85000000000
  21
 270.87500000000
  31
0.0
   0
LINE
   5
350
 100
AcDbEntity
   8
LEVEL002
 370
30
 100
AcDbLine
   6
CONTINUOUS
  62
7
  10
 328.85000000000
  20
 270.87500000000
  30
0.0
  11
 333.35000000000
  21
 270.87500000000
  31
0.0
   0
LINE
   5
351
 100
AcDbEntity
   8
LEVEL002
 370
30
 100
AcDbLine
   6
CONTINUOUS
  62
7
  10
 333.35000000000
  20
 270.87500000000
  30
0.0
  11
 333.35000000000
  21
 263.67500000000
  31
0.0
   0
LINE
   5
352
 100
AcDbEntity
   8
LEVEL002
 370
30
 100
AcDbLine
   6
CONTINUOUS
  62
7
  10
 328.85000000000
  20
 270.87500000000
  30
0.0
  11
 333.35000000000
  21
 263.67500000000
  31
0.0
   0
LINE
   5
353
 100
AcDbEntity
   8
LEVEL002
 370
30
 100
AcDbLine
   6
CONTINUOUS
  62
7
  10
 333.35000000000
  20
 263.67500000000
  30
0.0
  11
 333.35000000000
  21
 270.87500000000
  31
0.0
   0
LINE
   5
354
 100
AcDbEntity
   8
LEVEL002
 370
30
 100
AcDbLine
   6
CONTINUOUS
  62
7
  10
 333.35000000000
  20
 270.87500000000
  30
0.0
  11
 328.85000000000
  21
 270.87500000000
  31
0.0
   0
LINE
   5
355
 100
AcDbEntity
   8
LEVEL002
 370
30
 100
AcDbLine
   6
CONTINUOUS
  62
7
  10
 319.05000000000
  20
 280.47500000000
  30
0.0
  11
 312.65000000000
  21
 270.87500000000
  31
0.0
   0
LINE
   5
356
 100
AcDbEntity
   8
LEVEL002
 370
30
 100
AcDbLine
   6
CONTINUOUS
  62
7
  10
 312.65000000000
  20
 270.87500000000
  30
0.0
  11
 319.05000000000
  21
 261.27500000000
  31
0.0
   0
LINE
   5
357
 100
AcDbEntity
   8
LEVEL002
 370
30
 100
AcDbLine
   6
CONTINUOUS
  62
7
  10
 324.45000000000
  20
 261.27500000000
  30
0.0
  11
 318.05000000000
  21
 270.87500000000
  31
0.0
   0
LINE
   5
358
 100
AcDbEntity
   8
LEVEL002
 370
30
 100
AcDbLine
   6
CONTINUOUS
  62
7
  10
 318.05000000000
  20
 270.87500000000
  30
0.0
  11
 324.45000000000
  21
 280.47500000000
  31
0.0
   0
LINE
   5
359
 100
AcDbEntity
   8
LEVEL002
 370
30
 100
AcDbLine
   6
CONTINUOUS
  62
7
  10
 327.15000000000
  20
 280.47500000000
  30
0.0
  11
 320.75000000000
  21
 270.87500000000
  31
0.0
   0
LINE
   5
35A
 100
AcDbEntity
   8
LEVEL002
 370
30
 100
AcDbLine
   6
CONTINUOUS
  62
7
  10
 320.75000000000
  20
 270.87500000000
  30
0.0
  11
 327.15000000000
  21
 261.27500000000
  31
0.0
   0
LINE
   5
35B
 100
AcDbEntity
   8
LEVEL002
 370
30
 100
AcDbLine
   6
CONTINUOUS
  62
7
  10
 332.55000000000
  20
 261.27500000000
  30
0.0
  11
 326.15000000000
  21
 270.87500000000
  31
0.0
   0
LINE
   5
35C
 100
AcDbEntity
   8
LEVEL002
 370
30
 100
AcDbLine
   6
CONTINUOUS
  62
7
  10
 326.15000000000
  20
 270.87500000000
  30
0.0
  11
 332.55000000000
  21
 280.47500000000
  31
0.0
   0
LINE
   5
35D
 100
AcDbEntity
   8
LEVEL002
 370
30
 100
AcDbLine
   6
CONTINUOUS
  62
7
  10
 319.05000000000
  20
 261.27500000000
  30
0.0
  11
 312.65000000000
  21
 270.87500000000
  31
0.0
   0
LINE
   5
35E
 100
AcDbEntity
   8
LEVEL002
 370
30
 100
AcDbLine
   6
CONTINUOUS
  62
7
  10
 312.65000000000
  20
 270.87500000000
  30
0.0
  11
 319.05000000000
  21
 280.47500000000
  31
0.0
   0
LINE
   5
35F
 100
AcDbEntity
   8
LEVEL002
 370
30
 100
AcDbLine
   6
CONTINUOUS
  62
7
  10
 319.05000000000
  20
 280.47500000000
  30
0.0
  11
 324.45000000000
  21
 280.47500000000
  31
0.0
   0
LINE
   5
360
 100
AcDbEntity
   8
LEVEL002
 370
30
 100
AcDbLine
   6
CONTINUOUS
  62
7
  10
 324.45000000000
  20
 280.47500000000
  30
0.0
  11
 318.05000000000
  21
 270.87500000000
  31
0.0
   0
LINE
   5
361
 100
AcDbEntity
   8
LEVEL002
 370
30
 100
AcDbLine
   6
CONTINUOUS
  62
7
  10
 318.05000000000
  20
 270.87500000000
  30
0.0
  11
 324.45000000000
  21
 261.27500000000
  31
0.0
   0
LINE
   5
362
 100
AcDbEntity
   8
LEVEL002
 370
30
 100
AcDbLine
   6
CONTINUOUS
  62
7
  10
 324.45000000000
  20
 261.27500000000
  30
0.0
  11
 319.05000000000
  21
 261.27500000000
  31
0.0
   0
LINE
   5
363
 100
AcDbEntity
   8
LEVEL002
 370
30
 100
AcDbLine
   6
CONTINUOUS
  62
7
  10
 327.15000000000
  20
 261.27500000000
  30
0.0
  11
 320.75000000000
  21
 270.87500000000
  31
0.0
   0
LINE
   5
364
 100
AcDbEntity
   8
LEVEL002
 370
30
 100
AcDbLine
   6
CONTINUOUS
  62
7
  10
 320.75000000000
  20
 270.87500000000
  30
0.0
  11
 327.15000000000
  21
 280.47500000000
  31
0.0
   0
LINE
   5
365
 100
AcDbEntity
   8
LEVEL002
 370
30
 100
AcDbLine
   6
CONTINUOUS
  62
7
  10
 327.15000000000
  20
 280.47500000000
  30
0.0
  11
 332.55000000000
  21
 280.47500000000
  31
0.0
   0
LINE
   5
366
 100
AcDbEntity
   8
LEVEL002
 370
30
 100
AcDbLine
   6
CONTINUOUS
  62
7
  10
 332.55000000000
  20
 280.47500000000
  30
0.0
  11
 326.15000000000
  21
 270.87500000000
  31
0.0
   0
LINE
   5
367
 100
AcDbEntity
   8
LEVEL002
 370
30
 100
AcDbLine
   6
CONTINUOUS
  62
7
  10
 326.15000000000
  20
 270.87500000000
  30
0.0
  11
 332.55000000000
  21
 261.27500000000
  31
0.0
   0
LINE
   5
368
 100
AcDbEntity
   8
LEVEL002
 370
30
 100
AcDbLine
   6
CONTINUOUS
  62
7
  10
 332.55000000000
  20
 261.27500000000
  30
0.0
  11
 327.15000000000
  21
 261.27500000000
  31
0.0
   0
LINE
   5
369
 100
AcDbEntity
   8
LEVEL001
 370
30
 100
AcDbLine
   6
DOT
  62
7
  10
0.0
  20
0.0
  30
0.0
  11
 420.00000000000
  21
0.0
  31
0.0
   0
LINE
   5
36A
 100
AcDbEntity
   8
LEVEL001
 370
30
 100
AcDbLine
   6
DOT
  62
7
  10
 420.00000000000
  20
0.0
  30
0.0
  11
 420.00000000000
  21
 297.00000000000
  31
0.0
   0
LINE
   5
36B
 100
AcDbEntity
   8
LEVEL001
 370
30
 100
AcDbLine
   6
DOT
  62
7
  10
 420.00000000000
  20
 297.00000000000
  30
0.0
  11
0.0
  21
 297.00000000000
  31
0.0
   0
LINE
   5
36C
 100
AcDbEntity
   8
LEVEL001
 370
30
 100
AcDbLine
   6
DOT
  62
7
  10
0.0
  20
 297.00000000000
  30
0.0
  11
0.0
  21
0.0
  31
0.0
   0
LINE
   5
36D
 100
AcDbEntity
   8
LEVEL002
 370
40
 100
AcDbLine
   6
CONTINUOUS
  62
3
  10
 15.499999999950
  20
 216.75000000000
  30
0.0
  11
 304.49999999995
  21
 216.75000000000
  31
0.0
   0
LINE
   5
36E
 100
AcDbEntity
   8
LEVEL002
 370
40
 100
AcDbLine
   6
CONTINUOUS
  62
3
  10
 15.499999999950
  20
 275.00000000000
  30
0.0
  11
 304.49999999995
  21
 275.00000000000
  31
0.0
   0
LINE
   5
36F
 100
AcDbEntity
   8
LEVEL002
 370
40
 100
AcDbLine
   6
CONTINUOUS
  62
3
  10
 15.499999999950
  20
 206.75000000000
  30
0.0
  11
 304.49999999995
  21
 206.75000000000
  31
0.0
   0
LINE
   5
370
 100
AcDbEntity
   8
LEVEL002
 370
40
 100
AcDbLine
   6
CONTINUOUS
  62
3
  10
 304.49999999995
  20
 256.75000000000
  30
0.0
  11
 404.49999999995
  21
 256.75000000000
  31
0.0
   0
LINE
   5
371
 100
AcDbEntity
   8
LEVEL002
 370
40
 100
AcDbLine
   6
CONTINUOUS
  62
3
  10
 304.49999999995
  20
 236.75000000000
  30
0.0
  11
 404.49999999995
  21
 236.75000000000
  31
0.0
   0
LINE
   5
372
 100
AcDbEntity
   8
LEVEL002
 370
40
 100
AcDbLine
   6
CONTINUOUS
  62
3
  10
 304.49999999995
  20
 216.75000000000
  30
0.0
  11
 404.49999999995
  21
 216.75000000000
  31
0.0
   0
LINE
   5
373
 100
AcDbEntity
   8
LEVEL002
 370
40
 100
AcDbLine
   6
CONTINUOUS
  62
3
  10
 232.24999999995
  20
 285.00000000000
  30
0.0
  11
 232.24999999995
  21
 12.000000000010
  31
0.0
   0
LINE
   5
374
 100
AcDbEntity
   8
LEVEL002
 370
40
 100
AcDbLine
   6
CONTINUOUS
  62
3
  10
 159.99999999995
  20
 285.00000000000
  30
0.0
  11
 159.99999999995
  21
 12.000000000010
  31
0.0
   0
LINE
   5
375
 100
AcDbEntity
   8
LEVEL002
 370
40
 100
AcDbLine
   6
CONTINUOUS
  62
3
  10
 87.749999999950
  20
 285.00000000000
  30
0.0
  11
 87.749999999950
  21
 12.000000000010
  31
0.0
   0
LINE
   5
376
 100
AcDbEntity
   8
LEVEL002
 370
40
 100
AcDbLine
   6
CONTINUOUS
  62
3
  10
 15.499999999950
  20
 148.50000000001
  30
0.0
  11
 304.49999999995
  21
 148.50000000001
  31
0.0
   0
LINE
   5
377
 100
AcDbEntity
   8
LEVEL002
 370
40
 100
AcDbLine
   6
CONTINUOUS
  62
3
  10
 15.499999999950
  20
 138.50000000001
  30
0.0
  11
 304.49999999995
  21
 138.50000000001
  31
0.0
   0
LINE
   5
378
 100
AcDbEntity
   8
LEVEL002
 370
40
 100
AcDbLine
   6
CONTINUOUS
  62
3
  10
 15.499999999950
  20
 80.250000000010
  30
0.0
  11
 304.49999999995
  21
 80.250000000010
  31
0.0
   0
LINE
   5
379
 100
AcDbEntity
   8
LEVEL002
 370
40
 100
AcDbLine
   6
CONTINUOUS
  62
3
  10
 15.499999999950
  20
 70.250000000010
  30
0.0
  11
 304.49999999995
  21
 70.250000000010
  31
0.0
   0
LINE
   5
37A
 100
AcDbEntity
   8
LEVEL002
 370
40
 100
AcDbLine
   6
CONTINUOUS
  62
3
  10
 304.49999999995
  20
 72.000000000010
  30
0.0
  11
 404.49999999995
  21
 72.000000000010
  31
0.0
   0
LINE
   5
37B
 100
AcDbEntity
   8
LEVEL002
 370
40
 100
AcDbLine
   6
CONTINUOUS
  62
3
  10
 304.49999999995
  20
 52.000000000010
  30
0.0
  11
 404.49999999995
  21
 52.000000000010
  31
0.0
   0
LINE
   5
37C
 100
AcDbEntity
   8
LEVEL002
 370
40
 100
AcDbLine
   6
CONTINUOUS
  62
3
  10
 304.49999999995
  20
 32.000000000010
  30
0.0
  11
 404.49999999995
  21
 32.000000000010
  31
0.0
   0
LINE
   5
37D
 100
AcDbEntity
   8
LEVEL002
 370
40
 100
AcDbLine
   6
CONTINUOUS
  62
3
  10
 354.49999999995
  20
 52.000000000010
  30
0.0
  11
 354.49999999995
  21
 12.000000000010
  31
0.0
   0
LINE
   5
37E
 100
AcDbEntity
   8
LEVEL002
 370
40
 100
AcDbLine
   6
CONTINUOUS
  62
3
  10
 354.49999999995
  20
 38.666666666680
  30
0.0
  11
 404.49999999995
  21
 38.666666666680
  31
0.0
   0
LINE
   5
37F
 100
AcDbEntity
   8
LEVEL002
 370
40
 100
AcDbLine
   6
CONTINUOUS
  62
3
  10
 354.49999999995
  20
 45.333333333345
  30
0.0
  11
 404.49999999995
  21
 45.333333333345
  31
0.0
   0
LINE
   5
380
 100
AcDbEntity
   8
LEVEL002
 370
50
 100
AcDbLine
   6
CONTINUOUS
  62
4
  10
 404.49999999995
  20
 285.00000000000
  30
0.0
  11
 15.499999999950
  21
 285.00000000000
  31
0.0
   0
LINE
   5
381
 100
AcDbEntity
   8
LEVEL002
 370
50
 100
AcDbLine
   6
CONTINUOUS
  62
4
  10
 304.49999999995
  20
 285.00000000000
  30
0.0
  11
 304.49999999995
  21
 12.000000000010
  31
0.0
   0
LINE
   5
382
 100
AcDbEntity
   8
LEVEL002
 370
50
 100
AcDbLine
   6
CONTINUOUS
  62
4
  10
 404.49999999995
  20
 12.000000000010
  30
0.0
  11
 404.49999999995
  21
 285.00000000000
  31
0.0
   0
LINE
   5
383
 100
AcDbEntity
   8
LEVEL002
 370
50
 100
AcDbLine
   6
CONTINUOUS
  62
4
  10
 15.499999999950
  20
 285.00000000000
  30
0.0
  11
 15.499999999950
  21
 12.000000000010
  31
0.0
   0
LINE
   5
384
 100
AcDbEntity
   8
LEVEL002
 370
50
 100
AcDbLine
   6
CONTINUOUS
  62
4
  10
 15.499999999950
  20
 12.000000000010
  30
0.0
  11
 404.49999999995
  21
 12.000000000010
  31
0.0
   0
HATCH
   5
385
 100
AcDbEntity
   8
LEVEL001
  62
1
 100
AcDbHatch
  10
0.0
  20
0.0
  30
0.0
 210
0.0
 220
0.0
 230
 1.0000000000000
   2
SOLID
  70
1
  71
1
  91
7
  92
1
  93
6
  72
1
  10
 324.45000000000
  20
 280.47500000000
  11
 318.05000000000
  21
 270.87500000000
  72
1
  10
 318.05000000000
  20
 270.87500000000
  11
 324.45000000000
  21
 261.27500000000
  72
1
  10
 324.45000000000
  20
 261.27500000000
  11
 319.05000000000
  21
 261.27500000000
  72
1
  10
 319.05000000000
  20
 261.27500000000
  11
 312.65000000000
  21
 270.87500000000
  72
1
  10
 312.65000000000
  20
 270.87500000000
  11
 319.05000000000
  21
 280.47500000000
  72
1
  10
 319.05000000000
  20
 280.47500000000
  11
 324.45000000000
  21
 280.47500000000
  97
1
 330

  92
16
  93
6
  72
1
  10
 327.15000000000
  20
 280.47500000000
  11
 332.55000000000
  21
 280.47500000000
  72
1
  10
 332.55000000000
  20
 280.47500000000
  11
 326.15000000000
  21
 270.87500000000
  72
1
  10
 326.15000000000
  20
 270.87500000000
  11
 332.55000000000
  21
 261.27500000000
  72
1
  10
 332.55000000000
  20
 261.27500000000
  11
 327.15000000000
  21
 261.27500000000
  72
1
  10
 327.15000000000
  20
 261.27500000000
  11
 320.75000000000
  21
 270.87500000000
  72
1
  10
 320.75000000000
  20
 270.87500000000
  11
 327.15000000000
  21
 280.47500000000
  97
1
 330

  92
16
  93
3
  72
1
  10
 333.35000000000
  20
 270.87500000000
  11
 328.85000000000
  21
 270.87500000000
  72
1
  10
 328.85000000000
  20
 270.87500000000
  11
 333.35000000000
  21
 263.67500000000
  72
1
  10
 333.35000000000
  20
 263.67500000000
  11
 333.35000000000
  21
 270.87500000000
  97
1
 330

  92
16
  93
6
  72
1
  10
 336.95000000000
  20
 272.07500000000
  11
 344.15000000000
  21
 272.07500000000
  72
2
  10
 344.15000000000
  20
 267.57500000000
  40
 4.5000000000000
  50
 270.00000000000
  51
 90.000000000000
  73
0
  72
1
  10
 344.15000000000
  20
 263.07500000000
  11
 340.55000000000
  21
 263.07500000000
  72
1
  10
 340.55000000000
  20
 263.07500000000
  11
 340.55000000000
  21
 261.27500000000
  72
1
  10
 340.55000000000
  20
 261.27500000000
  11
 336.95000000000
  21
 261.27500000000
  72
1
  10
 336.95000000000
  20
 261.27500000000
  11
 336.95000000000
  21
 272.07500000000
  97
1
 330

  92
16
  93
4
  72
1
  10
 344.15000000000
  20
 268.47500000000
  11
 340.55000000000
  21
 268.47500000000
  72
1
  10
 340.55000000000
  20
 268.47500000000
  11
 340.55000000000
  21
 266.67500000000
  72
1
  10
 340.55000000000
  20
 266.67500000000
  11
 344.15000000000
  21
 266.67500000000
  72
2
  10
 344.15000000000
  20
 267.57500000000
  40
 0.90000000000000
  50
 270.00000000000
  51
 90.000000000000
  73
1
  97
1
 330

  92
16
  93
4
  72
1
  10
 345.95000000000
  20
 261.27500000000
  11
 353.15000000000
  21
 272.07500000000
  72
1
  10
 353.15000000000
  20
 272.07500000000
  11
 358.55000000000
  21
 272.07500000000
  72
1
  10
 358.55000000000
  20
 272.07500000000
  11
 351.35000000000
  21
 261.27500000000
  72
1
  10
 351.35000000000
  20
 261.27500000000
  11
 345.95000000000
  21
 261.27500000000
  97
1
 330

  92
16
  93
3
  72
1
  10
 357.35000000000
  20
 268.11166923470
  11
 352.79222051020
  21
 261.27500000000
  72
1
  10
 352.79222051020
  20
 261.27500000000
  11
 357.35000000000
  21
 261.27500000000
  72
1
  10
 357.35000000000
  20
 261.27500000000
  11
 357.35000000000
  21
 268.11166923470
  97
1
 330

  75
0
  76
1
  98
1
  10
0.0
  20
0.0
   0
HATCH
   5
386
 100
AcDbEntity
   8
LEVEL001
  62
1
 100
AcDbHatch
  10
0.0
  20
0.0
  30
0.0
 210
0.0
 220
0.0
 230
 1.0000000000000
   2
SOLID
  70
1
  71
1
  91
1
  92
1
  93
22
  72
1
  10
 358.55000000000
  20
 272.07500000000
  11
 362.15000000000
  21
 272.07500000000
  72
1
  10
 362.15000000000
  20
 272.07500000000
  11
 362.15000000000
  21
 264.87500000000
  72
1
  10
 362.15000000000
  20
 264.87500000000
  11
 367.55000000000
  21
 264.87500000000
  72
1
  10
 367.55000000000
  20
 264.87500000000
  11
 367.55000000000
  21
 268.47500000000
  72
1
  10
 367.55000000000
  20
 268.47500000000
  11
 363.95000000000
  21
 268.47500000000
  72
1
  10
 363.95000000000
  20
 268.47500000000
  11
 363.95000000000
  21
 272.07500000000
  72
1
  10
 363.95000000000
  20
 272.07500000000
  11
 385.55000000000
  21
 272.07500000000
  72
1
  10
 385.55000000000
  20
 272.07500000000
  11
 385.55000000000
  21
 268.47500000000
  72
1
  10
 385.55000000000
  20
 268.47500000000
  11
 378.35000000000
  21
 268.47500000000
  72
1
  10
 378.35000000000
  20
 268.47500000000
  11
 378.35000000000
  21
 267.57500000000
  72
1
  10
 378.35000000000
  20
 267.57500000000
  11
 384.65000000000
  21
 267.57500000000
  72
1
  10
 384.65000000000
  20
 267.57500000000
  11
 384.65000000000
  21
 265.77500000000
  72
1
  10
 384.65000000000
  20
 265.77500000000
  11
 378.35000000000
  21
 265.77500000000
  72
1
  10
 378.35000000000
  20
 265.77500000000
  11
 378.35000000000
  21
 264.87500000000
  72
1
  10
 378.35000000000
  20
 264.87500000000
  11
 385.55000000000
  21
 264.87500000000
  72
1
  10
 385.55000000000
  20
 264.87500000000
  11
 385.55000000000
  21
 261.27500000000
  72
1
  10
 385.55000000000
  20
 261.27500000000
  11
 374.75000000000
  21
 261.27500000000
  72
1
  10
 374.75000000000
  20
 261.27500000000
  11
 374.75000000000
  21
 268.47500000000
  72
1
  10
 374.75000000000
  20
 268.47500000000
  11
 371.15000000000
  21
 268.47500000000
  72
1
  10
 371.15000000000
  20
 268.47500000000
  11
 371.15000000000
  21
 261.27500000000
  72
1
  10
 371.15000000000
  20
 261.27500000000
  11
 358.55000000000
  21
 261.27500000000
  72
1
  10
 358.55000000000
  20
 261.27500000000
  11
 358.55000000000
  21
 272.07500000000
  97
1
 330

  75
0
  76
1
  98
1
  10
0.0
  20
0.0
   0
HATCH
   5
387
 100
AcDbEntity
   8
LEVEL001
  62
1
 100
AcDbHatch
  10
0.0
  20
0.0
  30
0.0
 210
0.0
 220
0.0
 230
 1.0000000000000
   2
SOLID
  70
1
  71
1
  91
1
  92
1
  93
8
  72
1
  10
 396.35000000000
  20
 272.07500000000
  11
 390.95000000000
  21
 272.07500000000
  72
2
  10
 390.95000000000
  20
 266.67500000000
  40
 5.4000000000000
  50
 90.000000000000
  51
 270.00000000000
  73
1
  72
1
  10
 390.95000000000
  20
 261.27500000000
  11
 396.35000000000
  21
 261.27500000000
  72
1
  10
 396.35000000000
  20
 261.27500000000
  11
 396.35000000000
  21
 264.87500000000
  72
1
  10
 396.35000000000
  20
 264.87500000000
  11
 390.95000000000
  21
 264.87500000000
  72
2
  10
 390.95000000000
  20
 266.67500000000
  40
 1.8000000000000
  50
 90.000000000000
  51
 270.00000000000
  73
0
  72
1
  10
 390.95000000000
  20
 268.47500000000
  11
 396.35000000000
  21
 268.47500000000
  72
1
  10
 396.35000000000
  20
 268.47500000000
  11
 396.35000000000
  21
 272.07500000000
  97
1
 330

  75
0
  76
1
  98
1
  10
0.0
  20
0.0
   0
MTEXT
   5
389
 100
AcDbEntity
   8
LEVEL002
 370
15
  62
8
 100
AcDbMText
  10
 310.79999999995
  20
 28.250000000010
  30
0.0
  40
 3.0000000000000
  41
0.0
  71
5
  72
1
   1
\T1.000000;サイズ：
   7
GMM001
  44
 0.79999984000003
   0
MTEXT
   5
38B
 100
AcDbEntity
   8
LEVEL002
 370
15
  62
8
 100
AcDbMText
  10
 309.29999999995
  20
 48.250000000010
  30
0.0
  40
 3.0000000000000
  41
0.0
  71
5
  72
1
   1
\T1.000000;縮尺：
   7
GMM001
  44
 0.79999984000003
   0
MTEXT
   5
38D
 100
AcDbEntity
   8
LEVEL002
 370
15
  62
8
 100
AcDbMText
  10
 312.29999999995
  20
 68.250000000010
  30
0.0
  40
 3.0000000000000
  41
0.0
  71
5
  72
1
   1
\T1.000000;図面名称：
   7
GMM001
  44
 0.79999984000003
   0
MTEXT
   5
38F
 100
AcDbEntity
   8
LEVEL002
 370
15
  62
8
 100
AcDbMText
  10
 363.79999999995
  20
 28.250000000010
  30
0.0
  40
 3.0000000000000
  41
0.0
  71
5
  72
1
   1
\T1.000000;ファイル名：
   7
GMM001
  44
 0.79999984000003
   0
MTEXT
   5
391
 100
AcDbEntity
   8
LEVEL002
 370
15
  62
8
 100
AcDbMText
  10
 362.29999999995
  20
 48.666666666680
  30
0.0
  40
 2.8000000000000
  41
0.0
  71
5
  72
1
   1
\T1.000000;作成日付：
   7
GMM003
  44
 0.79999984000003
   0
MTEXT
   5
393
 100
AcDbEntity
   8
LEVEL002
 370
15
  62
8
 100
AcDbMText
  10
 362.29999999995
  20
 42.000000000010
  30
0.0
  40
 2.8000000000000
  41
0.0
  71
5
  72
1
   1
\T1.000000;変更日付：
   7
GMM003
  44
 0.79999984000003
   0
MTEXT
   5
395
 100
AcDbEntity
   8
LEVEL002
 370
15
  62
8
 100
AcDbMText
  10
 329.49999999995
  20
 18.250000000010
  30
0.0
  40
 3.7500000000000
  41
0.0
  71
5
  72
1
   1
\T1.000000;Ａ３
   7
GMM001
  44
 0.79999984000003
   0
MTEXT
   5
397
 100
AcDbEntity
   8
LEVEL002
 370
15
  62
8
 100
AcDbMText
  10
 309.29999999995
  20
 213.00000000000
  30
0.0
  40
 3.0000000000000
  41
0.0
  71
5
  72
1
   1
\T1.000000;仕様：
   7
GMM001
  44
 0.79999984000003
   0
MTEXT
   5
399
 100
AcDbEntity
   8
LEVEL002
 370
15
  62
8
 100
AcDbMText
  10
 309.29999999995
  20
 233.00000000000
  30
0.0
  40
 3.0000000000000
  41
0.0
  71
5
  72
1
   1
\T1.000000;形式：
   7
GMM001
  44
 0.79999984000003
   0
MTEXT
   5
39B
 100
AcDbEntity
   8
LEVEL002
 370
15
  62
8
 100
AcDbMText
  10
 310.79999999995
  20
 253.00000000000
  30
0.0
  40
 3.0000000000000
  41
0.0
  71
5
  72
1
   1
\T1.000000;商品名：
   7
GMM001
  44
 0.79999984000003
   0
MTEXT
   5
39D
 100
AcDbEntity
   8
LEVEL002
 370
15
  62
8
 100
AcDbMText
  10
 322.49999999995
  20
 244.50000000000
  30
0.0
  40
 4.5000000000000
  41
0.0
  71
7
  72
1
   1
\W0.888889;\T1.000000;　フロアー金具\W0.444444;\T1.000000;(\W0.888889;\T1.000000;ステンレスタイプ\W0.444444;\T1.000000;)
   7
GMM004
  44
 0.79999984000003
   0
MTEXT
   5
39F
 100
AcDbEntity
   8
LEVEL002
 370
15
  62
8
 100
AcDbMText
  10
 346.89999999995
  20
 76.870803459012
  30
0.0
  40
 4.0000000000000
  41
0.0
  71
5
  72
1
   1
\T1.000000;　※本製品は予告無しに変更する事があります。
   7
GMM001
  44
 0.79999984000003
   0
MTEXT
   5
3A1
 100
AcDbEntity
   8
LEVEL002
 370
15
  62
8
 100
AcDbMText
  10
 354.49999999995
  20
 58.250000000010
  30
0.0
  40
 3.7500000000000
  41
0.0
  71
5
  72
1
   1
\T1.000000;断面図
   7
GMM001
  44
 0.79999984000003
   0
MTEXT
   5
3A3
 100
AcDbEntity
   8
LEVEL002
 370
15
  62
8
 100
AcDbMText
  10
 329.49999999995
  20
 38.250000000010
  30
0.0
  40
 3.7500000000000
  41
0.0
  71
5
  72
1
   1
\T1.000000;Ｓ＝１：１
   7
GMM001
  44
 0.79999984000003
   0
MTEXT
   5
3A5
 100
AcDbEntity
   8
LEVEL002
 370
15
  62
8
 100
AcDbMText
  10
 379.49999999995
  20
 20.083333333345
  30
0.0
  40
 2.5000000000000
  41
0.0
  71
5
  72
1
   1
\T1.000000;フロアー金具ステンレス－２
   7
GMM001
  44
 0.79999984000003
   0
LINE
   5
3A6
 100
AcDbEntity
   8
LEVEL002
 370
30
 100
AcDbLine
   6
CONTINUOUS
  62
7
  10
 70.039404210982
  20
 229.73266517233
  30
0.0
  11
 34.039404210982
  21
 229.73266517233
  31
0.0
   0
LINE
   5
3A7
 100
AcDbEntity
   8
LEVEL002
 370
30
 100
AcDbLine
   6
CONTINUOUS
  62
7
  10
 45.290617374542
  20
 238.73266517233
  30
0.0
  11
 50.039404210982
  21
 238.73266517233
  31
0.0
   0
LINE
   5
3A8
 100
AcDbEntity
   8
LEVEL002
 370
30
 100
AcDbLine
   6
CONTINUOUS
  62
7
  10
 50.039404210982
  20
 238.73266517233
  30
0.0
  11
 50.039404210982
  21
 237.53266517233
  31
0.0
   0
LINE
   5
3A9
 100
AcDbEntity
   8
LEVEL002
 370
30
 100
AcDbLine
   6
CONTINUOUS
  62
7
  10
 50.039404210982
  20
 237.53266517233
  30
0.0
  11
 45.290617374542
  21
 237.53266517233
  31
0.0
   0
LINE
   5
3AA
 100
AcDbEntity
   8
LEVEL002
 370
30
 100
AcDbLine
   6
CONTINUOUS
  62
7
  10
 34.039404210982
  20
 230.93266517233
  30
0.0
  11
 70.039404210982
  21
 230.93266517233
  31
0.0
   0
LINE
   5
3AB
 100
AcDbEntity
   8
LEVEL002
 370
30
 100
AcDbLine
   6
CONTINUOUS
  62
7
  10
 70.039404210982
  20
 230.93266517233
  30
0.0
  11
 70.039404210982
  21
 229.73266517233
  31
0.0
   0
ARC
   5
3AC
 100
AcDbEntity
   8
LEVEL002
 370
30
   6
CONTINUOUS
  62
7
 100
AcDbCircle
  10
 34.039404210982
  20
 231.73266517233
  30
0.0
  40
 2.0000000000000
 100
AcDbArc
  50
 113.64758501562
  51
 270.00000000000
   0
LINE
   5
3AD
 100
AcDbEntity
   8
LEVEL002
 370
30
 100
AcDbLine
   6
CONTINUOUS
  62
7
  10
 33.237184315841
  20
 233.56472500755
  30
0.0
  11
 44.809285437462
  21
 238.63190107346
  31
0.0
   0
ARC
   5
3AE
 100
AcDbEntity
   8
LEVEL002
 370
30
   6
CONTINUOUS
  62
7
 100
AcDbCircle
  10
 45.290617374542
  20
 237.53266517233
  30
0.0
  40
 1.2000000000000
 100
AcDbArc
  50
 89.999999999909
  51
 113.64758501555
   0
LINE
   5
3AF
 100
AcDbEntity
   8
LEVEL002
 370
30
 100
AcDbLine
   6
CONTINUOUS
  62
7
  10
 45.290617374542
  20
 237.53266517233
  30
0.0
  11
 33.718516252922
  21
 232.46548910641
  31
0.0
   0
ARC
   5
3B0
 100
AcDbEntity
   8
LEVEL002
 370
30
   6
CONTINUOUS
  62
7
 100
AcDbCircle
  10
 34.039404210982
  20
 231.73266517233
  30
0.0
  40
 0.80000000000000
 100
AcDbArc
  50
 113.64758501549
  51
 270.00000000016
   0
LINE
   5
3B1
 100
AcDbEntity
   8
LEVEL002
 370
30
 100
AcDbLine
   6
CONTINUOUS
  62
7
  10
 120.85424652780
  20
 240.53266517233
  30
0.0
  11
 105.19542452436
  21
 232.44342724743
  31
0.0
   0
ARC
   5
3B2
 100
AcDbEntity
   8
LEVEL002
 370
30
   6
CONTINUOUS
  62
7
 100
AcDbCircle
  10
 105.56259924109
  20
 231.73266517233
  30
0.0
  40
 0.80000000000000
 100
AcDbArc
  50
 117.32055998896
  51
 269.99999999999
   0
ARC
   5
3B3
 100
AcDbEntity
   8
LEVEL002
 370
30
   6
CONTINUOUS
  62
7
 100
AcDbCircle
  10
 105.56259924109
  20
 231.73266517233
  30
0.0
  40
 2.0000000000000
 100
AcDbArc
  50
 117.32055998894
  51
 270.00000000001
   0
LINE
   5
3B4
 100
AcDbEntity
   8
LEVEL002
 370
30
 100
AcDbLine
   6
CONTINUOUS
  62
7
  10
 105.56259924109
  20
 230.93266517233
  30
0.0
  11
 147.56259924109
  21
 230.93266517233
  31
0.0
   0
LINE
   5
3B5
 100
AcDbEntity
   8
LEVEL002
 370
30
 100
AcDbLine
   6
CONTINUOUS
  62
7
  10
 147.56259924109
  20
 230.93266517233
  30
0.0
  11
 147.56259924109
  21
 229.73266517233
  31
0.0
   0
LINE
   5
3B6
 100
AcDbEntity
   8
LEVEL002
 370
30
 100
AcDbLine
   6
CONTINUOUS
  62
7
  10
 147.56259924109
  20
 229.73266517233
  30
0.0
  11
 105.56259924109
  21
 229.73266517233
  31
0.0
   0
LINE
   5
3B7
 100
AcDbEntity
   8
LEVEL002
 370
30
 100
AcDbLine
   6
CONTINUOUS
  62
7
  10
 120.30348445271
  20
 241.59880828497
  30
0.0
  11
 104.64466244926
  21
 233.50957036007
  31
0.0
   0
ARC
   5
3B8
 100
AcDbEntity
   8
LEVEL002
 370
30
   6
CONTINUOUS
  62
7
 100
AcDbCircle
  10
 120.85424652780
  20
 240.53266517233
  30
0.0
  40
 1.2000000000000
 100
AcDbArc
  50
 90.000000000015
  51
 117.32055998896
   0
LINE
   5
3B9
 100
AcDbEntity
   8
LEVEL002
 370
30
 100
AcDbLine
   6
CONTINUOUS
  62
7
  10
 120.85424652780
  20
 241.73266517233
  30
0.0
  11
 130.56259924109
  21
 241.73266517233
  31
0.0
   0
LINE
   5
3BA
 100
AcDbEntity
   8
LEVEL002
 370
30
 100
AcDbLine
   6
CONTINUOUS
  62
7
  10
 130.56259924109
  20
 241.73266517233
  30
0.0
  11
 130.56259924109
  21
 240.53266517233
  31
0.0
   0
LINE
   5
3BB
 100
AcDbEntity
   8
LEVEL002
 370
30
 100
AcDbLine
   6
CONTINUOUS
  62
7
  10
 130.56259924109
  20
 240.53266517233
  30
0.0
  11
 120.85424652780
  21
 240.53266517233
  31
0.0
   0
ARC
   5
3BC
 100
AcDbEntity
   8
LEVEL002
 370
30
   6
CONTINUOUS
  62
7
 100
AcDbCircle
  10
 189.64766716409
  20
 230.13266517233
  30
0.0
  40
 0.40000000000000
 100
AcDbArc
  50
 180.00000000000
  51
 270.00000000000
   0
LINE
   5
3BD
 100
AcDbEntity
   8
LEVEL002
 370
30
 100
AcDbLine
   6
CONTINUOUS
  62
7
  10
 189.24766716409
  20
 234.63266517233
  30
0.0
  11
 193.44766716409
  21
 234.63266517233
  31
0.0
   0
ARC
   5
3BE
 100
AcDbEntity
   8
LEVEL002
 370
30
   6
CONTINUOUS
  62
7
 100
AcDbCircle
  10
 193.44766716409
  20
 234.23266517233
  30
0.0
  40
 0.40000000000000
 100
AcDbArc
  50
0.0
  51
 89.999999999996
   0
LINE
   5
3BF
 100
AcDbEntity
   8
LEVEL002
 370
30
 100
AcDbLine
   6
CONTINUOUS
  62
7
  10
 193.84766716409
  20
 234.23266517233
  30
0.0
  11
 193.84766716409
  21
 233.43266517233
  31
0.0
   0
ARC
   5
3C0
 100
AcDbEntity
   8
LEVEL002
 370
30
   6
CONTINUOUS
  62
7
 100
AcDbCircle
  10
 193.44766716409
  20
 233.43266517233
  30
0.0
  40
 0.40000000000000
 100
AcDbArc
  50
 270.00000000000
  51
 0.16284439969093E-10
   0
LINE
   5
3C1
 100
AcDbEntity
   8
LEVEL002
 370
30
 100
AcDbLine
   6
CONTINUOUS
  62
7
  10
 189.35711786006
  20
 233.83266517233
  30
0.0
  11
 179.64766716409
  21
 231.12522218980
  31
0.0
   0
LINE
   5
3C2
 100
AcDbEntity
   8
LEVEL002
 370
30
 100
AcDbLine
   6
CONTINUOUS
  62
7
  10
 189.35711786006
  20
 233.83266517233
  30
0.0
  11
 193.04766716409
  21
 233.83266517233
  31
0.0
   0
LINE
   5
3C3
 100
AcDbEntity
   8
LEVEL002
 370
30
 100
AcDbLine
   6
CONTINUOUS
  62
7
  10
 189.24766716409
  20
 234.63266517233
  30
0.0
  11
 179.43278786107
  21
 231.89582382822
  31
0.0
   0
ARC
   5
3C4
 100
AcDbEntity
   8
LEVEL002
 370
30
   6
CONTINUOUS
  62
7
 100
AcDbCircle
  10
 179.64766716409
  20
 231.12522218980
  30
0.0
  40
 0.80000000000000
 100
AcDbArc
  50
 105.58092384825
  51
 179.99999999999
   0
LINE
   5
3C5
 100
AcDbEntity
   8
LEVEL002
 370
30
 100
AcDbLine
   6
CONTINUOUS
  62
7
  10
 178.84766716409
  20
 231.12522218980
  30
0.0
  11
 178.84766716409
  21
 230.53266517233
  31
0.0
   0
ARC
   5
3C6
 100
AcDbEntity
   8
LEVEL002
 370
30
   6
CONTINUOUS
  62
7
 100
AcDbCircle
  10
 179.64766716409
  20
 230.53266517233
  30
0.0
  40
 0.80000000000000
 100
AcDbArc
  50
 180.00000000000
  51
 270.00000000001
   0
LINE
   5
3C7
 100
AcDbEntity
   8
LEVEL002
 370
30
 100
AcDbLine
   6
CONTINUOUS
  62
7
  10
 190.04766716409
  20
 231.83266517233
  30
0.0
  11
 190.04766716409
  21
 230.53266517233
  31
0.0
   0
LINE
   5
3C8
 100
AcDbEntity
   8
LEVEL002
 370
30
 100
AcDbLine
   6
CONTINUOUS
  62
7
  10
 193.44766716409
  20
 233.03266517233
  30
0.0
  11
 191.24766716409
  21
 233.03266517233
  31
0.0
   0
LINE
   5
3C9
 100
AcDbEntity
   8
LEVEL002
 370
30
 100
AcDbLine
   6
CONTINUOUS
  62
7
  10
 189.24766716409
  20
 230.13266517233
  30
0.0
  11
 189.24766716409
  21
 231.83266517233
  31
0.0
   0
ARC
   5
3CA
 100
AcDbEntity
   8
LEVEL002
 370
30
   6
CONTINUOUS
  62
7
 100
AcDbCircle
  10
 191.24766716409
  20
 231.83266517233
  30
0.0
  40
 2.0000000000000
 100
AcDbArc
  50
 90.000000000000
  51
 180.00000000000
   0
ARC
   5
3CB
 100
AcDbEntity
   8
LEVEL002
 370
30
   6
CONTINUOUS
  62
7
 100
AcDbCircle
  10
 191.24766716409
  20
 231.83266517233
  30
0.0
  40
 1.2000000000000
 100
AcDbArc
  50
 90.000000000003
  51
 179.99999999999
   0
LINE
   5
3CC
 100
AcDbEntity
   8
LEVEL002
 370
30
 100
AcDbLine
   6
CONTINUOUS
  62
7
  10
 179.64766716409
  20
 229.73266517233
  30
0.0
  11
 182.34766716409
  21
 229.73266517233
  31
0.0
   0
LINE
   5
3CD
 100
AcDbEntity
   8
LEVEL002
 370
30
 100
AcDbLine
   6
CONTINUOUS
  62
7
  10
 182.34766716409
  20
 229.73266517233
  30
0.0
  11
 182.34766716409
  21
 230.53266517233
  31
0.0
   0
LINE
   5
3CE
 100
AcDbEntity
   8
LEVEL002
 370
30
 100
AcDbLine
   6
CONTINUOUS
  62
7
  10
 182.34766716409
  20
 230.53266517233
  30
0.0
  11
 179.64766716409
  21
 230.53266517233
  31
0.0
   0
LINE
   5
3CF
 100
AcDbEntity
   8
LEVEL002
 370
30
 100
AcDbLine
   6
CONTINUOUS
  62
7
  10
 179.64766716409
  20
 230.53266517233
  30
0.0
  11
 179.64766716409
  21
 231.12522218980
  31
0.0
   0
LINE
   5
3D0
 100
AcDbEntity
   8
LEVEL002
 370
30
 100
AcDbLine
   6
CONTINUOUS
  62
7
  10
 190.04766716409
  20
 230.53266517233
  30
0.0
  11
 213.84766716409
  21
 230.53266517233
  31
0.0
   0
LINE
   5
3D1
 100
AcDbEntity
   8
LEVEL002
 370
30
 100
AcDbLine
   6
CONTINUOUS
  62
7
  10
 213.84766716409
  20
 230.53266517233
  30
0.0
  11
 213.84766716409
  21
 229.73266517233
  31
0.0
   0
LINE
   5
3D2
 100
AcDbEntity
   8
LEVEL002
 370
30
 100
AcDbLine
   6
CONTINUOUS
  62
7
  10
 213.84766716409
  20
 229.73266517233
  30
0.0
  11
 189.64766716409
  21
 229.73266517233
  31
0.0
   0
ARC
   5
3D3
 100
AcDbEntity
   8
LEVEL002
 370
30
   6
CONTINUOUS
  62
7
 100
AcDbCircle
  10
 266.66856734058
  20
 236.02533007459
  30
0.0
  40
 1.2000000000000
 100
AcDbArc
  50
0.0
  51
 128.09967183251
   0
ARC
   5
3D4
 100
AcDbEntity
   8
LEVEL002
 370
30
   6
CONTINUOUS
  62
7
 100
AcDbCircle
  10
 268.36856734058
  20
 223.92533007453
  30
0.0
  40
 0.50000000000000
 100
AcDbArc
  50
 180.00000000000
  51
 269.99999999995
   0
ARC
   5
3D5
 100
AcDbEntity
   8
LEVEL002
 370
30
   6
CONTINUOUS
  62
7
 100
AcDbCircle
  10
 268.36856734058
  20
 223.92533007453
  30
0.0
  40
 1.7000000000000
 100
AcDbArc
  50
 180.00000000000
  51
 270.00000000000
   0
LINE
   5
3D6
 100
AcDbEntity
   8
LEVEL002
 370
30
 100
AcDbLine
   6
CONTINUOUS
  62
7
  10
 266.66856734058
  20
 223.92533007453
  30
0.0
  11
 266.66856734058
  21
 236.02533007453
  31
0.0
   0
LINE
   5
3D7
 100
AcDbEntity
   8
LEVEL002
 370
30
 100
AcDbLine
   6
CONTINUOUS
  62
7
  10
 267.86856734058
  20
 236.02533007453
  30
0.0
  11
 267.86856734058
  21
 223.92533007453
  31
0.0
   0
LINE
   5
3D8
 100
AcDbEntity
   8
LEVEL002
 370
30
 100
AcDbLine
   6
CONTINUOUS
  62
7
  10
 248.37003306020
  20
 224.40106049792
  30
0.0
  11
 265.97003306020
  21
 237.00106049798
  31
0.0
   0
LINE
   5
3D9
 100
AcDbEntity
   8
LEVEL002
 370
30
 100
AcDbLine
   6
CONTINUOUS
  62
7
  10
 254.59770640649
  20
 227.38369099673
  30
0.0
  11
 255.29624068688
  21
 226.40796057334
  31
0.0
   0
LINE
   5
3DA
 100
AcDbEntity
   8
LEVEL002
 370
30
 100
AcDbLine
   6
CONTINUOUS
  62
7
  10
 249.06856734058
  20
 223.42533007453
  30
0.0
  11
 266.66856734058
  21
 236.02533007459
  31
0.0
   0
ARC
   5
3DB
 100
AcDbEntity
   8
LEVEL002
 370
30
   6
CONTINUOUS
  62
7
 100
AcDbCircle
  10
 249.06856734058
  20
 223.42533007453
  30
0.0
  40
 1.2000000000000
 100
AcDbArc
  50
 125.59921995911
  51
 305.59921995911
   0
LINE
   5
3DC
 100
AcDbEntity
   8
LEVEL002
 370
30
 100
AcDbLine
   6
CONTINUOUS
  62
7
  10
 249.76710162097
  20
 222.44959965114
  30
0.0
  11
 255.29624068688
  21
 226.40796057334
  31
0.0
   0
LINE
   5
3DD
 100
AcDbEntity
   8
LEVEL002
 370
30
 100
AcDbLine
   6
CONTINUOUS
  62
7
  10
 268.36856734058
  20
 223.42533007453
  30
0.0
  11
 287.86856734058
  21
 223.42533007453
  31
0.0
   0
LINE
   5
3DE
 100
AcDbEntity
   8
LEVEL002
 370
30
 100
AcDbLine
   6
CONTINUOUS
  62
7
  10
 287.86856734058
  20
 223.42533007453
  30
0.0
  11
 287.86856734058
  21
 222.22533007453
  31
0.0
   0
LINE
   5
3DF
 100
AcDbEntity
   8
LEVEL002
 370
30
 100
AcDbLine
   6
CONTINUOUS
  62
7
  10
 287.86856734058
  20
 222.22533007453
  30
0.0
  11
 268.36856734058
  21
 222.22533007453
  31
0.0
   0
MTEXT
   5
3E1
 100
AcDbEntity
   8
LEVEL002
 370
15
  62
8
 100
AcDbMText
  10
 51.624999999950
  20
 280.00000000000
  30
0.0
  40
 3.0000000000000
  41
0.0
  71
5
  72
1
   1
\T1.000000;ＳＡＭ１
   7
GMM001
  44
 0.79999984000003
   0
MTEXT
   5
3E3
 100
AcDbEntity
   8
LEVEL002
 370
15
  62
8
 100
AcDbMText
  10
 123.87499999995
  20
 280.00000000000
  30
0.0
  40
 3.0000000000000
  41
0.0
  71
5
  72
1
   1
\T1.000000;ＳＡＭ２
   7
GMM001
  44
 0.79999984000003
   0
MTEXT
   5
3E5
 100
AcDbEntity
   8
LEVEL002
 370
15
  62
8
 100
AcDbMText
  10
 196.12499999995
  20
 280.00000000000
  30
0.0
  40
 3.0000000000000
  41
0.0
  71
5
  72
1
   1
\T1.000000;ＳＡＭ３
   7
GMM001
  44
 0.79999984000003
   0
MTEXT
   5
3E7
 100
AcDbEntity
   8
LEVEL002
 370
15
  62
8
 100
AcDbMText
  10
 268.37499999995
  20
 280.00000000000
  30
0.0
  40
 3.0000000000000
  41
0.0
  71
5
  72
1
   1
\T1.000000;ＳＡＭ４
   7
GMM001
  44
 0.79999984000003
   0
MTEXT
   5
3E9
 100
AcDbEntity
   8
LEVEL001
 370
15
  62
8
 100
AcDbMText
  10
 15.799999999950
  20
 280.00000000000
  30
0.0
  40
 3.0000000000000
  41
0.0
  71
4
  72
1
   1
\W0.500000;\T1.000000; \W1.000000;\T1.000000;床エッジ
   7
GMM001
  44
 0.79999984000003
   0
MTEXT
   5
3EB
 100
AcDbEntity
   8
LEVEL001
 370
15
  62
8
 100
AcDbMText
  10
 88.049999999950
  20
 280.00000000000
  30
0.0
  40
 3.0000000000000
  41
0.0
  71
4
  72
1
   1
\W0.500000;\T1.000000; \W1.000000;\T1.000000;床エッジ
   7
GMM001
  44
 0.79999984000003
   0
MTEXT
   5
3ED
 100
AcDbEntity
   8
LEVEL001
 370
15
  62
8
 100
AcDbMText
  10
 160.29999999995
  20
 280.00000000000
  30
0.0
  40
 3.0000000000000
  41
0.0
  71
4
  72
1
   1
\W0.500000;\T1.000000; \W1.000000;\T1.000000;床エッジ
   7
GMM001
  44
 0.79999984000003
   0
MTEXT
   5
3EF
 100
AcDbEntity
   8
LEVEL001
 370
15
  62
8
 100
AcDbMText
  10
 232.54999999995
  20
 280.00000000000
  30
0.0
  40
 3.0000000000000
  41
0.0
  71
4
  72
1
   1
\W0.500000;\T1.000000; \W1.000000;\T1.000000;床エッジ
   7
GMM001
  44
 0.79999984000003
   0
DIMENSION
   5
3F0
 100
AcDbEntity
   8
LEVEL001
 370
15
   6
CONTINUOUS
  62
8
 100
AcDbDimension
   2
*D5
  10
 50.039404210982
  20
 246.73266517233
  30
0.0
  11
 41.039497331011
  21
 246.73266517233
  31
0.0
  70
0
   3
GMM003
 100
AcDbAlignedDimension
  13
 32.039590451039
  23
 232.73266517233
  33
0.0
  14
 50.039404210982
  24
 238.73266517233
  34
0.0
 100
AcDbRotatedDimension
   0
DIMENSION
   5
3F1
 100
AcDbEntity
   8
LEVEL001
 370
15
   6
CONTINUOUS
  62
8
 100
AcDbDimension
   2
*D6
  10
 70.039404210982
  20
 221.73266517233
  30
0.0
  11
 51.039497331011
  21
 221.73266517233
  31
0.0
  70
0
   3
GMM003
 100
AcDbAlignedDimension
  13
 32.039590451039
  23
 229.73266517233
  33
0.0
  14
 70.039404210982
  24
 229.73266517233
  34
0.0
 100
AcDbRotatedDimension
   0
DIMENSION
   5
3F2
 100
AcDbEntity
   8
LEVEL001
 370
15
   6
CONTINUOUS
  62
8
 100
AcDbDimension
   2
*D7
  10
 77.653088934455
  20
 230.93266517233
  30
0.0
  11
 77.653088934455
  21
 227.93953571053
  31
0.0
  70
128
   3
GMM004
 100
AcDbAlignedDimension
  13
 70.039404210982
  23
 229.73266517233
  33
0.0
  14
 70.039404210982
  24
 230.93266517233
  34
0.0
  50
 90.000000000000
 100
AcDbRotatedDimension
   0
DIMENSION
   5
3F3
 100
AcDbEntity
   8
LEVEL001
 370
15
   6
CONTINUOUS
  62
8
 100
AcDbDimension
   2
*D8
  10
 77.653088934455
  20
 237.53266517233
  30
0.0
  11
 77.653088934455
  21
 234.23266517233
  31
0.0
  70
0
   3
GMM005
 100
AcDbAlignedDimension
  13
 70.039404210982
  23
 230.93266517233
  33
0.0
  14
 50.039404210982
  24
 237.53266517233
  34
0.0
  50
 90.000000000000
 100
AcDbRotatedDimension
   0
DIMENSION
   5
3F4
 100
AcDbEntity
   8
LEVEL001
 370
15
   6
CONTINUOUS
  62
8
 100
AcDbDimension
   2
*D9
  10
 25.585184651860
  20
 238.73266517233
  30
0.0
  11
 25.585184651860
  21
 234.23266517233
  31
0.0
  70
0
   3
GMM005
 100
AcDbAlignedDimension
  13
 33.633562151722
  23
 229.73266517233
  33
0.0
  14
 45.290617374544
  24
 238.73266517233
  34
0.0
  50
 90.000000000000
 100
AcDbRotatedDimension
   0
DIMENSION
   5
3F5
 100
AcDbEntity
   8
LEVEL001
 370
15
   6
CONTINUOUS
  62
8
 100
AcDbDimension
   2
*D10
  10
 155.17628396456
  20
 230.93266517233
  30
0.0
  11
 155.17628396456
  21
 227.93953571053
  31
0.0
  70
128
   3
GMM004
 100
AcDbAlignedDimension
  13
 147.56259924109
  23
 229.73266517233
  33
0.0
  14
 147.56259924109
  24
 230.93266517233
  34
0.0
  50
 90.000000000000
 100
AcDbRotatedDimension
   0
DIMENSION
   5
3F6
 100
AcDbEntity
   8
LEVEL001
 370
15
   6
CONTINUOUS
  62
8
 100
AcDbDimension
   2
*D11
  10
 155.17628396456
  20
 240.53266517233
  30
0.0
  11
 155.17628396456
  21
 235.73266517233
  31
0.0
  70
0
   3
GMM005
 100
AcDbAlignedDimension
  13
 147.56259924109
  23
 230.93266517233
  33
0.0
  14
 130.56259924109
  24
 240.53266517233
  34
0.0
  50
 90.000000000000
 100
AcDbRotatedDimension
   0
DIMENSION
   5
3F7
 100
AcDbEntity
   8
LEVEL001
 370
15
   6
CONTINUOUS
  62
8
 100
AcDbDimension
   2
*D12
  10
 130.56259924109
  20
 247.09781867402
  30
0.0
  11
 117.06259924109
  21
 247.09781867402
  31
0.0
  70
0
   3
GMM005
 100
AcDbAlignedDimension
  13
 103.56259924109
  23
 232.06599850566
  33
0.0
  14
 130.56259924109
  24
 241.73266517233
  34
0.0
 100
AcDbRotatedDimension
   0
DIMENSION
   5
3F8
 100
AcDbEntity
   8
LEVEL001
 370
15
   6
CONTINUOUS
  62
8
 100
AcDbDimension
   2
*D13
  10
 99.955669417304
  20
 241.73266517233
  30
0.0
  11
 99.955669417304
  21
 235.73266517233
  31
0.0
  70
0
   3
GMM005
 100
AcDbAlignedDimension
  13
 105.22926590775
  23
 229.73266517233
  33
0.0
  14
 120.22926590775
  24
 241.73266517233
  34
0.0
  50
 90.000000000000
 100
AcDbRotatedDimension
   0
DIMENSION
   5
3F9
 100
AcDbEntity
   8
LEVEL001
 370
15
   6
CONTINUOUS
  62
8
 100
AcDbDimension
   2
*D14
  10
 147.56259924109
  20
 221.73266517233
  30
0.0
  11
 125.56259924109
  21
 221.73266517233
  31
0.0
  70
0
   3
GMM005
 100
AcDbAlignedDimension
  13
 103.56259924109
  23
 229.39933183900
  33
0.0
  14
 147.56259924109
  24
 229.73266517233
  34
0.0
 100
AcDbRotatedDimension
   0
DIMENSION
   5
3FA
 100
AcDbEntity
   8
LEVEL001
 370
15
   6
CONTINUOUS
  62
8
 100
AcDbDimension
   2
*D15
  10
 193.84766716409
  20
 242.63266517233
  30
0.0
  11
 186.34766716409
  21
 242.63266517233
  31
0.0
  70
0
   3
GMM005
 100
AcDbAlignedDimension
  13
 178.84766716409
  23
 231.12522218980
  33
0.0
  14
 193.84766716409
  24
 234.23266517233
  34
0.0
 100
AcDbRotatedDimension
   0
DIMENSION
   5
3FB
 100
AcDbEntity
   8
LEVEL001
 370
15
   6
CONTINUOUS
  62
8
 100
AcDbDimension
   2
*D16
  10
 213.84766716409
  20
 221.73266517233
  30
0.0
  11
 196.34766716409
  21
 221.73266517233
  31
0.0
  70
0
   3
GMM005
 100
AcDbAlignedDimension
  13
 178.84766716409
  23
 230.53266517233
  33
0.0
  14
 213.84766716409
  24
 229.73266517233
  34
0.0
 100
AcDbRotatedDimension
   0
DIMENSION
   5
3FC
 100
AcDbEntity
   8
LEVEL001
 370
15
   6
CONTINUOUS
  62
8
 100
AcDbDimension
   2
*D17
  10
 218.98002554569
  20
 230.53266517233
  30
0.0
  11
 218.98002554569
  21
 227.56851203911
  31
0.0
  70
128
   3
GMM006
 100
AcDbAlignedDimension
  13
 213.84766716409
  23
 229.73266517233
  33
0.0
  14
 213.84766716409
  24
 230.53266517233
  34
0.0
  50
 90.000000000000
 100
AcDbRotatedDimension
   0
DIMENSION
   5
3FD
 100
AcDbEntity
   8
LEVEL001
 370
15
   6
CONTINUOUS
  62
8
 100
AcDbDimension
   2
*D18
  10
 218.98002554569
  20
 233.03266517233
  30
0.0
  11
 218.98002554569
  21
 234.52204275550
  31
0.0
  70
128
   3
GMM007
 100
AcDbAlignedDimension
  13
 213.84766716409
  23
 230.53266517233
  33
0.0
  14
 193.44766716409
  24
 233.03266517233
  34
0.0
  50
 90.000000000000
 100
AcDbRotatedDimension
   0
DIMENSION
   5
3FE
 100
AcDbEntity
   8
LEVEL001
 370
15
   6
CONTINUOUS
  62
8
 100
AcDbDimension
   2
*D19
  10
 175.49280128324
  20
 234.63266517233
  30
0.0
  11
 175.49280128324
  21
 236.70337871341
  31
0.0
  70
128
   3
GMM008
 100
AcDbAlignedDimension
  13
 179.64766716409
  23
 229.73266517233
  33
0.0
  14
 189.24766716409
  24
 234.63266517233
  34
0.0
  50
 90.000000000000
 100
AcDbRotatedDimension
   0
DIMENSION
   5
3FF
 100
AcDbEntity
   8
LEVEL001
 370
15
   6
CONTINUOUS
  62
8
 100
AcDbDimension
   2
*D20
  10
 267.86856734058
  20
 245.22533007453
  30
0.0
  11
 257.86856734058
  21
 245.22533007453
  31
0.0
  70
0
   3
GMM005
 100
AcDbAlignedDimension
  13
 247.86856734058
  23
 223.42533007453
  33
0.0
  14
 267.86856734058
  24
 236.35866340786
  34
0.0
 100
AcDbRotatedDimension
   0
DIMENSION
   5
400
 100
AcDbEntity
   8
LEVEL001
 370
15
   6
CONTINUOUS
  62
8
 100
AcDbDimension
   2
*D21
  10
 287.86856734058
  20
 245.22533007453
  30
0.0
  11
 277.86856734058
  21
 245.22533007453
  31
0.0
  70
0
   3
GMM005
 100
AcDbAlignedDimension
  13
 267.86856734058
  23
 236.35866340786
  33
0.0
  14
 287.86856734058
  24
 223.42533007453
  34
0.0
 100
AcDbRotatedDimension
   0
DIMENSION
   5
401
 100
AcDbEntity
   8
LEVEL001
 370
15
   6
CONTINUOUS
  62
8
 100
AcDbDimension
   2
*D22
  10
 243.71812794503
  20
 237.22533007453
  30
0.0
  11
 243.71812794503
  21
 229.72533007453
  31
0.0
  70
0
   3
GMM005
 100
AcDbAlignedDimension
  13
 248.77447613337
  23
 222.22533007453
  33
0.0
  14
 266.53166978261
  24
 237.22533007453
  34
0.0
  50
 90.000000000000
 100
AcDbRotatedDimension
   0
DIMENSION
   5
402
 100
AcDbEntity
   8
LEVEL001
 370
15
   6
CONTINUOUS
  62
8
 100
AcDbDimension
   2
*D23
  10
 293.17009532264
  20
 223.42533007453
  30
0.0
  11
 293.17009532264
  21
 224.85368533286
  31
0.0
  70
128
   3
GMM009
 100
AcDbAlignedDimension
  13
 287.86856734058
  23
 222.22533007453
  33
0.0
  14
 287.86856734058
  24
 223.42533007453
  34
0.0
  50
 90.000000000000
 100
AcDbRotatedDimension
   0
DIMENSION
   5
403
 100
AcDbEntity
   8
LEVEL001
 370
15
   6
CONTINUOUS
  62
8
 100
AcDbDimension
   2
*D24
  10
 287.86856734058
  20
 253.22533007453
  30
0.0
  11
 267.86856734058
  21
 253.22533007453
  31
0.0
  70
0
   3
GMM005
 100
AcDbAlignedDimension
  13
 247.86856734058
  23
 245.22533007453
  33
0.0
  14
 287.86856734058
  24
 245.22533007453
  34
0.0
 100
AcDbRotatedDimension
   0
MTEXT
   5
405
 100
AcDbEntity
   8
LEVEL002
 370
15
  62
8
 100
AcDbMText
  10
 387.21508456075
  20
 42.000000000010
  30
0.0
  40
 3.0000000000000
  41
0.0
  71
5
  72
1
   1
\T1.000000;令和　　年　　月　　日
   7
GMM001
  44
 0.79999984000003
   0
MTEXT
   5
407
 100
AcDbEntity
   8
LEVEL002
 370
15
  62
8
 100
AcDbMText
  10
 387.21508456075
  20
 35.333333333345
  30
0.0
  40
 3.0000000000000
  41
0.0
  71
5
  72
1
   1
\T1.000000;令和　　年　　月　　日
   7
GMM001
  44
 0.79999984000003
   0
MTEXT
   5
409
 100
AcDbEntity
   8
LEVEL002
 370
15
  62
8
 100
AcDbMText
  10
 387.21508456075
  20
 48.666666666680
  30
0.0
  40
 3.0000000000000
  41
0.0
  71
5
  72
1
   1
\T1.000000;令和０５年０３月３０日
   7
GMM001
  44
 0.79999984000003
   0
MTEXT
   5
40B
 100
AcDbEntity
   8
LEVEL002
 370
15
  62
8
 100
AcDbMText
  10
 354.49999999995
  20
 226.75000000000
  30
0.0
  40
 4.0000000000000
  41
0.0
  71
2
  72
1
   1
{\W1.000000;\T1.000000;ステンレス②}\P{\W0.500000;\T1.000000;(\W1.000000;\T1.000000;床エッジ・巻き上げエッジ）}
   7
GMM001
  44
 0.79999984000003
   0
MTEXT
   5
40D
 100
AcDbEntity
   8
LEVEL001
 370
15
  62
8
 100
AcDbMText
  10
 15.799999999950
  20
 143.50000000001
  30
0.0
  40
 3.0000000000000
  41
0.0
  71
4
  72
1
   1
\W0.500000;\T1.000000; \W1.000000;\T1.000000;床エッジ
   7
GMM001
  44
 0.79999984000003
   0
MTEXT
   5
40F
 100
AcDbEntity
   8
LEVEL002
 370
15
  62
8
 100
AcDbMText
  10
 51.624999999950
  20
 143.50000000001
  30
0.0
  40
 3.0000000000000
  41
0.0
  71
5
  72
1
   1
\T1.000000;ＲＯ１（リノ押え）
   7
GMM001
  44
 0.79999984000003
   0
MTEXT
   5
411
 100
AcDbEntity
   8
LEVEL002
 370
15
  62
8
 100
AcDbMText
  10
 123.87499999995
  20
 143.50000000001
  30
0.0
  40
 3.0000000000000
  41
0.0
  71
5
  72
1
   1
\T1.000000;ＳＣＭ１
   7
GMM001
  44
 0.79999984000003
   0
MTEXT
   5
413
 100
AcDbEntity
   8
LEVEL002
 370
15
  62
8
 100
AcDbMText
  10
 196.12499999995
  20
 143.50000000001
  30
0.0
  40
 3.0000000000000
  41
0.0
  71
5
  72
1
   1
\T1.000000;ＳＣＭ１Ｂ
   7
GMM001
  44
 0.79999984000003
   0
MTEXT
   5
415
 100
AcDbEntity
   8
LEVEL001
 370
15
  62
8
 100
AcDbMText
  10
 87.999999999950
  20
 145.04166666668
  30
0.0
  40
 2.5000000000000
  41
0.0
  71
1
  72
1
   1
{\W0.500000;\T1.000000; \W1.000000;\T1.000000;床エッジ}\P{\W0.500000;\T1.000000; \W1.000000;\T1.000000;巻き上げエッジ}
   7
GMM001
  44
 0.73999985200003
   0
MTEXT
   5
417
 100
AcDbEntity
   8
LEVEL001
 370
15
  62
8
 100
AcDbMText
  10
 160.24999999995
  20
 145.04166666668
  30
0.0
  40
 2.5000000000000
  41
0.0
  71
1
  72
1
   1
{\W0.500000;\T1.000000; \W1.000000;\T1.000000;床エッジ}\P{\W0.500000;\T1.000000; \W1.000000;\T1.000000;巻き上げエッジ}
   7
GMM001
  44
 0.73999985200003
   0
MTEXT
   5
419
 100
AcDbEntity
   8
LEVEL002
 370
15
  62
8
 100
AcDbMText
  10
 268.37499999995
  20
 143.50000000001
  30
0.0
  40
 3.0000000000000
  41
0.0
  71
5
  72
1
   1
\T1.000000;ＳＣＭ２
   7
GMM001
  44
 0.79999984000003
   0
MTEXT
   5
41B
 100
AcDbEntity
   8
LEVEL001
 370
15
  62
8
 100
AcDbMText
  10
 232.54999999995
  20
 143.50000000001
  30
0.0
  40
 3.0000000000000
  41
0.0
  71
4
  72
1
   1
\W0.500000;\T1.000000; \W1.000000;\T1.000000;床エッジ
   7
GMM001
  44
 0.79999984000003
   0
MTEXT
   5
41D
 100
AcDbEntity
   8
LEVEL002
 370
15
  62
8
 100
AcDbMText
  10
 51.624999999950
  20
 75.250000000020
  30
0.0
  40
 3.0000000000000
  41
0.0
  71
5
  72
1
   1
\T1.000000;ＳＣＭ３
   7
GMM001
  44
 0.79999984000003
   0
MTEXT
   5
41F
 100
AcDbEntity
   8
LEVEL001
 370
15
  62
8
 100
AcDbMText
  10
 15.799999999950
  20
 75.250000000020
  30
0.0
  40
 3.0000000000000
  41
0.0
  71
4
  72
1
   1
\W0.500000;\T1.000000; \W1.000000;\T1.000000;床エッジ
   7
GMM001
  44
 0.79999984000003
   0
MTEXT
   5
421
 100
AcDbEntity
   8
LEVEL002
 370
15
  62
8
 100
AcDbMText
  10
 123.87499999995
  20
 75.250000000020
  30
0.0
  40
 3.0000000000000
  41
0.0
  71
5
  72
1
   1
\T1.000000;ＳＭ３
   7
GMM001
  44
 0.79999984000003
   0
MTEXT
   5
423
 100
AcDbEntity
   8
LEVEL002
 370
15
  62
8
 100
AcDbMText
  10
 196.12499999995
  20
 75.250000000020
  30
0.0
  40
 3.0000000000000
  41
0.0
  71
5
  72
1
   1
\T1.000000;ＳＭ４
   7
GMM001
  44
 0.79999984000003
   0
MTEXT
   5
425
 100
AcDbEntity
   8
LEVEL001
 370
15
  62
8
 100
AcDbMText
  10
 88.049999999950
  20
 75.250000000020
  30
0.0
  40
 3.0000000000000
  41
0.0
  71
4
  72
1
   1
\W0.500000;\T1.000000; \W1.000000;\T1.000000;床エッジ
   7
GMM001
  44
 0.79999984000003
   0
MTEXT
   5
427
 100
AcDbEntity
   8
LEVEL001
 370
15
  62
8
 100
AcDbMText
  10
 160.29999999995
  20
 75.250000000020
  30
0.0
  40
 3.0000000000000
  41
0.0
  71
4
  72
1
   1
\W0.500000;\T1.000000; \W1.000000;\T1.000000;床エッジ
   7
GMM001
  44
 0.79999984000003
   0
ARC
   5
428
 100
AcDbEntity
   8
LEVEL002
 370
30
   6
CONTINUOUS
  62
7
 100
AcDbCircle
  10
 111.62499999995
  20
 98.572612294090
  30
0.0
  40
 0.75000000000000
 100
AcDbArc
  50
 90.000000000000
  51
 180.00000000001
   0
LINE
   5
429
 100
AcDbEntity
   8
LEVEL002
 370
30
 100
AcDbLine
   6
CONTINUOUS
  62
7
  10
 117.87499999995
  20
 99.322612294090
  30
0.0
  11
 117.87499999995
  21
 98.522612294090
  31
0.0
   0
LINE
   5
42A
 100
AcDbEntity
   8
LEVEL002
 370
30
 100
AcDbLine
   6
CONTINUOUS
  62
7
  10
 117.87499999995
  20
 99.322612294090
  30
0.0
  11
 111.62499999995
  21
 99.322612294090
  31
0.0
   0
LINE
   5
42B
 100
AcDbEntity
   8
LEVEL002
 370
30
 100
AcDbLine
   6
CONTINUOUS
  62
7
  10
 111.62499999995
  20
 95.322612294090
  30
0.0
  11
 136.87499999995
  21
 95.322612294090
  31
0.0
   0
LINE
   5
42C
 100
AcDbEntity
   8
LEVEL002
 370
30
 100
AcDbLine
   6
CONTINUOUS
  62
7
  10
 136.87499999995
  20
 96.122612294090
  30
0.0
  11
 111.67499999995
  21
 96.122612294090
  31
0.0
   0
ARC
   5
42D
 100
AcDbEntity
   8
LEVEL002
 370
30
   6
CONTINUOUS
  62
7
 100
AcDbCircle
  10
 111.62499999995
  20
 96.072612294090
  30
0.0
  40
 0.75000000000000
 100
AcDbArc
  50
 180.00000000000
  51
 269.99999999999
   0
LINE
   5
42E
 100
AcDbEntity
   8
LEVEL002
 370
30
 100
AcDbLine
   6
CONTINUOUS
  62
7
  10
 136.87499999995
  20
 96.122612294090
  30
0.0
  11
 136.87499999995
  21
 95.322612294090
  31
0.0
   0
LINE
   5
42F
 100
AcDbEntity
   8
LEVEL002
 370
30
 100
AcDbLine
   6
CONTINUOUS
  62
7
  10
 110.87499999995
  20
 98.572612294090
  30
0.0
  11
 110.87499999995
  21
 96.072612294090
  31
0.0
   0
LINE
   5
430
 100
AcDbEntity
   8
LEVEL002
 370
30
 100
AcDbLine
   6
CONTINUOUS
  62
7
  10
 111.67499999995
  20
 96.122612294090
  30
0.0
  11
 111.67499999995
  21
 98.522612294090
  31
0.0
   0
LINE
   5
431
 100
AcDbEntity
   8
LEVEL002
 370
30
 100
AcDbLine
   6
CONTINUOUS
  62
7
  10
 111.67499999995
  20
 98.522612294090
  30
0.0
  11
 117.87499999995
  21
 98.522612294090
  31
0.0
   0
DIMENSION
   5
432
 100
AcDbEntity
   8
LEVEL001
 370
15
   6
CONTINUOUS
  62
8
 100
AcDbDimension
   2
*D25
  10
 117.87499999995
  20
 107.32261229409
  30
0.0
  11
 114.37499999995
  21
 107.32261229409
  31
0.0
  70
0
   3
GMM005
 100
AcDbAlignedDimension
  13
 110.87499999995
  23
 98.572612294090
  33
0.0
  14
 117.87499999995
  24
 99.655945627423
  34
0.0
 100
AcDbRotatedDimension
   0
DIMENSION
   5
433
 100
AcDbEntity
   8
LEVEL001
 370
15
   6
CONTINUOUS
  62
8
 100
AcDbDimension
   2
*D26
  10
 106.14022158427
  20
 99.322612294090
  30
0.0
  11
 106.14022158427
  21
 97.322612294090
  31
0.0
  70
0
   3
GMM005
 100
AcDbAlignedDimension
  13
 111.62499999995
  23
 95.322612294090
  33
0.0
  14
 111.62499999995
  24
 99.322612294090
  34
0.0
  50
 90.000000000000
 100
AcDbRotatedDimension
   0
DIMENSION
   5
434
 100
AcDbEntity
   8
LEVEL001
 370
15
   6
CONTINUOUS
  62
8
 100
AcDbDimension
   2
*D27
  10
 141.09894933736
  20
 96.122612294090
  30
0.0
  11
 141.09894933736
  21
 93.981633221278
  31
0.0
  70
128
   3
GMM010
 100
AcDbAlignedDimension
  13
 136.87499999995
  23
 95.322612294090
  33
0.0
  14
 136.87499999995
  24
 96.122612294090
  34
0.0
  50
 90.000000000000
 100
AcDbRotatedDimension
   0
DIMENSION
   5
435
 100
AcDbEntity
   8
LEVEL001
 370
15
   6
CONTINUOUS
  62
8
 100
AcDbDimension
   2
*D28
  10
 141.09894933736
  20
 98.522612294090
  30
0.0
  11
 141.09894933736
  21
 99.932250853575
  31
0.0
  70
128
   3
GMM011
 100
AcDbAlignedDimension
  13
 136.87499999995
  23
 96.122612294090
  33
0.0
  14
 117.87499999995
  24
 98.522612294090
  34
0.0
  50
 90.000000000000
 100
AcDbRotatedDimension
   0
DIMENSION
   5
436
 100
AcDbEntity
   8
LEVEL001
 370
15
   6
CONTINUOUS
  62
8
 100
AcDbDimension
   2
*D29
  10
 136.87499999995
  20
 88.306359604206
  30
0.0
  11
 123.87499999995
  21
 88.306359604206
  31
0.0
  70
0
   3
GMM005
 100
AcDbAlignedDimension
  13
 110.87499999995
  23
 96.072612294090
  33
0.0
  14
 136.87499999995
  24
 95.322612294090
  34
0.0
 100
AcDbRotatedDimension
   0
LINE
   5
437
 100
AcDbEntity
   8
LEVEL002
 370
30
 100
AcDbLine
   6
CONTINUOUS
  62
7
  10
 44.191185701295
  20
 98.593521559866
  30
0.0
  11
 44.191185701295
  21
 96.593521559866
  31
0.0
   0
LINE
   5
438
 100
AcDbEntity
   8
LEVEL002
 370
30
 100
AcDbLine
   6
CONTINUOUS
  62
7
  10
 44.191185701295
  20
 96.593521559866
  30
0.0
  11
 42.991185701295
  21
 96.593521559866
  31
0.0
   0
ARC
   5
439
 100
AcDbEntity
   8
LEVEL002
 370
30
   6
CONTINUOUS
  62
7
 100
AcDbCircle
  10
 44.491185701295
  20
 98.593521559866
  30
0.0
  40
 0.30000000000000
 100
AcDbArc
  50
 89.999999999997
  51
 180.00000000001
   0
LINE
   5
43A
 100
AcDbEntity
   8
LEVEL002
 370
30
 100
AcDbLine
   6
CONTINUOUS
  62
7
  10
 44.491185701295
  20
 100.09352155987
  30
0.0
  11
 61.991185701295
  21
 100.09352155987
  31
0.0
   0
LINE
   5
43B
 100
AcDbEntity
   8
LEVEL002
 370
30
 100
AcDbLine
   6
CONTINUOUS
  62
7
  10
 61.991185701295
  20
 100.09352155987
  30
0.0
  11
 61.991185701295
  21
 98.893521559866
  31
0.0
   0
LINE
   5
43C
 100
AcDbEntity
   8
LEVEL002
 370
30
 100
AcDbLine
   6
CONTINUOUS
  62
7
  10
 61.991185701295
  20
 98.893521559866
  30
0.0
  11
 44.491185701295
  21
 98.893521559866
  31
0.0
   0
LINE
   5
43D
 100
AcDbEntity
   8
LEVEL002
 370
30
 100
AcDbLine
   6
CONTINUOUS
  62
7
  10
 42.991185701295
  20
 96.593521559866
  30
0.0
  11
 42.991185701295
  21
 98.593521559866
  31
0.0
   0
ARC
   5
43E
 100
AcDbEntity
   8
LEVEL002
 370
30
   6
CONTINUOUS
  62
7
 100
AcDbCircle
  10
 44.491185701295
  20
 98.593521559866
  30
0.0
  40
 1.5000000000000
 100
AcDbArc
  50
 90.000000000000
  51
 180.00000000000
   0
DIMENSION
   5
43F
 100
AcDbEntity
   8
LEVEL001
 370
15
   6
CONTINUOUS
  62
8
 100
AcDbDimension
   2
*D30
  10
 61.991185701295
  20
 106.29782332004
  30
0.0
  11
 52.491185701295
  21
 106.29782332004
  31
0.0
  70
0
   3
GMM005
 100
AcDbAlignedDimension
  13
 42.991185701295
  23
 98.593521559866
  33
0.0
  14
 61.991185701295
  24
 100.09352155987
  34
0.0
 100
AcDbRotatedDimension
   0
DIMENSION
   5
440
 100
AcDbEntity
   8
LEVEL001
 370
15
   6
CONTINUOUS
  62
8
 100
AcDbDimension
   2
*D31
  10
 66.945737733017
  20
 98.893521559866
  30
0.0
  11
 66.945737733017
  21
 97.012519683126
  31
0.0
  70
128
   3
GMM009
 100
AcDbAlignedDimension
  13
 61.991185701295
  23
 100.09352155987
  33
0.0
  14
 62.191185701295
  24
 98.893521559866
  34
0.0
  50
 270.00000000000
 100
AcDbRotatedDimension
   0
DIMENSION
   5
441
 100
AcDbEntity
   8
LEVEL001
 370
15
   6
CONTINUOUS
  62
8
 100
AcDbDimension
   2
*D32
  10
 38.150988740780
  20
 100.09352155987
  30
0.0
  11
 38.150988740780
  21
 101.70949596030
  31
0.0
  70
128
   3
GMM012
 100
AcDbAlignedDimension
  13
 42.991185701295
  23
 96.593521559866
  33
0.0
  14
 44.491185701295
  24
 100.09352155987
  34
0.0
  50
 90.000000000000
 100
AcDbRotatedDimension
   0
LINE
   5
442
 100
AcDbEntity
   8
LEVEL002
 370
30
 100
AcDbLine
   6
CONTINUOUS
  62
7
  10
 181.59715098223
  20
 95.322612294090
  30
0.0
  11
 206.84715098224
  21
 95.322612294090
  31
0.0
   0
ARC
   5
443
 100
AcDbEntity
   8
LEVEL002
 370
30
   6
CONTINUOUS
  62
7
 100
AcDbCircle
  10
 181.59715098224
  20
 96.072612294090
  30
0.0
  40
 0.75000000000000
 100
AcDbArc
  50
 180.00000000000
  51
 270.00000000000
   0
LINE
   5
444
 100
AcDbEntity
   8
LEVEL002
 370
30
 100
AcDbLine
   6
CONTINUOUS
  62
7
  10
 206.84715098224
  20
 96.122612294090
  30
0.0
  11
 206.84715098224
  21
 95.322612294090
  31
0.0
   0
LINE
   5
445
 100
AcDbEntity
   8
LEVEL002
 370
30
 100
AcDbLine
   6
CONTINUOUS
  62
7
  10
 187.84715098223
  20
 100.02261229409
  30
0.0
  11
 187.84715098223
  21
 99.222612294090
  31
0.0
   0
LINE
   5
446
 100
AcDbEntity
   8
LEVEL002
 370
30
 100
AcDbLine
   6
CONTINUOUS
  62
7
  10
 187.84715098223
  20
 100.02261229409
  30
0.0
  11
 181.59715098223
  21
 100.02261229409
  31
0.0
   0
ARC
   5
447
 100
AcDbEntity
   8
LEVEL002
 370
30
   6
CONTINUOUS
  62
7
 100
AcDbCircle
  10
 181.59715098223
  20
 99.272612294093
  30
0.0
  40
 0.75000000000000
 100
AcDbArc
  50
 90.000000000000
  51
 180.00000000001
   0
LINE
   5
448
 100
AcDbEntity
   8
LEVEL002
 370
30
 100
AcDbLine
   6
CONTINUOUS
  62
7
  10
 180.84715098223
  20
 99.272612294090
  30
0.0
  11
 180.84715098223
  21
 96.072612294090
  31
0.0
   0
LINE
   5
449
 100
AcDbEntity
   8
LEVEL002
 370
30
 100
AcDbLine
   6
CONTINUOUS
  62
7
  10
 206.84715098224
  20
 96.122612294090
  30
0.0
  11
 181.64715098223
  21
 96.122612294090
  31
0.0
   0
LINE
   5
44A
 100
AcDbEntity
   8
LEVEL002
 370
30
 100
AcDbLine
   6
CONTINUOUS
  62
7
  10
 181.64715098223
  20
 96.122612294090
  30
0.0
  11
 181.64715098223
  21
 99.222612294090
  31
0.0
   0
LINE
   5
44B
 100
AcDbEntity
   8
LEVEL002
 370
30
 100
AcDbLine
   6
CONTINUOUS
  62
7
  10
 181.64715098223
  20
 99.222612294090
  30
0.0
  11
 187.84715098223
  21
 99.222612294090
  31
0.0
   0
DIMENSION
   5
44C
 100
AcDbEntity
   8
LEVEL001
 370
15
   6
CONTINUOUS
  62
8
 100
AcDbDimension
   2
*D33
  10
 187.84715098223
  20
 107.32261229409
  30
0.0
  11
 184.34715098223
  21
 107.32261229409
  31
0.0
  70
0
   3
GMM005
 100
AcDbAlignedDimension
  13
 180.84715098223
  23
 99.272612294090
  33
0.0
  14
 187.84715098223
  24
 100.02261229409
  34
0.0
 100
AcDbRotatedDimension
   0
DIMENSION
   5
44D
 100
AcDbEntity
   8
LEVEL001
 370
15
   6
CONTINUOUS
  62
8
 100
AcDbDimension
   2
*D34
  10
 206.84715098224
  20
 89.288313398052
  30
0.0
  11
 193.84715098224
  21
 89.288313398052
  31
0.0
  70
0
   3
GMM005
 100
AcDbAlignedDimension
  13
 180.84715098223
  23
 96.072612294090
  33
0.0
  14
 206.84715098224
  24
 95.945148993733
  34
0.0
 100
AcDbRotatedDimension
   0
DIMENSION
   5
44E
 100
AcDbEntity
   8
LEVEL001
 370
15
   6
CONTINUOUS
  62
8
 100
AcDbDimension
   2
*D35
  10
 177.82694411123
  20
 100.02261229409
  30
0.0
  11
 177.82694411123
  21
 97.672612294091
  31
0.0
  70
0
   3
GMM005
 100
AcDbAlignedDimension
  13
 181.59715098224
  23
 95.322612294090
  33
0.0
  14
 181.59715098223
  24
 100.02261229409
  34
0.0
  50
 90.000000000000
 100
AcDbRotatedDimension
   0
DIMENSION
   5
44F
 100
AcDbEntity
   8
LEVEL001
 370
15
   6
CONTINUOUS
  62
8
 100
AcDbDimension
   2
*D36
  10
 212.07642593307
  20
 96.122612294090
  30
0.0
  11
 212.07642593307
  21
 94.089759788157
  31
0.0
  70
128
   3
GMM013
 100
AcDbAlignedDimension
  13
 206.84715098224
  23
 95.322612294090
  33
0.0
  14
 206.84715098224
  24
 96.122612294090
  34
0.0
  50
 90.000000000000
 100
AcDbRotatedDimension
   0
DIMENSION
   5
450
 100
AcDbEntity
   8
LEVEL001
 370
15
   6
CONTINUOUS
  62
8
 100
AcDbDimension
   2
*D37
  10
 212.07642593307
  20
 99.222612294090
  30
0.0
  11
 212.07642593307
  21
 100.17409916500
  31
0.0
  70
128
   3
GMM014
 100
AcDbAlignedDimension
  13
 206.84715098224
  23
 96.122612294090
  33
0.0
  14
 187.84715098223
  24
 99.222612294090
  34
0.0
  50
 90.000000000000
 100
AcDbRotatedDimension
   0
ARC
   5
451
 100
AcDbEntity
   8
LEVEL002
 370
30
   6
CONTINUOUS
  62
7
 100
AcDbCircle
  10
 251.76246249166
  20
 101.57261229409
  30
0.0
  40
 0.75000000000000
 100
AcDbArc
  50
 90.000000000000
  51
 180.00000000001
   0
ARC
   5
452
 100
AcDbEntity
   8
LEVEL002
 370
30
   6
CONTINUOUS
  62
7
 100
AcDbCircle
  10
 251.76246249166
  20
 96.072612294090
  30
0.0
  40
 0.75000000000000
 100
AcDbArc
  50
 180.00000000000
  51
 269.99999999999
   0
LINE
   5
453
 100
AcDbEntity
   8
LEVEL002
 370
30
 100
AcDbLine
   6
CONTINUOUS
  62
7
  10
 251.01246249166
  20
 101.57261229409
  30
0.0
  11
 251.01246249166
  21
 96.072612294090
  31
0.0
   0
LINE
   5
454
 100
AcDbEntity
   8
LEVEL002
 370
30
 100
AcDbLine
   6
CONTINUOUS
  62
7
  10
 258.01246249166
  20
 102.32261229409
  30
0.0
  11
 258.01246249166
  21
 101.52261229409
  31
0.0
   0
LINE
   5
455
 100
AcDbEntity
   8
LEVEL002
 370
30
 100
AcDbLine
   6
CONTINUOUS
  62
7
  10
 251.81246249166
  20
 96.122612294090
  30
0.0
  11
 251.81246249166
  21
 101.52261229409
  31
0.0
   0
LINE
   5
456
 100
AcDbEntity
   8
LEVEL002
 370
30
 100
AcDbLine
   6
CONTINUOUS
  62
7
  10
 251.81246249166
  20
 101.52261229409
  30
0.0
  11
 258.01246249166
  21
 101.52261229409
  31
0.0
   0
LINE
   5
457
 100
AcDbEntity
   8
LEVEL002
 370
30
 100
AcDbLine
   6
CONTINUOUS
  62
7
  10
 258.01246249166
  20
 102.32261229409
  30
0.0
  11
 251.76246249166
  21
 102.32261229409
  31
0.0
   0
LINE
   5
458
 100
AcDbEntity
   8
LEVEL002
 370
30
 100
AcDbLine
   6
CONTINUOUS
  62
7
  10
 277.01246249166
  20
 96.122612294090
  30
0.0
  11
 277.01246249166
  21
 95.322612294090
  31
0.0
   0
LINE
   5
459
 100
AcDbEntity
   8
LEVEL002
 370
30
 100
AcDbLine
   6
CONTINUOUS
  62
7
  10
 277.01246249166
  20
 96.122612294090
  30
0.0
  11
 251.81246249166
  21
 96.122612294090
  31
0.0
   0
LINE
   5
45A
 100
AcDbEntity
   8
LEVEL002
 370
30
 100
AcDbLine
   6
CONTINUOUS
  62
7
  10
 251.76246249166
  20
 95.322612294090
  30
0.0
  11
 277.01246249166
  21
 95.322612294090
  31
0.0
   0
DIMENSION
   5
45B
 100
AcDbEntity
   8
LEVEL001
 370
15
   6
CONTINUOUS
  62
8
 100
AcDbDimension
   2
*D38
  10
 277.01246249166
  20
 89.288313398052
  30
0.0
  11
 264.01246249166
  21
 89.288313398052
  31
0.0
  70
0
   3
GMM005
 100
AcDbAlignedDimension
  13
 251.01246249166
  23
 96.072612294090
  33
0.0
  14
 277.01246249166
  24
 95.322612294090
  34
0.0
 100
AcDbRotatedDimension
   0
DIMENSION
   5
45C
 100
AcDbEntity
   8
LEVEL001
 370
15
   6
CONTINUOUS
  62
8
 100
AcDbDimension
   2
*D39
  10
 284.63156571379
  20
 96.122612294090
  30
0.0
  11
 284.63156571379
  21
 93.729443071960
  31
0.0
  70
128
   3
GMM015
 100
AcDbAlignedDimension
  13
 277.01246249166
  23
 95.322612294090
  33
0.0
  14
 277.01246249166
  24
 96.122612294090
  34
0.0
  50
 90.000000000000
 100
AcDbRotatedDimension
   0
DIMENSION
   5
45D
 100
AcDbEntity
   8
LEVEL001
 370
15
   6
CONTINUOUS
  62
8
 100
AcDbDimension
   2
*D40
  10
 284.63156571379
  20
 101.52261229409
  30
0.0
  11
 284.63156571379
  21
 98.822612294090
  31
0.0
  70
0
   3
GMM005
 100
AcDbAlignedDimension
  13
 277.01246249166
  23
 96.122612294090
  33
0.0
  14
 258.01246249166
  24
 101.52261229409
  34
0.0
  50
 90.000000000000
 100
AcDbRotatedDimension
   0
DIMENSION
   5
45E
 100
AcDbEntity
   8
LEVEL001
 370
15
   6
CONTINUOUS
  62
8
 100
AcDbDimension
   2
*D41
  10
 258.01246249166
  20
 107.32261229409
  30
0.0
  11
 254.51246249166
  21
 107.32261229409
  31
0.0
  70
0
   3
GMM005
 100
AcDbAlignedDimension
  13
 251.01246249166
  23
 101.57261229409
  33
0.0
  14
 258.01246249166
  24
 102.32261229409
  34
0.0
 100
AcDbRotatedDimension
   0
DIMENSION
   5
45F
 100
AcDbEntity
   8
LEVEL001
 370
15
   6
CONTINUOUS
  62
8
 100
AcDbDimension
   2
*D42
  10
 244.18923277028
  20
 102.32261229409
  30
0.0
  11
 244.18923277028
  21
 98.822612294090
  31
0.0
  70
0
   3
GMM005
 100
AcDbAlignedDimension
  13
 251.76246249166
  23
 95.322612294090
  33
0.0
  14
 251.76246249166
  24
 102.32261229409
  34
0.0
  50
 90.000000000000
 100
AcDbRotatedDimension
   0
ARC
   5
460
 100
AcDbEntity
   8
LEVEL002
 370
30
   6
CONTINUOUS
  62
7
 100
AcDbCircle
  10
 192.01371071393
  20
 30.043521559876
  30
0.0
  40
 0.50000000000000
 100
AcDbArc
  50
 180.00000000000
  51
 269.99999999996
   0
LINE
   5
461
 100
AcDbEntity
   8
LEVEL002
 370
30
 100
AcDbLine
   6
CONTINUOUS
  62
7
  10
 191.51371071393
  20
 42.143521559876
  30
0.0
  11
 191.51371071393
  21
 30.043521559876
  31
0.0
   0
ARC
   5
462
 100
AcDbEntity
   8
LEVEL002
 370
30
   6
CONTINUOUS
  62
7
 100
AcDbCircle
  10
 190.31371071393
  20
 42.143521559876
  30
0.0
  40
 1.2000000000000
 100
AcDbArc
  50
0.0
  51
 180.00000000000
   0
LINE
   5
463
 100
AcDbEntity
   8
LEVEL002
 370
30
 100
AcDbLine
   6
CONTINUOUS
  62
7
  10
 192.01371071393
  20
 29.543521559876
  30
0.0
  11
 209.11371071393
  21
 29.543521559876
  31
0.0
   0
LINE
   5
464
 100
AcDbEntity
   8
LEVEL002
 370
30
 100
AcDbLine
   6
CONTINUOUS
  62
7
  10
 209.11371071393
  20
 29.543521559876
  30
0.0
  11
 209.11371071393
  21
 28.343521559876
  31
0.0
   0
LINE
   5
465
 100
AcDbEntity
   8
LEVEL002
 370
30
 100
AcDbLine
   6
CONTINUOUS
  62
7
  10
 209.11371071393
  20
 28.343521559876
  30
0.0
  11
 192.01371071393
  21
 28.343521559876
  31
0.0
   0
LINE
   5
466
 100
AcDbEntity
   8
LEVEL002
 370
30
 100
AcDbLine
   6
CONTINUOUS
  62
7
  10
 190.29371071393
  20
 28.343521559876
  30
0.0
  11
 189.11371071393
  21
 28.343521559876
  31
0.0
   0
LINE
   5
467
 100
AcDbEntity
   8
LEVEL002
 370
30
 100
AcDbLine
   6
CONTINUOUS
  62
7
  10
 189.11371071393
  20
 28.343521559876
  30
0.0
  11
 189.11371071393
  21
 42.143521559876
  31
0.0
   0
LINE
   5
468
 100
AcDbEntity
   8
LEVEL002
 370
30
 100
AcDbLine
   6
CONTINUOUS
  62
7
  10
 190.29371071393
  20
 28.343521559876
  30
0.0
  11
 190.29371071393
  21
 42.143521559876
  31
0.0
   0
LINE
   5
469
 100
AcDbEntity
   8
LEVEL002
 370
30
 100
AcDbLine
   6
CONTINUOUS
  62
7
  10
 190.29371071393
  20
 42.143521559876
  30
0.0
  11
 190.33371071393
  21
 42.143521559876
  31
0.0
   0
LINE
   5
46A
 100
AcDbEntity
   8
LEVEL002
 370
30
 100
AcDbLine
   6
CONTINUOUS
  62
7
  10
 190.33371071393
  20
 42.143521559876
  30
0.0
  11
 190.33371071393
  21
 30.043521559876
  31
0.0
   0
ARC
   5
46B
 100
AcDbEntity
   8
LEVEL002
 370
30
   6
CONTINUOUS
  62
7
 100
AcDbCircle
  10
 192.03371071393
  20
 30.043521559876
  30
0.0
  40
 1.7000000000000
 100
AcDbArc
  50
 180.00000000000
  51
 270.00000000000
   0
DIMENSION
   5
46C
 100
AcDbEntity
   8
LEVEL001
 370
15
   6
CONTINUOUS
  62
8
 100
AcDbDimension
   2
*D43
  10
 191.51371071393
  20
 48.361451953786
  30
0.0
  11
 187.26660233999
  21
 48.361451953786
  31
0.0
  70
128
   3
GMM016
 100
AcDbAlignedDimension
  13
 189.11371071393
  23
 42.143521559876
  33
0.0
  14
 191.51371071393
  24
 42.143521559876
  34
0.0
 100
AcDbRotatedDimension
   0
DIMENSION
   5
46D
 100
AcDbEntity
   8
LEVEL001
 370
15
   6
CONTINUOUS
  62
8
 100
AcDbDimension
   2
*D44
  10
 184.64161663585
  20
 40.343521559876
  30
0.0
  11
 184.64161663585
  21
 34.343521559876
  31
0.0
  70
0
   3
GMM005
 100
AcDbAlignedDimension
  13
 189.11371071393
  23
 28.343521559876
  33
0.0
  14
 190.31371071393
  24
 40.343521559876
  34
0.0
  50
 90.000000000000
 100
AcDbRotatedDimension
   0
DIMENSION
   5
46E
 100
AcDbEntity
   8
LEVEL001
 370
15
   6
CONTINUOUS
  62
8
 100
AcDbDimension
   2
*D45
  10
 214.90939422036
  20
 29.543521559876
  30
0.0
  11
 214.90939422036
  21
 30.581020376937
  31
0.0
  70
128
   3
GMM017
 100
AcDbAlignedDimension
  13
 209.11371071393
  23
 28.343521559876
  33
0.0
  14
 209.11371071393
  24
 29.543521559876
  34
0.0
  50
 90.000000000000
 100
AcDbRotatedDimension
   0
DIMENSION
   5
46F
 100
AcDbEntity
   8
LEVEL001
 370
15
   6
CONTINUOUS
  62
8
 100
AcDbDimension
   2
*D46
  10
 209.11371071393
  20
 16.088926311765
  30
0.0
  11
 199.11371071393
  21
 16.088926311765
  31
0.0
  70
0
   3
GMM005
 100
AcDbAlignedDimension
  13
 189.11371071393
  23
 28.343521559876
  33
0.0
  14
 209.11371071393
  24
 28.343521559876
  34
0.0
 100
AcDbRotatedDimension
   0
DIMENSION
   5
470
 100
AcDbEntity
   8
LEVEL001
 370
15
   6
CONTINUOUS
  62
8
 100
AcDbDimension
   2
*D47
  10
 209.11371071393
  20
 21.667630342043
  30
0.0
  11
 200.31371071393
  21
 21.667630342043
  31
0.0
  70
0
   3
GMM005
 100
AcDbAlignedDimension
  13
 191.51371071393
  23
 30.043521559876
  33
0.0
  14
 209.11371071393
  24
 28.343521559876
  34
0.0
 100
AcDbRotatedDimension
   0
ARC
   5
471
 100
AcDbEntity
   8
LEVEL002
 370
30
   6
CONTINUOUS
  62
7
 100
AcDbCircle
  10
 117.41343130006
  20
 30.043521559876
  30
0.0
  40
 0.50000000000000
 100
AcDbArc
  50
 180.00000000000
  51
 269.99999999999
   0
LINE
   5
472
 100
AcDbEntity
   8
LEVEL002
 370
30
 100
AcDbLine
   6
CONTINUOUS
  62
7
  10
 116.91343130006
  20
 39.143521559876
  30
0.0
  11
 116.91343130006
  21
 30.043521559876
  31
0.0
   0
ARC
   5
473
 100
AcDbEntity
   8
LEVEL002
 370
30
   6
CONTINUOUS
  62
7
 100
AcDbCircle
  10
 115.71343130006
  20
 39.143521559876
  30
0.0
  40
 1.2000000000000
 100
AcDbArc
  50
0.0
  51
 180.00000000000
   0
ARC
   5
474
 100
AcDbEntity
   8
LEVEL002
 370
30
   6
CONTINUOUS
  62
7
 100
AcDbCircle
  10
 117.43343130006
  20
 30.043521559876
  30
0.0
  40
 1.7000000000000
 100
AcDbArc
  50
 180.00000000000
  51
 270.00000000000
   0
LINE
   5
475
 100
AcDbEntity
   8
LEVEL002
 370
30
 100
AcDbLine
   6
CONTINUOUS
  62
7
  10
 115.69343130006
  20
 28.343521559876
  30
0.0
  11
 115.69343130006
  21
 39.143521559876
  31
0.0
   0
LINE
   5
476
 100
AcDbEntity
   8
LEVEL002
 370
30
 100
AcDbLine
   6
CONTINUOUS
  62
7
  10
 115.69343130006
  20
 39.143521559876
  30
0.0
  11
 115.73343130006
  21
 39.143521559876
  31
0.0
   0
LINE
   5
477
 100
AcDbEntity
   8
LEVEL002
 370
30
 100
AcDbLine
   6
CONTINUOUS
  62
7
  10
 115.73343130006
  20
 39.143521559876
  30
0.0
  11
 115.73343130006
  21
 30.043521559876
  31
0.0
   0
LINE
   5
478
 100
AcDbEntity
   8
LEVEL002
 370
30
 100
AcDbLine
   6
CONTINUOUS
  62
7
  10
 115.69343130006
  20
 28.343521559876
  30
0.0
  11
 114.51343130006
  21
 28.343521559876
  31
0.0
   0
LINE
   5
479
 100
AcDbEntity
   8
LEVEL002
 370
30
 100
AcDbLine
   6
CONTINUOUS
  62
7
  10
 114.51343130006
  20
 28.343521559876
  30
0.0
  11
 114.51343130006
  21
 39.143521559876
  31
0.0
   0
LINE
   5
47A
 100
AcDbEntity
   8
LEVEL002
 370
30
 100
AcDbLine
   6
CONTINUOUS
  62
7
  10
 117.41343130006
  20
 29.543521559876
  30
0.0
  11
 134.51343130006
  21
 29.543521559876
  31
0.0
   0
LINE
   5
47B
 100
AcDbEntity
   8
LEVEL002
 370
30
 100
AcDbLine
   6
CONTINUOUS
  62
7
  10
 134.51343130006
  20
 29.543521559876
  30
0.0
  11
 134.51343130006
  21
 28.343521559876
  31
0.0
   0
LINE
   5
47C
 100
AcDbEntity
   8
LEVEL002
 370
30
 100
AcDbLine
   6
CONTINUOUS
  62
7
  10
 134.51343130006
  20
 28.343521559876
  30
0.0
  11
 117.41343130006
  21
 28.343521559876
  31
0.0
   0
DIMENSION
   5
47D
 100
AcDbEntity
   8
LEVEL001
 370
15
   6
CONTINUOUS
  62
8
 100
AcDbDimension
   2
*D48
  10
 110.04133722197
  20
 40.343521559876
  30
0.0
  11
 110.04133722197
  21
 34.343521559876
  31
0.0
  70
0
   3
GMM005
 100
AcDbAlignedDimension
  13
 114.51343130006
  23
 28.343521559876
  33
0.0
  14
 115.71343130006
  24
 40.343521559876
  34
0.0
  50
 90.000000000000
 100
AcDbRotatedDimension
   0
DIMENSION
   5
47E
 100
AcDbEntity
   8
LEVEL001
 370
15
   6
CONTINUOUS
  62
8
 100
AcDbDimension
   2
*D49
  10
 134.51343130006
  20
 16.088926311764
  30
0.0
  11
 124.51343130006
  21
 16.088926311764
  31
0.0
  70
0
   3
GMM005
 100
AcDbAlignedDimension
  13
 114.51343130006
  23
 28.343521559876
  33
0.0
  14
 134.51343130006
  24
 28.343521559876
  34
0.0
 100
AcDbRotatedDimension
   0
DIMENSION
   5
47F
 100
AcDbEntity
   8
LEVEL001
 370
15
   6
CONTINUOUS
  62
8
 100
AcDbDimension
   2
*D50
  10
 116.91343130006
  20
 45.361451953786
  30
0.0
  11
 112.66632292611
  21
 45.361451953786
  31
0.0
  70
128
   3
GMM016
 100
AcDbAlignedDimension
  13
 114.51343130006
  23
 39.143521559876
  33
0.0
  14
 116.91343130006
  24
 39.143521559876
  34
0.0
 100
AcDbRotatedDimension
   0
DIMENSION
   5
480
 100
AcDbEntity
   8
LEVEL001
 370
15
   6
CONTINUOUS
  62
8
 100
AcDbDimension
   2
*D51
  10
 140.30911480648
  20
 29.543521559876
  30
0.0
  11
 140.30911480648
  21
 30.581020376937
  31
0.0
  70
128
   3
GMM017
 100
AcDbAlignedDimension
  13
 134.51343130006
  23
 28.343521559876
  33
0.0
  14
 134.51343130006
  24
 29.543521559876
  34
0.0
  50
 90.000000000000
 100
AcDbRotatedDimension
   0
DIMENSION
   5
481
 100
AcDbEntity
   8
LEVEL001
 370
15
   6
CONTINUOUS
  62
8
 100
AcDbDimension
   2
*D52
  10
 134.51343130006
  20
 21.667630342043
  30
0.0
  11
 125.71343130006
  21
 21.667630342043
  31
0.0
  70
0
   3
GMM005
 100
AcDbAlignedDimension
  13
 116.91343130006
  23
 30.043521559876
  33
0.0
  14
 134.51343130006
  24
 28.343521559876
  34
0.0
 100
AcDbRotatedDimension
   0
ARC
   5
482
 100
AcDbEntity
   8
LEVEL002
 370
30
   6
CONTINUOUS
  62
7
 100
AcDbCircle
  10
 36.354306524730
  20
 27.822612294100
  30
0.0
  40
 0.75000000000000
 100
AcDbArc
  50
 180.00000000000
  51
 269.99999999999
   0
ARC
   5
483
 100
AcDbEntity
   8
LEVEL002
 370
30
   6
CONTINUOUS
  62
7
 100
AcDbCircle
  10
 36.354306524730
  20
 37.322612294100
  30
0.0
  40
 0.75000000000000
 100
AcDbArc
  50
 90.000000000000
  51
 180.00000000001
   0
LINE
   5
484
 100
AcDbEntity
   8
LEVEL002
 370
30
 100
AcDbLine
   6
CONTINUOUS
  62
7
  10
 36.354306524730
  20
 27.072612294100
  30
0.0
  11
 70.604306524730
  21
 27.072612294100
  31
0.0
   0
LINE
   5
485
 100
AcDbEntity
   8
LEVEL002
 370
30
 100
AcDbLine
   6
CONTINUOUS
  62
7
  10
 70.604306524730
  20
 27.072612294100
  30
0.0
  11
 70.604306524730
  21
 27.872612294100
  31
0.0
   0
LINE
   5
486
 100
AcDbEntity
   8
LEVEL002
 370
30
 100
AcDbLine
   6
CONTINUOUS
  62
7
  10
 70.604306524730
  20
 27.872612294100
  30
0.0
  11
 36.404306524730
  21
 27.872612294100
  31
0.0
   0
LINE
   5
487
 100
AcDbEntity
   8
LEVEL002
 370
30
 100
AcDbLine
   6
CONTINUOUS
  62
7
  10
 36.404306524730
  20
 27.872612294100
  30
0.0
  11
 36.404306524730
  21
 37.272612294100
  31
0.0
   0
LINE
   5
488
 100
AcDbEntity
   8
LEVEL002
 370
30
 100
AcDbLine
   6
CONTINUOUS
  62
7
  10
 36.404306524730
  20
 37.272612294100
  30
0.0
  11
 46.604306524730
  21
 37.272612294100
  31
0.0
   0
LINE
   5
489
 100
AcDbEntity
   8
LEVEL002
 370
30
 100
AcDbLine
   6
CONTINUOUS
  62
7
  10
 46.604306524730
  20
 37.272612294100
  30
0.0
  11
 46.604306524730
  21
 38.072612294100
  31
0.0
   0
LINE
   5
48A
 100
AcDbEntity
   8
LEVEL002
 370
30
 100
AcDbLine
   6
CONTINUOUS
  62
7
  10
 46.604306524730
  20
 38.072612294100
  30
0.0
  11
 36.354306524730
  21
 38.072612294100
  31
0.0
   0
LINE
   5
48B
 100
AcDbEntity
   8
LEVEL002
 370
30
 100
AcDbLine
   6
CONTINUOUS
  62
7
  10
 35.604306524730
  20
 37.322612294100
  30
0.0
  11
 35.604306524730
  21
 27.822612294100
  31
0.0
   0
DIMENSION
   5
48C
 100
AcDbEntity
   8
LEVEL001
 370
15
   6
CONTINUOUS
  62
8
 100
AcDbDimension
   2
*D53
  10
 28.564861285382
  20
 38.072612294100
  30
0.0
  11
 28.564861285382
  21
 32.572612294100
  31
0.0
  70
0
   3
GMM005
 100
AcDbAlignedDimension
  13
 36.354306524730
  23
 27.072612294100
  33
0.0
  14
 36.354306524730
  24
 38.072612294100
  34
0.0
  50
 90.000000000000
 100
AcDbRotatedDimension
   0
DIMENSION
   5
48D
 100
AcDbEntity
   8
LEVEL001
 370
15
   6
CONTINUOUS
  62
8
 100
AcDbDimension
   2
*D54
  10
 46.604306524730
  20
 45.600386821625
  30
0.0
  11
 41.104306524730
  21
 45.600386821625
  31
0.0
  70
0
   3
GMM005
 100
AcDbAlignedDimension
  13
 35.604306524730
  23
 37.322612294100
  33
0.0
  14
 46.604306524730
  24
 38.072612294100
  34
0.0
 100
AcDbRotatedDimension
   0
DIMENSION
   5
48E
 100
AcDbEntity
   8
LEVEL001
 370
15
   6
CONTINUOUS
  62
8
 100
AcDbDimension
   2
*D55
  10
 70.604306524730
  20
 21.038313398062
  30
0.0
  11
 53.104306524730
  21
 21.038313398062
  31
0.0
  70
0
   3
GMM005
 100
AcDbAlignedDimension
  13
 35.604306524730
  23
 27.822612294100
  33
0.0
  14
 70.604306524730
  24
 27.072612294100
  34
0.0
 100
AcDbRotatedDimension
   0
DIMENSION
   5
48F
 100
AcDbEntity
   8
LEVEL001
 370
15
   6
CONTINUOUS
  62
8
 100
AcDbDimension
   2
*D56
  10
 77.545875505440
  20
 27.872612294100
  30
0.0
  11
 77.545875505440
  21
 25.178569146741
  31
0.0
  70
128
   3
GMM018
 100
AcDbAlignedDimension
  13
 70.604306524730
  23
 27.072612294100
  33
0.0
  14
 70.604306524730
  24
 27.872612294100
  34
0.0
  50
 90.000000000000
 100
AcDbRotatedDimension
   0
DIMENSION
   5
490
 100
AcDbEntity
   8
LEVEL001
 370
15
   6
CONTINUOUS
  62
8
 100
AcDbDimension
   2
*D57
  10
 77.545875505440
  20
 37.272612294100
  30
0.0
  11
 77.545875505440
  21
 32.572612294100
  31
0.0
  70
0
   3
GMM005
 100
AcDbAlignedDimension
  13
 70.604306524730
  23
 27.872612294100
  33
0.0
  14
 46.604306524730
  24
 37.272612294100
  34
0.0
  50
 90.000000000000
 100
AcDbRotatedDimension
   0
MTEXT
   5
492
 100
AcDbEntity
   8
LEVEL001
 370
15
  62
8
 100
AcDbMText
  10
 15.799999999950
  20
 211.75000000000
  30
0.0
  40
 3.0000000000000
  41
0.0
  71
4
  72
1
   1
\W0.500000;\T1.000000; \W1.000000;\T1.000000;床エッジ
   7
GMM001
  44
 0.79999984000003
   0
MTEXT
   5
494
 100
AcDbEntity
   8
LEVEL002
 370
15
  62
8
 100
AcDbMText
  10
 51.624999999950
  20
 211.75000000000
  30
0.0
  40
 3.0000000000000
  41
0.0
  71
5
  72
1
   1
\T1.000000;ＳＡＭ５
   7
GMM001
  44
 0.79999984000003
   0
MTEXT
   5
496
 100
AcDbEntity
   8
LEVEL002
 370
15
  62
8
 100
AcDbMText
  10
 17.999999999950
  20
 204.91666666670
  30
0.0
  40
 2.0000000000000
  41
0.0
  71
1
  72
1
   3
{\W0.500000;\T1.000000;･\W1.000000;\T1.000000;定尺：３０００\W0.500000;\T1.000000;m/m}\P{\W0.500000;\T1.000000;･\W1.000000;\T1.000000;材質：ＳＵＳ３０４　ｔ＝０\W0.500000;\T1.000000;.\W1.000000;\T1.000000;８}\P{\W0.500000;\T1.000000;･\W1.000000;\T1.0
   1
00000;仕上：ＨＬ（穴なし）}\P\P{\W0.500000;\T1.000000;･\W1.000000;\T1.000000;長尺シート／コンクリート}\P{\W0.500000;\T1.000000; \W1.000000;\T1.000000;石／木製用}
   7
GMM001
  44
 0.79999984000003
   0
MTEXT
   5
498
 100
AcDbEntity
   8
LEVEL001
 370
15
  62
8
 100
AcDbMText
  10
 79.824999999950
  20
 211.75000000000
  30
0.0
  40
 3.0000000000000
  41
0.0
  71
5
  72
1
   1
\W0.500000;\T0.750000;(\W1.000000;\T0.833333;Ｓ＝１／２\W0.500000;\T0.750000;)
   7
GMM001
  44
 0.79999984000003
   0
MTEXT
   5
49A
 100
AcDbEntity
   8
LEVEL002
 370
15
  62
8
 100
AcDbMText
  10
 90.249999999950
  20
 68.416666666720
  30
0.0
  40
 2.0000000000000
  41
0.0
  71
1
  72
1
   3
{\W0.500000;\T1.000000;･\W1.000000;\T1.000000;定尺：４０００\W0.500000;\T1.000000;m/m}\P{\W0.500000;\T1.000000;･\W1.000000;\T1.000000;材質：ＳＵＳ３０４　ｔ＝１\W0.500000;\T1.000000;.\W1.000000;\T1.000000;２}\P{\W0.500000;\T1.000000;･\W1.000000;\T1.0
   1
00000;仕上：ＨＬ\W0.500000;\T1.000000;､\W1.000000;\T1.000000;（穴なし）}\P\P{\W0.500000;\T1.000000;･\W1.000000;\T1.000000;長尺シート／コンクリート}\P{\W0.500000;\T1.000000; \W1.000000;\T1.000000;石／木製用}
   7
GMM001
  44
 0.79999984000003
   0
MTEXT
   5
49C
 100
AcDbEntity
   8
LEVEL002
 370
15
  62
8
 100
AcDbMText
  10
 162.49999999995
  20
 68.416666666720
  30
0.0
  40
 2.0000000000000
  41
0.0
  71
1
  72
1
   3
{\W0.500000;\T1.000000;･\W1.000000;\T1.000000;定尺：４０００\W0.500000;\T1.000000;m/m}\P{\W0.500000;\T1.000000;･\W1.000000;\T1.000000;材質：ＳＵＳ３０４　ｔ＝１\W0.500000;\T1.000000;.\W1.000000;\T1.000000;２}\P{\W0.500000;\T1.000000;･\W1.000000;\T1.0
   1
00000;仕上：ＨＬ\W0.500000;\T1.000000;､\W1.000000;\T1.000000;（穴なし）}\P\P{\W0.500000;\T1.000000;･\W1.000000;\T1.000000;長尺シート／コンクリート}\P{\W0.500000;\T1.000000; \W1.000000;\T1.000000;石／木製用}
   7
GMM001
  44
 0.79999984000003
   0
MTEXT
   5
49E
 100
AcDbEntity
   8
LEVEL002
 370
15
  62
8
 100
AcDbMText
  10
 17.999999999950
  20
 273.16666666670
  30
0.0
  40
 2.0000000000000
  41
0.0
  71
1
  72
1
   3
{\W0.500000;\T1.000000;･\W1.000000;\T1.000000;定尺：４０００\W0.500000;\T1.000000;m/m}\P{\W0.500000;\T1.000000;･\W1.000000;\T1.000000;材質：ＳＵＳ３０４　ｔ＝１\W0.500000;\T1.000000;.\W1.000000;\T1.000000;２}\P{\W0.500000;\T1.000000;･\W1.000000;\T1.0
   1
00000;仕上：ＨＬ（穴付）\W0.500000;\T1.000000; \W1.000000;\T1.000000;穴サイズ：下穴%%c５／皿%%c７}\P\P{\W0.500000;\T1.000000;･\W1.000000;\T1.000000;パンチカーペット}\P{\W0.500000;\T1.000000; \W1.000000;\T1.000000;タイルカーペット用}
   7
GMM001
  44
 0.79999984000003
   0
MTEXT
   5
4A0
 100
AcDbEntity
   8
LEVEL002
 370
15
  62
8
 100
AcDbMText
  10
 90.249999999950
  20
 273.16666666670
  30
0.0
  40
 2.0000000000000
  41
0.0
  71
1
  72
1
   3
{\W0.500000;\T1.000000;･\W1.000000;\T1.000000;定尺：４０００\W0.500000;\T1.000000;m/m}\P{\W0.500000;\T1.000000;･\W1.000000;\T1.000000;材質：ＳＵＳ３０４　ｔ＝１\W0.500000;\T1.000000;.\W1.000000;\T1.000000;２}\P{\W0.500000;\T1.000000;･\W1.000000;\T1.0
   3
00000;仕上：ＨＬ（穴付）\W0.500000;\T1.000000; \W1.000000;\T1.000000;穴サイズ：下穴%%c５／皿%%c７}\P\P{\W0.500000;\T1.000000;･\W1.000000;\T1.000000;パンチカーペット\W0.500000;\T1.000000;/\W1.000000;\T1.000000;タイルカーペット用}\P{\W0.500000;\T1.0000
   1
00; \W1.000000;\T1.000000;フローリング用}
   7
GMM001
  44
 0.79999984000003
   0
MTEXT
   5
4A2
 100
AcDbEntity
   8
LEVEL002
 370
15
  62
8
 100
AcDbMText
  10
 90.249999999950
  20
 136.66666666671
  30
0.0
  40
 2.0000000000000
  41
0.0
  71
1
  72
1
   3
{\W0.500000;\T1.000000;･\W1.000000;\T1.000000;定尺：４０００\W0.500000;\T1.000000;m/m}\P{\W0.500000;\T1.000000;･\W1.000000;\T1.000000;材質：ＳＵＳ３０４　ｔ＝０\W0.500000;\T1.000000;.\W1.000000;\T1.000000;８}\P{\W0.500000;\T1.000000;･\W1.000000;\T1.0
   1
00000;仕上：ＨＬ（穴付）\W0.500000;\T1.000000; \W1.000000;\T1.000000;穴サイズ：下穴%%c５／皿%%c７}\P\P{\W0.500000;\T1.000000;･\W1.000000;\T1.000000;長尺シート用}
   7
GMM001
  44
 0.79999984000003
   0
MTEXT
   5
4A4
 100
AcDbEntity
   8
LEVEL002
 370
15
  62
8
 100
AcDbMText
  10
 162.49999999995
  20
 136.66666666671
  30
0.0
  40
 2.0000000000000
  41
0.0
  71
1
  72
1
   3
{\W0.500000;\T1.000000;･\W1.000000;\T1.000000;定尺：４０００\W0.500000;\T1.000000;m/m}\P{\W0.500000;\T1.000000;･\W1.000000;\T1.000000;材質：ＳＵＳ３０４　ｔ＝０\W0.500000;\T1.000000;.\W1.000000;\T1.000000;８}\P{\W0.500000;\T1.000000;･\W1.000000;\T1.0
   1
00000;仕上：ＨＬ（穴付）\W0.500000;\T1.000000; \W1.000000;\T1.000000;穴サイズ：下穴%%c５／皿%%c７}\P\P{\W0.500000;\T1.000000;･\W1.000000;\T1.000000;長尺シート用}
   7
GMM001
  44
 0.79999984000003
   0
MTEXT
   5
4A6
 100
AcDbEntity
   8
LEVEL002
 370
15
  62
8
 100
AcDbMText
  10
 234.74999999995
  20
 136.66666666671
  30
0.0
  40
 2.0000000000000
  41
0.0
  71
1
  72
1
   3
{\W0.500000;\T1.000000;･\W1.000000;\T1.000000;定尺：４０００\W0.500000;\T1.000000;m/m}\P{\W0.500000;\T1.000000;･\W1.000000;\T1.000000;材質：ＳＵＳ３０４　ｔ＝０\W0.500000;\T1.000000;.\W1.000000;\T1.000000;８}\P{\W0.500000;\T1.000000;･\W1.000000;\T1.0
   3
00000;仕上：ＨＬ\W0.500000;\T1.000000;､\W1.000000;\T1.000000;（穴付）\W0.500000;\T1.000000; \W1.000000;\T1.000000;穴サイズ：下穴%%c５／皿%%c７}\P\P{\W0.500000;\T1.000000;･\W1.000000;\T1.000000;パンチカーペット}\P{\W0.500000;\T1.000000; \W1.000000;\T1
   1
.000000;タイルカーペット用}
   7
GMM001
  44
 0.79999984000003
   0
MTEXT
   5
4A8
 100
AcDbEntity
   8
LEVEL002
 370
15
  62
8
 100
AcDbMText
  10
 17.999999999950
  20
 68.416666666720
  30
0.0
  40
 2.0000000000000
  41
0.0
  71
1
  72
1
   3
{\W0.500000;\T1.000000;･\W1.000000;\T1.000000;定尺：４０００\W0.500000;\T1.000000;m/m}\P{\W0.500000;\T1.000000;･\W1.000000;\T1.000000;材質：ＳＵＳ３０４　ｔ＝０\W0.500000;\T1.000000;.\W1.000000;\T1.000000;８}\P{\W0.500000;\T1.000000;･\W1.000000;\T1.0
   3
00000;仕上：ＨＬ\W0.500000;\T1.000000;､\W1.000000;\T1.000000;（穴付）\W0.500000;\T1.000000; \W1.000000;\T1.000000;穴サイズ：下穴%%c５／皿%%c７}\P\P{\W0.500000;\T1.000000;･\W1.000000;\T1.000000;パンチカーペット\W0.500000;\T1.000000;/\W1.000000;\T1.000
   1
000;タイルカーペット用}\P{\W0.500000;\T1.000000; \W1.000000;\T1.000000;フローリング用}
   7
GMM001
  44
 0.79999984000003
   0
MTEXT
   5
4AA
 100
AcDbEntity
   8
LEVEL002
 370
15
  62
8
 100
AcDbMText
  10
 319.49999999995
  20
 207.91666666670
  30
0.0
  40
 3.5000000000000
  41
0.0
  71
1
  72
1
   3
{\W0.500000;\T1.000000;･\W1.000000;\T1.000000;ステンレス：ＳＵＳ３０４}\P\P{\W0.500000;\T1.000000; \W1.000000;\T1.000000;仕上げ：ＨＬ}\P\P{\W0.500000;\T1.000000; \W1.000000;\T1.000000;※ＳＡＭ５のみ長さ３０００\W0.500000;\T1.000000;m/m\W1.000000;\T1.
   1
000000;　}
   7
GMM001
  44
 0.79999984000003
   0
MTEXT
   5
4AC
 100
AcDbEntity
   8
LEVEL002
 370
15
  62
8
 100
AcDbMText
  10
 162.49999999995
  20
 273.16666666670
  30
0.0
  40
 2.0000000000000
  41
0.0
  71
1
  72
1
   3
{\W0.500000;\T1.000000;･\W1.000000;\T1.000000;定尺：４０００\W0.500000;\T1.000000;m/m}\P{\W0.500000;\T1.000000;･\W1.000000;\T1.000000;材質：ＳＵＳ３０４　ｔ＝０\W0.500000;\T1.000000;.\W1.000000;\T1.000000;８}\P{\W0.500000;\T1.000000;･\W1.000000;\T1.0
   1
00000;仕上：ＨＬ（穴付）\W0.500000;\T1.000000; \W1.000000;\T1.000000;穴サイズ：下穴%%c５／皿%%c７}\P\P{\W0.500000;\T1.000000;･\W1.000000;\T1.000000;長尺シート用}
   7
GMM001
  44
 0.79999984000003
   0
MTEXT
   5
4AE
 100
AcDbEntity
   8
LEVEL002
 370
15
  62
8
 100
AcDbMText
  10
 234.74999999995
  20
 273.16666666670
  30
0.0
  40
 2.0000000000000
  41
0.0
  71
1
  72
1
   3
{\W0.500000;\T1.000000;･\W1.000000;\T1.000000;定尺：４０００\W0.500000;\T1.000000;m/m}\P{\W0.500000;\T1.000000;･\W1.000000;\T1.000000;材質：ＳＵＳ３０４　ｔ＝０\W0.500000;\T1.000000;.\W1.000000;\T1.000000;８}\P{\W0.500000;\T1.000000;･\W1.000000;\T1.0
   1
00000;仕上：ＨＬ（穴付）\W0.500000;\T1.000000; \W1.000000;\T1.000000;穴サイズ：下穴%%c５／皿%%c７}\P\P{\W0.500000;\T1.000000;･\W1.000000;\T1.000000;長尺シート／コンクリート}\P{\W0.500000;\T1.000000; \W1.000000;\T1.000000;石／木製用}
   7
GMM001
  44
 0.79999984000003
   0
MTEXT
   5
4B0
 100
AcDbEntity
   8
LEVEL002
 370
15
  62
8
 100
AcDbMText
  10
 17.999999999950
  20
 136.66666666671
  30
0.0
  40
 2.0000000000000
  41
0.0
  71
1
  72
1
   3
{\W0.500000;\T1.000000;･\W1.000000;\T1.000000;定尺：４０００\W0.500000;\T1.000000;m/m}\P{\W0.500000;\T1.000000;･\W1.000000;\T1.000000;材質：ＳＵＳ３０４　ｔ＝１\W0.500000;\T1.000000;.\W1.000000;\T1.000000;２}\P{\W0.500000;\T1.000000;･\W1.000000;\T1.0
   1
00000;仕上：ＨＬ（穴なし・穴付）\W0.500000;\T1.000000; \W1.000000;\T1.000000;穴サイズ：下穴%%c５／皿%%c７}\P\P{\W0.500000;\T1.000000;･\W1.000000;\T1.000000;長尺シート用}
   7
GMM001
  44
 0.79999984000003
   0
ENDSEC
  0
SECTION
  2
OBJECTS
  0
DICTIONARY
  5
C
100
AcDbDictionary
  3
ACAD_GROUP
350
D
  3
ACAD_MLINESTYLE
350
1B
  3
DWGPROPS
350
1C
  0
DICTIONARY
  5
D
102
{ACAD_REACTORS
330
C
102
}
100
AcDbDictionary
  0
DICTIONARY
  5
1B
102
{ACAD_REACTORS
330
C
102
}
100
AcDbDictionary
  3
STANDARD
350
1D
  0
MLINESTYLE
  5
1D
102
{ACAD_REACTORS
330
1B
102
}
100
AcDbMlineStyle
  2
STANDARD
 70
     0
  3

 62
   256
 51
90.0
 52
90.0
 71
     2
 49
0.5
 62
   256
  6
BYLAYER
 49
-0.5
 62
   256
  6
BYLAYER
   0
XRECORD
   5
1C
 102
{ACAD_REACTORS
 330
C
 102
}
 330
C
 100
AcDbXrecord
 280
1
   1
DWGPROPS COOKIE
   2
 
   3
 
   4
 
   6
 
   7
00000000.DRW
   8
 
   9

 300
 = 
 301
 = 
 302
 = 
 303
 = 
 304
 = 
 305
 = 
 306
 = 
 307
 = 
 308
 = 
 309
 = 
  40
0.0
  41
 2460114.5000000
  42
 2460114.5000000
   1

  90
10
   0
ENDSEC
   0
EOF
