   0
SECTION
   2
HEADER
   9
$ACADVER
   1
AC1015
   9
$DWGCODEPAGE
   3
ANSI_932
   9
$LIMMIN
  10
0.0
  20
0.0
   9
$LIMMAX
  10
 420.00000000000
  20
 297.00000000000
   9
$EXTMIN
  10
0.0
  20
0.0
  30
0.0
   9
$EXTMAX
  10
 420.00000000000
  20
 297.00000000000
  30
0.0
   9
$LTSCALE
  40
 8.4000000000000
   9
$HANDSEED
   5
4FD
   0
ENDSEC
   0
SECTION
   2
TABLES
  0
TABLE
  2
VPORT
  5
8
100
AcDbSymbolTable
 70
     1
  0
VPORT
  5
4FC
100
AcDbSymbolTableRecord
100
AcDbViewportTableRecord
  2
*ACTIVE
 70
     0
 10
0.0
 20
0.0
 11
1.0
 21
1.0
  12
 210.00000000000
  22
 148.50000000000
 13
0.0
 23
0.0
 14
1.0
 24
1.0
 15
0.0
 25
0.0
 16
0.0
 26
0.0
 36
1.0
 17
0.0
 27
0.0
 37
0.0
  40
 420.00000000000
  41
 1.4787878787879
 42
50.0
 43
0.0
 44
0.0
 50
0.0
 51
0.0
 71
     0
 72
   100
 73
     1
 74
     1
 75
     0
 76
     0
 77
     0
 78
     0
  0
ENDTAB
  0
TABLE
  2
LTYPE
  5
5
100
AcDbSymbolTable
 70
    25
  0
LTYPE
  5
12
100
AcDbSymbolTableRecord
100
AcDbLinetypeTableRecord
  2
BYBLOCK
 70
     0
  3

 72
    65
 73
     0
 40
0.0
  0
LTYPE
  5
13
100
AcDbSymbolTableRecord
100
AcDbLinetypeTableRecord
  2
BYLAYER
 70
     0
  3

 72
    65
 73
     0
 40
0.0
  0
LTYPE
  5
14
100
AcDbSymbolTableRecord
100
AcDbLinetypeTableRecord
  2
CONTINUOUS
 70
     0
  3
Solid line
 72
    65
 73
     0
 40
0.0
  0
LTYPE
  5
20
100
AcDbSymbolTableRecord
100
AcDbLinetypeTableRecord
  2
BORDER
 70
     0
  3
__ __ . __ __ . __ __ . __ __ . __ __ . __ __ .
 72
    65
 73
     6
 40
1.75
 49
0.5
 74
     0
 49
-0.25
 74
     0
 49
0.5
 74
     0
 49
-0.25
 74
     0
 49
0.0
 74
     0
 49
-0.25
 74
     0
  0
LTYPE
  5
21
100
AcDbSymbolTableRecord
100
AcDbLinetypeTableRecord
  2
BORDER2
 70
     0
  3
__.__.__.__.__.__.__.__.__.__.__.__.__.__.__.__
 72
    65
 73
     6
 40
0.875
 49
0.25
 74
     0
 49
-0.125
 74
     0
 49
0.25
 74
     0
 49
-0.125
 74
     0
 49
0.0
 74
     0
 49
-0.125
 74
     0
  0
LTYPE
  5
22
100
AcDbSymbolTableRecord
100
AcDbLinetypeTableRecord
  2
BORDERX2
 70
     0
  3
____  ____  .  ____  ____  .  ____  ____  .  __
 72
    65
 73
     6
 40
3.5
 49
1.0
 74
     0
 49
-0.5
 74
     0
 49
1.0
 74
     0
 49
-0.5
 74
     0
 49
0.0
 74
     0
 49
-0.5
 74
     0
  0
LTYPE
  5
23
100
AcDbSymbolTableRecord
100
AcDbLinetypeTableRecord
  2
CENTER
 70
     0
  3
____ _ ____ _ ____ _ ____ _ ____ _ ____ _ ____ 
 72
    65
 73
     4
 40
2.0
 49
1.25
 74
     0
 49
-0.25
 74
     0
 49
0.25
 74
     0
 49
-0.25
 74
     0
  0
LTYPE
  5
24
100
AcDbSymbolTableRecord
100
AcDbLinetypeTableRecord
  2
CENTER2
 70
     0
  3
___ _ ___ _ ___ _ ___ _ ___ _ ___ _ ___ _ ___ _
 72
    65
 73
     4
 40
1.125
 49
0.75
 74
     0
 49
-0.125
 74
     0
 49
0.125
 74
     0
 49
-0.125
 74
     0
  0
LTYPE
  5
25
100
AcDbSymbolTableRecord
100
AcDbLinetypeTableRecord
  2
CENTERX2
 70
     0
  3
________  __  ________  __  ________  __  _____
 72
    65
 73
     4
 40
4.0
 49
2.5
 74
     0
 49
-0.5
 74
     0
 49
0.5
 74
     0
 49
-0.5
 74
     0
  0
LTYPE
  5
26
100
AcDbSymbolTableRecord
100
AcDbLinetypeTableRecord
  2
DASHDOT
 70
     0
  3
__ . __ . __ . __ . __ . __ . __ . __ . __ . __
 72
    65
 73
     4
 40
1.0
 49
0.5
 74
     0
 49
-0.25
 74
     0
 49
0.0
 74
     0
 49
-0.25
 74
     0
  0
LTYPE
  5
27
100
AcDbSymbolTableRecord
100
AcDbLinetypeTableRecord
  2
DASHDOT2
 70
     0
  3
_._._._._._._._._._._._._._._._._._._._._._._._
 72
    65
 73
     4
 40
0.5
 49
0.25
 74
     0
 49
-0.125
 74
     0
 49
0.0
 74
     0
 49
-0.125
 74
     0
  0
LTYPE
  5
28
100
AcDbSymbolTableRecord
100
AcDbLinetypeTableRecord
  2
DASHDOTX2
 70
     0
  3
____  .  ____  .  ____  .  ____  .  ____  .  __
 72
    65
 73
     4
 40
2.0
 49
1.0
 74
     0
 49
-0.5
 74
     0
 49
0.0
 74
     0
 49
-0.5
 74
     0
  0
LTYPE
  5
29
100
AcDbSymbolTableRecord
100
AcDbLinetypeTableRecord
  2
DASHED
 70
     0
  3
__ __ __ __ __ __ __ __ __ __ __ __ __ __ __ __
 72
    65
 73
     2
 40
0.75
 49
0.5
 74
     0
 49
-0.25
 74
     0
  0
LTYPE
  5
2A
100
AcDbSymbolTableRecord
100
AcDbLinetypeTableRecord
  2
DASHED2
 70
     0
  3
_ _ _ _ _ _ _ _ _ _ _ _ _ _ _ _ _ _ _ _ _ _ _ _
 72
    65
 73
     2
 40
0.375
 49
0.25
 74
     0
 49
-0.125
 74
     0
  0
LTYPE
  5
2B
100
AcDbSymbolTableRecord
100
AcDbLinetypeTableRecord
  2
DASHEDX2
 70
     0
  3
____  ____  ____  ____  ____  ____  ____  ____ 
 72
    65
 73
     2
 40
1.5
 49
1.0
 74
     0
 49
-0.5
 74
     0
  0
LTYPE
  5
2C
100
AcDbSymbolTableRecord
100
AcDbLinetypeTableRecord
  2
DIVIDE
 70
     0
  3
____ . . ____ . . ____ . . ____ . . ____ . . __
 72
    65
 73
     6
 40
1.25
 49
0.5
 74
     0
 49
-0.25
 74
     0
 49
0.0
 74
     0
 49
-0.25
 74
     0
 49
0.0
 74
     0
 49
-0.25
 74
     0
  0
LTYPE
  5
2D
100
AcDbSymbolTableRecord
100
AcDbLinetypeTableRecord
  2
DIVIDE2
 70
     0
  3
__..__..__..__..__..__..__..__..__..__..__..__.
 72
    65
 73
     6
 40
0.625
 49
0.25
 74
     0
 49
-0.125
 74
     0
 49
0.0
 74
     0
 49
-0.125
 74
     0
 49
0.0
 74
     0
 49
-0.125
 74
     0
  0
LTYPE
  5
2E
100
AcDbSymbolTableRecord
100
AcDbLinetypeTableRecord
  2
DIVIDEX2
 70
     0
  3
________  .  .  ________  .  .  ________  .  . 
 72
    65
 73
     6
 40
2.5
 49
1.0
 74
     0
 49
-0.5
 74
     0
 49
0.0
 74
     0
 49
-0.5
 74
     0
 49
0.0
 74
     0
 49
-0.5
 74
     0
  0
LTYPE
  5
2F
100
AcDbSymbolTableRecord
100
AcDbLinetypeTableRecord
  2
DOT
 70
     0
  3
. . . . . . . . . . . . . . . . . . . . . . . .
 72
    65
 73
     2
 40
0.25
 49
0.0
 74
     0
 49
-0.25
 74
     0
  0
LTYPE
  5
30
100
AcDbSymbolTableRecord
100
AcDbLinetypeTableRecord
  2
DOT2
 70
     0
  3
...............................................
 72
    65
 73
     2
 40
0.125
 49
0.0
 74
     0
 49
-0.125
 74
     0
  0
LTYPE
  5
31
100
AcDbSymbolTableRecord
100
AcDbLinetypeTableRecord
  2
DOTX2
 70
     0
  3
.  .  .  .  .  .  .  .  .  .  .  .  .  .  .  . 
 72
    65
 73
     2
 40
0.5
 49
0.0
 74
     0
 49
-0.5
 74
     0
  0
LTYPE
  5
32
100
AcDbSymbolTableRecord
100
AcDbLinetypeTableRecord
  2
HIDDEN
 70
     0
  3
__ __ __ __ __ __ __ __ __ __ __ __ __ __ __ __
 72
    65
 73
     2
 40
0.375
 49
0.25
 74
     0
 49
-0.125
 74
     0
  0
LTYPE
  5
33
100
AcDbSymbolTableRecord
100
AcDbLinetypeTableRecord
  2
HIDDEN2
 70
     0
  3
_ _ _ _ _ _ _ _ _ _ _ _ _ _ _ _ _ _ _ _ _ _ _ _
 72
    65
 73
     2
 40
0.1875
 49
0.125
 74
     0
 49
-0.0625
 74
     0
  0
LTYPE
  5
34
100
AcDbSymbolTableRecord
100
AcDbLinetypeTableRecord
  2
HIDDENX2
 70
     0
  3
____ ____ ____ ____ ____ ____ ____ ____ ____ __
 72
    65
 73
     2
 40
0.75
 49
0.5
 74
     0
 49
-0.25
 74
     0
  0
LTYPE
  5
35
100
AcDbSymbolTableRecord
100
AcDbLinetypeTableRecord
  2
PHANTOM
 70
     0
  3
______  __  __  ______  __  __  ______  __  __ 
 72
    65
 73
     6
 40
2.5
 49
1.25
 74
     0
 49
-0.25
 74
     0
 49
0.25
 74
     0
 49
-0.25
 74
     0
 49
0.25
 74
     0
 49
-0.25
 74
     0
  0
LTYPE
  5
36
100
AcDbSymbolTableRecord
100
AcDbLinetypeTableRecord
  2
PHANTOM2
 70
     0
  3
___ _ _ ___ _ _ ___ _ _ ___ _ _ ___ _ _ ___ _ _
 72
    65
 73
     6
 40
1.25
 49
0.625
 74
     0
 49
-0.125
 74
     0
 49
0.125
 74
     0
 49
-0.125
 74
     0
 49
0.125
 74
     0
 49
-0.125
 74
     0
  0
LTYPE
  5
37
100
AcDbSymbolTableRecord
100
AcDbLinetypeTableRecord
  2
PHANTOMX2
 70
     0
  3
____________    ____    ____    ____________   
 72
    65
 73
     6
 40
5.0
 49
2.5
 74
     0
 49
-0.5
 74
     0
 49
0.5
 74
     0
 49
-0.5
 74
     0
 49
0.5
 74
     0
 49
-0.5
 74
     0
  0
ENDTAB
   0
TABLE
   2
LAYER
   5
2
 100
AcDbSymbolTable
  70
3
   0
LAYER
   5
E
 100
AcDbSymbolTableRecord
 100
AcDbLayerTableRecord
   2
0
  70
0
  62
7
   6
CONTINUOUS
 390
30
   0
LAYER
   5
39
 100
AcDbSymbolTableRecord
 100
AcDbLayerTableRecord
   2
LEVEL001
  70
0
  62
7
   6
CONTINUOUS
 390
30
   0
LAYER
   5
3A
 100
AcDbSymbolTableRecord
 100
AcDbLayerTableRecord
   2
LEVEL002
  70
0
  62
7
   6
CONTINUOUS
 390
30
   0
ENDTAB
  0
TABLE
  2
STYLE
  5
3
100
AcDbSymbolTable
  70
6
  0
STYLE
  5
F
100
AcDbSymbolTableRecord
100
AcDbTextStyleTableRecord
  2
STANDARD
 70
     0
 40
0.0
 41
1.0
 50
0.0
 71
     0
 42
0.2
  3
TXT
  4
BIGFONT
  0
STYLE
  5
38
100
AcDbSymbolTableRecord
100
AcDbTextStyleTableRecord
  2
STANDARD1
 70
     4
 40
0.0
 41
1.0
 50
0.0
 71
     0
 42
0.2
  3
TXT
  4
BIGFONT
   0
STYLE
   5
3B
 100
AcDbSymbolTableRecord
 100
AcDbTextStyleTableRecord
   2
GMM001
  70
0
  40
0.0
  41
 0.80000000000000
  50
0.0
  71
     0
  42
1.0
   3
txt.shx
   4
bigfont.shx
   0
STYLE
   5
3C
 100
AcDbSymbolTableRecord
 100
AcDbTextStyleTableRecord
   2
GMM002
  70
0
  40
0.0
  41
 1.0000000000000
  50
0.0
  71
     0
  42
1.0
   3
txt.shx
   4
bigfont.shx
   0
STYLE
   5
3D
 100
AcDbSymbolTableRecord
 100
AcDbTextStyleTableRecord
   2
GMM003
  70
0
  40
0.0
  41
 1.0714285714286
  50
0.0
  71
     0
  42
1.0
   3
txt.shx
   4
bigfont.shx
   0
STYLE
   5
3E
 100
AcDbSymbolTableRecord
 100
AcDbTextStyleTableRecord
   2
GMM004
  70
0
  40
0.0
  41
 0.88888888888889
  50
0.0
  71
     0
  42
1.0
   3
txt.shx
   4
bigfont.shx
   0
ENDTAB
  0
TABLE
  2
VIEW
  5
6
100
AcDbSymbolTable
 70
     0
  0
ENDTAB
  0
TABLE
  2
UCS
  5
7
100
AcDbSymbolTable
 70
     0
  0
ENDTAB
  0
TABLE
  2
APPID
  5
9
100
AcDbSymbolTable
 70
     1
  0
APPID
  5
10
100
AcDbSymbolTableRecord
100
AcDbRegAppTableRecord
  2
ACAD
 70
     0
  0
ENDTAB
   0
TABLE
   2
DIMSTYLE
   5
A
 100
AcDbSymbolTable
  70
16
 100
AcDbDimStyleTable
  0
DIMSTYLE
105
1D
100
AcDbSymbolTableRecord
100
AcDbDimStyleTableRecord
  2
STANDARD
 70
     0
  3

  4

  5

  6

  7

 40
1.0
 41
0.18
 42
0.0625
 43
0.38
 44
0.18
 45
0.0
 46
0.0
 47
0.0
 48
0.0
140
0.18
141
0.09
142
0.0
143
25.4
144
1.0
145
0.0
146
1.0
147
0.09
 71
     0
 72
     0
 73
     1
 74
     1
 75
     0
 76
     0
 77
     0
 78
     0
170
     0
171
     2
172
     0
173
     0
174
     0
175
     0
176
     0
177
     0
178
     0
270
     2
271
     4
272
     4
273
     2
274
     2
340
F
275
     0
280
     0
281
     0
282
     0
283
     1
284
     0
285
     0
286
     0
287
     3
288
     0
   0
DIMSTYLE
 105
3F
 100
AcDbSymbolTableRecord
 100
AcDbDimStyleTableRecord
   2
GMM001
  70
0
   3

   4

   5

   6

   7

  40
 1.0000000000000
  41
 2.0000000000000
  42
 1.0000000000000
  43
 8.0000000000000
  44
 1.0000000000000
  45
0.0
  46
0.0
  47
0.0
  48
0.0
 140
 2.5000000000000
 141
 1.0000000000000
 142
0.0
 143
 0.39400000000000E-1
 144
 1.0000000000000
 145
0.0
 146
 1.0000000000000
 147
 1.0000000000000
  71
0
  72
0
  73
0
  74
0
  75
0
  76
0
  77
3
  78
8
 170
0
 171
2
 172
1
 173
1
 174
0
 175
0
 176
8
 177
8
 178
8
 270
2
 271
6
 272
0
 273
2
 274
2
 340
3C
 275
0
 280
0
 281
0
 282
0
 283
1
 284
0
 285
0
 286
0
 287
3
 288
0
   0
DIMSTYLE
 105
40
 100
AcDbSymbolTableRecord
 100
AcDbDimStyleTableRecord
   2
GMM002
  70
0
   3

   4

   5

   6

   7

  40
 1.0000000000000
  41
 2.0000000000000
  42
 1.0000000000000
  43
 8.0000000000000
  44
 1.0000000000000
  45
0.0
  46
0.0
  47
0.0
  48
0.0
 140
 2.5000000000000
 141
 1.0000000000000
 142
0.0
 143
 0.39400000000000E-1
 144
 1.0000000000000
 145
0.0
 146
 1.0000000000000
 147
 0.65970548862248
  71
0
  72
0
  73
0
  74
0
  75
0
  76
0
  77
3
  78
8
 170
0
 171
2
 172
1
 173
1
 174
0
 175
0
 176
8
 177
8
 178
8
 270
2
 271
6
 272
0
 273
2
 274
2
 340
3C
 275
0
 280
0
 281
0
 282
0
 283
1
 284
0
 285
0
 286
0
 287
3
 288
1
   0
DIMSTYLE
 105
41
 100
AcDbSymbolTableRecord
 100
AcDbDimStyleTableRecord
   2
GMM003
  70
0
   3

   4

   5

   6

   7

  40
 1.0000000000000
  41
 2.0000000000000
  42
 1.0000000000000
  43
 8.0000000000000
  44
 1.0000000000000
  45
0.0
  46
0.0
  47
0.0
  48
0.0
 140
 2.5000000000000
 141
 1.0000000000000
 142
0.0
 143
 0.39400000000000E-1
 144
 1.0000000000000
 145
0.0
 146
 1.0000000000000
 147
 0.87960731816327
  71
0
  72
0
  73
0
  74
0
  75
0
  76
0
  77
3
  78
8
 170
0
 171
2
 172
1
 173
1
 174
0
 175
0
 176
8
 177
8
 178
8
 270
2
 271
6
 272
0
 273
2
 274
2
 340
3C
 275
0
 280
0
 281
0
 282
0
 283
1
 284
0
 285
0
 286
0
 287
3
 288
1
   0
DIMSTYLE
 105
42
 100
AcDbSymbolTableRecord
 100
AcDbDimStyleTableRecord
   2
GMM004
  70
0
   3

   4

   5

   6

   7

  40
 1.0000000000000
  41
 2.0000000000000
  42
 1.0000000000000
  43
 8.0000000000000
  44
 1.0000000000000
  45
0.0
  46
0.0
  47
0.0
  48
0.0
 140
 2.5000000000000
 141
 1.0000000000000
 142
0.0
 143
 0.39400000000000E-1
 144
 1.0000000000000
 145
0.0
 146
 1.0000000000000
 147
 1.0000000000000
  71
0
  72
0
  73
0
  74
0
  75
0
  76
0
  77
3
  78
8
 170
0
 171
2
 172
1
 173
1
 174
0
 175
0
 176
8
 177
8
 178
8
 270
2
 271
6
 272
0
 273
2
 274
2
 340
3C
 275
1
 280
0
 281
0
 282
0
 283
1
 284
0
 285
0
 286
0
 287
3
 288
0
   0
DIMSTYLE
 105
43
 100
AcDbSymbolTableRecord
 100
AcDbDimStyleTableRecord
   2
GMM005
  70
0
   3

   4

   5

   6

   7

  40
 1.0000000000000
  41
 2.0000000000000
  42
 1.0000000000000
  43
 8.0000000000000
  44
 1.0000000000000
  45
0.0
  46
0.0
  47
0.0
  48
0.0
 140
 2.5000000000000
 141
 1.0000000000000
 142
0.0
 143
 0.39400000000000E-1
 144
 1.0000000000000
 145
0.0
 146
 1.0000000000000
 147
 1.0668955386479
  71
0
  72
0
  73
0
  74
0
  75
0
  76
0
  77
3
  78
8
 170
0
 171
2
 172
1
 173
1
 174
0
 175
0
 176
8
 177
8
 178
8
 270
2
 271
6
 272
0
 273
2
 274
2
 340
3C
 275
1
 280
0
 281
0
 282
0
 283
1
 284
0
 285
0
 286
0
 287
3
 288
1
   0
DIMSTYLE
 105
44
 100
AcDbSymbolTableRecord
 100
AcDbDimStyleTableRecord
   2
GMM006
  70
0
   3

   4

   5

   6

   7
_NONE
  40
 1.0000000000000
  41
 2.0000000000000
  42
 1.0000000000000
  43
 8.0000000000000
  44
 1.0000000000000
  45
0.0
  46
0.0
  47
0.0
  48
0.0
 140
 2.5000000000000
 141
 1.0000000000000
 142
0.0
 143
 0.39400000000000E-1
 144
 1.0000000000000
 145
0.0
 146
 1.0000000000000
 147
 0.90387947082070
  71
0
  72
0
  73
0
  74
0
  75
0
  76
0
  77
3
  78
8
 170
0
 171
2
 172
1
 173
1
 174
0
 175
0
 176
8
 177
8
 178
8
 270
2
 271
6
 272
0
 273
2
 274
2
 340
3C
 275
0
 280
0
 281
0
 282
0
 283
1
 284
0
 285
0
 286
0
 287
3
 288
1
   0
DIMSTYLE
 105
45
 100
AcDbSymbolTableRecord
 100
AcDbDimStyleTableRecord
   2
GMM007
  70
0
   3

   4

   5

   6

   7

  40
 1.0000000000000
  41
 2.0000000000000
  42
 1.0000000000000
  43
 8.0000000000000
  44
 1.0000000000000
  45
0.0
  46
0.0
  47
0.0
  48
0.0
 140
 2.5000000000000
 141
 1.0000000000000
 142
0.0
 143
 0.39400000000000E-1
 144
 1.0000000000000
 145
0.0
 146
 1.0000000000000
 147
 0.95421686747142
  71
0
  72
0
  73
0
  74
0
  75
0
  76
0
  77
3
  78
8
 170
0
 171
2
 172
1
 173
1
 174
0
 175
0
 176
8
 177
8
 178
8
 270
2
 271
6
 272
0
 273
2
 274
2
 340
3C
 275
0
 280
0
 281
0
 282
0
 283
1
 284
0
 285
0
 286
0
 287
3
 288
1
   0
DIMSTYLE
 105
46
 100
AcDbSymbolTableRecord
 100
AcDbDimStyleTableRecord
   2
GMM008
  70
0
   3

   4

   5

   6

   7
_NONE
  40
 1.0000000000000
  41
 2.0000000000000
  42
 1.0000000000000
  43
 8.0000000000000
  44
 1.0000000000000
  45
0.0
  46
0.0
  47
0.0
  48
0.0
 140
 2.5000000000000
 141
 1.0000000000000
 142
0.0
 143
 0.39400000000000E-1
 144
 1.0000000000000
 145
0.0
 146
 1.0000000000000
 147
 0.94243641231742
  71
0
  72
0
  73
0
  74
0
  75
0
  76
0
  77
3
  78
8
 170
0
 171
2
 172
1
 173
1
 174
0
 175
0
 176
8
 177
8
 178
8
 270
2
 271
6
 272
0
 273
2
 274
2
 340
3C
 275
0
 280
0
 281
0
 282
0
 283
1
 284
0
 285
0
 286
0
 287
3
 288
1
   0
DIMSTYLE
 105
47
 100
AcDbSymbolTableRecord
 100
AcDbDimStyleTableRecord
   2
GMM009
  70
0
   3

   4

   5

   6
_DOT
   7

  40
 1.0000000000000
  41
 2.0000000000000
  42
 1.0000000000000
  43
 8.0000000000000
  44
 1.0000000000000
  45
0.0
  46
0.0
  47
0.0
  48
0.0
 140
 2.5000000000000
 141
 1.0000000000000
 142
0.0
 143
 0.39400000000000E-1
 144
 1.0000000000000
 145
0.0
 146
 1.0000000000000
 147
 1.0366800535492
  71
0
  72
0
  73
0
  74
0
  75
0
  76
0
  77
3
  78
8
 170
0
 171
2
 172
1
 173
1
 174
0
 175
0
 176
8
 177
8
 178
8
 270
2
 271
6
 272
0
 273
2
 274
2
 340
3C
 275
0
 280
0
 281
0
 282
0
 283
1
 284
0
 285
0
 286
0
 287
3
 288
1
   0
DIMSTYLE
 105
48
 100
AcDbSymbolTableRecord
 100
AcDbDimStyleTableRecord
   2
GMM010
  70
0
   3

   4

   5

   6

   7
_NONE
  40
 1.0000000000000
  41
 2.0000000000000
  42
 1.0000000000000
  43
 8.0000000000000
  44
 1.0000000000000
  45
0.0
  46
0.0
  47
0.0
  48
0.0
 140
 2.5000000000000
 141
 1.0000000000000
 142
0.0
 143
 0.39400000000000E-1
 144
 1.0000000000000
 145
0.0
 146
 1.0000000000000
 147
 0.90367083693980
  71
0
  72
0
  73
0
  74
0
  75
0
  76
0
  77
3
  78
8
 170
0
 171
2
 172
1
 173
1
 174
0
 175
0
 176
8
 177
8
 178
8
 270
2
 271
6
 272
0
 273
2
 274
2
 340
3C
 275
0
 280
0
 281
0
 282
0
 283
1
 284
0
 285
0
 286
0
 287
3
 288
1
   0
DIMSTYLE
 105
49
 100
AcDbSymbolTableRecord
 100
AcDbDimStyleTableRecord
   2
GMM011
  70
0
   3

   4

   5

   6
_DOT
   7

  40
 1.0000000000000
  41
 2.0000000000000
  42
 1.0000000000000
  43
 8.0000000000000
  44
 1.0000000000000
  45
0.0
  46
0.0
  47
0.0
  48
0.0
 140
 2.5000000000000
 141
 1.0000000000000
 142
0.0
 143
 0.39400000000000E-1
 144
 1.0000000000000
 145
0.0
 146
 1.0000000000000
 147
 1.0921581194033
  71
0
  72
0
  73
0
  74
0
  75
0
  76
0
  77
3
  78
8
 170
0
 171
2
 172
1
 173
1
 174
0
 175
0
 176
8
 177
8
 178
8
 270
2
 271
6
 272
0
 273
2
 274
2
 340
3C
 275
0
 280
0
 281
0
 282
0
 283
1
 284
0
 285
0
 286
0
 287
3
 288
1
   0
DIMSTYLE
 105
4A
 100
AcDbSymbolTableRecord
 100
AcDbDimStyleTableRecord
   2
GMM012
  70
0
   3

   4

   5

   6

   7
_NONE
  40
 1.0000000000000
  41
 2.0000000000000
  42
 1.0000000000000
  43
 8.0000000000000
  44
 1.0000000000000
  45
0.0
  46
0.0
  47
0.0
  48
0.0
 140
 2.5000000000000
 141
 1.0000000000000
 142
0.0
 143
 0.39400000000000E-1
 144
 1.0000000000000
 145
0.0
 146
 1.0000000000000
 147
 0.90840398631701
  71
0
  72
0
  73
0
  74
0
  75
0
  76
0
  77
3
  78
8
 170
0
 171
2
 172
1
 173
1
 174
0
 175
0
 176
8
 177
8
 178
8
 270
2
 271
6
 272
0
 273
2
 274
2
 340
3C
 275
0
 280
0
 281
0
 282
0
 283
1
 284
0
 285
0
 286
0
 287
3
 288
1
   0
DIMSTYLE
 105
4B
 100
AcDbSymbolTableRecord
 100
AcDbDimStyleTableRecord
   2
GMM013
  70
0
   3

   4

   5

   6

   7
_NONE
  40
 1.0000000000000
  41
 2.0000000000000
  42
 1.0000000000000
  43
 8.0000000000000
  44
 1.0000000000000
  45
0.0
  46
0.0
  47
0.0
  48
0.0
 140
 2.5000000000000
 141
 1.0000000000000
 142
0.0
 143
 0.39400000000000E-1
 144
 1.0000000000000
 145
0.0
 146
 1.0000000000000
 147
 0.93433593146176
  71
0
  72
0
  73
0
  74
0
  75
0
  76
0
  77
3
  78
8
 170
0
 171
2
 172
1
 173
1
 174
0
 175
0
 176
8
 177
8
 178
8
 270
2
 271
6
 272
0
 273
2
 274
2
 340
3C
 275
0
 280
0
 281
0
 282
0
 283
1
 284
0
 285
0
 286
0
 287
3
 288
1
   0
DIMSTYLE
 105
4C
 100
AcDbSymbolTableRecord
 100
AcDbDimStyleTableRecord
   2
GMM014
  70
0
   3

   4

   5

   6
_DOT
   7

  40
 1.0000000000000
  41
 2.0000000000000
  42
 1.0000000000000
  43
 8.0000000000000
  44
 1.0000000000000
  45
0.0
  46
0.0
  47
0.0
  48
0.0
 140
 2.5000000000000
 141
 1.0000000000000
 142
0.0
 143
 0.39400000000000E-1
 144
 1.0000000000000
 145
0.0
 146
 1.0000000000000
 147
 0.83116659855125
  71
0
  72
0
  73
0
  74
0
  75
0
  76
0
  77
3
  78
8
 170
0
 171
2
 172
1
 173
1
 174
0
 175
0
 176
8
 177
8
 178
8
 270
2
 271
6
 272
0
 273
2
 274
2
 340
3C
 275
0
 280
0
 281
0
 282
0
 283
1
 284
0
 285
0
 286
0
 287
3
 288
1
   0
ENDTAB
  0
TABLE
  2
BLOCK_RECORD
  5
1
100
AcDbSymbolTable
 70
     0
  0
BLOCK_RECORD
  5
18
100
AcDbSymbolTableRecord
100
AcDbBlockTableRecord
  2
*MODEL_SPACE
  0
BLOCK_RECORD
  5
15
100
AcDbSymbolTableRecord
100
AcDbBlockTableRecord
  2
*PAPER_SPACE
   0
BLOCK_RECORD
   5
4D
 100
AcDbSymbolTableRecord
 100
AcDbBlockTableRecord
   2
*D1
   0
BLOCK_RECORD
   5
4E
 100
AcDbSymbolTableRecord
 100
AcDbBlockTableRecord
   2
*D2
   0
BLOCK_RECORD
   5
4F
 100
AcDbSymbolTableRecord
 100
AcDbBlockTableRecord
   2
*D3
   0
BLOCK_RECORD
   5
50
 100
AcDbSymbolTableRecord
 100
AcDbBlockTableRecord
   2
*D4
   0
BLOCK_RECORD
   5
51
 100
AcDbSymbolTableRecord
 100
AcDbBlockTableRecord
   2
*D5
   0
BLOCK_RECORD
   5
52
 100
AcDbSymbolTableRecord
 100
AcDbBlockTableRecord
   2
*D6
   0
BLOCK_RECORD
   5
53
 100
AcDbSymbolTableRecord
 100
AcDbBlockTableRecord
   2
*D7
   0
BLOCK_RECORD
   5
54
 100
AcDbSymbolTableRecord
 100
AcDbBlockTableRecord
   2
*D8
   0
BLOCK_RECORD
   5
55
 100
AcDbSymbolTableRecord
 100
AcDbBlockTableRecord
   2
*D9
   0
BLOCK_RECORD
   5
56
 100
AcDbSymbolTableRecord
 100
AcDbBlockTableRecord
   2
*D10
   0
BLOCK_RECORD
   5
57
 100
AcDbSymbolTableRecord
 100
AcDbBlockTableRecord
   2
*D11
   0
BLOCK_RECORD
   5
58
 100
AcDbSymbolTableRecord
 100
AcDbBlockTableRecord
   2
*D12
   0
BLOCK_RECORD
   5
59
 100
AcDbSymbolTableRecord
 100
AcDbBlockTableRecord
   2
*D13
   0
BLOCK_RECORD
   5
5A
 100
AcDbSymbolTableRecord
 100
AcDbBlockTableRecord
   2
*D14
   0
BLOCK_RECORD
   5
5B
 100
AcDbSymbolTableRecord
 100
AcDbBlockTableRecord
   2
*D15
   0
BLOCK_RECORD
   5
5C
 100
AcDbSymbolTableRecord
 100
AcDbBlockTableRecord
   2
*D16
   0
BLOCK_RECORD
   5
5D
 100
AcDbSymbolTableRecord
 100
AcDbBlockTableRecord
   2
*D17
   0
BLOCK_RECORD
   5
5E
 100
AcDbSymbolTableRecord
 100
AcDbBlockTableRecord
   2
*D18
   0
BLOCK_RECORD
   5
5F
 100
AcDbSymbolTableRecord
 100
AcDbBlockTableRecord
   2
*D19
   0
BLOCK_RECORD
   5
60
 100
AcDbSymbolTableRecord
 100
AcDbBlockTableRecord
   2
*D20
   0
BLOCK_RECORD
   5
61
 100
AcDbSymbolTableRecord
 100
AcDbBlockTableRecord
   2
*D21
   0
BLOCK_RECORD
   5
62
 100
AcDbSymbolTableRecord
 100
AcDbBlockTableRecord
   2
*D22
   0
BLOCK_RECORD
   5
63
 100
AcDbSymbolTableRecord
 100
AcDbBlockTableRecord
   2
*D23
   0
BLOCK_RECORD
   5
64
 100
AcDbSymbolTableRecord
 100
AcDbBlockTableRecord
   2
*D24
   0
BLOCK_RECORD
   5
65
 100
AcDbSymbolTableRecord
 100
AcDbBlockTableRecord
   2
*D25
   0
BLOCK_RECORD
   5
66
 100
AcDbSymbolTableRecord
 100
AcDbBlockTableRecord
   2
*D26
   0
BLOCK_RECORD
   5
67
 100
AcDbSymbolTableRecord
 100
AcDbBlockTableRecord
   2
*D27
   0
BLOCK_RECORD
   5
68
 100
AcDbSymbolTableRecord
 100
AcDbBlockTableRecord
   2
*D28
   0
BLOCK_RECORD
   5
69
 100
AcDbSymbolTableRecord
 100
AcDbBlockTableRecord
   2
*D29
   0
BLOCK_RECORD
   5
6A
 100
AcDbSymbolTableRecord
 100
AcDbBlockTableRecord
   2
*D30
   0
BLOCK_RECORD
   5
6B
 100
AcDbSymbolTableRecord
 100
AcDbBlockTableRecord
   2
*D31
   0
BLOCK_RECORD
   5
6C
 100
AcDbSymbolTableRecord
 100
AcDbBlockTableRecord
   2
*D32
   0
BLOCK_RECORD
   5
6D
 100
AcDbSymbolTableRecord
 100
AcDbBlockTableRecord
   2
*D33
   0
BLOCK_RECORD
   5
6E
 100
AcDbSymbolTableRecord
 100
AcDbBlockTableRecord
   2
*D34
   0
BLOCK_RECORD
   5
6F
 100
AcDbSymbolTableRecord
 100
AcDbBlockTableRecord
   2
*D35
   0
BLOCK_RECORD
   5
70
 100
AcDbSymbolTableRecord
 100
AcDbBlockTableRecord
   2
*D36
   0
BLOCK_RECORD
   5
71
 100
AcDbSymbolTableRecord
 100
AcDbBlockTableRecord
   2
*D37
   0
BLOCK_RECORD
   5
72
 100
AcDbSymbolTableRecord
 100
AcDbBlockTableRecord
   2
*D38
   0
BLOCK_RECORD
   5
73
 100
AcDbSymbolTableRecord
 100
AcDbBlockTableRecord
   2
*D39
   0
BLOCK_RECORD
   5
74
 100
AcDbSymbolTableRecord
 100
AcDbBlockTableRecord
   2
*D40
   0
BLOCK_RECORD
   5
75
 100
AcDbSymbolTableRecord
 100
AcDbBlockTableRecord
   2
BLOCK001
   0
BLOCK_RECORD
   5
76
 100
AcDbSymbolTableRecord
 100
AcDbBlockTableRecord
   2
BLOCK002
   0
BLOCK_RECORD
   5
77
 100
AcDbSymbolTableRecord
 100
AcDbBlockTableRecord
   2
BLOCK003
   0
BLOCK_RECORD
   5
78
 100
AcDbSymbolTableRecord
 100
AcDbBlockTableRecord
   2
BLOCK004
   0
BLOCK_RECORD
   5
79
 100
AcDbSymbolTableRecord
 100
AcDbBlockTableRecord
   2
_ARCHTICK
   0
BLOCK_RECORD
   5
7A
 100
AcDbSymbolTableRecord
 100
AcDbBlockTableRecord
   2
_BOXBLANK
   0
BLOCK_RECORD
   5
7B
 100
AcDbSymbolTableRecord
 100
AcDbBlockTableRecord
   2
_BOXFILLED
   0
BLOCK_RECORD
   5
7C
 100
AcDbSymbolTableRecord
 100
AcDbBlockTableRecord
   2
_CLOSED
   0
BLOCK_RECORD
   5
7D
 100
AcDbSymbolTableRecord
 100
AcDbBlockTableRecord
   2
_CLOSEDBLANK
   0
BLOCK_RECORD
   5
7E
 100
AcDbSymbolTableRecord
 100
AcDbBlockTableRecord
   2
_DATUMBLANK
   0
BLOCK_RECORD
   5
7F
 100
AcDbSymbolTableRecord
 100
AcDbBlockTableRecord
   2
_DATUMFILLED
   0
BLOCK_RECORD
   5
80
 100
AcDbSymbolTableRecord
 100
AcDbBlockTableRecord
   2
_DOT
   0
BLOCK_RECORD
   5
81
 100
AcDbSymbolTableRecord
 100
AcDbBlockTableRecord
   2
_DOTBLANK
   0
BLOCK_RECORD
   5
82
 100
AcDbSymbolTableRecord
 100
AcDbBlockTableRecord
   2
_DOTSMALL
   0
BLOCK_RECORD
   5
83
 100
AcDbSymbolTableRecord
 100
AcDbBlockTableRecord
   2
_INTEGRAL
   0
BLOCK_RECORD
   5
84
 100
AcDbSymbolTableRecord
 100
AcDbBlockTableRecord
   2
_NONE
   0
BLOCK_RECORD
   5
85
 100
AcDbSymbolTableRecord
 100
AcDbBlockTableRecord
   2
_OBLIQUE
   0
BLOCK_RECORD
   5
86
 100
AcDbSymbolTableRecord
 100
AcDbBlockTableRecord
   2
_OPEN
   0
BLOCK_RECORD
   5
87
 100
AcDbSymbolTableRecord
 100
AcDbBlockTableRecord
   2
_OPEN30
   0
BLOCK_RECORD
   5
88
 100
AcDbSymbolTableRecord
 100
AcDbBlockTableRecord
   2
_OPEN90
   0
BLOCK_RECORD
   5
89
 100
AcDbSymbolTableRecord
 100
AcDbBlockTableRecord
   2
_ORIGIN
   0
ENDTAB
   0
ENDSEC
  0
SECTION
  2
BLOCKS
  0
BLOCK
  5
19
100
AcDbEntity
  8
0
100
AcDbBlockBegin
  2
*MODEL_SPACE
 70
     0
 10
0.0
 20
0.0
 30
0.0
  3
*MODEL_SPACE
  1

  0
ENDBLK
  5
1A
100
AcDbEntity
  8
0
100
AcDbBlockEnd
  0
BLOCK
  5
16
100
AcDbEntity
 67
     1
  8
0
100
AcDbBlockBegin
  2
*PAPER_SPACE
 70
     0
 10
0.0
 20
0.0
 30
0.0
  3
*PAPER_SPACE
  1

  0
ENDBLK
  5
17
100
AcDbEntity
 67
     1
  8
0
100
AcDbBlockEnd
   0
BLOCK
   5
8A
 100
AcDbEntity
   8
0
 100
AcDbBlockBegin
   2
_ARCHTICK
  70
0
  10
0.0
  20
0.0
  30
0.0
   3
_ARCHTICK
   0
POLYLINE
   5
8B
 100
AcDbEntity
   8
0
 370
-2
   6
BYBLOCK
  62
0
 100
AcDb2dPolyline
  66
1
  10
0.0
  20
0.0
  30
0.0
  70
1
  40
 0.15000000000000
  41
 0.15000000000000
   0
VERTEX
   5
8C
 100
AcDbEntity
   8
0
   6
BYBLOCK
  62
0
 100
AcDbVertex
 100
AcDb2dVertex
  10
-0.50000000000000
  20
-0.50000000000000
  30
0.0
  40
 0.15000000000000
  41
 0.15000000000000
   0
VERTEX
   5
8D
 100
AcDbEntity
   8
0
   6
BYBLOCK
  62
0
 100
AcDbVertex
 100
AcDb2dVertex
  10
 0.50000000000000
  20
 0.50000000000000
  30
0.0
  40
 0.15000000000000
  41
 0.15000000000000
   0
SEQEND
   5
8E
 100
AcDbEntity
   8
0
   6
BYBLOCK
  62
0
   0
ENDBLK
   5
8F
 100
AcDbEntity
   8
0
 100
AcDbBlockEnd
   0
BLOCK
   5
90
 100
AcDbEntity
   8
0
 100
AcDbBlockBegin
   2
_OBLIQUE
  70
0
  10
0.0
  20
0.0
  30
0.0
   3
_OBLIQUE
   0
LINE
   5
91
 100
AcDbEntity
   8
0
 370
-2
 100
AcDbLine
   6
BYBLOCK
  62
0
  10
-0.50000000000000
  20
-0.50000000000000
  30
0.0
  11
 0.50000000000000
  21
 0.50000000000000
  31
0.0
   0
ENDBLK
   5
92
 100
AcDbEntity
   8
0
 100
AcDbBlockEnd
   0
BLOCK
   5
93
 100
AcDbEntity
   8
0
 100
AcDbBlockBegin
   2
_BOXBLANK
  70
0
  10
0.0
  20
0.0
  30
0.0
   3
_BOXBLANK
   0
LINE
   5
94
 100
AcDbEntity
   8
0
 370
-2
 100
AcDbLine
   6
BYBLOCK
  62
0
  10
-0.50000000000000
  20
-0.50000000000000
  30
0.0
  11
 0.50000000000000
  21
-0.50000000000000
  31
0.0
   0
LINE
   5
95
 100
AcDbEntity
   8
0
 370
-2
 100
AcDbLine
   6
BYBLOCK
  62
0
  10
 0.50000000000000
  20
-0.50000000000000
  30
0.0
  11
 0.50000000000000
  21
 0.50000000000000
  31
0.0
   0
LINE
   5
96
 100
AcDbEntity
   8
0
 370
-2
 100
AcDbLine
   6
BYBLOCK
  62
0
  10
 0.50000000000000
  20
 0.50000000000000
  30
0.0
  11
-0.50000000000000
  21
 0.50000000000000
  31
0.0
   0
LINE
   5
97
 100
AcDbEntity
   8
0
 370
-2
 100
AcDbLine
   6
BYBLOCK
  62
0
  10
-0.50000000000000
  20
 0.50000000000000
  30
0.0
  11
-0.50000000000000
  21
-0.50000000000000
  31
0.0
   0
LINE
   5
98
 100
AcDbEntity
   8
0
 370
-2
 100
AcDbLine
   6
BYBLOCK
  62
0
  10
-0.50000000000000
  20
0.0
  30
0.0
  11
-1.0000000000000
  21
0.0
  31
0.0
   0
ENDBLK
   5
99
 100
AcDbEntity
   8
0
 100
AcDbBlockEnd
   0
BLOCK
   5
9A
 100
AcDbEntity
   8
0
 100
AcDbBlockBegin
   2
_BOXFILLED
  70
0
  10
0.0
  20
0.0
  30
0.0
   3
_BOXFILLED
   0
SOLID
   5
9B
 100
AcDbEntity
   8
0
 100
AcDbTrace
   6
BYBLOCK
  62
0
  10
-0.50000000000000
  20
 0.50000000000000
  30
0.0
  11
 0.50000000000000
  21
 0.50000000000000
  31
0.0
  12
-0.50000000000000
  22
-0.50000000000000
  32
0.0
  13
 0.50000000000000
  23
-0.50000000000000
  33
0.0
   0
LINE
   5
9C
 100
AcDbEntity
   8
0
 370
-2
 100
AcDbLine
   6
BYBLOCK
  62
0
  10
-0.50000000000000
  20
0.0
  30
0.0
  11
-1.0000000000000
  21
0.0
  31
0.0
   0
ENDBLK
   5
9D
 100
AcDbEntity
   8
0
 100
AcDbBlockEnd
   0
BLOCK
   5
9E
 100
AcDbEntity
   8
0
 100
AcDbBlockBegin
   2
_CLOSED
  70
0
  10
0.0
  20
0.0
  30
0.0
   3
_CLOSED
   0
LINE
   5
9F
 100
AcDbEntity
   8
0
 370
-2
 100
AcDbLine
   6
BYBLOCK
  62
0
  10
-1.0000000000000
  20
 0.16666666666667
  30
0.0
  11
0.0
  21
0.0
  31
0.0
   0
LINE
   5
A0
 100
AcDbEntity
   8
0
 370
-2
 100
AcDbLine
   6
BYBLOCK
  62
0
  10
0.0
  20
0.0
  30
0.0
  11
-1.0000000000000
  21
-0.16666666666667
  31
0.0
   0
LINE
   5
A1
 100
AcDbEntity
   8
0
 370
-2
 100
AcDbLine
   6
BYBLOCK
  62
0
  10
-1.0000000000000
  20
 0.16666666666667
  30
0.0
  11
-1.0000000000000
  21
-0.16666666666667
  31
0.0
   0
LINE
   5
A2
 100
AcDbEntity
   8
0
 370
-2
 100
AcDbLine
   6
BYBLOCK
  62
0
  10
0.0
  20
0.0
  30
0.0
  11
-1.0000000000000
  21
0.0
  31
0.0
   0
ENDBLK
   5
A3
 100
AcDbEntity
   8
0
 100
AcDbBlockEnd
   0
BLOCK
   5
A4
 100
AcDbEntity
   8
0
 100
AcDbBlockBegin
   2
_OPEN
  70
0
  10
0.0
  20
0.0
  30
0.0
   3
_OPEN
   0
LINE
   5
A5
 100
AcDbEntity
   8
0
 370
-2
 100
AcDbLine
   6
BYBLOCK
  62
0
  10
-1.0000000000000
  20
 0.16666666666667
  30
0.0
  11
0.0
  21
0.0
  31
0.0
   0
LINE
   5
A6
 100
AcDbEntity
   8
0
 370
-2
 100
AcDbLine
   6
BYBLOCK
  62
0
  10
0.0
  20
0.0
  30
0.0
  11
-1.0000000000000
  21
-0.16666666666667
  31
0.0
   0
LINE
   5
A7
 100
AcDbEntity
   8
0
 370
-2
 100
AcDbLine
   6
BYBLOCK
  62
0
  10
0.0
  20
0.0
  30
0.0
  11
-1.0000000000000
  21
0.0
  31
0.0
   0
ENDBLK
   5
A8
 100
AcDbEntity
   8
0
 100
AcDbBlockEnd
   0
BLOCK
   5
A9
 100
AcDbEntity
   8
0
 100
AcDbBlockBegin
   2
_OPEN30
  70
0
  10
0.0
  20
0.0
  30
0.0
   3
_OPEN30
   0
LINE
   5
AA
 100
AcDbEntity
   8
0
 370
-2
 100
AcDbLine
   6
BYBLOCK
  62
0
  10
-1.0000000000000
  20
 0.26794919243110
  30
0.0
  11
0.0
  21
0.0
  31
0.0
   0
LINE
   5
AB
 100
AcDbEntity
   8
0
 370
-2
 100
AcDbLine
   6
BYBLOCK
  62
0
  10
0.0
  20
0.0
  30
0.0
  11
-1.0000000000000
  21
-0.26794919243110
  31
0.0
   0
LINE
   5
AC
 100
AcDbEntity
   8
0
 370
-2
 100
AcDbLine
   6
BYBLOCK
  62
0
  10
0.0
  20
0.0
  30
0.0
  11
-1.0000000000000
  21
0.0
  31
0.0
   0
ENDBLK
   5
AD
 100
AcDbEntity
   8
0
 100
AcDbBlockEnd
   0
BLOCK
   5
AE
 100
AcDbEntity
   8
0
 100
AcDbBlockBegin
   2
_OPEN90
  70
0
  10
0.0
  20
0.0
  30
0.0
   3
_OPEN90
   0
LINE
   5
AF
 100
AcDbEntity
   8
0
 370
-2
 100
AcDbLine
   6
BYBLOCK
  62
0
  10
-0.50000000000000
  20
 0.50000000000000
  30
0.0
  11
0.0
  21
0.0
  31
0.0
   0
LINE
   5
B0
 100
AcDbEntity
   8
0
 370
-2
 100
AcDbLine
   6
BYBLOCK
  62
0
  10
0.0
  20
0.0
  30
0.0
  11
-0.50000000000000
  21
-0.50000000000000
  31
0.0
   0
LINE
   5
B1
 100
AcDbEntity
   8
0
 370
-2
 100
AcDbLine
   6
BYBLOCK
  62
0
  10
0.0
  20
0.0
  30
0.0
  11
-1.0000000000000
  21
0.0
  31
0.0
   0
ENDBLK
   5
B2
 100
AcDbEntity
   8
0
 100
AcDbBlockEnd
   0
BLOCK
   5
B3
 100
AcDbEntity
   8
0
 100
AcDbBlockBegin
   2
_CLOSEDBLANK
  70
0
  10
0.0
  20
0.0
  30
0.0
   3
_CLOSEDBLANK
   0
LINE
   5
B4
 100
AcDbEntity
   8
0
 370
-2
 100
AcDbLine
   6
BYBLOCK
  62
0
  10
-1.0000000000000
  20
 0.16666666666667
  30
0.0
  11
0.0
  21
0.0
  31
0.0
   0
LINE
   5
B5
 100
AcDbEntity
   8
0
 370
-2
 100
AcDbLine
   6
BYBLOCK
  62
0
  10
0.0
  20
0.0
  30
0.0
  11
-1.0000000000000
  21
-0.16666666666667
  31
0.0
   0
LINE
   5
B6
 100
AcDbEntity
   8
0
 370
-2
 100
AcDbLine
   6
BYBLOCK
  62
0
  10
-1.0000000000000
  20
 0.16666666666667
  30
0.0
  11
-1.0000000000000
  21
-0.16666666666667
  31
0.0
   0
ENDBLK
   5
B7
 100
AcDbEntity
   8
0
 100
AcDbBlockEnd
   0
BLOCK
   5
B8
 100
AcDbEntity
   8
0
 100
AcDbBlockBegin
   2
_DOT
  70
0
  10
0.0
  20
0.0
  30
0.0
   3
_DOT
   0
POLYLINE
   5
B9
 100
AcDbEntity
   8
0
 370
-2
   6
BYBLOCK
  62
0
 100
AcDb2dPolyline
  66
1
  10
0.0
  20
0.0
  30
0.0
  70
1
  40
 0.50000000000000
  41
 0.50000000000000
   0
VERTEX
   5
BA
 100
AcDbEntity
   8
0
   6
BYBLOCK
  62
0
 100
AcDbVertex
 100
AcDb2dVertex
  10
-0.25000000000000
  20
0.0
  30
0.0
  42
 1.0000000000000
  40
 0.50000000000000
  41
 0.50000000000000
   0
VERTEX
   5
BB
 100
AcDbEntity
   8
0
   6
BYBLOCK
  62
0
 100
AcDbVertex
 100
AcDb2dVertex
  10
 0.25000000000000
  20
0.0
  30
0.0
  42
 1.0000000000000
  40
 0.50000000000000
  41
 0.50000000000000
   0
SEQEND
   5
BC
 100
AcDbEntity
   8
0
   6
BYBLOCK
  62
0
   0
LINE
   5
BD
 100
AcDbEntity
   8
0
 370
-2
 100
AcDbLine
   6
BYBLOCK
  62
0
  10
-0.50000000000000
  20
0.0
  30
0.0
  11
-1.0000000000000
  21
0.0
  31
0.0
   0
ENDBLK
   5
BE
 100
AcDbEntity
   8
0
 100
AcDbBlockEnd
   0
BLOCK
   5
BF
 100
AcDbEntity
   8
0
 100
AcDbBlockBegin
   2
_DOTSMALL
  70
0
  10
0.0
  20
0.0
  30
0.0
   3
_DOTSMALL
   0
POLYLINE
   5
C0
 100
AcDbEntity
   8
0
 370
-2
   6
BYBLOCK
  62
0
 100
AcDb2dPolyline
  66
1
  10
0.0
  20
0.0
  30
0.0
  70
1
  40
 0.50000000000000
  41
 0.50000000000000
   0
VERTEX
   5
C1
 100
AcDbEntity
   8
0
   6
BYBLOCK
  62
0
 100
AcDbVertex
 100
AcDb2dVertex
  10
-0.62500000000000E-1
  20
0.0
  30
0.0
  42
 1.0000000000000
  40
 0.50000000000000
  41
 0.50000000000000
   0
VERTEX
   5
C2
 100
AcDbEntity
   8
0
   6
BYBLOCK
  62
0
 100
AcDbVertex
 100
AcDb2dVertex
  10
 0.62500000000000E-1
  20
0.0
  30
0.0
  42
 1.0000000000000
  40
 0.50000000000000
  41
 0.50000000000000
   0
SEQEND
   5
C3
 100
AcDbEntity
   8
0
   6
BYBLOCK
  62
0
   0
ENDBLK
   5
C4
 100
AcDbEntity
   8
0
 100
AcDbBlockEnd
   0
BLOCK
   5
C5
 100
AcDbEntity
   8
0
 100
AcDbBlockBegin
   2
_DATUMBLANK
  70
0
  10
0.0
  20
0.0
  30
0.0
   3
_DATUMBLANK
   0
LINE
   5
C6
 100
AcDbEntity
   8
0
 370
-2
 100
AcDbLine
   6
BYBLOCK
  62
0
  10
0.0
  20
 0.57735027000000
  30
0.0
  11
-1.0000000000000
  21
0.0
  31
0.0
   0
LINE
   5
C7
 100
AcDbEntity
   8
0
 370
-2
 100
AcDbLine
   6
BYBLOCK
  62
0
  10
-1.0000000000000
  20
0.0
  30
0.0
  11
0.0
  21
-0.57735027000000
  31
0.0
   0
LINE
   5
C8
 100
AcDbEntity
   8
0
 370
-2
 100
AcDbLine
   6
BYBLOCK
  62
0
  10
0.0
  20
-0.57735027000000
  30
0.0
  11
0.0
  21
 0.57735027000000
  31
0.0
   0
ENDBLK
   5
C9
 100
AcDbEntity
   8
0
 100
AcDbBlockEnd
   0
BLOCK
   5
CA
 100
AcDbEntity
   8
0
 100
AcDbBlockBegin
   2
_DATUMFILLED
  70
0
  10
0.0
  20
0.0
  30
0.0
   3
_DATUMFILLED
   0
SOLID
   5
CB
 100
AcDbEntity
   8
0
 100
AcDbTrace
   6
BYBLOCK
  62
0
  10
0.0
  20
 0.57735027000000
  30
0.0
  11
-1.0000000000000
  21
0.0
  31
0.0
  12
0.0
  22
-0.57735027000000
  32
0.0
  13
0.0
  23
-0.57735027000000
  33
0.0
   0
ENDBLK
   5
CC
 100
AcDbEntity
   8
0
 100
AcDbBlockEnd
   0
BLOCK
   5
CD
 100
AcDbEntity
   8
0
 100
AcDbBlockBegin
   2
_ORIGIN
  70
0
  10
0.0
  20
0.0
  30
0.0
   3
_ORIGIN
   0
CIRCLE
   5
CE
 100
AcDbEntity
   8
0
 370
-2
 100
AcDbCircle
   6
BYBLOCK
  62
0
  10
0.0
  20
0.0
  30
0.0
  40
 0.50000000000000
   0
LINE
   5
CF
 100
AcDbEntity
   8
0
 370
-2
 100
AcDbLine
   6
BYBLOCK
  62
0
  10
0.0
  20
0.0
  30
0.0
  11
-1.0000000000000
  21
0.0
  31
0.0
   0
ENDBLK
   5
D0
 100
AcDbEntity
   8
0
 100
AcDbBlockEnd
   0
BLOCK
   5
D1
 100
AcDbEntity
   8
0
 100
AcDbBlockBegin
   2
_NONE
  70
0
  10
0.0
  20
0.0
  30
0.0
   3
_NONE
   0
CIRCLE
   5
D2
 100
AcDbEntity
   8
0
 370
-2
 100
AcDbCircle
   6
BYBLOCK
  62
0
  10
0.0
  20
0.0
  30
0.0
  40
 0.25000000000000
   0
ENDBLK
   5
D3
 100
AcDbEntity
   8
0
 100
AcDbBlockEnd
   0
BLOCK
   5
D4
 100
AcDbEntity
   8
0
 100
AcDbBlockBegin
   2
_DOTBLANK
  70
0
  10
0.0
  20
0.0
  30
0.0
   3
_DOTBLANK
   0
CIRCLE
   5
D5
 100
AcDbEntity
   8
0
 370
-2
 100
AcDbCircle
   6
BYBLOCK
  62
0
  10
0.0
  20
0.0
  30
0.0
  40
 0.50000000000000
   0
LINE
   5
D6
 100
AcDbEntity
   8
0
 370
-2
 100
AcDbLine
   6
BYBLOCK
  62
0
  10
-0.50000000000000
  20
0.0
  30
0.0
  11
-1.0000000000000
  21
0.0
  31
0.0
   0
ENDBLK
   5
D7
 100
AcDbEntity
   8
0
 100
AcDbBlockEnd
   0
BLOCK
   5
D8
 100
AcDbEntity
   8
0
 100
AcDbBlockBegin
   2
_INTEGRAL
  70
0
  10
0.0
  20
0.0
  30
0.0
   3
_INTEGRAL
   0
ARC
   5
D9
 100
AcDbEntity
   8
0
 370
-2
   6
BYBLOCK
  62
0
 100
AcDbCircle
  10
 0.44488800000000
  20
-0.91335000000000E-1
  30
0.0
  40
 0.45416700000000
 100
AcDbArc
  50
 102.00000000000
  51
 168.00000000000
   0
ARC
   5
DA
 100
AcDbEntity
   8
0
 370
-2
   6
BYBLOCK
  62
0
 100
AcDbCircle
  10
-0.44488800000000
  20
 0.91335000000000E-1
  30
0.0
  40
 0.45416700000000
 100
AcDbArc
  50
 282.00000000000
  51
 348.00000000000
   0
ENDBLK
   5
DB
 100
AcDbEntity
   8
0
 100
AcDbBlockEnd
   0
BLOCK
   5
DC
 100
AcDbEntity
   8
0
 100
AcDbBlockBegin
   2
*D1
  70
65
  10
0.0
  20
0.0
  30
0.0
   3
*D1
   0
LINE
   5
DD
 100
AcDbEntity
   8
LEVEL001
 370
15
 100
AcDbLine
   6
CONTINUOUS
  62
8
  10
 41.624999999950
  20
 234.12095673332
  30
0.0
  11
 41.624999999950
  21
 226.12095673332
  31
0.0
   0
LINE
   5
DE
 100
AcDbEntity
   8
LEVEL001
 370
15
 100
AcDbLine
   6
CONTINUOUS
  62
8
  10
 61.624999999950
  20
 234.12095673332
  30
0.0
  11
 61.624999999950
  21
 226.12095673332
  31
0.0
   0
LINE
   5
DF
 100
AcDbEntity
   8
LEVEL001
 370
15
 100
AcDbLine
   6
CONTINUOUS
  62
8
  10
 41.624999999950
  20
 227.12095673332
  30
0.0
  11
 51.624999999950
  21
 227.12095673332
  31
0.0
   0
LINE
   5
E0
 100
AcDbEntity
   8
LEVEL001
 370
15
 100
AcDbLine
   6
CONTINUOUS
  62
8
  10
 61.624999999950
  20
 227.12095673332
  30
0.0
  11
 51.624999999950
  21
 227.12095673332
  31
0.0
   0
SOLID
   5
E1
 100
AcDbEntity
   8
LEVEL001
 100
AcDbTrace
   6
CONTINUOUS
  62
8
  10
 41.624999999950
  20
 227.12095673332
  30
0.0
  11
 43.624999999950
  21
 226.76830277190
  31
0.0
  12
 43.624999999950
  22
 227.47361069474
  32
0.0
  13
 43.624999999950
  23
 227.47361069474
  33
0.0
   0
SOLID
   5
E2
 100
AcDbEntity
   8
LEVEL001
 100
AcDbTrace
   6
CONTINUOUS
  62
8
  10
 61.624999999950
  20
 227.12095673332
  30
0.0
  11
 59.624999999950
  21
 227.47361069474
  31
0.0
  12
 59.624999999950
  22
 226.76830277190
  32
0.0
  13
 59.624999999950
  23
 226.76830277190
  33
0.0
   0
MTEXT
   5
E3
 100
AcDbEntity
   8
LEVEL001
 370
15
  62
8
 100
AcDbMText
  10
 51.624999999950
  20
 228.12095673332
  30
0.0
  40
 2.5000000000000
  41
0.0
  71
8
  72
1
   1
\A1;20
   7
GMM002
   0
ENDBLK
   5
E4
 100
AcDbEntity
   8
0
 100
AcDbBlockEnd
   0
BLOCK
   5
E5
 100
AcDbEntity
   8
0
 100
AcDbBlockBegin
   2
*D2
  70
65
  10
0.0
  20
0.0
  30
0.0
   3
*D2
   0
LINE
   5
E6
 100
AcDbEntity
   8
LEVEL001
 370
15
 100
AcDbLine
   6
CONTINUOUS
  62
8
  10
 40.624999999950
  20
 235.12095673332
  30
0.0
  11
 36.056492897299
  21
 235.12095673332
  31
0.0
   0
LINE
   5
E7
 100
AcDbEntity
   8
LEVEL001
 370
15
 100
AcDbLine
   6
CONTINUOUS
  62
8
  10
 40.624999999950
  20
 239.62095673332
  30
0.0
  11
 36.056492897299
  21
 239.62095673332
  31
0.0
   0
LINE
   5
E8
 100
AcDbEntity
   8
LEVEL001
 370
15
 100
AcDbLine
   6
CONTINUOUS
  62
8
  10
 37.056492897299
  20
 232.62095673332
  30
0.0
  11
 37.056492897299
  21
 237.37095673332
  31
0.0
   0
LINE
   5
E9
 100
AcDbEntity
   8
LEVEL001
 370
15
 100
AcDbLine
   6
CONTINUOUS
  62
8
  10
 37.056492897299
  20
 242.12095673332
  30
0.0
  11
 37.056492897299
  21
 237.37095673332
  31
0.0
   0
SOLID
   5
EA
 100
AcDbEntity
   8
LEVEL001
 100
AcDbTrace
   6
CONTINUOUS
  62
8
  10
 37.056492897299
  20
 235.12095673332
  30
0.0
  11
 36.703838935883
  21
 233.12095673332
  31
0.0
  12
 37.409146858716
  22
 233.12095673332
  32
0.0
  13
 37.409146858716
  23
 233.12095673332
  33
0.0
   0
SOLID
   5
EB
 100
AcDbEntity
   8
LEVEL001
 100
AcDbTrace
   6
CONTINUOUS
  62
8
  10
 37.056492897299
  20
 239.62095673332
  30
0.0
  11
 37.409146858716
  21
 241.62095673332
  31
0.0
  12
 36.703838935883
  22
 241.62095673332
  32
0.0
  13
 36.703838935883
  23
 241.62095673332
  33
0.0
   0
MTEXT
   5
EC
 100
AcDbEntity
   8
LEVEL001
 370
15
  62
8
 100
AcDbMText
  10
 36.056492897299
  20
 237.37095673332
  30
0.0
  40
 2.5000000000000
  41
0.0
  71
8
  72
1
   1
\A1;4.5
   7
GMM002
  11
0.0
  21
 1.0000000000000
  31
0.0
  44
 0.79999984000003
   0
ENDBLK
   5
ED
 100
AcDbEntity
   8
0
 100
AcDbBlockEnd
   0
BLOCK
   5
EE
 100
AcDbEntity
   8
0
 100
AcDbBlockBegin
   2
*D3
  70
65
  10
0.0
  20
0.0
  30
0.0
   3
*D3
   0
LINE
   5
EF
 100
AcDbEntity
   8
LEVEL001
 370
15
 100
AcDbLine
   6
CONTINUOUS
  62
8
  10
 62.624999999950
  20
 235.12095673332
  30
0.0
  11
 67.439565930230
  21
 235.12095673332
  31
0.0
   0
LINE
   5
F0
 100
AcDbEntity
   8
LEVEL001
 370
15
 100
AcDbLine
   6
CONTINUOUS
  62
8
  10
 62.624999999950
  20
 236.12095673332
  30
0.0
  11
 67.439565930230
  21
 236.12095673332
  31
0.0
   0
LINE
   5
F1
 100
AcDbEntity
   8
LEVEL001
 370
15
 100
AcDbLine
   6
CONTINUOUS
  62
8
  10
 66.439565930230
  20
 230.47425137757
  30
0.0
  11
 66.439565930230
  21
 235.62095673332
  31
0.0
   0
LINE
   5
F2
 100
AcDbEntity
   8
LEVEL001
 370
15
 100
AcDbLine
   6
CONTINUOUS
  62
8
  10
 66.439565930230
  20
 238.62095673332
  30
0.0
  11
 66.439565930230
  21
 235.62095673332
  31
0.0
   0
SOLID
   5
F3
 100
AcDbEntity
   8
LEVEL001
 100
AcDbTrace
   6
CONTINUOUS
  62
8
  10
 66.439565930230
  20
 235.12095673332
  30
0.0
  11
 66.086911968813
  21
 233.12095673332
  31
0.0
  12
 66.792219891647
  22
 233.12095673332
  32
0.0
  13
 66.792219891647
  23
 233.12095673332
  33
0.0
   0
SOLID
   5
F4
 100
AcDbEntity
   8
LEVEL001
 100
AcDbTrace
   6
CONTINUOUS
  62
8
  10
 66.439565930230
  20
 236.12095673332
  30
0.0
  11
 66.792219891647
  21
 238.12095673332
  31
0.0
  12
 66.086911968813
  22
 238.12095673332
  32
0.0
  13
 66.086911968813
  23
 238.12095673332
  33
0.0
   0
MTEXT
   5
F5
 100
AcDbEntity
   8
LEVEL001
 370
15
  62
8
 100
AcDbMText
  10
 65.779860441607
  20
 232.97425137757
  30
0.0
  40
 2.5000000000000
  41
0.0
  71
9
  72
1
   1
\A1;1
   7
GMM002
  11
0.0
  21
 1.0000000000000
  31
0.0
   0
ENDBLK
   5
F6
 100
AcDbEntity
   8
0
 100
AcDbBlockEnd
   0
BLOCK
   5
F7
 100
AcDbEntity
   8
0
 100
AcDbBlockBegin
   2
*D4
  70
65
  10
0.0
  20
0.0
  30
0.0
   3
*D4
   0
LINE
   5
F8
 100
AcDbEntity
   8
LEVEL001
 370
15
 100
AcDbLine
   6
CONTINUOUS
  62
8
  10
 113.87499999995
  20
 234.12095673332
  30
0.0
  11
 113.87499999995
  21
 226.12095673332
  31
0.0
   0
LINE
   5
F9
 100
AcDbEntity
   8
LEVEL001
 370
15
 100
AcDbLine
   6
CONTINUOUS
  62
8
  10
 133.87499999995
  20
 234.12095673332
  30
0.0
  11
 133.87499999995
  21
 226.12095673332
  31
0.0
   0
LINE
   5
FA
 100
AcDbEntity
   8
LEVEL001
 370
15
 100
AcDbLine
   6
CONTINUOUS
  62
8
  10
 113.87499999995
  20
 227.12095673332
  30
0.0
  11
 123.87499999995
  21
 227.12095673332
  31
0.0
   0
LINE
   5
FB
 100
AcDbEntity
   8
LEVEL001
 370
15
 100
AcDbLine
   6
CONTINUOUS
  62
8
  10
 133.87499999995
  20
 227.12095673332
  30
0.0
  11
 123.87499999995
  21
 227.12095673332
  31
0.0
   0
SOLID
   5
FC
 100
AcDbEntity
   8
LEVEL001
 100
AcDbTrace
   6
CONTINUOUS
  62
8
  10
 113.87499999995
  20
 227.12095673332
  30
0.0
  11
 115.87499999995
  21
 226.76830277190
  31
0.0
  12
 115.87499999995
  22
 227.47361069474
  32
0.0
  13
 115.87499999995
  23
 227.47361069474
  33
0.0
   0
SOLID
   5
FD
 100
AcDbEntity
   8
LEVEL001
 100
AcDbTrace
   6
CONTINUOUS
  62
8
  10
 133.87499999995
  20
 227.12095673332
  30
0.0
  11
 131.87499999995
  21
 227.47361069474
  31
0.0
  12
 131.87499999995
  22
 226.76830277190
  32
0.0
  13
 131.87499999995
  23
 226.76830277190
  33
0.0
   0
MTEXT
   5
FE
 100
AcDbEntity
   8
LEVEL001
 370
15
  62
8
 100
AcDbMText
  10
 123.87499999995
  20
 228.12095673332
  30
0.0
  40
 2.5000000000000
  41
0.0
  71
8
  72
1
   1
\A1;20
   7
GMM002
   0
ENDBLK
   5
FF
 100
AcDbEntity
   8
0
 100
AcDbBlockEnd
   0
BLOCK
   5
100
 100
AcDbEntity
   8
0
 100
AcDbBlockBegin
   2
*D5
  70
65
  10
0.0
  20
0.0
  30
0.0
   3
*D5
   0
LINE
   5
101
 100
AcDbEntity
   8
LEVEL001
 370
15
 100
AcDbLine
   6
CONTINUOUS
  62
8
  10
 112.87499999995
  20
 235.12095673332
  30
0.0
  11
 108.30649289730
  21
 235.12095673332
  31
0.0
   0
LINE
   5
102
 100
AcDbEntity
   8
LEVEL001
 370
15
 100
AcDbLine
   6
CONTINUOUS
  62
8
  10
 112.87499999995
  20
 239.62095673332
  30
0.0
  11
 108.30649289730
  21
 239.62095673332
  31
0.0
   0
LINE
   5
103
 100
AcDbEntity
   8
LEVEL001
 370
15
 100
AcDbLine
   6
CONTINUOUS
  62
8
  10
 109.30649289730
  20
 232.62095673332
  30
0.0
  11
 109.30649289730
  21
 237.37095673332
  31
0.0
   0
LINE
   5
104
 100
AcDbEntity
   8
LEVEL001
 370
15
 100
AcDbLine
   6
CONTINUOUS
  62
8
  10
 109.30649289730
  20
 242.12095673332
  30
0.0
  11
 109.30649289730
  21
 237.37095673332
  31
0.0
   0
SOLID
   5
105
 100
AcDbEntity
   8
LEVEL001
 100
AcDbTrace
   6
CONTINUOUS
  62
8
  10
 109.30649289730
  20
 235.12095673332
  30
0.0
  11
 108.95383893588
  21
 233.12095673332
  31
0.0
  12
 109.65914685872
  22
 233.12095673332
  32
0.0
  13
 109.65914685872
  23
 233.12095673332
  33
0.0
   0
SOLID
   5
106
 100
AcDbEntity
   8
LEVEL001
 100
AcDbTrace
   6
CONTINUOUS
  62
8
  10
 109.30649289730
  20
 239.62095673332
  30
0.0
  11
 109.65914685872
  21
 241.62095673332
  31
0.0
  12
 108.95383893588
  22
 241.62095673332
  32
0.0
  13
 108.95383893588
  23
 241.62095673332
  33
0.0
   0
MTEXT
   5
107
 100
AcDbEntity
   8
LEVEL001
 370
15
  62
8
 100
AcDbMText
  10
 108.30649289730
  20
 237.37095673332
  30
0.0
  40
 2.5000000000000
  41
0.0
  71
8
  72
1
   1
\A1;4.5
   7
GMM002
  11
0.0
  21
 1.0000000000000
  31
0.0
   0
ENDBLK
   5
108
 100
AcDbEntity
   8
0
 100
AcDbBlockEnd
   0
BLOCK
   5
109
 100
AcDbEntity
   8
0
 100
AcDbBlockBegin
   2
*D6
  70
65
  10
0.0
  20
0.0
  30
0.0
   3
*D6
   0
LINE
   5
10A
 100
AcDbEntity
   8
LEVEL001
 370
15
 100
AcDbLine
   6
CONTINUOUS
  62
8
  10
 134.87499999995
  20
 235.12095673332
  30
0.0
  11
 139.68956593023
  21
 235.12095673332
  31
0.0
   0
LINE
   5
10B
 100
AcDbEntity
   8
LEVEL001
 370
15
 100
AcDbLine
   6
CONTINUOUS
  62
8
  10
 134.87499999995
  20
 236.12095673332
  30
0.0
  11
 139.68956593023
  21
 236.12095673332
  31
0.0
   0
LINE
   5
10C
 100
AcDbEntity
   8
LEVEL001
 370
15
 100
AcDbLine
   6
CONTINUOUS
  62
8
  10
 138.68956593023
  20
 230.47425137757
  30
0.0
  11
 138.68956593023
  21
 235.62095673332
  31
0.0
   0
LINE
   5
10D
 100
AcDbEntity
   8
LEVEL001
 370
15
 100
AcDbLine
   6
CONTINUOUS
  62
8
  10
 138.68956593023
  20
 238.62095673332
  30
0.0
  11
 138.68956593023
  21
 235.62095673332
  31
0.0
   0
SOLID
   5
10E
 100
AcDbEntity
   8
LEVEL001
 100
AcDbTrace
   6
CONTINUOUS
  62
8
  10
 138.68956593023
  20
 235.12095673332
  30
0.0
  11
 138.33691196881
  21
 233.12095673332
  31
0.0
  12
 139.04221989165
  22
 233.12095673332
  32
0.0
  13
 139.04221989165
  23
 233.12095673332
  33
0.0
   0
SOLID
   5
10F
 100
AcDbEntity
   8
LEVEL001
 100
AcDbTrace
   6
CONTINUOUS
  62
8
  10
 138.68956593023
  20
 236.12095673332
  30
0.0
  11
 139.04221989165
  21
 238.12095673332
  31
0.0
  12
 138.33691196881
  22
 238.12095673332
  32
0.0
  13
 138.33691196881
  23
 238.12095673332
  33
0.0
   0
MTEXT
   5
110
 100
AcDbEntity
   8
LEVEL001
 370
15
  62
8
 100
AcDbMText
  10
 138.02986044161
  20
 232.97425137757
  30
0.0
  40
 2.5000000000000
  41
0.0
  71
9
  72
1
   1
\A1;1
   7
GMM002
  11
0.0
  21
 1.0000000000000
  31
0.0
   0
ENDBLK
   5
111
 100
AcDbEntity
   8
0
 100
AcDbBlockEnd
   0
BLOCK
   5
112
 100
AcDbEntity
   8
0
 100
AcDbBlockBegin
   2
*D7
  70
65
  10
0.0
  20
0.0
  30
0.0
   3
*D7
   0
LINE
   5
113
 100
AcDbEntity
   8
LEVEL001
 370
15
 100
AcDbLine
   6
CONTINUOUS
  62
8
  10
 41.624999999950
  20
 240.62095673332
  30
0.0
  11
 41.624999999950
  21
 244.60142529140
  31
0.0
   0
LINE
   5
114
 100
AcDbEntity
   8
LEVEL001
 370
15
 100
AcDbLine
   6
CONTINUOUS
  62
8
  10
 44.624999999950
  20
 240.62095673332
  30
0.0
  11
 44.624999999950
  21
 244.60142529140
  31
0.0
   0
LINE
   5
115
 100
AcDbEntity
   8
LEVEL001
 370
15
 100
AcDbLine
   6
CONTINUOUS
  62
8
  10
 39.124999999950
  20
 243.60142529140
  30
0.0
  11
 43.124999999950
  21
 243.60142529140
  31
0.0
   0
LINE
   5
116
 100
AcDbEntity
   8
LEVEL001
 370
15
 100
AcDbLine
   6
CONTINUOUS
  62
8
  10
 47.124999999950
  20
 243.60142529140
  30
0.0
  11
 43.124999999950
  21
 243.60142529140
  31
0.0
   0
SOLID
   5
117
 100
AcDbEntity
   8
LEVEL001
 100
AcDbTrace
   6
CONTINUOUS
  62
8
  10
 41.624999999950
  20
 243.60142529140
  30
0.0
  11
 39.624999999950
  21
 243.95407925282
  31
0.0
  12
 39.624999999950
  22
 243.24877132998
  32
0.0
  13
 39.624999999950
  23
 243.24877132998
  33
0.0
   0
SOLID
   5
118
 100
AcDbEntity
   8
LEVEL001
 100
AcDbTrace
   6
CONTINUOUS
  62
8
  10
 44.624999999950
  20
 243.60142529140
  30
0.0
  11
 46.624999999950
  21
 243.24877132998
  31
0.0
  12
 46.624999999950
  22
 243.95407925282
  32
0.0
  13
 46.624999999950
  23
 243.95407925282
  33
0.0
   0
MTEXT
   5
119
 100
AcDbEntity
   8
LEVEL001
 370
15
  62
8
 100
AcDbMText
  10
 43.124999999950
  20
 244.60142529140
  30
0.0
  40
 2.5000000000000
  41
0.0
  71
8
  72
1
   1
\A1;3
   7
GMM002
   0
ENDBLK
   5
11A
 100
AcDbEntity
   8
0
 100
AcDbBlockEnd
   0
BLOCK
   5
11B
 100
AcDbEntity
   8
0
 100
AcDbBlockBegin
   2
*D8
  70
65
  10
0.0
  20
0.0
  30
0.0
   3
*D8
   0
LINE
   5
11C
 100
AcDbEntity
   8
LEVEL001
 370
15
 100
AcDbLine
   6
CONTINUOUS
  62
8
  10
 45.624999999950
  20
 236.32095673332
  30
0.0
  11
 52.951157742878
  21
 236.32095673332
  31
0.0
   0
LINE
   5
11D
 100
AcDbEntity
   8
LEVEL001
 370
15
 100
AcDbLine
   6
CONTINUOUS
  62
8
  10
 45.624999999950
  20
 239.62095673332
  30
0.0
  11
 52.951157742878
  21
 239.62095673332
  31
0.0
   0
LINE
   5
11E
 100
AcDbEntity
   8
LEVEL001
 370
15
 100
AcDbLine
   6
CONTINUOUS
  62
8
  10
 51.951157742878
  20
 233.82095673332
  30
0.0
  11
 51.951157742878
  21
 237.97095673332
  31
0.0
   0
LINE
   5
11F
 100
AcDbEntity
   8
LEVEL001
 370
15
 100
AcDbLine
   6
CONTINUOUS
  62
8
  10
 51.951157742878
  20
 246.73627725889
  30
0.0
  11
 51.951157742878
  21
 237.97095673332
  31
0.0
   0
SOLID
   5
120
 100
AcDbEntity
   8
LEVEL001
 100
AcDbTrace
   6
CONTINUOUS
  62
8
  10
 51.951157742878
  20
 236.32095673332
  30
0.0
  11
 51.598503781461
  21
 234.32095673332
  31
0.0
  12
 52.303811704295
  22
 234.32095673332
  32
0.0
  13
 52.303811704295
  23
 234.32095673332
  33
0.0
   0
SOLID
   5
121
 100
AcDbEntity
   8
LEVEL001
 100
AcDbTrace
   6
CONTINUOUS
  62
8
  10
 51.951157742878
  20
 239.62095673332
  30
0.0
  11
 52.303811704295
  21
 241.62095673332
  31
0.0
  12
 51.598503781461
  22
 241.62095673332
  32
0.0
  13
 51.598503781461
  23
 241.62095673332
  33
0.0
   0
MTEXT
   5
122
 100
AcDbEntity
   8
LEVEL001
 370
15
  62
8
 100
AcDbMText
  10
 51.071550424715
  20
 241.23627725889
  30
0.0
  40
 2.5000000000000
  41
0.0
  71
7
  72
1
   1
\A1;3.3
   7
GMM002
  11
0.0
  21
 1.0000000000000
  31
0.0
   0
ENDBLK
   5
123
 100
AcDbEntity
   8
0
 100
AcDbBlockEnd
   0
BLOCK
   5
124
 100
AcDbEntity
   8
0
 100
AcDbBlockBegin
   2
*D9
  70
65
  10
0.0
  20
0.0
  30
0.0
   3
*D9
   0
LINE
   5
125
 100
AcDbEntity
   8
LEVEL001
 370
15
 100
AcDbLine
   6
CONTINUOUS
  62
8
  10
 119.87499999995
  20
 236.32095673332
  30
0.0
  11
 127.20115774288
  21
 236.32095673332
  31
0.0
   0
LINE
   5
126
 100
AcDbEntity
   8
LEVEL001
 370
15
 100
AcDbLine
   6
CONTINUOUS
  62
8
  10
 119.87499999995
  20
 239.62095673332
  30
0.0
  11
 127.20115774288
  21
 239.62095673332
  31
0.0
   0
LINE
   5
127
 100
AcDbEntity
   8
LEVEL001
 370
15
 100
AcDbLine
   6
CONTINUOUS
  62
8
  10
 126.20115774288
  20
 233.82095673332
  30
0.0
  11
 126.20115774288
  21
 237.97095673332
  31
0.0
   0
LINE
   5
128
 100
AcDbEntity
   8
LEVEL001
 370
15
 100
AcDbLine
   6
CONTINUOUS
  62
8
  10
 126.20115774288
  20
 246.73627725889
  30
0.0
  11
 126.20115774288
  21
 237.97095673332
  31
0.0
   0
SOLID
   5
129
 100
AcDbEntity
   8
LEVEL001
 100
AcDbTrace
   6
CONTINUOUS
  62
8
  10
 126.20115774288
  20
 236.32095673332
  30
0.0
  11
 125.84850378146
  21
 234.32095673332
  31
0.0
  12
 126.55381170429
  22
 234.32095673332
  32
0.0
  13
 126.55381170429
  23
 234.32095673332
  33
0.0
   0
SOLID
   5
12A
 100
AcDbEntity
   8
LEVEL001
 100
AcDbTrace
   6
CONTINUOUS
  62
8
  10
 126.20115774288
  20
 239.62095673332
  30
0.0
  11
 126.55381170429
  21
 241.62095673332
  31
0.0
  12
 125.84850378146
  22
 241.62095673332
  32
0.0
  13
 125.84850378146
  23
 241.62095673332
  33
0.0
   0
MTEXT
   5
12B
 100
AcDbEntity
   8
LEVEL001
 370
15
  62
8
 100
AcDbMText
  10
 125.32155042471
  20
 241.23627725889
  30
0.0
  40
 2.5000000000000
  41
0.0
  71
7
  72
1
   1
\A1;3.3
   7
GMM002
  11
0.0
  21
 1.0000000000000
  31
0.0
   0
ENDBLK
   5
12C
 100
AcDbEntity
   8
0
 100
AcDbBlockEnd
   0
BLOCK
   5
12D
 100
AcDbEntity
   8
0
 100
AcDbBlockBegin
   2
*D10
  70
65
  10
0.0
  20
0.0
  30
0.0
   3
*D10
   0
LINE
   5
12E
 100
AcDbEntity
   8
LEVEL001
 370
15
 100
AcDbLine
   6
CONTINUOUS
  62
8
  10
 113.87499999995
  20
 240.62095673332
  30
0.0
  11
 113.87499999995
  21
 244.60142529140
  31
0.0
   0
LINE
   5
12F
 100
AcDbEntity
   8
LEVEL001
 370
15
 100
AcDbLine
   6
CONTINUOUS
  62
8
  10
 118.87499999995
  20
 240.62095673332
  30
0.0
  11
 118.87499999995
  21
 244.60142529140
  31
0.0
   0
LINE
   5
130
 100
AcDbEntity
   8
LEVEL001
 370
15
 100
AcDbLine
   6
CONTINUOUS
  62
8
  10
 111.37499999995
  20
 243.60142529140
  30
0.0
  11
 116.37499999995
  21
 243.60142529140
  31
0.0
   0
LINE
   5
131
 100
AcDbEntity
   8
LEVEL001
 370
15
 100
AcDbLine
   6
CONTINUOUS
  62
8
  10
 121.37499999995
  20
 243.60142529140
  30
0.0
  11
 116.37499999995
  21
 243.60142529140
  31
0.0
   0
SOLID
   5
132
 100
AcDbEntity
   8
LEVEL001
 100
AcDbTrace
   6
CONTINUOUS
  62
8
  10
 113.87499999995
  20
 243.60142529140
  30
0.0
  11
 111.87499999995
  21
 243.95407925282
  31
0.0
  12
 111.87499999995
  22
 243.24877132998
  32
0.0
  13
 111.87499999995
  23
 243.24877132998
  33
0.0
   0
SOLID
   5
133
 100
AcDbEntity
   8
LEVEL001
 100
AcDbTrace
   6
CONTINUOUS
  62
8
  10
 118.87499999995
  20
 243.60142529140
  30
0.0
  11
 120.87499999995
  21
 243.24877132998
  31
0.0
  12
 120.87499999995
  22
 243.95407925282
  32
0.0
  13
 120.87499999995
  23
 243.95407925282
  33
0.0
   0
MTEXT
   5
134
 100
AcDbEntity
   8
LEVEL001
 370
15
  62
8
 100
AcDbMText
  10
 116.37499999995
  20
 244.60142529140
  30
0.0
  40
 2.5000000000000
  41
0.0
  71
8
  72
1
   1
\A1;5
   7
GMM002
   0
ENDBLK
   5
135
 100
AcDbEntity
   8
0
 100
AcDbBlockEnd
   0
BLOCK
   5
136
 100
AcDbEntity
   8
0
 100
AcDbBlockBegin
   2
*D11
  70
65
  10
0.0
  20
0.0
  30
0.0
   3
*D11
   0
LINE
   5
137
 100
AcDbEntity
   8
LEVEL001
 370
15
 100
AcDbLine
   6
CONTINUOUS
  62
8
  10
 256.37499999995
  20
 233.61790144114
  30
0.0
  11
 251.36403293223
  21
 233.61790144114
  31
0.0
   0
LINE
   5
138
 100
AcDbEntity
   8
LEVEL001
 370
15
 100
AcDbLine
   6
CONTINUOUS
  62
8
  10
 256.37499999995
  20
 238.61790144114
  30
0.0
  11
 251.36403293223
  21
 238.61790144114
  31
0.0
   0
LINE
   5
139
 100
AcDbEntity
   8
LEVEL001
 370
15
 100
AcDbLine
   6
CONTINUOUS
  62
8
  10
 252.36403293223
  20
 233.61790144114
  30
0.0
  11
 252.36403293223
  21
 236.11790144114
  31
0.0
   0
LINE
   5
13A
 100
AcDbEntity
   8
LEVEL001
 370
15
 100
AcDbLine
   6
CONTINUOUS
  62
8
  10
 252.36403293223
  20
 238.61790144114
  30
0.0
  11
 252.36403293223
  21
 236.11790144114
  31
0.0
   0
SOLID
   5
13B
 100
AcDbEntity
   8
LEVEL001
 100
AcDbTrace
   6
CONTINUOUS
  62
8
  10
 252.36403293223
  20
 233.61790144114
  30
0.0
  11
 252.71668689365
  21
 235.61790144114
  31
0.0
  12
 252.01137897082
  22
 235.61790144114
  32
0.0
  13
 252.01137897082
  23
 235.61790144114
  33
0.0
   0
SOLID
   5
13C
 100
AcDbEntity
   8
LEVEL001
 100
AcDbTrace
   6
CONTINUOUS
  62
8
  10
 252.36403293223
  20
 238.61790144114
  30
0.0
  11
 252.01137897082
  21
 236.61790144114
  31
0.0
  12
 252.71668689365
  22
 236.61790144114
  32
0.0
  13
 252.71668689365
  23
 236.61790144114
  33
0.0
   0
MTEXT
   5
13D
 100
AcDbEntity
   8
LEVEL001
 370
15
  62
8
 100
AcDbMText
  10
 251.36403293223
  20
 236.11790144114
  30
0.0
  40
 2.5000000000000
  41
0.0
  71
8
  72
1
   1
\A1;5
   7
GMM002
  11
0.0
  21
 1.0000000000000
  31
0.0
   0
ENDBLK
   5
13E
 100
AcDbEntity
   8
0
 100
AcDbBlockEnd
   0
BLOCK
   5
13F
 100
AcDbEntity
   8
0
 100
AcDbBlockBegin
   2
*D12
  70
65
  10
0.0
  20
0.0
  30
0.0
   3
*D12
   0
LINE
   5
140
 100
AcDbEntity
   8
LEVEL001
 370
15
 100
AcDbLine
   6
CONTINUOUS
  62
8
  10
 280.37499999995
  20
 233.61790144114
  30
0.0
  11
 286.12547871542
  21
 233.61790144114
  31
0.0
   0
LINE
   5
141
 100
AcDbEntity
   8
LEVEL001
 370
15
 100
AcDbLine
   6
CONTINUOUS
  62
8
  10
 279.58291885175
  20
 234.41790144114
  30
0.0
  11
 286.12547871542
  21
 234.41790144114
  31
0.0
   0
LINE
   5
142
 100
AcDbEntity
   8
LEVEL001
 370
15
 100
AcDbLine
   6
CONTINUOUS
  62
8
  10
 285.12547871542
  20
 231.11790144114
  30
0.0
  11
 285.12547871542
  21
 234.01790144114
  31
0.0
   0
LINE
   5
143
 100
AcDbEntity
   8
LEVEL001
 370
15
 100
AcDbLine
   6
CONTINUOUS
  62
8
  10
 285.12547871542
  20
 241.27140327987
  30
0.0
  11
 285.12547871542
  21
 234.01790144114
  31
0.0
   0
SOLID
   5
144
 100
AcDbEntity
   8
LEVEL001
 100
AcDbTrace
   6
CONTINUOUS
  62
8
  10
 285.12547871542
  20
 233.61790144114
  30
0.0
  11
 284.77282475400
  21
 231.61790144114
  31
0.0
  12
 285.47813267683
  22
 231.61790144114
  32
0.0
  13
 285.47813267683
  23
 231.61790144114
  33
0.0
   0
SOLID
   5
145
 100
AcDbEntity
   8
LEVEL001
 100
AcDbTrace
   6
CONTINUOUS
  62
8
  10
 285.12547871542
  20
 234.41790144114
  30
0.0
  11
 285.47813267683
  21
 236.41790144114
  31
0.0
  12
 284.77282475400
  22
 236.41790144114
  32
0.0
  13
 284.77282475400
  23
 236.41790144114
  33
0.0
   0
MTEXT
   5
146
 100
AcDbEntity
   8
LEVEL001
 370
15
  62
8
 100
AcDbMText
  10
 284.05858317677
  20
 235.77140327987
  30
0.0
  40
 2.5000000000000
  41
0.0
  71
7
  72
1
   1
\A1;0.8
   7
GMM002
  11
0.0
  21
 1.0000000000000
  31
0.0
   0
ENDBLK
   5
147
 100
AcDbEntity
   8
0
 100
AcDbBlockEnd
   0
BLOCK
   5
148
 100
AcDbEntity
   8
0
 100
AcDbBlockBegin
   2
*D13
  70
65
  10
0.0
  20
0.0
  30
0.0
   3
*D13
   0
LINE
   5
149
 100
AcDbEntity
   8
LEVEL001
 370
15
 100
AcDbLine
   6
CONTINUOUS
  62
8
  10
 257.37499999995
  20
 239.61790144114
  30
0.0
  11
 257.37499999995
  21
 245.29897446205
  31
0.0
   0
LINE
   5
14A
 100
AcDbEntity
   8
LEVEL001
 370
15
 100
AcDbLine
   6
CONTINUOUS
  62
8
  10
 264.37499999995
  20
 239.61790144114
  30
0.0
  11
 264.37499999995
  21
 245.29897446205
  31
0.0
   0
LINE
   5
14B
 100
AcDbEntity
   8
LEVEL001
 370
15
 100
AcDbLine
   6
CONTINUOUS
  62
8
  10
 257.37499999995
  20
 244.29897446205
  30
0.0
  11
 260.87499999995
  21
 244.29897446205
  31
0.0
   0
LINE
   5
14C
 100
AcDbEntity
   8
LEVEL001
 370
15
 100
AcDbLine
   6
CONTINUOUS
  62
8
  10
 264.37499999995
  20
 244.29897446205
  30
0.0
  11
 260.87499999995
  21
 244.29897446205
  31
0.0
   0
SOLID
   5
14D
 100
AcDbEntity
   8
LEVEL001
 100
AcDbTrace
   6
CONTINUOUS
  62
8
  10
 257.37499999995
  20
 244.29897446205
  30
0.0
  11
 259.37499999995
  21
 243.94632050063
  31
0.0
  12
 259.37499999995
  22
 244.65162842346
  32
0.0
  13
 259.37499999995
  23
 244.65162842346
  33
0.0
   0
SOLID
   5
14E
 100
AcDbEntity
   8
LEVEL001
 100
AcDbTrace
   6
CONTINUOUS
  62
8
  10
 264.37499999995
  20
 244.29897446205
  30
0.0
  11
 262.37499999995
  21
 244.65162842346
  31
0.0
  12
 262.37499999995
  22
 243.94632050063
  32
0.0
  13
 262.37499999995
  23
 243.94632050063
  33
0.0
   0
MTEXT
   5
14F
 100
AcDbEntity
   8
LEVEL001
 370
15
  62
8
 100
AcDbMText
  10
 260.87499999995
  20
 245.29897446205
  30
0.0
  40
 2.5000000000000
  41
0.0
  71
8
  72
1
   1
\A1;7
   7
GMM002
   0
ENDBLK
   5
150
 100
AcDbEntity
   8
0
 100
AcDbBlockEnd
   0
BLOCK
   5
151
 100
AcDbEntity
   8
0
 100
AcDbBlockBegin
   2
*D14
  70
65
  10
0.0
  20
0.0
  30
0.0
   3
*D14
   0
LINE
   5
152
 100
AcDbEntity
   8
LEVEL001
 370
15
 100
AcDbLine
   6
CONTINUOUS
  62
8
  10
 257.37499999995
  20
 232.61790144114
  30
0.0
  11
 257.37499999995
  21
 224.53778095921
  31
0.0
   0
LINE
   5
153
 100
AcDbEntity
   8
LEVEL001
 370
15
 100
AcDbLine
   6
CONTINUOUS
  62
8
  10
 279.37499999995
  20
 232.61790144114
  30
0.0
  11
 279.37499999995
  21
 224.53778095921
  31
0.0
   0
LINE
   5
154
 100
AcDbEntity
   8
LEVEL001
 370
15
 100
AcDbLine
   6
CONTINUOUS
  62
8
  10
 257.37499999995
  20
 225.53778095921
  30
0.0
  11
 268.37499999995
  21
 225.53778095921
  31
0.0
   0
LINE
   5
155
 100
AcDbEntity
   8
LEVEL001
 370
15
 100
AcDbLine
   6
CONTINUOUS
  62
8
  10
 279.37499999995
  20
 225.53778095921
  30
0.0
  11
 268.37499999995
  21
 225.53778095921
  31
0.0
   0
SOLID
   5
156
 100
AcDbEntity
   8
LEVEL001
 100
AcDbTrace
   6
CONTINUOUS
  62
8
  10
 257.37499999995
  20
 225.53778095921
  30
0.0
  11
 259.37499999995
  21
 225.18512699779
  31
0.0
  12
 259.37499999995
  22
 225.89043492062
  32
0.0
  13
 259.37499999995
  23
 225.89043492062
  33
0.0
   0
SOLID
   5
157
 100
AcDbEntity
   8
LEVEL001
 100
AcDbTrace
   6
CONTINUOUS
  62
8
  10
 279.37499999995
  20
 225.53778095921
  30
0.0
  11
 277.37499999995
  21
 225.89043492062
  31
0.0
  12
 277.37499999995
  22
 225.18512699779
  32
0.0
  13
 277.37499999995
  23
 225.18512699779
  33
0.0
   0
MTEXT
   5
158
 100
AcDbEntity
   8
LEVEL001
 370
15
  62
8
 100
AcDbMText
  10
 268.37499999995
  20
 226.53778095921
  30
0.0
  40
 2.5000000000000
  41
0.0
  71
8
  72
1
   1
\A1;22
   7
GMM002
   0
ENDBLK
   5
159
 100
AcDbEntity
   8
0
 100
AcDbBlockEnd
   0
BLOCK
   5
15A
 100
AcDbEntity
   8
0
 100
AcDbBlockBegin
   2
*D15
  70
65
  10
0.0
  20
0.0
  30
0.0
   3
*D15
   0
LINE
   5
15B
 100
AcDbEntity
   8
LEVEL001
 370
15
 100
AcDbLine
   6
CONTINUOUS
  62
8
  10
 184.12499999995
  20
 235.53778095921
  30
0.0
  11
 180.70439437792
  21
 235.53778095921
  31
0.0
   0
LINE
   5
15C
 100
AcDbEntity
   8
LEVEL001
 370
15
 100
AcDbLine
   6
CONTINUOUS
  62
8
  10
 184.12499999995
  20
 240.03778095921
  30
0.0
  11
 180.70439437792
  21
 240.03778095921
  31
0.0
   0
LINE
   5
15D
 100
AcDbEntity
   8
LEVEL001
 370
15
 100
AcDbLine
   6
CONTINUOUS
  62
8
  10
 181.70439437792
  20
 235.53778095921
  30
0.0
  11
 181.70439437792
  21
 237.78778095921
  31
0.0
   0
LINE
   5
15E
 100
AcDbEntity
   8
LEVEL001
 370
15
 100
AcDbLine
   6
CONTINUOUS
  62
8
  10
 181.70439437792
  20
 240.03778095921
  30
0.0
  11
 181.70439437792
  21
 237.78778095921
  31
0.0
   0
SOLID
   5
15F
 100
AcDbEntity
   8
LEVEL001
 100
AcDbTrace
   6
CONTINUOUS
  62
8
  10
 181.70439437792
  20
 235.53778095921
  30
0.0
  11
 182.05704833933
  21
 237.53778095921
  31
0.0
  12
 181.35174041650
  22
 237.53778095921
  32
0.0
  13
 181.35174041650
  23
 237.53778095921
  33
0.0
   0
SOLID
   5
160
 100
AcDbEntity
   8
LEVEL001
 100
AcDbTrace
   6
CONTINUOUS
  62
8
  10
 181.70439437792
  20
 240.03778095921
  30
0.0
  11
 181.35174041650
  21
 238.03778095921
  31
0.0
  12
 182.05704833933
  22
 238.03778095921
  32
0.0
  13
 182.05704833933
  23
 238.03778095921
  33
0.0
   0
MTEXT
   5
161
 100
AcDbEntity
   8
LEVEL001
 370
15
  62
8
 100
AcDbMText
  10
 180.70439437792
  20
 237.78778095921
  30
0.0
  40
 2.5000000000000
  41
0.0
  71
8
  72
1
   1
\A1;4.5
   7
GMM002
  11
0.0
  21
 1.0000000000000
  31
0.0
   0
ENDBLK
   5
162
 100
AcDbEntity
   8
0
 100
AcDbBlockEnd
   0
BLOCK
   5
163
 100
AcDbEntity
   8
0
 100
AcDbBlockBegin
   2
*D16
  70
65
  10
0.0
  20
0.0
  30
0.0
   3
*D16
   0
LINE
   5
164
 100
AcDbEntity
   8
LEVEL001
 370
15
 100
AcDbLine
   6
CONTINUOUS
  62
8
  10
 208.12499999995
  20
 235.53778095921
  30
0.0
  11
 214.35258714905
  21
 235.53778095921
  31
0.0
   0
LINE
   5
165
 100
AcDbEntity
   8
LEVEL001
 370
15
 100
AcDbLine
   6
CONTINUOUS
  62
8
  10
 207.33291885175
  20
 236.33778095921
  30
0.0
  11
 214.35258714905
  21
 236.33778095921
  31
0.0
   0
LINE
   5
166
 100
AcDbEntity
   8
LEVEL001
 370
15
 100
AcDbLine
   6
CONTINUOUS
  62
8
  10
 213.35258714905
  20
 233.03778095921
  30
0.0
  11
 213.35258714905
  21
 235.93778095921
  31
0.0
   0
LINE
   5
167
 100
AcDbEntity
   8
LEVEL001
 370
15
 100
AcDbLine
   6
CONTINUOUS
  62
8
  10
 213.35258714905
  20
 243.19128279794
  30
0.0
  11
 213.35258714905
  21
 235.93778095921
  31
0.0
   0
SOLID
   5
168
 100
AcDbEntity
   8
LEVEL001
 100
AcDbTrace
   6
CONTINUOUS
  62
8
  10
 213.35258714905
  20
 235.53778095921
  30
0.0
  11
 212.99993318763
  21
 233.53778095921
  31
0.0
  12
 213.70524111047
  22
 233.53778095921
  32
0.0
  13
 213.70524111047
  23
 233.53778095921
  33
0.0
   0
SOLID
   5
169
 100
AcDbEntity
   8
LEVEL001
 100
AcDbTrace
   6
CONTINUOUS
  62
8
  10
 213.35258714905
  20
 236.33778095921
  30
0.0
  11
 213.70524111047
  21
 238.33778095921
  31
0.0
  12
 212.99993318763
  22
 238.33778095921
  32
0.0
  13
 212.99993318763
  23
 238.33778095921
  33
0.0
   0
MTEXT
   5
16A
 100
AcDbEntity
   8
LEVEL001
 370
15
  62
8
 100
AcDbMText
  10
 212.28569161040
  20
 237.69128279794
  30
0.0
  40
 2.5000000000000
  41
0.0
  71
7
  72
1
   1
\A1;0.8
   7
GMM002
  11
0.0
  21
 1.0000000000000
  31
0.0
   0
ENDBLK
   5
16B
 100
AcDbEntity
   8
0
 100
AcDbBlockEnd
   0
BLOCK
   5
16C
 100
AcDbEntity
   8
0
 100
AcDbBlockBegin
   2
*D17
  70
65
  10
0.0
  20
0.0
  30
0.0
   3
*D17
   0
LINE
   5
16D
 100
AcDbEntity
   8
LEVEL001
 370
15
 100
AcDbLine
   6
CONTINUOUS
  62
8
  10
 185.12499999995
  20
 241.03778095921
  30
0.0
  11
 185.12499999995
  21
 245.45801060662
  31
0.0
   0
LINE
   5
16E
 100
AcDbEntity
   8
LEVEL001
 370
15
 100
AcDbLine
   6
CONTINUOUS
  62
8
  10
 192.12499999995
  20
 241.03778095921
  30
0.0
  11
 192.12499999995
  21
 245.45801060662
  31
0.0
   0
LINE
   5
16F
 100
AcDbEntity
   8
LEVEL001
 370
15
 100
AcDbLine
   6
CONTINUOUS
  62
8
  10
 185.12499999995
  20
 244.45801060662
  30
0.0
  11
 188.62499999995
  21
 244.45801060662
  31
0.0
   0
LINE
   5
170
 100
AcDbEntity
   8
LEVEL001
 370
15
 100
AcDbLine
   6
CONTINUOUS
  62
8
  10
 192.12499999995
  20
 244.45801060662
  30
0.0
  11
 188.62499999995
  21
 244.45801060662
  31
0.0
   0
SOLID
   5
171
 100
AcDbEntity
   8
LEVEL001
 100
AcDbTrace
   6
CONTINUOUS
  62
8
  10
 185.12499999995
  20
 244.45801060662
  30
0.0
  11
 187.12499999995
  21
 244.10535664521
  31
0.0
  12
 187.12499999995
  22
 244.81066456804
  32
0.0
  13
 187.12499999995
  23
 244.81066456804
  33
0.0
   0
SOLID
   5
172
 100
AcDbEntity
   8
LEVEL001
 100
AcDbTrace
   6
CONTINUOUS
  62
8
  10
 192.12499999995
  20
 244.45801060662
  30
0.0
  11
 190.12499999995
  21
 244.81066456804
  31
0.0
  12
 190.12499999995
  22
 244.10535664521
  32
0.0
  13
 190.12499999995
  23
 244.10535664521
  33
0.0
   0
MTEXT
   5
173
 100
AcDbEntity
   8
LEVEL001
 370
15
  62
8
 100
AcDbMText
  10
 188.62499999995
  20
 245.45801060662
  30
0.0
  40
 2.5000000000000
  41
0.0
  71
8
  72
1
   1
\A1;7
   7
GMM002
   0
ENDBLK
   5
174
 100
AcDbEntity
   8
0
 100
AcDbBlockEnd
   0
BLOCK
   5
175
 100
AcDbEntity
   8
0
 100
AcDbBlockBegin
   2
*D18
  70
65
  10
0.0
  20
0.0
  30
0.0
   3
*D18
   0
LINE
   5
176
 100
AcDbEntity
   8
LEVEL001
 370
15
 100
AcDbLine
   6
CONTINUOUS
  62
8
  10
 185.12499999995
  20
 234.53778095921
  30
0.0
  11
 185.12499999995
  21
 224.53778095921
  31
0.0
   0
LINE
   5
177
 100
AcDbEntity
   8
LEVEL001
 370
15
 100
AcDbLine
   6
CONTINUOUS
  62
8
  10
 207.12499999995
  20
 234.53778095921
  30
0.0
  11
 207.12499999995
  21
 224.53778095921
  31
0.0
   0
LINE
   5
178
 100
AcDbEntity
   8
LEVEL001
 370
15
 100
AcDbLine
   6
CONTINUOUS
  62
8
  10
 185.12499999995
  20
 225.53778095921
  30
0.0
  11
 196.12499999995
  21
 225.53778095921
  31
0.0
   0
LINE
   5
179
 100
AcDbEntity
   8
LEVEL001
 370
15
 100
AcDbLine
   6
CONTINUOUS
  62
8
  10
 207.12499999995
  20
 225.53778095921
  30
0.0
  11
 196.12499999995
  21
 225.53778095921
  31
0.0
   0
SOLID
   5
17A
 100
AcDbEntity
   8
LEVEL001
 100
AcDbTrace
   6
CONTINUOUS
  62
8
  10
 185.12499999995
  20
 225.53778095921
  30
0.0
  11
 187.12499999995
  21
 225.18512699779
  31
0.0
  12
 187.12499999995
  22
 225.89043492062
  32
0.0
  13
 187.12499999995
  23
 225.89043492062
  33
0.0
   0
SOLID
   5
17B
 100
AcDbEntity
   8
LEVEL001
 100
AcDbTrace
   6
CONTINUOUS
  62
8
  10
 207.12499999995
  20
 225.53778095921
  30
0.0
  11
 205.12499999995
  21
 225.89043492062
  31
0.0
  12
 205.12499999995
  22
 225.18512699779
  32
0.0
  13
 205.12499999995
  23
 225.18512699779
  33
0.0
   0
MTEXT
   5
17C
 100
AcDbEntity
   8
LEVEL001
 370
15
  62
8
 100
AcDbMText
  10
 196.12499999995
  20
 226.53778095921
  30
0.0
  40
 2.5000000000000
  41
0.0
  71
8
  72
1
   1
\A1;22
   7
GMM002
   0
ENDBLK
   5
17D
 100
AcDbEntity
   8
0
 100
AcDbBlockEnd
   0
BLOCK
   5
17E
 100
AcDbEntity
   8
0
 100
AcDbBlockBegin
   2
*D19
  70
65
  10
0.0
  20
0.0
  30
0.0
   3
*D19
   0
LINE
   5
17F
 100
AcDbEntity
   8
LEVEL001
 370
15
 100
AcDbLine
   6
CONTINUOUS
  62
8
  10
 69.124999999950
  20
 164.92762252995
  30
0.0
  11
 80.241586538412
  21
 164.92762252995
  31
0.0
   0
LINE
   5
180
 100
AcDbEntity
   8
LEVEL001
 370
15
 100
AcDbLine
   6
CONTINUOUS
  62
8
  10
 79.241586538412
  20
 157.99190543289
  30
0.0
  11
 79.241586538412
  21
 165.67762252995
  31
0.0
   0
LINE
   5
181
 100
AcDbEntity
   8
LEVEL001
 370
15
 100
AcDbLine
   6
CONTINUOUS
  62
8
  10
 79.241586538412
  20
 166.42762252995
  30
0.0
  11
 79.241586538412
  21
 165.67762252995
  31
0.0
   0
SOLID
   5
182
 100
AcDbEntity
   8
LEVEL001
 100
AcDbTrace
   6
CONTINUOUS
  62
8
  10
 79.241586538412
  20
 164.92762252995
  30
0.0
  11
 78.888932576995
  21
 162.92762252995
  31
0.0
  12
 79.594240499828
  22
 162.92762252995
  32
0.0
  13
 79.594240499828
  23
 162.92762252995
  33
0.0
   0
MTEXT
   5
183
 100
AcDbEntity
   8
LEVEL001
 370
15
  62
8
 100
AcDbMText
  10
 78.337707067591
  20
 163.49190543289
  30
0.0
  40
 2.5000000000000
  41
0.0
  71
9
  72
1
   1
\A1;1.5
   7
GMM002
  11
0.0
  21
 1.0000000000000
  31
0.0
   0
ENDBLK
   5
184
 100
AcDbEntity
   8
0
 100
AcDbBlockEnd
   0
BLOCK
   5
185
 100
AcDbEntity
   8
0
 100
AcDbBlockBegin
   2
*D20
  70
65
  10
0.0
  20
0.0
  30
0.0
   3
*D20
   0
LINE
   5
186
 100
AcDbEntity
   8
LEVEL001
 370
15
 100
AcDbLine
   6
CONTINUOUS
  62
8
  10
 55.124999999950
  20
 166.42762252995
  30
0.0
  11
 80.241586538412
  21
 166.42762252995
  31
0.0
   0
LINE
   5
187
 100
AcDbEntity
   8
LEVEL001
 370
15
 100
AcDbLine
   6
CONTINUOUS
  62
8
  10
 51.624999999950
  20
 174.42762252995
  30
0.0
  11
 80.241586538412
  21
 174.42762252995
  31
0.0
   0
LINE
   5
188
 100
AcDbEntity
   8
LEVEL001
 370
15
 100
AcDbLine
   6
CONTINUOUS
  62
8
  10
 79.241586538412
  20
 166.42762252995
  30
0.0
  11
 79.241586538412
  21
 170.42762252995
  31
0.0
   0
LINE
   5
189
 100
AcDbEntity
   8
LEVEL001
 370
15
 100
AcDbLine
   6
CONTINUOUS
  62
8
  10
 79.241586538412
  20
 174.42762252995
  30
0.0
  11
 79.241586538412
  21
 170.42762252995
  31
0.0
   0
SOLID
   5
18A
 100
AcDbEntity
   8
LEVEL001
 100
AcDbTrace
   6
CONTINUOUS
  62
8
  10
 79.241586538412
  20
 166.42762252995
  30
0.0
  11
 79.594240499828
  21
 168.42762252995
  31
0.0
  12
 78.888932576995
  22
 168.42762252995
  32
0.0
  13
 78.888932576995
  23
 168.42762252995
  33
0.0
   0
SOLID
   5
18B
 100
AcDbEntity
   8
LEVEL001
 100
AcDbTrace
   6
CONTINUOUS
  62
8
  10
 79.241586538412
  20
 174.42762252995
  30
0.0
  11
 78.888932576995
  21
 172.42762252995
  31
0.0
  12
 79.594240499828
  22
 172.42762252995
  32
0.0
  13
 79.594240499828
  23
 172.42762252995
  33
0.0
   0
MTEXT
   5
18C
 100
AcDbEntity
   8
LEVEL001
 370
15
  62
8
 100
AcDbMText
  10
 78.241586538412
  20
 170.42762252995
  30
0.0
  40
 2.5000000000000
  41
0.0
  71
8
  72
1
   1
\A1;8
   7
GMM002
  11
0.0
  21
 1.0000000000000
  31
0.0
   0
ENDBLK
   5
18D
 100
AcDbEntity
   8
0
 100
AcDbBlockEnd
   0
BLOCK
   5
18E
 100
AcDbEntity
   8
0
 100
AcDbBlockBegin
   2
*D21
  70
65
  10
0.0
  20
0.0
  30
0.0
   3
*D21
   0
LINE
   5
18F
 100
AcDbEntity
   8
LEVEL001
 370
15
 100
AcDbLine
   6
CONTINUOUS
  62
8
  10
 39.124999999950
  20
 164.92762252995
  30
0.0
  11
 29.385364363364
  21
 164.92762252995
  31
0.0
   0
LINE
   5
190
 100
AcDbEntity
   8
LEVEL001
 370
15
 100
AcDbLine
   6
CONTINUOUS
  62
8
  10
 34.124999999950
  20
 167.42762252995
  30
0.0
  11
 29.385364363364
  21
 167.42762252995
  31
0.0
   0
LINE
   5
191
 100
AcDbEntity
   8
LEVEL001
 370
15
 100
AcDbLine
   6
CONTINUOUS
  62
8
  10
 30.385364363364
  20
 162.42762252995
  30
0.0
  11
 30.385364363364
  21
 166.17762252995
  31
0.0
   0
LINE
   5
192
 100
AcDbEntity
   8
LEVEL001
 370
15
 100
AcDbLine
   6
CONTINUOUS
  62
8
  10
 30.385364363364
  20
 174.52871935526
  30
0.0
  11
 30.385364363364
  21
 166.17762252995
  31
0.0
   0
SOLID
   5
193
 100
AcDbEntity
   8
LEVEL001
 100
AcDbTrace
   6
CONTINUOUS
  62
8
  10
 30.385364363364
  20
 164.92762252995
  30
0.0
  11
 30.032710401947
  21
 162.92762252995
  31
0.0
  12
 30.738018324781
  22
 162.92762252995
  32
0.0
  13
 30.738018324781
  23
 162.92762252995
  33
0.0
   0
SOLID
   5
194
 100
AcDbEntity
   8
LEVEL001
 100
AcDbTrace
   6
CONTINUOUS
  62
8
  10
 30.385364363364
  20
 167.42762252995
  30
0.0
  11
 30.738018324781
  21
 169.42762252995
  31
0.0
  12
 30.032710401947
  22
 169.42762252995
  32
0.0
  13
 30.032710401947
  23
 169.42762252995
  33
0.0
   0
MTEXT
   5
195
 100
AcDbEntity
   8
LEVEL001
 370
15
  62
8
 100
AcDbMText
  10
 29.431147495893
  20
 169.02871935526
  30
0.0
  40
 2.5000000000000
  41
0.0
  71
7
  72
1
   1
\A1;2.5
   7
GMM002
  11
0.0
  21
 1.0000000000000
  31
0.0
   0
ENDBLK
   5
196
 100
AcDbEntity
   8
0
 100
AcDbBlockEnd
   0
BLOCK
   5
197
 100
AcDbEntity
   8
0
 100
AcDbBlockBegin
   2
*D22
  70
65
  10
0.0
  20
0.0
  30
0.0
   3
*D22
   0
LINE
   5
198
 100
AcDbEntity
   8
LEVEL001
 370
15
 100
AcDbLine
   6
CONTINUOUS
  62
8
  10
 35.124999999950
  20
 169.49957718669
  30
0.0
  11
 35.124999999950
  21
 179.35883983720
  31
0.0
   0
LINE
   5
199
 100
AcDbEntity
   8
LEVEL001
 370
15
 100
AcDbLine
   6
CONTINUOUS
  62
8
  10
 53.124999999950
  20
 174.46439393285
  30
0.0
  11
 53.124999999950
  21
 179.35883983720
  31
0.0
   0
LINE
   5
19A
 100
AcDbEntity
   8
LEVEL001
 370
15
 100
AcDbLine
   6
CONTINUOUS
  62
8
  10
 35.124999999950
  20
 178.35883983720
  30
0.0
  11
 44.124999999950
  21
 178.35883983720
  31
0.0
   0
LINE
   5
19B
 100
AcDbEntity
   8
LEVEL001
 370
15
 100
AcDbLine
   6
CONTINUOUS
  62
8
  10
 53.124999999950
  20
 178.35883983720
  30
0.0
  11
 44.124999999950
  21
 178.35883983720
  31
0.0
   0
SOLID
   5
19C
 100
AcDbEntity
   8
LEVEL001
 100
AcDbTrace
   6
CONTINUOUS
  62
8
  10
 35.124999999950
  20
 178.35883983720
  30
0.0
  11
 37.124999999950
  21
 178.00618587578
  31
0.0
  12
 37.124999999950
  22
 178.71149379861
  32
0.0
  13
 37.124999999950
  23
 178.71149379861
  33
0.0
   0
SOLID
   5
19D
 100
AcDbEntity
   8
LEVEL001
 100
AcDbTrace
   6
CONTINUOUS
  62
8
  10
 53.124999999950
  20
 178.35883983720
  30
0.0
  11
 51.124999999950
  21
 178.71149379861
  31
0.0
  12
 51.124999999950
  22
 178.00618587578
  32
0.0
  13
 51.124999999950
  23
 178.00618587578
  33
0.0
   0
MTEXT
   5
19E
 100
AcDbEntity
   8
LEVEL001
 370
15
  62
8
 100
AcDbMText
  10
 44.124999999950
  20
 179.35883983720
  30
0.0
  40
 2.5000000000000
  41
0.0
  71
8
  72
1
   1
\A1;18
   7
GMM002
   0
ENDBLK
   5
19F
 100
AcDbEntity
   8
0
 100
AcDbBlockEnd
   0
BLOCK
   5
1A0
 100
AcDbEntity
   8
0
 100
AcDbBlockBegin
   2
*D23
  70
65
  10
0.0
  20
0.0
  30
0.0
   3
*D23
   0
LINE
   5
1A1
 100
AcDbEntity
   8
LEVEL001
 370
15
 100
AcDbLine
   6
CONTINUOUS
  62
8
  10
 35.124999999950
  20
 166.42762252995
  30
0.0
  11
 35.124999999950
  21
 155.55619086537
  31
0.0
   0
LINE
   5
1A2
 100
AcDbEntity
   8
LEVEL001
 370
15
 100
AcDbLine
   6
CONTINUOUS
  62
8
  10
 68.124999999950
  20
 163.92762252995
  30
0.0
  11
 68.124999999950
  21
 155.55619086537
  31
0.0
   0
LINE
   5
1A3
 100
AcDbEntity
   8
LEVEL001
 370
15
 100
AcDbLine
   6
CONTINUOUS
  62
8
  10
 35.124999999950
  20
 156.55619086537
  30
0.0
  11
 51.624999999950
  21
 156.55619086537
  31
0.0
   0
LINE
   5
1A4
 100
AcDbEntity
   8
LEVEL001
 370
15
 100
AcDbLine
   6
CONTINUOUS
  62
8
  10
 68.124999999950
  20
 156.55619086537
  30
0.0
  11
 51.624999999950
  21
 156.55619086537
  31
0.0
   0
SOLID
   5
1A5
 100
AcDbEntity
   8
LEVEL001
 100
AcDbTrace
   6
CONTINUOUS
  62
8
  10
 35.124999999950
  20
 156.55619086537
  30
0.0
  11
 37.124999999950
  21
 156.20353690395
  31
0.0
  12
 37.124999999950
  22
 156.90884482679
  32
0.0
  13
 37.124999999950
  23
 156.90884482679
  33
0.0
   0
SOLID
   5
1A6
 100
AcDbEntity
   8
LEVEL001
 100
AcDbTrace
   6
CONTINUOUS
  62
8
  10
 68.124999999950
  20
 156.55619086537
  30
0.0
  11
 66.124999999950
  21
 156.90884482679
  31
0.0
  12
 66.124999999950
  22
 156.20353690395
  32
0.0
  13
 66.124999999950
  23
 156.20353690395
  33
0.0
   0
MTEXT
   5
1A7
 100
AcDbEntity
   8
LEVEL001
 370
15
  62
8
 100
AcDbMText
  10
 51.624999999950
  20
 157.55619086537
  30
0.0
  40
 2.5000000000000
  41
0.0
  71
8
  72
1
   1
\A1;33
   7
GMM002
   0
ENDBLK
   5
1A8
 100
AcDbEntity
   8
0
 100
AcDbBlockEnd
   0
BLOCK
   5
1A9
 100
AcDbEntity
   8
0
 100
AcDbBlockBegin
   2
*D24
  70
65
  10
0.0
  20
0.0
  30
0.0
   3
*D24
   0
LINE
   5
1AA
 100
AcDbEntity
   8
LEVEL001
 370
15
 100
AcDbLine
   6
CONTINUOUS
  62
8
  10
 31.593774741853
  20
 95.732446985972
  30
0.0
  11
 31.593774741853
  21
 86.274287878579
  31
0.0
   0
LINE
   5
1AB
 100
AcDbEntity
   8
LEVEL001
 370
15
 100
AcDbLine
   6
CONTINUOUS
  62
8
  10
 68.593774741853
  20
 95.732446985972
  30
0.0
  11
 68.593774741853
  21
 86.274287878579
  31
0.0
   0
LINE
   5
1AC
 100
AcDbEntity
   8
LEVEL001
 370
15
 100
AcDbLine
   6
CONTINUOUS
  62
8
  10
 31.593774741853
  20
 87.274287878579
  30
0.0
  11
 50.093774741853
  21
 87.274287878579
  31
0.0
   0
LINE
   5
1AD
 100
AcDbEntity
   8
LEVEL001
 370
15
 100
AcDbLine
   6
CONTINUOUS
  62
8
  10
 68.593774741853
  20
 87.274287878579
  30
0.0
  11
 50.093774741853
  21
 87.274287878579
  31
0.0
   0
SOLID
   5
1AE
 100
AcDbEntity
   8
LEVEL001
 100
AcDbTrace
   6
CONTINUOUS
  62
8
  10
 31.593774741853
  20
 87.274287878579
  30
0.0
  11
 33.593774741853
  21
 86.921633917162
  31
0.0
  12
 33.593774741853
  22
 87.626941839996
  32
0.0
  13
 33.593774741853
  23
 87.626941839996
  33
0.0
   0
SOLID
   5
1AF
 100
AcDbEntity
   8
LEVEL001
 100
AcDbTrace
   6
CONTINUOUS
  62
8
  10
 68.593774741853
  20
 87.274287878579
  30
0.0
  11
 66.593774741853
  21
 87.626941839996
  31
0.0
  12
 66.593774741853
  22
 86.921633917162
  32
0.0
  13
 66.593774741853
  23
 86.921633917162
  33
0.0
   0
MTEXT
   5
1B0
 100
AcDbEntity
   8
LEVEL001
 370
15
  62
8
 100
AcDbMText
  10
 50.093774741853
  20
 88.274287878579
  30
0.0
  40
 2.5000000000000
  41
0.0
  71
8
  72
1
   1
\A1;37
   7
GMM002
   0
ENDBLK
   5
1B1
 100
AcDbEntity
   8
0
 100
AcDbBlockEnd
   0
BLOCK
   5
1B2
 100
AcDbEntity
   8
0
 100
AcDbBlockBegin
   2
*D25
  70
65
  10
0.0
  20
0.0
  30
0.0
   3
*D25
   0
LINE
   5
1B3
 100
AcDbEntity
   8
LEVEL001
 370
15
 100
AcDbLine
   6
CONTINUOUS
  62
8
  10
 69.593774741853
  20
 96.732446985972
  30
0.0
  11
 75.875216452346
  21
 96.732446985972
  31
0.0
   0
LINE
   5
1B4
 100
AcDbEntity
   8
LEVEL001
 370
15
 100
AcDbLine
   6
CONTINUOUS
  62
8
  10
 74.875216452346
  20
 92.490486004427
  30
0.0
  11
 74.875216452346
  21
 97.232446985972
  31
0.0
   0
LINE
   5
1B5
 100
AcDbEntity
   8
LEVEL001
 370
15
 100
AcDbLine
   6
CONTINUOUS
  62
8
  10
 74.875216452346
  20
 97.732446985972
  30
0.0
  11
 74.875216452346
  21
 97.232446985972
  31
0.0
   0
SOLID
   5
1B6
 100
AcDbEntity
   8
LEVEL001
 100
AcDbTrace
   6
CONTINUOUS
  62
8
  10
 74.875216452346
  20
 96.732446985972
  30
0.0
  11
 74.522562490929
  21
 94.732446985972
  31
0.0
  12
 75.227870413763
  22
 94.732446985972
  32
0.0
  13
 75.227870413763
  23
 94.732446985972
  33
0.0
   0
MTEXT
   5
1B7
 100
AcDbEntity
   8
LEVEL001
 370
15
  62
8
 100
AcDbMText
  10
 73.932780040029
  20
 94.990486004427
  30
0.0
  40
 2.5000000000000
  41
0.0
  71
9
  72
1
   1
\A1;1
   7
GMM002
  11
0.0
  21
 1.0000000000000
  31
0.0
   0
ENDBLK
   5
1B8
 100
AcDbEntity
   8
0
 100
AcDbBlockEnd
   0
BLOCK
   5
1B9
 100
AcDbEntity
   8
0
 100
AcDbBlockBegin
   2
*D26
  70
65
  10
0.0
  20
0.0
  30
0.0
   3
*D26
   0
LINE
   5
1BA
 100
AcDbEntity
   8
LEVEL001
 370
15
 100
AcDbLine
   6
CONTINUOUS
  62
8
  10
 69.593774741853
  20
 97.732446985972
  30
0.0
  11
 75.875216452346
  21
 97.732446985972
  31
0.0
   0
LINE
   5
1BB
 100
AcDbEntity
   8
LEVEL001
 370
15
 100
AcDbLine
   6
CONTINUOUS
  62
8
  10
 47.593774741853
  20
 100.73244698597
  30
0.0
  11
 75.875216452346
  21
 100.73244698597
  31
0.0
   0
LINE
   5
1BC
 100
AcDbEntity
   8
LEVEL001
 370
15
 100
AcDbLine
   6
CONTINUOUS
  62
8
  10
 74.875216452346
  20
 97.732446985972
  30
0.0
  11
 74.875216452346
  21
 99.232446985972
  31
0.0
   0
LINE
   5
1BD
 100
AcDbEntity
   8
LEVEL001
 370
15
 100
AcDbLine
   6
CONTINUOUS
  62
8
  10
 74.875216452346
  20
 104.88861184112
  30
0.0
  11
 74.875216452346
  21
 99.232446985972
  31
0.0
   0
INSERT
   5
1BE
 100
AcDbEntity
   8
LEVEL001
   6
CONTINUOUS
  62
8
 100
AcDbBlockReference
   2
_DOT
  10
 74.875216452346
  20
 97.732446985972
  30
0.0
  41
 0.40000000000000
  42
 0.40000000000000
  43
 0.40000000000000
  50
 270.00000000000
   0
SOLID
   5
1BF
 100
AcDbEntity
   8
LEVEL001
 100
AcDbTrace
   6
CONTINUOUS
  62
8
  10
 74.875216452346
  20
 100.73244698597
  30
0.0
  11
 75.227870413763
  21
 102.73244698597
  31
0.0
  12
 74.522562490929
  22
 102.73244698597
  32
0.0
  13
 74.522562490929
  23
 102.73244698597
  33
0.0
   0
MTEXT
   5
1C0
 100
AcDbEntity
   8
LEVEL001
 370
15
  62
8
 100
AcDbMText
  10
 73.838536398797
  20
 102.38861184112
  30
0.0
  40
 2.5000000000000
  41
0.0
  71
7
  72
1
   1
\A1;3
   7
GMM002
  11
0.0
  21
 1.0000000000000
  31
0.0
   0
ENDBLK
   5
1C1
 100
AcDbEntity
   8
0
 100
AcDbBlockEnd
   0
BLOCK
   5
1C2
 100
AcDbEntity
   8
0
 100
AcDbBlockBegin
   2
*D27
  70
65
  10
0.0
  20
0.0
  30
0.0
   3
*D27
   0
LINE
   5
1C3
 100
AcDbEntity
   8
LEVEL001
 370
15
 100
AcDbLine
   6
CONTINUOUS
  62
8
  10
 31.593774741853
  20
 98.732446985972
  30
0.0
  11
 31.593774741853
  21
 110.24483674073
  31
0.0
   0
LINE
   5
1C4
 100
AcDbEntity
   8
LEVEL001
 370
15
 100
AcDbLine
   6
CONTINUOUS
  62
8
  10
 46.593774741853
  20
 101.73244698597
  30
0.0
  11
 46.593774741853
  21
 110.24483674073
  31
0.0
   0
LINE
   5
1C5
 100
AcDbEntity
   8
LEVEL001
 370
15
 100
AcDbLine
   6
CONTINUOUS
  62
8
  10
 31.593774741853
  20
 109.24483674073
  30
0.0
  11
 39.093774741853
  21
 109.24483674073
  31
0.0
   0
LINE
   5
1C6
 100
AcDbEntity
   8
LEVEL001
 370
15
 100
AcDbLine
   6
CONTINUOUS
  62
8
  10
 46.593774741853
  20
 109.24483674073
  30
0.0
  11
 39.093774741853
  21
 109.24483674073
  31
0.0
   0
SOLID
   5
1C7
 100
AcDbEntity
   8
LEVEL001
 100
AcDbTrace
   6
CONTINUOUS
  62
8
  10
 31.593774741853
  20
 109.24483674073
  30
0.0
  11
 33.593774741853
  21
 108.89218277931
  31
0.0
  12
 33.593774741853
  22
 109.59749070214
  32
0.0
  13
 33.593774741853
  23
 109.59749070214
  33
0.0
   0
SOLID
   5
1C8
 100
AcDbEntity
   8
LEVEL001
 100
AcDbTrace
   6
CONTINUOUS
  62
8
  10
 46.593774741853
  20
 109.24483674073
  30
0.0
  11
 44.593774741853
  21
 109.59749070214
  31
0.0
  12
 44.593774741853
  22
 108.89218277931
  32
0.0
  13
 44.593774741853
  23
 108.89218277931
  33
0.0
   0
MTEXT
   5
1C9
 100
AcDbEntity
   8
LEVEL001
 370
15
  62
8
 100
AcDbMText
  10
 39.093774741853
  20
 110.24483674073
  30
0.0
  40
 2.5000000000000
  41
0.0
  71
8
  72
1
   1
\A1;15
   7
GMM002
   0
ENDBLK
   5
1CA
 100
AcDbEntity
   8
0
 100
AcDbBlockEnd
   0
BLOCK
   5
1CB
 100
AcDbEntity
   8
0
 100
AcDbBlockBegin
   2
*D28
  70
65
  10
0.0
  20
0.0
  30
0.0
   3
*D28
   0
LINE
   5
1CC
 100
AcDbEntity
   8
LEVEL001
 370
15
 100
AcDbLine
   6
CONTINUOUS
  62
8
  10
 47.624999999950
  20
 28.867901441145
  30
0.0
  11
 69.926201923027
  21
 28.867901441145
  31
0.0
   0
LINE
   5
1CD
 100
AcDbEntity
   8
LEVEL001
 370
15
 100
AcDbLine
   6
CONTINUOUS
  62
8
  10
 68.926201923027
  20
 24.800870431133
  30
0.0
  11
 68.926201923027
  21
 29.867901441145
  31
0.0
   0
LINE
   5
1CE
 100
AcDbEntity
   8
LEVEL001
 370
15
 100
AcDbLine
   6
CONTINUOUS
  62
8
  10
 68.926201923027
  20
 30.867901441145
  30
0.0
  11
 68.926201923027
  21
 29.867901441145
  31
0.0
   0
SOLID
   5
1CF
 100
AcDbEntity
   8
LEVEL001
 100
AcDbTrace
   6
CONTINUOUS
  62
8
  10
 68.926201923027
  20
 28.867901441145
  30
0.0
  11
 68.573547961610
  21
 26.867901441145
  31
0.0
  12
 69.278855884444
  22
 26.867901441145
  32
0.0
  13
 69.278855884444
  23
 26.867901441145
  33
0.0
   0
MTEXT
   5
1D0
 100
AcDbEntity
   8
LEVEL001
 370
15
  62
8
 100
AcDbMText
  10
 68.022531086087
  20
 27.300870431133
  30
0.0
  40
 2.5000000000000
  41
0.0
  71
9
  72
1
   1
\A1;2
   7
GMM002
  11
0.0
  21
 1.0000000000000
  31
0.0
   0
ENDBLK
   5
1D1
 100
AcDbEntity
   8
0
 100
AcDbBlockEnd
   0
BLOCK
   5
1D2
 100
AcDbEntity
   8
0
 100
AcDbBlockBegin
   2
*D29
  70
65
  10
0.0
  20
0.0
  30
0.0
   3
*D29
   0
LINE
   5
1D3
 100
AcDbEntity
   8
LEVEL001
 370
15
 100
AcDbLine
   6
CONTINUOUS
  62
8
  10
 62.624999999950
  20
 30.867901441145
  30
0.0
  11
 69.926201923027
  21
 30.867901441145
  31
0.0
   0
LINE
   5
1D4
 100
AcDbEntity
   8
LEVEL001
 370
15
 100
AcDbLine
   6
CONTINUOUS
  62
8
  10
 61.624999999950
  20
 32.367901441145
  30
0.0
  11
 69.926201923027
  21
 32.367901441145
  31
0.0
   0
LINE
   5
1D5
 100
AcDbEntity
   8
LEVEL001
 370
15
 100
AcDbLine
   6
CONTINUOUS
  62
8
  10
 68.926201923027
  20
 30.867901441145
  30
0.0
  11
 68.926201923027
  21
 31.617901441145
  31
0.0
   0
LINE
   5
1D6
 100
AcDbEntity
   8
LEVEL001
 370
15
 100
AcDbLine
   6
CONTINUOUS
  62
8
  10
 68.926201923027
  20
 38.643976187501
  30
0.0
  11
 68.926201923027
  21
 31.617901441145
  31
0.0
   0
INSERT
   5
1D7
 100
AcDbEntity
   8
LEVEL001
   6
CONTINUOUS
  62
8
 100
AcDbBlockReference
   2
_DOT
  10
 68.926201923027
  20
 30.867901441145
  30
0.0
  41
 0.40000000000000
  42
 0.40000000000000
  43
 0.40000000000000
  50
 270.00000000000
   0
SOLID
   5
1D8
 100
AcDbEntity
   8
LEVEL001
 100
AcDbTrace
   6
CONTINUOUS
  62
8
  10
 68.926201923027
  20
 32.367901441145
  30
0.0
  11
 69.278855884444
  21
 34.367901441145
  31
0.0
  12
 68.573547961610
  22
 34.367901441145
  32
0.0
  13
 68.573547961610
  23
 34.367901441145
  33
0.0
   0
MTEXT
   5
1D9
 100
AcDbEntity
   8
LEVEL001
 370
15
  62
8
 100
AcDbMText
  10
 67.834043803624
  20
 33.143976187501
  30
0.0
  40
 2.5000000000000
  41
0.0
  71
7
  72
1
   1
\A1;1.5
   7
GMM002
  11
0.0
  21
 1.0000000000000
  31
0.0
  44
 0.79999984000003
   0
ENDBLK
   5
1DA
 100
AcDbEntity
   8
0
 100
AcDbBlockEnd
   0
BLOCK
   5
1DB
 100
AcDbEntity
   8
0
 100
AcDbBlockBegin
   2
*D30
  70
65
  10
0.0
  20
0.0
  30
0.0
   3
*D30
   0
LINE
   5
1DC
 100
AcDbEntity
   8
LEVEL001
 370
15
 100
AcDbLine
   6
CONTINUOUS
  62
8
  10
 40.624999999950
  20
 28.867901441145
  30
0.0
  11
 36.071348578229
  21
 28.867901441145
  31
0.0
   0
LINE
   5
1DD
 100
AcDbEntity
   8
LEVEL001
 370
15
 100
AcDbLine
   6
CONTINUOUS
  62
8
  10
 44.624999999950
  20
 32.867901441145
  30
0.0
  11
 36.071348578229
  21
 32.867901441145
  31
0.0
   0
LINE
   5
1DE
 100
AcDbEntity
   8
LEVEL001
 370
15
 100
AcDbLine
   6
CONTINUOUS
  62
8
  10
 37.071348578229
  20
 26.367901441145
  30
0.0
  11
 37.071348578229
  21
 30.867901441145
  31
0.0
   0
LINE
   5
1DF
 100
AcDbEntity
   8
LEVEL001
 370
15
 100
AcDbLine
   6
CONTINUOUS
  62
8
  10
 37.071348578229
  20
 35.367901441145
  30
0.0
  11
 37.071348578229
  21
 30.867901441145
  31
0.0
   0
SOLID
   5
1E0
 100
AcDbEntity
   8
LEVEL001
 100
AcDbTrace
   6
CONTINUOUS
  62
8
  10
 37.071348578229
  20
 28.867901441145
  30
0.0
  11
 36.718694616812
  21
 26.867901441145
  31
0.0
  12
 37.424002539646
  22
 26.867901441145
  32
0.0
  13
 37.424002539646
  23
 26.867901441145
  33
0.0
   0
SOLID
   5
1E1
 100
AcDbEntity
   8
LEVEL001
 100
AcDbTrace
   6
CONTINUOUS
  62
8
  10
 37.071348578229
  20
 32.867901441145
  30
0.0
  11
 37.424002539646
  21
 34.867901441145
  31
0.0
  12
 36.718694616812
  22
 34.867901441145
  32
0.0
  13
 36.718694616812
  23
 34.867901441145
  33
0.0
   0
MTEXT
   5
1E2
 100
AcDbEntity
   8
LEVEL001
 370
15
  62
8
 100
AcDbMText
  10
 36.071348578229
  20
 30.867901441145
  30
0.0
  40
 2.5000000000000
  41
0.0
  71
8
  72
1
   1
\A1;4
   7
GMM002
  11
0.0
  21
 1.0000000000000
  31
0.0
   0
ENDBLK
   5
1E3
 100
AcDbEntity
   8
0
 100
AcDbBlockEnd
   0
BLOCK
   5
1E4
 100
AcDbEntity
   8
0
 100
AcDbBlockBegin
   2
*D31
  70
65
  10
0.0
  20
0.0
  30
0.0
   3
*D31
   0
LINE
   5
1E5
 100
AcDbEntity
   8
LEVEL001
 370
15
 100
AcDbLine
   6
CONTINUOUS
  62
8
  10
 41.624999999950
  20
 29.867901441145
  30
0.0
  11
 41.624999999950
  21
 40.057764674793
  31
0.0
   0
LINE
   5
1E6
 100
AcDbEntity
   8
LEVEL001
 370
15
 100
AcDbLine
   6
CONTINUOUS
  62
8
  10
 61.624999999950
  20
 31.867901441145
  30
0.0
  11
 61.624999999950
  21
 40.057764674793
  31
0.0
   0
LINE
   5
1E7
 100
AcDbEntity
   8
LEVEL001
 370
15
 100
AcDbLine
   6
CONTINUOUS
  62
8
  10
 41.624999999950
  20
 39.057764674793
  30
0.0
  11
 51.624999999950
  21
 39.057764674793
  31
0.0
   0
LINE
   5
1E8
 100
AcDbEntity
   8
LEVEL001
 370
15
 100
AcDbLine
   6
CONTINUOUS
  62
8
  10
 61.624999999950
  20
 39.057764674793
  30
0.0
  11
 51.624999999950
  21
 39.057764674793
  31
0.0
   0
SOLID
   5
1E9
 100
AcDbEntity
   8
LEVEL001
 100
AcDbTrace
   6
CONTINUOUS
  62
8
  10
 41.624999999950
  20
 39.057764674793
  30
0.0
  11
 43.624999999950
  21
 38.705110713376
  31
0.0
  12
 43.624999999950
  22
 39.410418636210
  32
0.0
  13
 43.624999999950
  23
 39.410418636210
  33
0.0
   0
SOLID
   5
1EA
 100
AcDbEntity
   8
LEVEL001
 100
AcDbTrace
   6
CONTINUOUS
  62
8
  10
 61.624999999950
  20
 39.057764674793
  30
0.0
  11
 59.624999999950
  21
 39.410418636210
  31
0.0
  12
 59.624999999950
  22
 38.705110713376
  32
0.0
  13
 59.624999999950
  23
 38.705110713376
  33
0.0
   0
MTEXT
   5
1EB
 100
AcDbEntity
   8
LEVEL001
 370
15
  62
8
 100
AcDbMText
  10
 51.624999999950
  20
 40.057764674793
  30
0.0
  40
 2.5000000000000
  41
0.0
  71
8
  72
1
   1
\A1;20
   7
GMM002
   0
ENDBLK
   5
1EC
 100
AcDbEntity
   8
0
 100
AcDbBlockEnd
   0
BLOCK
   5
1ED
 100
AcDbEntity
   8
0
 100
AcDbBlockBegin
   2
*D32
  70
65
  10
0.0
  20
0.0
  30
0.0
   3
*D32
   0
LINE
   5
1EE
 100
AcDbEntity
   8
LEVEL001
 370
15
 100
AcDbLine
   6
CONTINUOUS
  62
8
  10
 176.12505472634
  20
 96.732446985972
  30
0.0
  11
 171.85888638589
  21
 96.732446985972
  31
0.0
   0
LINE
   5
1EF
 100
AcDbEntity
   8
LEVEL001
 370
15
 100
AcDbLine
   6
CONTINUOUS
  62
8
  10
 176.12505472634
  20
 99.731046985972
  30
0.0
  11
 171.85888638589
  21
 99.731046985972
  31
0.0
   0
LINE
   5
1F0
 100
AcDbEntity
   8
LEVEL001
 370
15
 100
AcDbLine
   6
CONTINUOUS
  62
8
  10
 172.85888638589
  20
 94.232446985972
  30
0.0
  11
 172.85888638589
  21
 98.231746985972
  31
0.0
   0
LINE
   5
1F1
 100
AcDbEntity
   8
LEVEL001
 370
15
 100
AcDbLine
   6
CONTINUOUS
  62
8
  10
 172.85888638589
  20
 102.23104698597
  30
0.0
  11
 172.85888638589
  21
 98.231746985972
  31
0.0
   0
SOLID
   5
1F2
 100
AcDbEntity
   8
LEVEL001
 100
AcDbTrace
   6
CONTINUOUS
  62
8
  10
 172.85888638589
  20
 96.732446985972
  30
0.0
  11
 172.50623242447
  21
 94.732446985972
  31
0.0
  12
 173.21154034730
  22
 94.732446985972
  32
0.0
  13
 173.21154034730
  23
 94.732446985972
  33
0.0
   0
SOLID
   5
1F3
 100
AcDbEntity
   8
LEVEL001
 100
AcDbTrace
   6
CONTINUOUS
  62
8
  10
 172.85888638589
  20
 99.731046985972
  30
0.0
  11
 173.21154034730
  21
 101.73104698597
  31
0.0
  12
 172.50623242447
  22
 101.73104698597
  32
0.0
  13
 172.50623242447
  23
 101.73104698597
  33
0.0
   0
MTEXT
   5
1F4
 100
AcDbEntity
   8
LEVEL001
 370
15
  62
8
 100
AcDbMText
  10
 171.85888638589
  20
 98.231746985972
  30
0.0
  40
 2.5000000000000
  41
0.0
  71
8
  72
1
   1
\A1;3
   7
GMM002
  11
0.0
  21
 1.0000000000000
  31
0.0
   0
ENDBLK
   5
1F5
 100
AcDbEntity
   8
0
 100
AcDbBlockEnd
   0
BLOCK
   5
1F6
 100
AcDbEntity
   8
0
 100
AcDbBlockBegin
   2
*D33
  70
65
  10
0.0
  20
0.0
  30
0.0
   3
*D33
   0
LINE
   5
1F7
 100
AcDbEntity
   8
LEVEL001
 370
15
 100
AcDbLine
   6
CONTINUOUS
  62
8
  10
 177.12505472634
  20
 100.73104698597
  30
0.0
  11
 177.12505472634
  21
 111.73334698597
  31
0.0
   0
LINE
   5
1F8
 100
AcDbEntity
   8
LEVEL001
 370
15
 100
AcDbLine
   6
CONTINUOUS
  62
8
  10
 195.49935844130
  20
 105.86551815582
  30
0.0
  11
 195.49935844130
  21
 111.73334698597
  31
0.0
   0
LINE
   5
1F9
 100
AcDbEntity
   8
LEVEL001
 370
15
 100
AcDbLine
   6
CONTINUOUS
  62
8
  10
 177.12505472634
  20
 110.73334698597
  30
0.0
  11
 186.31220658382
  21
 110.73334698597
  31
0.0
   0
LINE
   5
1FA
 100
AcDbEntity
   8
LEVEL001
 370
15
 100
AcDbLine
   6
CONTINUOUS
  62
8
  10
 195.49935844130
  20
 110.73334698597
  30
0.0
  11
 186.31220658382
  21
 110.73334698597
  31
0.0
   0
SOLID
   5
1FB
 100
AcDbEntity
   8
LEVEL001
 100
AcDbTrace
   6
CONTINUOUS
  62
8
  10
 177.12505472634
  20
 110.73334698597
  30
0.0
  11
 179.12505472634
  21
 110.38069302456
  31
0.0
  12
 179.12505472634
  22
 111.08600094739
  32
0.0
  13
 179.12505472634
  23
 111.08600094739
  33
0.0
   0
SOLID
   5
1FC
 100
AcDbEntity
   8
LEVEL001
 100
AcDbTrace
   6
CONTINUOUS
  62
8
  10
 195.49935844130
  20
 110.73334698597
  30
0.0
  11
 193.49935844130
  21
 111.08600094739
  31
0.0
  12
 193.49935844130
  22
 110.38069302456
  32
0.0
  13
 193.49935844130
  23
 110.38069302456
  33
0.0
   0
MTEXT
   5
1FD
 100
AcDbEntity
   8
LEVEL001
 370
15
  62
8
 100
AcDbMText
  10
 186.31220658382
  20
 111.73334698597
  30
0.0
  40
 2.5000000000000
  41
0.0
  71
8
  72
1
   1
\A1;18
   7
GMM002
   0
ENDBLK
   5
1FE
 100
AcDbEntity
   8
0
 100
AcDbBlockEnd
   0
BLOCK
   5
1FF
 100
AcDbEntity
   8
0
 100
AcDbBlockBegin
   2
*D34
  70
65
  10
0.0
  20
0.0
  30
0.0
   3
*D34
   0
LINE
   5
200
 100
AcDbEntity
   8
LEVEL001
 370
15
 100
AcDbLine
   6
CONTINUOUS
  62
8
  10
 216.11485472634
  20
 96.732446985972
  30
0.0
  11
 220.74674619281
  21
 96.732446985972
  31
0.0
   0
LINE
   5
201
 100
AcDbEntity
   8
LEVEL001
 370
15
 100
AcDbLine
   6
CONTINUOUS
  62
8
  10
 219.74674619281
  20
 89.627882203732
  30
0.0
  11
 219.74674619281
  21
 97.299396985972
  31
0.0
   0
LINE
   5
202
 100
AcDbEntity
   8
LEVEL001
 370
15
 100
AcDbLine
   6
CONTINUOUS
  62
8
  10
 219.74674619281
  20
 97.866346985972
  30
0.0
  11
 219.74674619281
  21
 97.299396985972
  31
0.0
   0
SOLID
   5
203
 100
AcDbEntity
   8
LEVEL001
 100
AcDbTrace
   6
CONTINUOUS
  62
8
  10
 219.74674619281
  20
 96.732446985972
  30
0.0
  11
 219.39409223140
  21
 94.732446985972
  31
0.0
  12
 220.09940015423
  22
 94.732446985972
  32
0.0
  13
 220.09940015423
  23
 94.732446985972
  33
0.0
   0
MTEXT
   5
204
 100
AcDbEntity
   8
LEVEL001
 370
15
  62
8
 100
AcDbMText
  10
 218.83834220650
  20
 95.127882203732
  30
0.0
  40
 2.5000000000000
  41
0.0
  71
9
  72
1
   1
\A1;1.2
   7
GMM002
  11
0.0
  21
 1.0000000000000
  31
0.0
   0
ENDBLK
   5
205
 100
AcDbEntity
   8
0
 100
AcDbBlockEnd
   0
BLOCK
   5
206
 100
AcDbEntity
   8
0
 100
AcDbBlockBegin
   2
*D35
  70
65
  10
0.0
  20
0.0
  30
0.0
   3
*D35
   0
LINE
   5
207
 100
AcDbEntity
   8
LEVEL001
 370
15
 100
AcDbLine
   6
CONTINUOUS
  62
8
  10
 200.31885520496
  20
 97.866346985972
  30
0.0
  11
 220.74674619281
  21
 97.866346985972
  31
0.0
   0
LINE
   5
208
 100
AcDbEntity
   8
LEVEL001
 370
15
 100
AcDbLine
   6
CONTINUOUS
  62
8
  10
 196.49935844130
  20
 105.26678260246
  30
0.0
  11
 220.74674619281
  21
 105.26678260246
  31
0.0
   0
LINE
   5
209
 100
AcDbEntity
   8
LEVEL001
 370
15
 100
AcDbLine
   6
CONTINUOUS
  62
8
  10
 219.74674619281
  20
 97.866346985972
  30
0.0
  11
 219.74674619281
  21
 101.56656479422
  31
0.0
   0
LINE
   5
20A
 100
AcDbEntity
   8
LEVEL001
 370
15
 100
AcDbLine
   6
CONTINUOUS
  62
8
  10
 219.74674619281
  20
 105.26678260246
  30
0.0
  11
 219.74674619281
  21
 101.56656479422
  31
0.0
   0
SOLID
   5
20B
 100
AcDbEntity
   8
LEVEL001
 100
AcDbTrace
   6
CONTINUOUS
  62
8
  10
 219.74674619281
  20
 97.866346985972
  30
0.0
  11
 220.09940015423
  21
 99.866346985972
  31
0.0
  12
 219.39409223140
  22
 99.866346985972
  32
0.0
  13
 219.39409223140
  23
 99.866346985972
  33
0.0
   0
SOLID
   5
20C
 100
AcDbEntity
   8
LEVEL001
 100
AcDbTrace
   6
CONTINUOUS
  62
8
  10
 219.74674619281
  20
 105.26678260246
  30
0.0
  11
 219.39409223140
  21
 103.26678260246
  31
0.0
  12
 220.09940015423
  22
 103.26678260246
  32
0.0
  13
 220.09940015423
  23
 103.26678260246
  33
0.0
   0
MTEXT
   5
20D
 100
AcDbEntity
   8
LEVEL001
 370
15
  62
8
 100
AcDbMText
  10
 218.74674619281
  20
 101.56656479422
  30
0.0
  40
 2.5000000000000
  41
0.0
  71
8
  72
1
   1
\A1;7.3
   7
GMM002
  11
0.0
  21
 1.0000000000000
  31
0.0
   0
ENDBLK
   5
20E
 100
AcDbEntity
   8
0
 100
AcDbBlockEnd
   0
BLOCK
   5
20F
 100
AcDbEntity
   8
0
 100
AcDbBlockBegin
   2
*D36
  70
65
  10
0.0
  20
0.0
  30
0.0
   3
*D36
   0
LINE
   5
210
 100
AcDbEntity
   8
LEVEL001
 370
15
 100
AcDbLine
   6
CONTINUOUS
  62
8
  10
 177.12505472634
  20
 95.732446985972
  30
0.0
  11
 177.12505472634
  21
 86.274287878579
  31
0.0
   0
LINE
   5
211
 100
AcDbEntity
   8
LEVEL001
 370
15
 100
AcDbLine
   6
CONTINUOUS
  62
8
  10
 215.11485472634
  20
 95.732446985972
  30
0.0
  11
 215.11485472634
  21
 86.274287878579
  31
0.0
   0
LINE
   5
212
 100
AcDbEntity
   8
LEVEL001
 370
15
 100
AcDbLine
   6
CONTINUOUS
  62
8
  10
 177.12505472634
  20
 87.274287878579
  30
0.0
  11
 196.11995472634
  21
 87.274287878579
  31
0.0
   0
LINE
   5
213
 100
AcDbEntity
   8
LEVEL001
 370
15
 100
AcDbLine
   6
CONTINUOUS
  62
8
  10
 215.11485472634
  20
 87.274287878579
  30
0.0
  11
 196.11995472634
  21
 87.274287878579
  31
0.0
   0
SOLID
   5
214
 100
AcDbEntity
   8
LEVEL001
 100
AcDbTrace
   6
CONTINUOUS
  62
8
  10
 177.12505472634
  20
 87.274287878579
  30
0.0
  11
 179.12505472634
  21
 86.921633917162
  31
0.0
  12
 179.12505472634
  22
 87.626941839996
  32
0.0
  13
 179.12505472634
  23
 87.626941839996
  33
0.0
   0
SOLID
   5
215
 100
AcDbEntity
   8
LEVEL001
 100
AcDbTrace
   6
CONTINUOUS
  62
8
  10
 215.11485472634
  20
 87.274287878579
  30
0.0
  11
 213.11485472634
  21
 87.626941839996
  31
0.0
  12
 213.11485472634
  22
 86.921633917162
  32
0.0
  13
 213.11485472634
  23
 86.921633917162
  33
0.0
   0
MTEXT
   5
216
 100
AcDbEntity
   8
LEVEL001
 370
15
  62
8
 100
AcDbMText
  10
 196.11995472634
  20
 88.274287878579
  30
0.0
  40
 2.5000000000000
  41
0.0
  71
8
  72
1
   1
\A1;38
   7
GMM002
   0
ENDBLK
   5
217
 100
AcDbEntity
   8
0
 100
AcDbBlockEnd
   0
BLOCK
   5
218
 100
AcDbEntity
   8
0
 100
AcDbBlockBegin
   2
*D37
  70
65
  10
0.0
  20
0.0
  30
0.0
   3
*D37
   0
LINE
   5
219
 100
AcDbEntity
   8
LEVEL001
 370
15
 100
AcDbLine
   6
CONTINUOUS
  62
8
  10
 104.46590663257
  20
 97.732446985972
  30
0.0
  11
 104.46590663257
  21
 110.03614648793
  31
0.0
   0
LINE
   5
21A
 100
AcDbEntity
   8
LEVEL001
 370
15
 100
AcDbLine
   6
CONTINUOUS
  62
8
  10
 119.46590663257
  20
 102.43244698597
  30
0.0
  11
 119.46590663257
  21
 110.03614648793
  31
0.0
   0
LINE
   5
21B
 100
AcDbEntity
   8
LEVEL001
 370
15
 100
AcDbLine
   6
CONTINUOUS
  62
8
  10
 104.46590663257
  20
 109.03614648793
  30
0.0
  11
 111.96590663257
  21
 109.03614648793
  31
0.0
   0
LINE
   5
21C
 100
AcDbEntity
   8
LEVEL001
 370
15
 100
AcDbLine
   6
CONTINUOUS
  62
8
  10
 119.46590663257
  20
 109.03614648793
  30
0.0
  11
 111.96590663257
  21
 109.03614648793
  31
0.0
   0
SOLID
   5
21D
 100
AcDbEntity
   8
LEVEL001
 100
AcDbTrace
   6
CONTINUOUS
  62
8
  10
 104.46590663257
  20
 109.03614648793
  30
0.0
  11
 106.46590663257
  21
 108.68349252651
  31
0.0
  12
 106.46590663257
  22
 109.38880044935
  32
0.0
  13
 106.46590663257
  23
 109.38880044935
  33
0.0
   0
SOLID
   5
21E
 100
AcDbEntity
   8
LEVEL001
 100
AcDbTrace
   6
CONTINUOUS
  62
8
  10
 119.46590663257
  20
 109.03614648793
  30
0.0
  11
 117.46590663257
  21
 109.38880044935
  31
0.0
  12
 117.46590663257
  22
 108.68349252651
  32
0.0
  13
 117.46590663257
  23
 108.68349252651
  33
0.0
   0
MTEXT
   5
21F
 100
AcDbEntity
   8
LEVEL001
 370
15
  62
8
 100
AcDbMText
  10
 111.96590663257
  20
 110.03614648793
  30
0.0
  40
 2.5000000000000
  41
0.0
  71
8
  72
1
   1
\A1;15
   7
GMM002
   0
ENDBLK
   5
220
 100
AcDbEntity
   8
0
 100
AcDbBlockEnd
   0
BLOCK
   5
221
 100
AcDbEntity
   8
0
 100
AcDbBlockBegin
   2
*D38
  70
65
  10
0.0
  20
0.0
  30
0.0
   3
*D38
   0
LINE
   5
222
 100
AcDbEntity
   8
LEVEL001
 370
15
 100
AcDbLine
   6
CONTINUOUS
  62
8
  10
 143.46590663257
  20
 96.732446985972
  30
0.0
  11
 152.70989701719
  21
 96.732446985972
  31
0.0
   0
LINE
   5
223
 100
AcDbEntity
   8
LEVEL001
 370
15
 100
AcDbLine
   6
CONTINUOUS
  62
8
  10
 151.70989701719
  20
 89.608286544997
  30
0.0
  11
 151.70989701719
  21
 97.332446985973
  31
0.0
   0
LINE
   5
224
 100
AcDbEntity
   8
LEVEL001
 370
15
 100
AcDbLine
   6
CONTINUOUS
  62
8
  10
 151.70989701719
  20
 97.932446985973
  30
0.0
  11
 151.70989701719
  21
 97.332446985973
  31
0.0
   0
SOLID
   5
225
 100
AcDbEntity
   8
LEVEL001
 100
AcDbTrace
   6
CONTINUOUS
  62
8
  10
 151.70989701719
  20
 96.732446985972
  30
0.0
  11
 151.35724305577
  21
 94.732446985972
  31
0.0
  12
 152.06255097860
  22
 94.732446985972
  32
0.0
  13
 152.06255097860
  23
 94.732446985972
  33
0.0
   0
MTEXT
   5
226
 100
AcDbEntity
   8
LEVEL001
 370
15
  62
8
 100
AcDbMText
  10
 150.77556108573
  20
 95.108286544997
  30
0.0
  40
 2.5000000000000
  41
0.0
  71
9
  72
1
   1
\A1;1.2
   7
GMM002
  11
0.0
  21
 1.0000000000000
  31
0.0
   0
ENDBLK
   5
227
 100
AcDbEntity
   8
0
 100
AcDbBlockEnd
   0
BLOCK
   5
228
 100
AcDbEntity
   8
0
 100
AcDbBlockBegin
   2
*D39
  70
65
  10
0.0
  20
0.0
  30
0.0
   3
*D39
   0
LINE
   5
229
 100
AcDbEntity
   8
LEVEL001
 370
15
 100
AcDbLine
   6
CONTINUOUS
  62
8
  10
 117.96590663257
  20
 97.932446985973
  30
0.0
  11
 152.70989701719
  21
 97.932446985973
  31
0.0
   0
LINE
   5
22A
 100
AcDbEntity
   8
LEVEL001
 370
15
 100
AcDbLine
   6
CONTINUOUS
  62
8
  10
 120.26590663257
  20
 101.43244698597
  30
0.0
  11
 152.70989701719
  21
 101.43244698597
  31
0.0
   0
LINE
   5
22B
 100
AcDbEntity
   8
LEVEL001
 370
15
 100
AcDbLine
   6
CONTINUOUS
  62
8
  10
 151.70989701719
  20
 97.932446985973
  30
0.0
  11
 151.70989701719
  21
 99.682446985973
  31
0.0
   0
LINE
   5
22C
 100
AcDbEntity
   8
LEVEL001
 370
15
 100
AcDbLine
   6
CONTINUOUS
  62
8
  10
 151.70989701719
  20
 108.55232517911
  30
0.0
  11
 151.70989701719
  21
 99.682446985973
  31
0.0
   0
INSERT
   5
22D
 100
AcDbEntity
   8
LEVEL001
   6
CONTINUOUS
  62
8
 100
AcDbBlockReference
   2
_DOT
  10
 151.70989701719
  20
 97.932446985973
  30
0.0
  41
 0.40000000000000
  42
 0.40000000000000
  43
 0.40000000000000
  50
 270.00000000000
   0
SOLID
   5
22E
 100
AcDbEntity
   8
LEVEL001
 100
AcDbTrace
   6
CONTINUOUS
  62
8
  10
 151.70989701719
  20
 101.43244698597
  30
0.0
  11
 152.06255097860
  21
 103.43244698597
  31
0.0
  12
 151.35724305577
  22
 103.43244698597
  32
0.0
  13
 151.35724305577
  23
 103.43244698597
  33
0.0
   0
MTEXT
   5
22F
 100
AcDbEntity
   8
LEVEL001
 370
15
  62
8
 100
AcDbMText
  10
 150.87873041864
  20
 103.05232517911
  30
0.0
  40
 2.5000000000000
  41
0.0
  71
7
  72
1
   1
\A1;3.5
   7
GMM002
  11
0.0
  21
 1.0000000000000
  31
0.0
   0
ENDBLK
   5
230
 100
AcDbEntity
   8
0
 100
AcDbBlockEnd
   0
BLOCK
   5
231
 100
AcDbEntity
   8
0
 100
AcDbBlockBegin
   2
*D40
  70
65
  10
0.0
  20
0.0
  30
0.0
   3
*D40
   0
LINE
   5
232
 100
AcDbEntity
   8
LEVEL001
 370
15
 100
AcDbLine
   6
CONTINUOUS
  62
8
  10
 104.46590663257
  20
 95.732446985972
  30
0.0
  11
 104.46590663257
  21
 87.557206601356
  31
0.0
   0
LINE
   5
233
 100
AcDbEntity
   8
LEVEL001
 370
15
 100
AcDbLine
   6
CONTINUOUS
  62
8
  10
 142.46590663257
  20
 95.732446985972
  30
0.0
  11
 142.46590663257
  21
 87.557206601356
  31
0.0
   0
LINE
   5
234
 100
AcDbEntity
   8
LEVEL001
 370
15
 100
AcDbLine
   6
CONTINUOUS
  62
8
  10
 104.46590663257
  20
 88.557206601356
  30
0.0
  11
 123.46590663257
  21
 88.557206601356
  31
0.0
   0
LINE
   5
235
 100
AcDbEntity
   8
LEVEL001
 370
15
 100
AcDbLine
   6
CONTINUOUS
  62
8
  10
 142.46590663257
  20
 88.557206601356
  30
0.0
  11
 123.46590663257
  21
 88.557206601356
  31
0.0
   0
SOLID
   5
236
 100
AcDbEntity
   8
LEVEL001
 100
AcDbTrace
   6
CONTINUOUS
  62
8
  10
 104.46590663257
  20
 88.557206601356
  30
0.0
  11
 106.46590663257
  21
 88.204552639939
  31
0.0
  12
 106.46590663257
  22
 88.909860562773
  32
0.0
  13
 106.46590663257
  23
 88.909860562773
  33
0.0
   0
SOLID
   5
237
 100
AcDbEntity
   8
LEVEL001
 100
AcDbTrace
   6
CONTINUOUS
  62
8
  10
 142.46590663257
  20
 88.557206601356
  30
0.0
  11
 140.46590663257
  21
 88.909860562773
  31
0.0
  12
 140.46590663257
  22
 88.204552639939
  32
0.0
  13
 140.46590663257
  23
 88.204552639939
  33
0.0
   0
MTEXT
   5
238
 100
AcDbEntity
   8
LEVEL001
 370
15
  62
8
 100
AcDbMText
  10
 123.46590663257
  20
 89.557206601356
  30
0.0
  40
 2.5000000000000
  41
0.0
  71
8
  72
1
   1
\A1;38
   7
GMM002
   0
ENDBLK
   5
239
 100
AcDbEntity
   8
0
 100
AcDbBlockEnd
   0
BLOCK
   5
23A
 100
AcDbEntity
   8
0
 100
AcDbBlockBegin
   2
BLOCK001
  70
64
  10
0.0
  20
0.0
  30
0.0
   3
BLOCK001
   0
LINE
   5
23B
 100
AcDbEntity
   8
LEVEL001
 370
30
 100
AcDbLine
   6
CONTINUOUS
  62
7
  10
 141.86590663257
  20
 96.732446985973
  30
0.0
  11
 142.46590663257
  21
 96.732446985973
  31
0.0
   0
ARC
   5
23C
 100
AcDbEntity
   8
LEVEL001
 370
30
   6
CONTINUOUS
  62
7
 100
AcDbCircle
  10
 141.66590663257
  20
 96.732446985973
  30
0.0
  40
 0.80000000000000
 100
AcDbArc
  50
0.0
  51
 89.072457357335
   0
LWPOLYLINE
   5
23D
 100
AcDbEntity
   8
LEVEL001
 370
30
   6
CONTINUOUS
  62
7
 100
AcDbPolyline
  90
6
  70
0
  10
 141.67885700535
  20
 97.532342159008
  10
 132.16272020365
  20
 97.686409245737
  10
 131.96590663257
  20
 97.489595674659
  10
 131.76261532859
  20
 97.692886978644
  10
 116.96590663257
  20
 97.932446985973
  10
 116.96590663257
  20
 99.432446985973
   0
ARC
   5
23E
 100
AcDbEntity
   8
LEVEL001
 370
30
   6
CONTINUOUS
  62
7
 100
AcDbCircle
  10
 117.96590663257
  20
 99.432446985973
  30
0.0
  40
 1.0000000000000
 100
AcDbArc
  50
 90.000000000000
  51
 180.00000000000
   0
LINE
   5
23F
 100
AcDbEntity
   8
LEVEL001
 370
30
 100
AcDbLine
   6
CONTINUOUS
  62
7
  10
 117.96590663257
  20
 100.43244698597
  30
0.0
  11
 119.26590663257
  21
 100.43244698597
  31
0.0
   0
ARC
   5
240
 100
AcDbEntity
   8
LEVEL001
 370
30
   6
CONTINUOUS
  62
7
 100
AcDbCircle
  10
 119.26590663257
  20
 100.63244698597
  30
0.0
  40
 0.20000000000000
 100
AcDbArc
  50
 270.00000000000
  51
0.0
   0
LINE
   5
241
 100
AcDbEntity
   8
LEVEL001
 370
30
 100
AcDbLine
   6
CONTINUOUS
  62
7
  10
 119.46590663257
  20
 100.63244698597
  30
0.0
  11
 119.46590663257
  21
 101.23244698597
  31
0.0
   0
ARC
   5
242
 100
AcDbEntity
   8
LEVEL001
 370
30
   6
CONTINUOUS
  62
7
 100
AcDbCircle
  10
 119.26590663257
  20
 101.23244698597
  30
0.0
  40
 0.20000000000000
 100
AcDbArc
  50
0.0
  51
 90.000000000000
   0
LINE
   5
243
 100
AcDbEntity
   8
LEVEL001
 370
30
 100
AcDbLine
   6
CONTINUOUS
  62
7
  10
 119.26590663257
  20
 101.43244698597
  30
0.0
  11
 116.99689094609
  21
 101.43244698597
  31
0.0
   0
ARC
   5
244
 100
AcDbEntity
   8
LEVEL001
 370
30
   6
CONTINUOUS
  62
7
 100
AcDbCircle
  10
 116.99689094609
  20
 101.23244698597
  30
0.0
  40
 0.20000000000000
 100
AcDbArc
  50
 90.000000000000
  51
 107.61268904093
   0
LINE
   5
245
 100
AcDbEntity
   8
LEVEL001
 370
30
 100
AcDbLine
   6
CONTINUOUS
  62
7
  10
 116.93637474965
  20
 101.42307172195
  30
0.0
  11
 105.16332565035
  21
 97.685570665879
  31
0.0
   0
ARC
   5
246
 100
AcDbEntity
   8
LEVEL001
 370
30
   6
CONTINUOUS
  62
7
 100
AcDbCircle
  10
 105.46590663257
  20
 96.732446985973
  30
0.0
  40
 1.0000000000000
 100
AcDbArc
  50
 107.61268904093
  51
 180.00000000000
   0
ENDBLK
   5
247
 100
AcDbEntity
   8
0
 100
AcDbBlockEnd
   0
BLOCK
   5
248
 100
AcDbEntity
   8
0
 100
AcDbBlockBegin
   2
BLOCK002
  70
64
  10
0.0
  20
0.0
  30
0.0
   3
BLOCK002
   0
LINE
   5
249
 100
AcDbEntity
   8
LEVEL001
 370
30
 100
AcDbLine
   6
CONTINUOUS
  62
7
  10
 133.27590663257
  20
 96.852446985973
  30
0.0
  11
 133.30590663257
  21
 96.812446985973
  31
0.0
   0
ARC
   5
24A
 100
AcDbEntity
   8
LEVEL001
 370
30
   6
CONTINUOUS
  62
7
 100
AcDbCircle
  10
 133.46590663257
  20
 96.932446985973
  30
0.0
  40
 0.20000000000000
 100
AcDbArc
  50
 216.86989764586
  51
 323.13010235414
   0
LINE
   5
24B
 100
AcDbEntity
   8
LEVEL001
 370
30
 100
AcDbLine
   6
CONTINUOUS
  62
7
  10
 133.62590663257
  20
 96.812446985973
  30
0.0
  11
 133.65590663257
  21
 96.852446985973
  31
0.0
   0
ARC
   5
24C
 100
AcDbEntity
   8
LEVEL001
 370
30
   6
CONTINUOUS
  62
7
 100
AcDbCircle
  10
 133.81590663257
  20
 96.732446985973
  30
0.0
  40
 0.20000000000000
 100
AcDbArc
  50
 36.869897645838
  51
 143.13010235418
   0
LINE
   5
24D
 100
AcDbEntity
   8
LEVEL001
 370
30
 100
AcDbLine
   6
CONTINUOUS
  62
7
  10
 133.97590663257
  20
 96.852446985973
  30
0.0
  11
 134.00590663257
  21
 96.812446985973
  31
0.0
   0
ARC
   5
24E
 100
AcDbEntity
   8
LEVEL001
 370
30
   6
CONTINUOUS
  62
7
 100
AcDbCircle
  10
 134.16590663257
  20
 96.932446985973
  30
0.0
  40
 0.20000000000000
 100
AcDbArc
  50
 216.86989764584
  51
 323.13010235418
   0
LINE
   5
24F
 100
AcDbEntity
   8
LEVEL001
 370
30
 100
AcDbLine
   6
CONTINUOUS
  62
7
  10
 134.32590663257
  20
 96.812446985973
  30
0.0
  11
 134.35590663257
  21
 96.852446985973
  31
0.0
   0
ARC
   5
250
 100
AcDbEntity
   8
LEVEL001
 370
30
   6
CONTINUOUS
  62
7
 100
AcDbCircle
  10
 134.51590663257
  20
 96.732446985973
  30
0.0
  40
 0.20000000000000
 100
AcDbArc
  50
 36.869897645838
  51
 143.13010235418
   0
LINE
   5
251
 100
AcDbEntity
   8
LEVEL001
 370
30
 100
AcDbLine
   6
CONTINUOUS
  62
7
  10
 134.67590663257
  20
 96.852446985973
  30
0.0
  11
 134.70590663257
  21
 96.812446985973
  31
0.0
   0
ARC
   5
252
 100
AcDbEntity
   8
LEVEL001
 370
30
   6
CONTINUOUS
  62
7
 100
AcDbCircle
  10
 134.86590663257
  20
 96.932446985973
  30
0.0
  40
 0.20000000000000
 100
AcDbArc
  50
 216.86989764586
  51
 323.13010235414
   0
LINE
   5
253
 100
AcDbEntity
   8
LEVEL001
 370
30
 100
AcDbLine
   6
CONTINUOUS
  62
7
  10
 135.02590663257
  20
 96.812446985973
  30
0.0
  11
 135.05590663257
  21
 96.852446985973
  31
0.0
   0
ARC
   5
254
 100
AcDbEntity
   8
LEVEL001
 370
30
   6
CONTINUOUS
  62
7
 100
AcDbCircle
  10
 135.21590663257
  20
 96.732446985973
  30
0.0
  40
 0.20000000000000
 100
AcDbArc
  50
 36.869897645864
  51
 143.13010235414
   0
LINE
   5
255
 100
AcDbEntity
   8
LEVEL001
 370
30
 100
AcDbLine
   6
CONTINUOUS
  62
7
  10
 135.37590663257
  20
 96.852446985973
  30
0.0
  11
 135.40590663257
  21
 96.812446985973
  31
0.0
   0
ARC
   5
256
 100
AcDbEntity
   8
LEVEL001
 370
30
   6
CONTINUOUS
  62
7
 100
AcDbCircle
  10
 135.56590663257
  20
 96.932446985973
  30
0.0
  40
 0.20000000000000
 100
AcDbArc
  50
 216.86989764582
  51
 323.13010235416
   0
LINE
   5
257
 100
AcDbEntity
   8
LEVEL001
 370
30
 100
AcDbLine
   6
CONTINUOUS
  62
7
  10
 135.72590663257
  20
 96.812446985973
  30
0.0
  11
 135.75590663257
  21
 96.852446985973
  31
0.0
   0
ARC
   5
258
 100
AcDbEntity
   8
LEVEL001
 370
30
   6
CONTINUOUS
  62
7
 100
AcDbCircle
  10
 135.91590663257
  20
 96.732446985973
  30
0.0
  40
 0.20000000000000
 100
AcDbArc
  50
 36.869897645818
  51
 143.13010235416
   0
LINE
   5
259
 100
AcDbEntity
   8
LEVEL001
 370
30
 100
AcDbLine
   6
CONTINUOUS
  62
7
  10
 136.07590663257
  20
 96.852446985973
  30
0.0
  11
 136.10590663257
  21
 96.812446985973
  31
0.0
   0
ARC
   5
25A
 100
AcDbEntity
   8
LEVEL001
 370
30
   6
CONTINUOUS
  62
7
 100
AcDbCircle
  10
 136.26590663257
  20
 96.932446985973
  30
0.0
  40
 0.20000000000000
 100
AcDbArc
  50
 216.86989764582
  51
 323.13010235416
   0
LINE
   5
25B
 100
AcDbEntity
   8
LEVEL001
 370
30
 100
AcDbLine
   6
CONTINUOUS
  62
7
  10
 136.42590663257
  20
 96.812446985973
  30
0.0
  11
 136.45590663257
  21
 96.852446985973
  31
0.0
   0
ARC
   5
25C
 100
AcDbEntity
   8
LEVEL001
 370
30
   6
CONTINUOUS
  62
7
 100
AcDbCircle
  10
 136.61590663257
  20
 96.732446985973
  30
0.0
  40
 0.20000000000000
 100
AcDbArc
  50
 36.869897645864
  51
 143.13010235414
   0
LINE
   5
25D
 100
AcDbEntity
   8
LEVEL001
 370
30
 100
AcDbLine
   6
CONTINUOUS
  62
7
  10
 136.77590663257
  20
 96.852446985973
  30
0.0
  11
 136.80590663257
  21
 96.812446985973
  31
0.0
   0
ARC
   5
25E
 100
AcDbEntity
   8
LEVEL001
 370
30
   6
CONTINUOUS
  62
7
 100
AcDbCircle
  10
 136.96590663257
  20
 96.932446985973
  30
0.0
  40
 0.20000000000000
 100
AcDbArc
  50
 216.86989764586
  51
 323.13010235414
   0
LINE
   5
25F
 100
AcDbEntity
   8
LEVEL001
 370
30
 100
AcDbLine
   6
CONTINUOUS
  62
7
  10
 137.12590663257
  20
 96.812446985973
  30
0.0
  11
 137.15590663257
  21
 96.852446985973
  31
0.0
   0
ARC
   5
260
 100
AcDbEntity
   8
LEVEL001
 370
30
   6
CONTINUOUS
  62
7
 100
AcDbCircle
  10
 137.31590663257
  20
 96.732446985973
  30
0.0
  40
 0.20000000000000
 100
AcDbArc
  50
 36.869897645838
  51
 143.13010235418
   0
LINE
   5
261
 100
AcDbEntity
   8
LEVEL001
 370
30
 100
AcDbLine
   6
CONTINUOUS
  62
7
  10
 137.47590663257
  20
 96.852446985973
  30
0.0
  11
 137.50590663257
  21
 96.812446985973
  31
0.0
   0
ARC
   5
262
 100
AcDbEntity
   8
LEVEL001
 370
30
   6
CONTINUOUS
  62
7
 100
AcDbCircle
  10
 137.66590663257
  20
 96.932446985973
  30
0.0
  40
 0.20000000000000
 100
AcDbArc
  50
 216.86989764584
  51
 323.13010235418
   0
LINE
   5
263
 100
AcDbEntity
   8
LEVEL001
 370
30
 100
AcDbLine
   6
CONTINUOUS
  62
7
  10
 137.82590663257
  20
 96.812446985973
  30
0.0
  11
 137.85590663257
  21
 96.852446985973
  31
0.0
   0
ARC
   5
264
 100
AcDbEntity
   8
LEVEL001
 370
30
   6
CONTINUOUS
  62
7
 100
AcDbCircle
  10
 138.01590663257
  20
 96.732446985973
  30
0.0
  40
 0.20000000000000
 100
AcDbArc
  50
 36.869897645838
  51
 143.13010235418
   0
LINE
   5
265
 100
AcDbEntity
   8
LEVEL001
 370
30
 100
AcDbLine
   6
CONTINUOUS
  62
7
  10
 138.17590663257
  20
 96.852446985973
  30
0.0
  11
 138.20590663257
  21
 96.812446985973
  31
0.0
   0
ARC
   5
266
 100
AcDbEntity
   8
LEVEL001
 370
30
   6
CONTINUOUS
  62
7
 100
AcDbCircle
  10
 138.36590663257
  20
 96.932446985973
  30
0.0
  40
 0.20000000000000
 100
AcDbArc
  50
 216.86989764586
  51
 323.13010235414
   0
LINE
   5
267
 100
AcDbEntity
   8
LEVEL001
 370
30
 100
AcDbLine
   6
CONTINUOUS
  62
7
  10
 138.52590663257
  20
 96.812446985973
  30
0.0
  11
 138.55590663257
  21
 96.852446985973
  31
0.0
   0
ARC
   5
268
 100
AcDbEntity
   8
LEVEL001
 370
30
   6
CONTINUOUS
  62
7
 100
AcDbCircle
  10
 138.71590663257
  20
 96.732446985973
  30
0.0
  40
 0.20000000000000
 100
AcDbArc
  50
 36.869897645864
  51
 143.13010235414
   0
LINE
   5
269
 100
AcDbEntity
   8
LEVEL001
 370
30
 100
AcDbLine
   6
CONTINUOUS
  62
7
  10
 138.87590663257
  20
 96.852446985973
  30
0.0
  11
 138.90590663257
  21
 96.812446985973
  31
0.0
   0
ARC
   5
26A
 100
AcDbEntity
   8
LEVEL001
 370
30
   6
CONTINUOUS
  62
7
 100
AcDbCircle
  10
 139.06590663257
  20
 96.932446985973
  30
0.0
  40
 0.20000000000000
 100
AcDbArc
  50
 216.86989764582
  51
 323.13010235416
   0
LINE
   5
26B
 100
AcDbEntity
   8
LEVEL001
 370
30
 100
AcDbLine
   6
CONTINUOUS
  62
7
  10
 139.22590663257
  20
 96.812446985973
  30
0.0
  11
 139.25590663257
  21
 96.852446985973
  31
0.0
   0
ARC
   5
26C
 100
AcDbEntity
   8
LEVEL001
 370
30
   6
CONTINUOUS
  62
7
 100
AcDbCircle
  10
 139.41590663257
  20
 96.732446985973
  30
0.0
  40
 0.20000000000000
 100
AcDbArc
  50
 36.869897645818
  51
 143.13010235416
   0
LINE
   5
26D
 100
AcDbEntity
   8
LEVEL001
 370
30
 100
AcDbLine
   6
CONTINUOUS
  62
7
  10
 139.57590663257
  20
 96.852446985973
  30
0.0
  11
 139.60590663257
  21
 96.812446985973
  31
0.0
   0
ARC
   5
26E
 100
AcDbEntity
   8
LEVEL001
 370
30
   6
CONTINUOUS
  62
7
 100
AcDbCircle
  10
 139.76590663257
  20
 96.932446985973
  30
0.0
  40
 0.20000000000000
 100
AcDbArc
  50
 216.86989764582
  51
 323.13010235416
   0
LINE
   5
26F
 100
AcDbEntity
   8
LEVEL001
 370
30
 100
AcDbLine
   6
CONTINUOUS
  62
7
  10
 139.92590663257
  20
 96.812446985973
  30
0.0
  11
 139.95590663257
  21
 96.852446985973
  31
0.0
   0
ARC
   5
270
 100
AcDbEntity
   8
LEVEL001
 370
30
   6
CONTINUOUS
  62
7
 100
AcDbCircle
  10
 140.11590663257
  20
 96.732446985973
  30
0.0
  40
 0.20000000000000
 100
AcDbArc
  50
 36.869897645818
  51
 143.13010235416
   0
LINE
   5
271
 100
AcDbEntity
   8
LEVEL001
 370
30
 100
AcDbLine
   6
CONTINUOUS
  62
7
  10
 140.27590663257
  20
 96.852446985973
  30
0.0
  11
 140.30590663257
  21
 96.812446985973
  31
0.0
   0
ARC
   5
272
 100
AcDbEntity
   8
LEVEL001
 370
30
   6
CONTINUOUS
  62
7
 100
AcDbCircle
  10
 140.46590663257
  20
 96.932446985973
  30
0.0
  40
 0.20000000000000
 100
AcDbArc
  50
 216.86989764586
  51
 323.13010235414
   0
LINE
   5
273
 100
AcDbEntity
   8
LEVEL001
 370
30
 100
AcDbLine
   6
CONTINUOUS
  62
7
  10
 140.62590663257
  20
 96.812446985973
  30
0.0
  11
 140.65590663257
  21
 96.852446985973
  31
0.0
   0
ARC
   5
274
 100
AcDbEntity
   8
LEVEL001
 370
30
   6
CONTINUOUS
  62
7
 100
AcDbCircle
  10
 140.81590663257
  20
 96.732446985973
  30
0.0
  40
 0.20000000000000
 100
AcDbArc
  50
 36.869897645838
  51
 143.13010235418
   0
LINE
   5
275
 100
AcDbEntity
   8
LEVEL001
 370
30
 100
AcDbLine
   6
CONTINUOUS
  62
7
  10
 140.97590663257
  20
 96.852446985973
  30
0.0
  11
 141.00590663257
  21
 96.812446985973
  31
0.0
   0
ARC
   5
276
 100
AcDbEntity
   8
LEVEL001
 370
30
   6
CONTINUOUS
  62
7
 100
AcDbCircle
  10
 141.16590663257
  20
 96.932446985973
  30
0.0
  40
 0.20000000000000
 100
AcDbArc
  50
 216.86989764584
  51
 323.13010235418
   0
LINE
   5
277
 100
AcDbEntity
   8
LEVEL001
 370
30
 100
AcDbLine
   6
CONTINUOUS
  62
7
  10
 141.32590663257
  20
 96.812446985973
  30
0.0
  11
 141.35590663257
  21
 96.852446985973
  31
0.0
   0
ARC
   5
278
 100
AcDbEntity
   8
LEVEL001
 370
30
   6
CONTINUOUS
  62
7
 100
AcDbCircle
  10
 141.51590663257
  20
 96.732446985973
  30
0.0
  40
 0.20000000000000
 100
AcDbArc
  50
 36.869897645838
  51
 143.13010235418
   0
LINE
   5
279
 100
AcDbEntity
   8
LEVEL001
 370
30
 100
AcDbLine
   6
CONTINUOUS
  62
7
  10
 141.67590663257
  20
 96.852446985973
  30
0.0
  11
 141.70590663257
  21
 96.812446985973
  31
0.0
   0
ARC
   5
27A
 100
AcDbEntity
   8
LEVEL001
 370
30
   6
CONTINUOUS
  62
7
 100
AcDbCircle
  10
 141.86590663257
  20
 96.932446985973
  30
0.0
  40
 0.20000000000000
 100
AcDbArc
  50
 216.86989764585
  51
 270.00000000000
   0
ENDBLK
   5
27B
 100
AcDbEntity
   8
0
 100
AcDbBlockEnd
   0
BLOCK
   5
27C
 100
AcDbEntity
   8
0
 100
AcDbBlockBegin
   2
BLOCK003
  70
64
  10
0.0
  20
0.0
  30
0.0
   3
BLOCK003
   0
ARC
   5
27D
 100
AcDbEntity
   8
LEVEL001
 370
30
   6
CONTINUOUS
  62
7
 100
AcDbCircle
  10
 133.11590663257
  20
 96.732446985973
  30
0.0
  40
 0.20000000000000
 100
AcDbArc
  50
 36.869897645864
  51
 143.13010235414
   0
LINE
   5
27E
 100
AcDbEntity
   8
LEVEL001
 370
30
 100
AcDbLine
   6
CONTINUOUS
  62
7
  10
 132.95590663257
  20
 96.852446985973
  30
0.0
  11
 132.92590663257
  21
 96.812446985973
  31
0.0
   0
ARC
   5
27F
 100
AcDbEntity
   8
LEVEL001
 370
30
   6
CONTINUOUS
  62
7
 100
AcDbCircle
  10
 132.76590663257
  20
 96.932446985973
  30
0.0
  40
 0.20000000000000
 100
AcDbArc
  50
 216.86989764582
  51
 323.13010235416
   0
LINE
   5
280
 100
AcDbEntity
   8
LEVEL001
 370
30
 100
AcDbLine
   6
CONTINUOUS
  62
7
  10
 132.60590663257
  20
 96.812446985973
  30
0.0
  11
 132.57590663257
  21
 96.852446985973
  31
0.0
   0
ARC
   5
281
 100
AcDbEntity
   8
LEVEL001
 370
30
   6
CONTINUOUS
  62
7
 100
AcDbCircle
  10
 132.41590663257
  20
 96.732446985973
  30
0.0
  40
 0.20000000000000
 100
AcDbArc
  50
 36.869897645818
  51
 143.13010235416
   0
LINE
   5
282
 100
AcDbEntity
   8
LEVEL001
 370
30
 100
AcDbLine
   6
CONTINUOUS
  62
7
  10
 132.25590663257
  20
 96.852446985973
  30
0.0
  11
 132.22590663257
  21
 96.812446985973
  31
0.0
   0
ARC
   5
283
 100
AcDbEntity
   8
LEVEL001
 370
30
   6
CONTINUOUS
  62
7
 100
AcDbCircle
  10
 132.06590663257
  20
 96.932446985973
  30
0.0
  40
 0.20000000000000
 100
AcDbArc
  50
 216.86989764582
  51
 323.13010235416
   0
LINE
   5
284
 100
AcDbEntity
   8
LEVEL001
 370
30
 100
AcDbLine
   6
CONTINUOUS
  62
7
  10
 131.90590663257
  20
 96.812446985973
  30
0.0
  11
 131.87590663257
  21
 96.852446985973
  31
0.0
   0
ARC
   5
285
 100
AcDbEntity
   8
LEVEL001
 370
30
   6
CONTINUOUS
  62
7
 100
AcDbCircle
  10
 131.71590663257
  20
 96.732446985973
  30
0.0
  40
 0.20000000000000
 100
AcDbArc
  50
 36.869897645818
  51
 143.13010235416
   0
LINE
   5
286
 100
AcDbEntity
   8
LEVEL001
 370
30
 100
AcDbLine
   6
CONTINUOUS
  62
7
  10
 131.55590663257
  20
 96.852446985973
  30
0.0
  11
 131.52590663257
  21
 96.812446985973
  31
0.0
   0
ARC
   5
287
 100
AcDbEntity
   8
LEVEL001
 370
30
   6
CONTINUOUS
  62
7
 100
AcDbCircle
  10
 131.36590663257
  20
 96.932446985973
  30
0.0
  40
 0.20000000000000
 100
AcDbArc
  50
 216.86989764586
  51
 323.13010235414
   0
LINE
   5
288
 100
AcDbEntity
   8
LEVEL001
 370
30
 100
AcDbLine
   6
CONTINUOUS
  62
7
  10
 131.20590663257
  20
 96.812446985973
  30
0.0
  11
 131.17590663257
  21
 96.852446985973
  31
0.0
   0
ARC
   5
289
 100
AcDbEntity
   8
LEVEL001
 370
30
   6
CONTINUOUS
  62
7
 100
AcDbCircle
  10
 131.01590663257
  20
 96.732446985973
  30
0.0
  40
 0.20000000000000
 100
AcDbArc
  50
 36.869897645838
  51
 143.13010235418
   0
LINE
   5
28A
 100
AcDbEntity
   8
LEVEL001
 370
30
 100
AcDbLine
   6
CONTINUOUS
  62
7
  10
 130.85590663257
  20
 96.852446985973
  30
0.0
  11
 130.82590663257
  21
 96.812446985973
  31
0.0
   0
ARC
   5
28B
 100
AcDbEntity
   8
LEVEL001
 370
30
   6
CONTINUOUS
  62
7
 100
AcDbCircle
  10
 130.66590663257
  20
 96.932446985973
  30
0.0
  40
 0.20000000000000
 100
AcDbArc
  50
 216.86989764584
  51
 323.13010235418
   0
LINE
   5
28C
 100
AcDbEntity
   8
LEVEL001
 370
30
 100
AcDbLine
   6
CONTINUOUS
  62
7
  10
 130.50590663257
  20
 96.812446985973
  30
0.0
  11
 130.47590663257
  21
 96.852446985973
  31
0.0
   0
ARC
   5
28D
 100
AcDbEntity
   8
LEVEL001
 370
30
   6
CONTINUOUS
  62
7
 100
AcDbCircle
  10
 130.31590663257
  20
 96.732446985973
  30
0.0
  40
 0.20000000000000
 100
AcDbArc
  50
 36.869897645838
  51
 143.13010235418
   0
LINE
   5
28E
 100
AcDbEntity
   8
LEVEL001
 370
30
 100
AcDbLine
   6
CONTINUOUS
  62
7
  10
 130.15590663257
  20
 96.852446985973
  30
0.0
  11
 130.12590663257
  21
 96.812446985973
  31
0.0
   0
ARC
   5
28F
 100
AcDbEntity
   8
LEVEL001
 370
30
   6
CONTINUOUS
  62
7
 100
AcDbCircle
  10
 129.96590663257
  20
 96.932446985973
  30
0.0
  40
 0.20000000000000
 100
AcDbArc
  50
 216.86989764584
  51
 323.13010235418
   0
LINE
   5
290
 100
AcDbEntity
   8
LEVEL001
 370
30
 100
AcDbLine
   6
CONTINUOUS
  62
7
  10
 129.80590663257
  20
 96.812446985973
  30
0.0
  11
 129.77590663257
  21
 96.852446985973
  31
0.0
   0
ARC
   5
291
 100
AcDbEntity
   8
LEVEL001
 370
30
   6
CONTINUOUS
  62
7
 100
AcDbCircle
  10
 129.61590663257
  20
 96.732446985973
  30
0.0
  40
 0.20000000000000
 100
AcDbArc
  50
 36.869897645864
  51
 143.13010235414
   0
LINE
   5
292
 100
AcDbEntity
   8
LEVEL001
 370
30
 100
AcDbLine
   6
CONTINUOUS
  62
7
  10
 129.45590663257
  20
 96.852446985973
  30
0.0
  11
 129.42590663257
  21
 96.812446985973
  31
0.0
   0
ARC
   5
293
 100
AcDbEntity
   8
LEVEL001
 370
30
   6
CONTINUOUS
  62
7
 100
AcDbCircle
  10
 129.26590663257
  20
 96.932446985973
  30
0.0
  40
 0.20000000000000
 100
AcDbArc
  50
 216.86989764582
  51
 323.13010235416
   0
LINE
   5
294
 100
AcDbEntity
   8
LEVEL001
 370
30
 100
AcDbLine
   6
CONTINUOUS
  62
7
  10
 129.10590663257
  20
 96.812446985973
  30
0.0
  11
 129.07590663257
  21
 96.852446985973
  31
0.0
   0
ARC
   5
295
 100
AcDbEntity
   8
LEVEL001
 370
30
   6
CONTINUOUS
  62
7
 100
AcDbCircle
  10
 128.91590663257
  20
 96.732446985973
  30
0.0
  40
 0.20000000000000
 100
AcDbArc
  50
 36.869897645818
  51
 143.13010235416
   0
LINE
   5
296
 100
AcDbEntity
   8
LEVEL001
 370
30
 100
AcDbLine
   6
CONTINUOUS
  62
7
  10
 128.75590663257
  20
 96.852446985973
  30
0.0
  11
 128.72590663257
  21
 96.812446985973
  31
0.0
   0
ARC
   5
297
 100
AcDbEntity
   8
LEVEL001
 370
30
   6
CONTINUOUS
  62
7
 100
AcDbCircle
  10
 128.56590663257
  20
 96.932446985973
  30
0.0
  40
 0.20000000000000
 100
AcDbArc
  50
 216.86989764582
  51
 323.13010235416
   0
LINE
   5
298
 100
AcDbEntity
   8
LEVEL001
 370
30
 100
AcDbLine
   6
CONTINUOUS
  62
7
  10
 128.40590663257
  20
 96.812446985973
  30
0.0
  11
 128.37590663257
  21
 96.852446985973
  31
0.0
   0
ARC
   5
299
 100
AcDbEntity
   8
LEVEL001
 370
30
   6
CONTINUOUS
  62
7
 100
AcDbCircle
  10
 128.21590663257
  20
 96.732446985973
  30
0.0
  40
 0.20000000000000
 100
AcDbArc
  50
 36.869897645818
  51
 143.13010235416
   0
LINE
   5
29A
 100
AcDbEntity
   8
LEVEL001
 370
30
 100
AcDbLine
   6
CONTINUOUS
  62
7
  10
 128.05590663257
  20
 96.852446985973
  30
0.0
  11
 128.02590663257
  21
 96.812446985973
  31
0.0
   0
ARC
   5
29B
 100
AcDbEntity
   8
LEVEL001
 370
30
   6
CONTINUOUS
  62
7
 100
AcDbCircle
  10
 127.86590663257
  20
 96.932446985973
  30
0.0
  40
 0.20000000000000
 100
AcDbArc
  50
 216.86989764586
  51
 323.13010235414
   0
LINE
   5
29C
 100
AcDbEntity
   8
LEVEL001
 370
30
 100
AcDbLine
   6
CONTINUOUS
  62
7
  10
 127.70590663257
  20
 96.812446985973
  30
0.0
  11
 127.67590663257
  21
 96.852446985973
  31
0.0
   0
ARC
   5
29D
 100
AcDbEntity
   8
LEVEL001
 370
30
   6
CONTINUOUS
  62
7
 100
AcDbCircle
  10
 127.51590663257
  20
 96.732446985973
  30
0.0
  40
 0.20000000000000
 100
AcDbArc
  50
 36.869897645838
  51
 143.13010235418
   0
LINE
   5
29E
 100
AcDbEntity
   8
LEVEL001
 370
30
 100
AcDbLine
   6
CONTINUOUS
  62
7
  10
 127.35590663257
  20
 96.852446985973
  30
0.0
  11
 127.32590663257
  21
 96.812446985973
  31
0.0
   0
ARC
   5
29F
 100
AcDbEntity
   8
LEVEL001
 370
30
   6
CONTINUOUS
  62
7
 100
AcDbCircle
  10
 127.16590663257
  20
 96.932446985973
  30
0.0
  40
 0.20000000000000
 100
AcDbArc
  50
 216.86989764584
  51
 323.13010235418
   0
LINE
   5
2A0
 100
AcDbEntity
   8
LEVEL001
 370
30
 100
AcDbLine
   6
CONTINUOUS
  62
7
  10
 127.00590663257
  20
 96.812446985973
  30
0.0
  11
 126.97590663257
  21
 96.852446985973
  31
0.0
   0
ARC
   5
2A1
 100
AcDbEntity
   8
LEVEL001
 370
30
   6
CONTINUOUS
  62
7
 100
AcDbCircle
  10
 126.81590663257
  20
 96.732446985973
  30
0.0
  40
 0.20000000000000
 100
AcDbArc
  50
 36.869897645838
  51
 143.13010235418
   0
LINE
   5
2A2
 100
AcDbEntity
   8
LEVEL001
 370
30
 100
AcDbLine
   6
CONTINUOUS
  62
7
  10
 126.65590663257
  20
 96.852446985973
  30
0.0
  11
 126.62590663257
  21
 96.812446985973
  31
0.0
   0
ARC
   5
2A3
 100
AcDbEntity
   8
LEVEL001
 370
30
   6
CONTINUOUS
  62
7
 100
AcDbCircle
  10
 126.46590663257
  20
 96.932446985973
  30
0.0
  40
 0.20000000000000
 100
AcDbArc
  50
 216.86989764584
  51
 323.13010235418
   0
LINE
   5
2A4
 100
AcDbEntity
   8
LEVEL001
 370
30
 100
AcDbLine
   6
CONTINUOUS
  62
7
  10
 126.30590663257
  20
 96.812446985973
  30
0.0
  11
 126.27590663257
  21
 96.852446985973
  31
0.0
   0
ARC
   5
2A5
 100
AcDbEntity
   8
LEVEL001
 370
30
   6
CONTINUOUS
  62
7
 100
AcDbCircle
  10
 126.11590663257
  20
 96.732446985973
  30
0.0
  40
 0.20000000000000
 100
AcDbArc
  50
 36.869897645864
  51
 143.13010235414
   0
LINE
   5
2A6
 100
AcDbEntity
   8
LEVEL001
 370
30
 100
AcDbLine
   6
CONTINUOUS
  62
7
  10
 125.95590663257
  20
 96.852446985973
  30
0.0
  11
 125.92590663257
  21
 96.812446985973
  31
0.0
   0
ARC
   5
2A7
 100
AcDbEntity
   8
LEVEL001
 370
30
   6
CONTINUOUS
  62
7
 100
AcDbCircle
  10
 125.76590663257
  20
 96.932446985973
  30
0.0
  40
 0.20000000000000
 100
AcDbArc
  50
 216.86989764582
  51
 323.13010235416
   0
LINE
   5
2A8
 100
AcDbEntity
   8
LEVEL001
 370
30
 100
AcDbLine
   6
CONTINUOUS
  62
7
  10
 125.60590663257
  20
 96.812446985973
  30
0.0
  11
 125.57590663257
  21
 96.852446985973
  31
0.0
   0
ARC
   5
2A9
 100
AcDbEntity
   8
LEVEL001
 370
30
   6
CONTINUOUS
  62
7
 100
AcDbCircle
  10
 125.41590663257
  20
 96.732446985973
  30
0.0
  40
 0.20000000000000
 100
AcDbArc
  50
 36.869897645818
  51
 143.13010235416
   0
LINE
   5
2AA
 100
AcDbEntity
   8
LEVEL001
 370
30
 100
AcDbLine
   6
CONTINUOUS
  62
7
  10
 125.25590663257
  20
 96.852446985973
  30
0.0
  11
 125.22590663257
  21
 96.812446985973
  31
0.0
   0
ARC
   5
2AB
 100
AcDbEntity
   8
LEVEL001
 370
30
   6
CONTINUOUS
  62
7
 100
AcDbCircle
  10
 125.06590663257
  20
 96.932446985973
  30
0.0
  40
 0.20000000000000
 100
AcDbArc
  50
 216.86989764582
  51
 323.13010235416
   0
LINE
   5
2AC
 100
AcDbEntity
   8
LEVEL001
 370
30
 100
AcDbLine
   6
CONTINUOUS
  62
7
  10
 124.90590663257
  20
 96.812446985973
  30
0.0
  11
 124.87590663257
  21
 96.852446985973
  31
0.0
   0
ARC
   5
2AD
 100
AcDbEntity
   8
LEVEL001
 370
30
   6
CONTINUOUS
  62
7
 100
AcDbCircle
  10
 124.71590663257
  20
 96.732446985973
  30
0.0
  40
 0.20000000000000
 100
AcDbArc
  50
 36.869897645818
  51
 143.13010235416
   0
LINE
   5
2AE
 100
AcDbEntity
   8
LEVEL001
 370
30
 100
AcDbLine
   6
CONTINUOUS
  62
7
  10
 124.55590663257
  20
 96.852446985973
  30
0.0
  11
 124.52590663257
  21
 96.812446985973
  31
0.0
   0
ENDBLK
   5
2AF
 100
AcDbEntity
   8
0
 100
AcDbBlockEnd
   0
BLOCK
   5
2B0
 100
AcDbEntity
   8
0
 100
AcDbBlockBegin
   2
BLOCK004
  70
64
  10
0.0
  20
0.0
  30
0.0
   3
BLOCK004
   0
LWPOLYLINE
   5
2B1
 100
AcDbEntity
   8
LEVEL001
 370
30
   6
CONTINUOUS
  62
7
 100
AcDbPolyline
  90
3
  70
0
  10
 106.12688670651
  20
 96.732446985973
  10
 115.76590663257
  20
 99.792473904178
  10
 115.76590663257
  20
 96.932446985973
   0
ARC
   5
2B2
 100
AcDbEntity
   8
LEVEL001
 370
30
   6
CONTINUOUS
  62
7
 100
AcDbCircle
  10
 115.96590663257
  20
 96.932446985973
  30
0.0
  40
 0.20000000000000
 100
AcDbArc
  50
 180.00000000000
  51
 323.13010235415
   0
LINE
   5
2B3
 100
AcDbEntity
   8
LEVEL001
 370
30
 100
AcDbLine
   6
CONTINUOUS
  62
7
  10
 116.12590663257
  20
 96.812446985973
  30
0.0
  11
 116.15590663257
  21
 96.852446985973
  31
0.0
   0
ARC
   5
2B4
 100
AcDbEntity
   8
LEVEL001
 370
30
   6
CONTINUOUS
  62
7
 100
AcDbCircle
  10
 116.31590663257
  20
 96.732446985973
  30
0.0
  40
 0.20000000000000
 100
AcDbArc
  50
 36.869897645838
  51
 143.13010235418
   0
LINE
   5
2B5
 100
AcDbEntity
   8
LEVEL001
 370
30
 100
AcDbLine
   6
CONTINUOUS
  62
7
  10
 116.47590663257
  20
 96.852446985973
  30
0.0
  11
 116.50590663257
  21
 96.812446985973
  31
0.0
   0
ARC
   5
2B6
 100
AcDbEntity
   8
LEVEL001
 370
30
   6
CONTINUOUS
  62
7
 100
AcDbCircle
  10
 116.66590663257
  20
 96.932446985973
  30
0.0
  40
 0.20000000000000
 100
AcDbArc
  50
 216.86989764584
  51
 323.13010235418
   0
LINE
   5
2B7
 100
AcDbEntity
   8
LEVEL001
 370
30
 100
AcDbLine
   6
CONTINUOUS
  62
7
  10
 116.82590663257
  20
 96.812446985973
  30
0.0
  11
 116.85590663257
  21
 96.852446985973
  31
0.0
   0
ARC
   5
2B8
 100
AcDbEntity
   8
LEVEL001
 370
30
   6
CONTINUOUS
  62
7
 100
AcDbCircle
  10
 117.01590663257
  20
 96.732446985973
  30
0.0
  40
 0.20000000000000
 100
AcDbArc
  50
 36.869897645864
  51
 143.13010235414
   0
LINE
   5
2B9
 100
AcDbEntity
   8
LEVEL001
 370
30
 100
AcDbLine
   6
CONTINUOUS
  62
7
  10
 117.17590663257
  20
 96.852446985973
  30
0.0
  11
 117.20590663257
  21
 96.812446985973
  31
0.0
   0
ARC
   5
2BA
 100
AcDbEntity
   8
LEVEL001
 370
30
   6
CONTINUOUS
  62
7
 100
AcDbCircle
  10
 117.36590663257
  20
 96.932446985973
  30
0.0
  40
 0.20000000000000
 100
AcDbArc
  50
 216.86989764586
  51
 323.13010235414
   0
LINE
   5
2BB
 100
AcDbEntity
   8
LEVEL001
 370
30
 100
AcDbLine
   6
CONTINUOUS
  62
7
  10
 117.52590663257
  20
 96.812446985973
  30
0.0
  11
 117.55590663257
  21
 96.852446985973
  31
0.0
   0
ARC
   5
2BC
 100
AcDbEntity
   8
LEVEL001
 370
30
   6
CONTINUOUS
  62
7
 100
AcDbCircle
  10
 117.71590663257
  20
 96.732446985973
  30
0.0
  40
 0.20000000000000
 100
AcDbArc
  50
 36.869897645818
  51
 143.13010235416
   0
LINE
   5
2BD
 100
AcDbEntity
   8
LEVEL001
 370
30
 100
AcDbLine
   6
CONTINUOUS
  62
7
  10
 117.87590663257
  20
 96.852446985973
  30
0.0
  11
 117.90590663257
  21
 96.812446985973
  31
0.0
   0
ARC
   5
2BE
 100
AcDbEntity
   8
LEVEL001
 370
30
   6
CONTINUOUS
  62
7
 100
AcDbCircle
  10
 118.06590663257
  20
 96.932446985973
  30
0.0
  40
 0.20000000000000
 100
AcDbArc
  50
 216.86989764582
  51
 323.13010235416
   0
LINE
   5
2BF
 100
AcDbEntity
   8
LEVEL001
 370
30
 100
AcDbLine
   6
CONTINUOUS
  62
7
  10
 118.22590663257
  20
 96.812446985973
  30
0.0
  11
 118.25590663257
  21
 96.852446985973
  31
0.0
   0
ARC
   5
2C0
 100
AcDbEntity
   8
LEVEL001
 370
30
   6
CONTINUOUS
  62
7
 100
AcDbCircle
  10
 118.41590663257
  20
 96.732446985973
  30
0.0
  40
 0.20000000000000
 100
AcDbArc
  50
 36.869897645818
  51
 143.13010235416
   0
LINE
   5
2C1
 100
AcDbEntity
   8
LEVEL001
 370
30
 100
AcDbLine
   6
CONTINUOUS
  62
7
  10
 118.57590663257
  20
 96.852446985973
  30
0.0
  11
 118.60590663257
  21
 96.812446985973
  31
0.0
   0
ARC
   5
2C2
 100
AcDbEntity
   8
LEVEL001
 370
30
   6
CONTINUOUS
  62
7
 100
AcDbCircle
  10
 118.76590663257
  20
 96.932446985973
  30
0.0
  40
 0.20000000000000
 100
AcDbArc
  50
 216.86989764586
  51
 323.13010235414
   0
LINE
   5
2C3
 100
AcDbEntity
   8
LEVEL001
 370
30
 100
AcDbLine
   6
CONTINUOUS
  62
7
  10
 118.92590663257
  20
 96.812446985973
  30
0.0
  11
 118.95590663257
  21
 96.852446985973
  31
0.0
   0
ARC
   5
2C4
 100
AcDbEntity
   8
LEVEL001
 370
30
   6
CONTINUOUS
  62
7
 100
AcDbCircle
  10
 119.11590663257
  20
 96.732446985973
  30
0.0
  40
 0.20000000000000
 100
AcDbArc
  50
 36.869897645864
  51
 143.13010235414
   0
LINE
   5
2C5
 100
AcDbEntity
   8
LEVEL001
 370
30
 100
AcDbLine
   6
CONTINUOUS
  62
7
  10
 119.27590663257
  20
 96.852446985973
  30
0.0
  11
 119.30590663257
  21
 96.812446985973
  31
0.0
   0
ARC
   5
2C6
 100
AcDbEntity
   8
LEVEL001
 370
30
   6
CONTINUOUS
  62
7
 100
AcDbCircle
  10
 119.46590663257
  20
 96.932446985973
  30
0.0
  40
 0.20000000000000
 100
AcDbArc
  50
 216.86989764584
  51
 323.13010235418
   0
LINE
   5
2C7
 100
AcDbEntity
   8
LEVEL001
 370
30
 100
AcDbLine
   6
CONTINUOUS
  62
7
  10
 119.62590663257
  20
 96.812446985973
  30
0.0
  11
 119.65590663257
  21
 96.852446985973
  31
0.0
   0
ARC
   5
2C8
 100
AcDbEntity
   8
LEVEL001
 370
30
   6
CONTINUOUS
  62
7
 100
AcDbCircle
  10
 119.81590663257
  20
 96.732446985973
  30
0.0
  40
 0.20000000000000
 100
AcDbArc
  50
 36.869897645838
  51
 143.13010235418
   0
LINE
   5
2C9
 100
AcDbEntity
   8
LEVEL001
 370
30
 100
AcDbLine
   6
CONTINUOUS
  62
7
  10
 119.97590663257
  20
 96.852446985973
  30
0.0
  11
 120.00590663257
  21
 96.812446985973
  31
0.0
   0
ARC
   5
2CA
 100
AcDbEntity
   8
LEVEL001
 370
30
   6
CONTINUOUS
  62
7
 100
AcDbCircle
  10
 120.16590663257
  20
 96.932446985973
  30
0.0
  40
 0.20000000000000
 100
AcDbArc
  50
 216.86989764584
  51
 323.13010235418
   0
LINE
   5
2CB
 100
AcDbEntity
   8
LEVEL001
 370
30
 100
AcDbLine
   6
CONTINUOUS
  62
7
  10
 120.32590663257
  20
 96.812446985973
  30
0.0
  11
 120.35590663257
  21
 96.852446985973
  31
0.0
   0
ARC
   5
2CC
 100
AcDbEntity
   8
LEVEL001
 370
30
   6
CONTINUOUS
  62
7
 100
AcDbCircle
  10
 120.51590663257
  20
 96.732446985973
  30
0.0
  40
 0.20000000000000
 100
AcDbArc
  50
 36.869897645864
  51
 143.13010235414
   0
LINE
   5
2CD
 100
AcDbEntity
   8
LEVEL001
 370
30
 100
AcDbLine
   6
CONTINUOUS
  62
7
  10
 120.67590663257
  20
 96.852446985973
  30
0.0
  11
 120.70590663257
  21
 96.812446985973
  31
0.0
   0
ARC
   5
2CE
 100
AcDbEntity
   8
LEVEL001
 370
30
   6
CONTINUOUS
  62
7
 100
AcDbCircle
  10
 120.86590663257
  20
 96.932446985973
  30
0.0
  40
 0.20000000000000
 100
AcDbArc
  50
 216.86989764586
  51
 323.13010235414
   0
LINE
   5
2CF
 100
AcDbEntity
   8
LEVEL001
 370
30
 100
AcDbLine
   6
CONTINUOUS
  62
7
  10
 121.02590663257
  20
 96.812446985973
  30
0.0
  11
 121.05590663257
  21
 96.852446985973
  31
0.0
   0
ARC
   5
2D0
 100
AcDbEntity
   8
LEVEL001
 370
30
   6
CONTINUOUS
  62
7
 100
AcDbCircle
  10
 121.21590663257
  20
 96.732446985973
  30
0.0
  40
 0.20000000000000
 100
AcDbArc
  50
 36.869897645818
  51
 143.13010235416
   0
LINE
   5
2D1
 100
AcDbEntity
   8
LEVEL001
 370
30
 100
AcDbLine
   6
CONTINUOUS
  62
7
  10
 121.37590663257
  20
 96.852446985973
  30
0.0
  11
 121.40590663257
  21
 96.812446985973
  31
0.0
   0
ARC
   5
2D2
 100
AcDbEntity
   8
LEVEL001
 370
30
   6
CONTINUOUS
  62
7
 100
AcDbCircle
  10
 121.56590663257
  20
 96.932446985973
  30
0.0
  40
 0.20000000000000
 100
AcDbArc
  50
 216.86989764582
  51
 323.13010235416
   0
LINE
   5
2D3
 100
AcDbEntity
   8
LEVEL001
 370
30
 100
AcDbLine
   6
CONTINUOUS
  62
7
  10
 121.72590663257
  20
 96.812446985973
  30
0.0
  11
 121.75590663257
  21
 96.852446985973
  31
0.0
   0
ARC
   5
2D4
 100
AcDbEntity
   8
LEVEL001
 370
30
   6
CONTINUOUS
  62
7
 100
AcDbCircle
  10
 121.91590663257
  20
 96.732446985973
  30
0.0
  40
 0.20000000000000
 100
AcDbArc
  50
 36.869897645818
  51
 143.13010235416
   0
LINE
   5
2D5
 100
AcDbEntity
   8
LEVEL001
 370
30
 100
AcDbLine
   6
CONTINUOUS
  62
7
  10
 122.07590663257
  20
 96.852446985973
  30
0.0
  11
 122.10590663257
  21
 96.812446985973
  31
0.0
   0
ARC
   5
2D6
 100
AcDbEntity
   8
LEVEL001
 370
30
   6
CONTINUOUS
  62
7
 100
AcDbCircle
  10
 122.26590663257
  20
 96.932446985973
  30
0.0
  40
 0.20000000000000
 100
AcDbArc
  50
 216.86989764586
  51
 323.13010235414
   0
LINE
   5
2D7
 100
AcDbEntity
   8
LEVEL001
 370
30
 100
AcDbLine
   6
CONTINUOUS
  62
7
  10
 122.42590663257
  20
 96.812446985973
  30
0.0
  11
 122.45590663257
  21
 96.852446985973
  31
0.0
   0
ARC
   5
2D8
 100
AcDbEntity
   8
LEVEL001
 370
30
   6
CONTINUOUS
  62
7
 100
AcDbCircle
  10
 122.61590663257
  20
 96.732446985973
  30
0.0
  40
 0.20000000000000
 100
AcDbArc
  50
 36.869897645864
  51
 143.13010235414
   0
LINE
   5
2D9
 100
AcDbEntity
   8
LEVEL001
 370
30
 100
AcDbLine
   6
CONTINUOUS
  62
7
  10
 122.77590663257
  20
 96.852446985973
  30
0.0
  11
 122.80590663257
  21
 96.812446985973
  31
0.0
   0
ARC
   5
2DA
 100
AcDbEntity
   8
LEVEL001
 370
30
   6
CONTINUOUS
  62
7
 100
AcDbCircle
  10
 122.96590663257
  20
 96.932446985973
  30
0.0
  40
 0.20000000000000
 100
AcDbArc
  50
 216.86989764584
  51
 323.13010235418
   0
LINE
   5
2DB
 100
AcDbEntity
   8
LEVEL001
 370
30
 100
AcDbLine
   6
CONTINUOUS
  62
7
  10
 123.12590663257
  20
 96.812446985973
  30
0.0
  11
 123.15590663257
  21
 96.852446985973
  31
0.0
   0
ARC
   5
2DC
 100
AcDbEntity
   8
LEVEL001
 370
30
   6
CONTINUOUS
  62
7
 100
AcDbCircle
  10
 123.31590663257
  20
 96.732446985973
  30
0.0
  40
 0.20000000000000
 100
AcDbArc
  50
 36.869897645838
  51
 143.13010235418
   0
LINE
   5
2DD
 100
AcDbEntity
   8
LEVEL001
 370
30
 100
AcDbLine
   6
CONTINUOUS
  62
7
  10
 123.47590663257
  20
 96.852446985973
  30
0.0
  11
 123.50590663257
  21
 96.812446985973
  31
0.0
   0
ARC
   5
2DE
 100
AcDbEntity
   8
LEVEL001
 370
30
   6
CONTINUOUS
  62
7
 100
AcDbCircle
  10
 123.66590663257
  20
 96.932446985973
  30
0.0
  40
 0.20000000000000
 100
AcDbArc
  50
 216.86989764584
  51
 323.13010235418
   0
LINE
   5
2DF
 100
AcDbEntity
   8
LEVEL001
 370
30
 100
AcDbLine
   6
CONTINUOUS
  62
7
  10
 123.82590663257
  20
 96.812446985973
  30
0.0
  11
 123.85590663257
  21
 96.852446985973
  31
0.0
   0
ARC
   5
2E0
 100
AcDbEntity
   8
LEVEL001
 370
30
   6
CONTINUOUS
  62
7
 100
AcDbCircle
  10
 124.01590663257
  20
 96.732446985973
  30
0.0
  40
 0.20000000000000
 100
AcDbArc
  50
 36.869897645864
  51
 143.13010235414
   0
LINE
   5
2E1
 100
AcDbEntity
   8
LEVEL001
 370
30
 100
AcDbLine
   6
CONTINUOUS
  62
7
  10
 124.17590663257
  20
 96.852446985973
  30
0.0
  11
 124.20590663257
  21
 96.812446985973
  31
0.0
   0
ARC
   5
2E2
 100
AcDbEntity
   8
LEVEL001
 370
30
   6
CONTINUOUS
  62
7
 100
AcDbCircle
  10
 124.36590663257
  20
 96.932446985973
  30
0.0
  40
 0.20000000000000
 100
AcDbArc
  50
 216.86989764586
  51
 323.13010235414
   0
ENDBLK
   5
2E3
 100
AcDbEntity
   8
0
 100
AcDbBlockEnd
   0
ENDSEC
   0
SECTION
   2
ENTITIES
   0
LINE
   5
2E4
 100
AcDbEntity
   8
LEVEL002
 370
30
 100
AcDbLine
   6
CONTINUOUS
  62
7
  10
 344.15000000000
  20
 272.07500000000
  30
0.0
  11
 336.95000000000
  21
 272.07500000000
  31
0.0
   0
LINE
   5
2E5
 100
AcDbEntity
   8
LEVEL002
 370
30
 100
AcDbLine
   6
CONTINUOUS
  62
7
  10
 336.95000000000
  20
 272.07500000000
  30
0.0
  11
 336.95000000000
  21
 261.27500000000
  31
0.0
   0
LINE
   5
2E6
 100
AcDbEntity
   8
LEVEL002
 370
30
 100
AcDbLine
   6
CONTINUOUS
  62
7
  10
 336.95000000000
  20
 261.27500000000
  30
0.0
  11
 340.55000000000
  21
 261.27500000000
  31
0.0
   0
LINE
   5
2E7
 100
AcDbEntity
   8
LEVEL002
 370
30
 100
AcDbLine
   6
CONTINUOUS
  62
7
  10
 340.55000000000
  20
 261.27500000000
  30
0.0
  11
 340.55000000000
  21
 263.07500000000
  31
0.0
   0
LINE
   5
2E8
 100
AcDbEntity
   8
LEVEL002
 370
30
 100
AcDbLine
   6
CONTINUOUS
  62
7
  10
 340.55000000000
  20
 263.07500000000
  30
0.0
  11
 344.15000000000
  21
 263.07500000000
  31
0.0
   0
ARC
   5
2E9
 100
AcDbEntity
   8
LEVEL002
 370
30
   6
CONTINUOUS
  62
7
 100
AcDbCircle
  10
 344.15000000000
  20
 267.57500000000
  30
0.0
  40
 4.5000000000000
 100
AcDbArc
  50
 270.00000000000
  51
 90.000000000000
   0
LINE
   5
2EA
 100
AcDbEntity
   8
LEVEL002
 370
30
 100
AcDbLine
   6
CONTINUOUS
  62
7
  10
 340.55000000000
  20
 266.67500000000
  30
0.0
  11
 344.15000000000
  21
 266.67500000000
  31
0.0
   0
ARC
   5
2EB
 100
AcDbEntity
   8
LEVEL002
 370
30
   6
CONTINUOUS
  62
7
 100
AcDbCircle
  10
 344.15000000000
  20
 267.57500000000
  30
0.0
  40
 0.90000000000000
 100
AcDbArc
  50
 270.00000000000
  51
 90.000000000000
   0
LINE
   5
2EC
 100
AcDbEntity
   8
LEVEL002
 370
30
 100
AcDbLine
   6
CONTINUOUS
  62
7
  10
 344.15000000000
  20
 268.47500000000
  30
0.0
  11
 340.55000000000
  21
 268.47500000000
  31
0.0
   0
LINE
   5
2ED
 100
AcDbEntity
   8
LEVEL002
 370
30
 100
AcDbLine
   6
CONTINUOUS
  62
7
  10
 340.55000000000
  20
 268.47500000000
  30
0.0
  11
 340.55000000000
  21
 266.67500000000
  31
0.0
   0
LINE
   5
2EE
 100
AcDbEntity
   8
LEVEL002
 370
30
 100
AcDbLine
   6
CONTINUOUS
  62
7
  10
 345.95000000000
  20
 261.27500000000
  30
0.0
  11
 353.15000000000
  21
 272.07500000000
  31
0.0
   0
LINE
   5
2EF
 100
AcDbEntity
   8
LEVEL002
 370
30
 100
AcDbLine
   6
CONTINUOUS
  62
7
  10
 353.15000000000
  20
 272.07500000000
  30
0.0
  11
 362.15000000000
  21
 272.07500000000
  31
0.0
   0
LINE
   5
2F0
 100
AcDbEntity
   8
LEVEL002
 370
30
 100
AcDbLine
   6
CONTINUOUS
  62
7
  10
 362.15000000000
  20
 272.07500000000
  30
0.0
  11
 362.15000000000
  21
 264.87500000000
  31
0.0
   0
LINE
   5
2F1
 100
AcDbEntity
   8
LEVEL002
 370
30
 100
AcDbLine
   6
CONTINUOUS
  62
7
  10
 362.15000000000
  20
 264.87500000000
  30
0.0
  11
 367.55000000000
  21
 264.87500000000
  31
0.0
   0
LINE
   5
2F2
 100
AcDbEntity
   8
LEVEL002
 370
30
 100
AcDbLine
   6
CONTINUOUS
  62
7
  10
 367.55000000000
  20
 264.87500000000
  30
0.0
  11
 367.55000000000
  21
 268.47500000000
  31
0.0
   0
LINE
   5
2F3
 100
AcDbEntity
   8
LEVEL002
 370
30
 100
AcDbLine
   6
CONTINUOUS
  62
7
  10
 367.55000000000
  20
 268.47500000000
  30
0.0
  11
 363.95000000000
  21
 268.47500000000
  31
0.0
   0
LINE
   5
2F4
 100
AcDbEntity
   8
LEVEL002
 370
30
 100
AcDbLine
   6
CONTINUOUS
  62
7
  10
 363.95000000000
  20
 268.47500000000
  30
0.0
  11
 363.95000000000
  21
 272.07500000000
  31
0.0
   0
LINE
   5
2F5
 100
AcDbEntity
   8
LEVEL002
 370
30
 100
AcDbLine
   6
CONTINUOUS
  62
7
  10
 363.95000000000
  20
 272.07500000000
  30
0.0
  11
 385.55000000000
  21
 272.07500000000
  31
0.0
   0
LINE
   5
2F6
 100
AcDbEntity
   8
LEVEL002
 370
30
 100
AcDbLine
   6
CONTINUOUS
  62
7
  10
 385.55000000000
  20
 272.07500000000
  30
0.0
  11
 385.55000000000
  21
 268.47500000000
  31
0.0
   0
LINE
   5
2F7
 100
AcDbEntity
   8
LEVEL002
 370
30
 100
AcDbLine
   6
CONTINUOUS
  62
7
  10
 385.55000000000
  20
 268.47500000000
  30
0.0
  11
 378.35000000000
  21
 268.47500000000
  31
0.0
   0
LINE
   5
2F8
 100
AcDbEntity
   8
LEVEL002
 370
30
 100
AcDbLine
   6
CONTINUOUS
  62
7
  10
 378.35000000000
  20
 268.47500000000
  30
0.0
  11
 378.35000000000
  21
 267.57500000000
  31
0.0
   0
LINE
   5
2F9
 100
AcDbEntity
   8
LEVEL002
 370
30
 100
AcDbLine
   6
CONTINUOUS
  62
7
  10
 378.35000000000
  20
 267.57500000000
  30
0.0
  11
 384.65000000000
  21
 267.57500000000
  31
0.0
   0
LINE
   5
2FA
 100
AcDbEntity
   8
LEVEL002
 370
30
 100
AcDbLine
   6
CONTINUOUS
  62
7
  10
 384.65000000000
  20
 267.57500000000
  30
0.0
  11
 384.65000000000
  21
 265.77500000000
  31
0.0
   0
LINE
   5
2FB
 100
AcDbEntity
   8
LEVEL002
 370
30
 100
AcDbLine
   6
CONTINUOUS
  62
7
  10
 384.65000000000
  20
 265.77500000000
  30
0.0
  11
 378.35000000000
  21
 265.77500000000
  31
0.0
   0
LINE
   5
2FC
 100
AcDbEntity
   8
LEVEL002
 370
30
 100
AcDbLine
   6
CONTINUOUS
  62
7
  10
 378.35000000000
  20
 265.77500000000
  30
0.0
  11
 378.35000000000
  21
 264.87500000000
  31
0.0
   0
LINE
   5
2FD
 100
AcDbEntity
   8
LEVEL002
 370
30
 100
AcDbLine
   6
CONTINUOUS
  62
7
  10
 378.35000000000
  20
 264.87500000000
  30
0.0
  11
 385.55000000000
  21
 264.87500000000
  31
0.0
   0
LINE
   5
2FE
 100
AcDbEntity
   8
LEVEL002
 370
30
 100
AcDbLine
   6
CONTINUOUS
  62
7
  10
 385.55000000000
  20
 264.87500000000
  30
0.0
  11
 385.55000000000
  21
 261.27500000000
  31
0.0
   0
LINE
   5
2FF
 100
AcDbEntity
   8
LEVEL002
 370
30
 100
AcDbLine
   6
CONTINUOUS
  62
7
  10
 385.55000000000
  20
 261.27500000000
  30
0.0
  11
 374.75000000000
  21
 261.27500000000
  31
0.0
   0
LINE
   5
300
 100
AcDbEntity
   8
LEVEL002
 370
30
 100
AcDbLine
   6
CONTINUOUS
  62
7
  10
 374.75000000000
  20
 261.27500000000
  30
0.0
  11
 374.75000000000
  21
 268.47500000000
  31
0.0
   0
LINE
   5
301
 100
AcDbEntity
   8
LEVEL002
 370
30
 100
AcDbLine
   6
CONTINUOUS
  62
7
  10
 374.75000000000
  20
 268.47500000000
  30
0.0
  11
 371.15000000000
  21
 268.47500000000
  31
0.0
   0
LINE
   5
302
 100
AcDbEntity
   8
LEVEL002
 370
30
 100
AcDbLine
   6
CONTINUOUS
  62
7
  10
 371.15000000000
  20
 268.47500000000
  30
0.0
  11
 371.15000000000
  21
 261.27500000000
  31
0.0
   0
LINE
   5
303
 100
AcDbEntity
   8
LEVEL002
 370
30
 100
AcDbLine
   6
CONTINUOUS
  62
7
  10
 371.15000000000
  20
 261.27500000000
  30
0.0
  11
 358.55000000000
  21
 261.27500000000
  31
0.0
   0
LINE
   5
304
 100
AcDbEntity
   8
LEVEL002
 370
30
 100
AcDbLine
   6
CONTINUOUS
  62
7
  10
 358.55000000000
  20
 261.27500000000
  30
0.0
  11
 358.55000000000
  21
 272.07500000000
  31
0.0
   0
LINE
   5
305
 100
AcDbEntity
   8
LEVEL002
 370
30
 100
AcDbLine
   6
CONTINUOUS
  62
7
  10
 358.55000000000
  20
 272.07500000000
  30
0.0
  11
 351.35000000000
  21
 261.27500000000
  31
0.0
   0
LINE
   5
306
 100
AcDbEntity
   8
LEVEL002
 370
30
 100
AcDbLine
   6
CONTINUOUS
  62
7
  10
 351.35000000000
  20
 261.27500000000
  30
0.0
  11
 345.95000000000
  21
 261.27500000000
  31
0.0
   0
LINE
   5
307
 100
AcDbEntity
   8
LEVEL002
 370
30
 100
AcDbLine
   6
CONTINUOUS
  62
7
  10
 357.35000000000
  20
 268.11166923470
  30
0.0
  11
 352.79222051020
  21
 261.27500000000
  31
0.0
   0
LINE
   5
308
 100
AcDbEntity
   8
LEVEL002
 370
30
 100
AcDbLine
   6
CONTINUOUS
  62
7
  10
 352.79222051020
  20
 261.27500000000
  30
0.0
  11
 357.35000000000
  21
 261.27500000000
  31
0.0
   0
LINE
   5
309
 100
AcDbEntity
   8
LEVEL002
 370
30
 100
AcDbLine
   6
CONTINUOUS
  62
7
  10
 357.35000000000
  20
 261.27500000000
  30
0.0
  11
 357.35000000000
  21
 268.11166923470
  31
0.0
   0
ARC
   5
30A
 100
AcDbEntity
   8
LEVEL002
 370
30
   6
CONTINUOUS
  62
7
 100
AcDbCircle
  10
 390.95000000000
  20
 266.67500000000
  30
0.0
  40
 5.4000000000000
 100
AcDbArc
  50
 90.000000000000
  51
 270.00000000000
   0
ARC
   5
30B
 100
AcDbEntity
   8
LEVEL002
 370
30
   6
CONTINUOUS
  62
7
 100
AcDbCircle
  10
 390.95000000000
  20
 266.67500000000
  30
0.0
  40
 1.8000000000000
 100
AcDbArc
  50
 90.000000000000
  51
 270.00000000000
   0
LINE
   5
30C
 100
AcDbEntity
   8
LEVEL002
 370
30
 100
AcDbLine
   6
CONTINUOUS
  62
7
  10
 390.95000000000
  20
 272.07500000000
  30
0.0
  11
 396.35000000000
  21
 272.07500000000
  31
0.0
   0
LINE
   5
30D
 100
AcDbEntity
   8
LEVEL002
 370
30
 100
AcDbLine
   6
CONTINUOUS
  62
7
  10
 396.35000000000
  20
 272.07500000000
  30
0.0
  11
 396.35000000000
  21
 268.47500000000
  31
0.0
   0
LINE
   5
30E
 100
AcDbEntity
   8
LEVEL002
 370
30
 100
AcDbLine
   6
CONTINUOUS
  62
7
  10
 396.35000000000
  20
 268.47500000000
  30
0.0
  11
 390.95000000000
  21
 268.47500000000
  31
0.0
   0
LINE
   5
30F
 100
AcDbEntity
   8
LEVEL002
 370
30
 100
AcDbLine
   6
CONTINUOUS
  62
7
  10
 336.95000000000
  20
 272.07500000000
  30
0.0
  11
 336.95000000000
  21
 261.27500000000
  31
0.0
   0
LINE
   5
310
 100
AcDbEntity
   8
LEVEL002
 370
30
 100
AcDbLine
   6
CONTINUOUS
  62
7
  10
 336.95000000000
  20
 261.27500000000
  30
0.0
  11
 340.55000000000
  21
 261.27500000000
  31
0.0
   0
LINE
   5
311
 100
AcDbEntity
   8
LEVEL002
 370
30
 100
AcDbLine
   6
CONTINUOUS
  62
7
  10
 340.55000000000
  20
 261.27500000000
  30
0.0
  11
 340.55000000000
  21
 263.07500000000
  31
0.0
   0
LINE
   5
312
 100
AcDbEntity
   8
LEVEL002
 370
30
 100
AcDbLine
   6
CONTINUOUS
  62
7
  10
 340.55000000000
  20
 263.07500000000
  30
0.0
  11
 344.15000000000
  21
 263.07500000000
  31
0.0
   0
ARC
   5
313
 100
AcDbEntity
   8
LEVEL002
 370
30
   6
CONTINUOUS
  62
7
 100
AcDbCircle
  10
 344.15000000000
  20
 267.57500000000
  30
0.0
  40
 4.5000000000000
 100
AcDbArc
  50
 270.00000000000
  51
 90.000000000000
   0
LINE
   5
314
 100
AcDbEntity
   8
LEVEL002
 370
30
 100
AcDbLine
   6
CONTINUOUS
  62
7
  10
 344.15000000000
  20
 272.07500000000
  30
0.0
  11
 336.95000000000
  21
 272.07500000000
  31
0.0
   0
LINE
   5
315
 100
AcDbEntity
   8
LEVEL002
 370
30
 100
AcDbLine
   6
CONTINUOUS
  62
7
  10
 340.55000000000
  20
 268.47500000000
  30
0.0
  11
 340.55000000000
  21
 266.67500000000
  31
0.0
   0
LINE
   5
316
 100
AcDbEntity
   8
LEVEL002
 370
30
 100
AcDbLine
   6
CONTINUOUS
  62
7
  10
 340.55000000000
  20
 266.67500000000
  30
0.0
  11
 344.15000000000
  21
 266.67500000000
  31
0.0
   0
ARC
   5
317
 100
AcDbEntity
   8
LEVEL002
 370
30
   6
CONTINUOUS
  62
7
 100
AcDbCircle
  10
 344.15000000000
  20
 267.57500000000
  30
0.0
  40
 0.90000000000000
 100
AcDbArc
  50
 270.00000000000
  51
 90.000000000000
   0
LINE
   5
318
 100
AcDbEntity
   8
LEVEL002
 370
30
 100
AcDbLine
   6
CONTINUOUS
  62
7
  10
 344.15000000000
  20
 268.47500000000
  30
0.0
  11
 340.55000000000
  21
 268.47500000000
  31
0.0
   0
LINE
   5
319
 100
AcDbEntity
   8
LEVEL002
 370
30
 100
AcDbLine
   6
CONTINUOUS
  62
7
  10
 353.15000000000
  20
 272.07500000000
  30
0.0
  11
 345.95000000000
  21
 261.27500000000
  31
0.0
   0
LINE
   5
31A
 100
AcDbEntity
   8
LEVEL002
 370
30
 100
AcDbLine
   6
CONTINUOUS
  62
7
  10
 345.95000000000
  20
 261.27500000000
  30
0.0
  11
 351.35000000000
  21
 261.27500000000
  31
0.0
   0
LINE
   5
31B
 100
AcDbEntity
   8
LEVEL002
 370
30
 100
AcDbLine
   6
CONTINUOUS
  62
7
  10
 351.35000000000
  20
 261.27500000000
  30
0.0
  11
 358.55000000000
  21
 272.07500000000
  31
0.0
   0
LINE
   5
31C
 100
AcDbEntity
   8
LEVEL002
 370
30
 100
AcDbLine
   6
CONTINUOUS
  62
7
  10
 358.55000000000
  20
 272.07500000000
  30
0.0
  11
 353.15000000000
  21
 272.07500000000
  31
0.0
   0
LINE
   5
31D
 100
AcDbEntity
   8
LEVEL002
 370
30
 100
AcDbLine
   6
CONTINUOUS
  62
7
  10
 357.35000000000
  20
 261.27500000000
  30
0.0
  11
 357.35000000000
  21
 268.11166923470
  31
0.0
   0
LINE
   5
31E
 100
AcDbEntity
   8
LEVEL002
 370
30
 100
AcDbLine
   6
CONTINUOUS
  62
7
  10
 357.35000000000
  20
 268.11166923470
  30
0.0
  11
 352.79222051020
  21
 261.27500000000
  31
0.0
   0
LINE
   5
31F
 100
AcDbEntity
   8
LEVEL002
 370
30
 100
AcDbLine
   6
CONTINUOUS
  62
7
  10
 352.79222051020
  20
 261.27500000000
  30
0.0
  11
 357.35000000000
  21
 261.27500000000
  31
0.0
   0
LINE
   5
320
 100
AcDbEntity
   8
LEVEL002
 370
30
 100
AcDbLine
   6
CONTINUOUS
  62
7
  10
 358.55000000000
  20
 261.27500000000
  30
0.0
  11
 371.15000000000
  21
 261.27500000000
  31
0.0
   0
LINE
   5
321
 100
AcDbEntity
   8
LEVEL002
 370
30
 100
AcDbLine
   6
CONTINUOUS
  62
7
  10
 371.15000000000
  20
 261.27500000000
  30
0.0
  11
 371.15000000000
  21
 268.47500000000
  31
0.0
   0
LINE
   5
322
 100
AcDbEntity
   8
LEVEL002
 370
30
 100
AcDbLine
   6
CONTINUOUS
  62
7
  10
 371.15000000000
  20
 268.47500000000
  30
0.0
  11
 374.75000000000
  21
 268.47500000000
  31
0.0
   0
LINE
   5
323
 100
AcDbEntity
   8
LEVEL002
 370
30
 100
AcDbLine
   6
CONTINUOUS
  62
7
  10
 374.75000000000
  20
 268.47500000000
  30
0.0
  11
 374.75000000000
  21
 261.27500000000
  31
0.0
   0
LINE
   5
324
 100
AcDbEntity
   8
LEVEL002
 370
30
 100
AcDbLine
   6
CONTINUOUS
  62
7
  10
 374.75000000000
  20
 261.27500000000
  30
0.0
  11
 385.55000000000
  21
 261.27500000000
  31
0.0
   0
LINE
   5
325
 100
AcDbEntity
   8
LEVEL002
 370
30
 100
AcDbLine
   6
CONTINUOUS
  62
7
  10
 385.55000000000
  20
 261.27500000000
  30
0.0
  11
 385.55000000000
  21
 264.87500000000
  31
0.0
   0
LINE
   5
326
 100
AcDbEntity
   8
LEVEL002
 370
30
 100
AcDbLine
   6
CONTINUOUS
  62
7
  10
 385.55000000000
  20
 264.87500000000
  30
0.0
  11
 378.35000000000
  21
 264.87500000000
  31
0.0
   0
LINE
   5
327
 100
AcDbEntity
   8
LEVEL002
 370
30
 100
AcDbLine
   6
CONTINUOUS
  62
7
  10
 378.35000000000
  20
 264.87500000000
  30
0.0
  11
 378.35000000000
  21
 265.77500000000
  31
0.0
   0
LINE
   5
328
 100
AcDbEntity
   8
LEVEL002
 370
30
 100
AcDbLine
   6
CONTINUOUS
  62
7
  10
 378.35000000000
  20
 265.77500000000
  30
0.0
  11
 384.65000000000
  21
 265.77500000000
  31
0.0
   0
LINE
   5
329
 100
AcDbEntity
   8
LEVEL002
 370
30
 100
AcDbLine
   6
CONTINUOUS
  62
7
  10
 384.65000000000
  20
 265.77500000000
  30
0.0
  11
 384.65000000000
  21
 267.57500000000
  31
0.0
   0
LINE
   5
32A
 100
AcDbEntity
   8
LEVEL002
 370
30
 100
AcDbLine
   6
CONTINUOUS
  62
7
  10
 384.65000000000
  20
 267.57500000000
  30
0.0
  11
 378.35000000000
  21
 267.57500000000
  31
0.0
   0
LINE
   5
32B
 100
AcDbEntity
   8
LEVEL002
 370
30
 100
AcDbLine
   6
CONTINUOUS
  62
7
  10
 378.35000000000
  20
 267.57500000000
  30
0.0
  11
 378.35000000000
  21
 268.47500000000
  31
0.0
   0
LINE
   5
32C
 100
AcDbEntity
   8
LEVEL002
 370
30
 100
AcDbLine
   6
CONTINUOUS
  62
7
  10
 378.35000000000
  20
 268.47500000000
  30
0.0
  11
 385.55000000000
  21
 268.47500000000
  31
0.0
   0
LINE
   5
32D
 100
AcDbEntity
   8
LEVEL002
 370
30
 100
AcDbLine
   6
CONTINUOUS
  62
7
  10
 385.55000000000
  20
 268.47500000000
  30
0.0
  11
 385.55000000000
  21
 272.07500000000
  31
0.0
   0
LINE
   5
32E
 100
AcDbEntity
   8
LEVEL002
 370
30
 100
AcDbLine
   6
CONTINUOUS
  62
7
  10
 385.55000000000
  20
 272.07500000000
  30
0.0
  11
 363.95000000000
  21
 272.07500000000
  31
0.0
   0
LINE
   5
32F
 100
AcDbEntity
   8
LEVEL002
 370
30
 100
AcDbLine
   6
CONTINUOUS
  62
7
  10
 363.95000000000
  20
 272.07500000000
  30
0.0
  11
 363.95000000000
  21
 268.47500000000
  31
0.0
   0
LINE
   5
330
 100
AcDbEntity
   8
LEVEL002
 370
30
 100
AcDbLine
   6
CONTINUOUS
  62
7
  10
 363.95000000000
  20
 268.47500000000
  30
0.0
  11
 367.55000000000
  21
 268.47500000000
  31
0.0
   0
LINE
   5
331
 100
AcDbEntity
   8
LEVEL002
 370
30
 100
AcDbLine
   6
CONTINUOUS
  62
7
  10
 367.55000000000
  20
 268.47500000000
  30
0.0
  11
 367.55000000000
  21
 264.87500000000
  31
0.0
   0
LINE
   5
332
 100
AcDbEntity
   8
LEVEL002
 370
30
 100
AcDbLine
   6
CONTINUOUS
  62
7
  10
 367.55000000000
  20
 264.87500000000
  30
0.0
  11
 362.15000000000
  21
 264.87500000000
  31
0.0
   0
LINE
   5
333
 100
AcDbEntity
   8
LEVEL002
 370
30
 100
AcDbLine
   6
CONTINUOUS
  62
7
  10
 362.15000000000
  20
 264.87500000000
  30
0.0
  11
 362.15000000000
  21
 272.07500000000
  31
0.0
   0
LINE
   5
334
 100
AcDbEntity
   8
LEVEL002
 370
30
 100
AcDbLine
   6
CONTINUOUS
  62
7
  10
 362.15000000000
  20
 272.07500000000
  30
0.0
  11
 358.55000000000
  21
 272.07500000000
  31
0.0
   0
LINE
   5
335
 100
AcDbEntity
   8
LEVEL002
 370
30
 100
AcDbLine
   6
CONTINUOUS
  62
7
  10
 358.55000000000
  20
 272.07500000000
  30
0.0
  11
 358.55000000000
  21
 261.27500000000
  31
0.0
   0
LINE
   5
336
 100
AcDbEntity
   8
LEVEL002
 370
30
 100
AcDbLine
   6
CONTINUOUS
  62
7
  10
 390.95000000000
  20
 261.27500000000
  30
0.0
  11
 396.35000000000
  21
 261.27500000000
  31
0.0
   0
LINE
   5
337
 100
AcDbEntity
   8
LEVEL002
 370
30
 100
AcDbLine
   6
CONTINUOUS
  62
7
  10
 396.35000000000
  20
 261.27500000000
  30
0.0
  11
 396.35000000000
  21
 264.87500000000
  31
0.0
   0
LINE
   5
338
 100
AcDbEntity
   8
LEVEL002
 370
30
 100
AcDbLine
   6
CONTINUOUS
  62
7
  10
 396.35000000000
  20
 264.87500000000
  30
0.0
  11
 390.95000000000
  21
 264.87500000000
  31
0.0
   0
ARC
   5
339
 100
AcDbEntity
   8
LEVEL002
 370
30
   6
CONTINUOUS
  62
7
 100
AcDbCircle
  10
 390.95000000000
  20
 266.67500000000
  30
0.0
  40
 1.8000000000000
 100
AcDbArc
  50
 90.000000000000
  51
 270.00000000000
   0
LINE
   5
33A
 100
AcDbEntity
   8
LEVEL002
 370
30
 100
AcDbLine
   6
CONTINUOUS
  62
7
  10
 390.95000000000
  20
 268.47500000000
  30
0.0
  11
 396.35000000000
  21
 268.47500000000
  31
0.0
   0
LINE
   5
33B
 100
AcDbEntity
   8
LEVEL002
 370
30
 100
AcDbLine
   6
CONTINUOUS
  62
7
  10
 396.35000000000
  20
 268.47500000000
  30
0.0
  11
 396.35000000000
  21
 272.07500000000
  31
0.0
   0
LINE
   5
33C
 100
AcDbEntity
   8
LEVEL002
 370
30
 100
AcDbLine
   6
CONTINUOUS
  62
7
  10
 396.35000000000
  20
 272.07500000000
  30
0.0
  11
 390.95000000000
  21
 272.07500000000
  31
0.0
   0
ARC
   5
33D
 100
AcDbEntity
   8
LEVEL002
 370
30
   6
CONTINUOUS
  62
7
 100
AcDbCircle
  10
 390.95000000000
  20
 266.67500000000
  30
0.0
  40
 5.4000000000000
 100
AcDbArc
  50
 90.000000000000
  51
 270.00000000000
   0
MTEXT
   5
33F
 100
AcDbEntity
   8
LEVEL002
 370
30
  62
7
 100
AcDbMText
  10
 336.95000000000
  20
 273.87500000000
  30
0.0
  40
 3.7500000000000
  41
0.0
  71
7
  72
1
   1
\T1.000000;ケージーパルテック株式会社
   7
GMM001
  44
 0.79999984000003
   0
LINE
   5
340
 100
AcDbEntity
   8
LEVEL002
 370
30
 100
AcDbLine
   6
CONTINUOUS
  62
7
  10
 333.35000000000
  20
 263.67500000000
  30
0.0
  11
 328.85000000000
  21
 270.87500000000
  31
0.0
   0
LINE
   5
341
 100
AcDbEntity
   8
LEVEL002
 370
30
 100
AcDbLine
   6
CONTINUOUS
  62
7
  10
 328.85000000000
  20
 270.87500000000
  30
0.0
  11
 333.35000000000
  21
 270.87500000000
  31
0.0
   0
LINE
   5
342
 100
AcDbEntity
   8
LEVEL002
 370
30
 100
AcDbLine
   6
CONTINUOUS
  62
7
  10
 333.35000000000
  20
 270.87500000000
  30
0.0
  11
 333.35000000000
  21
 263.67500000000
  31
0.0
   0
LINE
   5
343
 100
AcDbEntity
   8
LEVEL002
 370
30
 100
AcDbLine
   6
CONTINUOUS
  62
7
  10
 328.85000000000
  20
 270.87500000000
  30
0.0
  11
 333.35000000000
  21
 263.67500000000
  31
0.0
   0
LINE
   5
344
 100
AcDbEntity
   8
LEVEL002
 370
30
 100
AcDbLine
   6
CONTINUOUS
  62
7
  10
 333.35000000000
  20
 263.67500000000
  30
0.0
  11
 333.35000000000
  21
 270.87500000000
  31
0.0
   0
LINE
   5
345
 100
AcDbEntity
   8
LEVEL002
 370
30
 100
AcDbLine
   6
CONTINUOUS
  62
7
  10
 333.35000000000
  20
 270.87500000000
  30
0.0
  11
 328.85000000000
  21
 270.87500000000
  31
0.0
   0
LINE
   5
346
 100
AcDbEntity
   8
LEVEL002
 370
30
 100
AcDbLine
   6
CONTINUOUS
  62
7
  10
 319.05000000000
  20
 280.47500000000
  30
0.0
  11
 312.65000000000
  21
 270.87500000000
  31
0.0
   0
LINE
   5
347
 100
AcDbEntity
   8
LEVEL002
 370
30
 100
AcDbLine
   6
CONTINUOUS
  62
7
  10
 312.65000000000
  20
 270.87500000000
  30
0.0
  11
 319.05000000000
  21
 261.27500000000
  31
0.0
   0
LINE
   5
348
 100
AcDbEntity
   8
LEVEL002
 370
30
 100
AcDbLine
   6
CONTINUOUS
  62
7
  10
 324.45000000000
  20
 261.27500000000
  30
0.0
  11
 318.05000000000
  21
 270.87500000000
  31
0.0
   0
LINE
   5
349
 100
AcDbEntity
   8
LEVEL002
 370
30
 100
AcDbLine
   6
CONTINUOUS
  62
7
  10
 318.05000000000
  20
 270.87500000000
  30
0.0
  11
 324.45000000000
  21
 280.47500000000
  31
0.0
   0
LINE
   5
34A
 100
AcDbEntity
   8
LEVEL002
 370
30
 100
AcDbLine
   6
CONTINUOUS
  62
7
  10
 327.15000000000
  20
 280.47500000000
  30
0.0
  11
 320.75000000000
  21
 270.87500000000
  31
0.0
   0
LINE
   5
34B
 100
AcDbEntity
   8
LEVEL002
 370
30
 100
AcDbLine
   6
CONTINUOUS
  62
7
  10
 320.75000000000
  20
 270.87500000000
  30
0.0
  11
 327.15000000000
  21
 261.27500000000
  31
0.0
   0
LINE
   5
34C
 100
AcDbEntity
   8
LEVEL002
 370
30
 100
AcDbLine
   6
CONTINUOUS
  62
7
  10
 332.55000000000
  20
 261.27500000000
  30
0.0
  11
 326.15000000000
  21
 270.87500000000
  31
0.0
   0
LINE
   5
34D
 100
AcDbEntity
   8
LEVEL002
 370
30
 100
AcDbLine
   6
CONTINUOUS
  62
7
  10
 326.15000000000
  20
 270.87500000000
  30
0.0
  11
 332.55000000000
  21
 280.47500000000
  31
0.0
   0
LINE
   5
34E
 100
AcDbEntity
   8
LEVEL002
 370
30
 100
AcDbLine
   6
CONTINUOUS
  62
7
  10
 319.05000000000
  20
 261.27500000000
  30
0.0
  11
 312.65000000000
  21
 270.87500000000
  31
0.0
   0
LINE
   5
34F
 100
AcDbEntity
   8
LEVEL002
 370
30
 100
AcDbLine
   6
CONTINUOUS
  62
7
  10
 312.65000000000
  20
 270.87500000000
  30
0.0
  11
 319.05000000000
  21
 280.47500000000
  31
0.0
   0
LINE
   5
350
 100
AcDbEntity
   8
LEVEL002
 370
30
 100
AcDbLine
   6
CONTINUOUS
  62
7
  10
 319.05000000000
  20
 280.47500000000
  30
0.0
  11
 324.45000000000
  21
 280.47500000000
  31
0.0
   0
LINE
   5
351
 100
AcDbEntity
   8
LEVEL002
 370
30
 100
AcDbLine
   6
CONTINUOUS
  62
7
  10
 324.45000000000
  20
 280.47500000000
  30
0.0
  11
 318.05000000000
  21
 270.87500000000
  31
0.0
   0
LINE
   5
352
 100
AcDbEntity
   8
LEVEL002
 370
30
 100
AcDbLine
   6
CONTINUOUS
  62
7
  10
 318.05000000000
  20
 270.87500000000
  30
0.0
  11
 324.45000000000
  21
 261.27500000000
  31
0.0
   0
LINE
   5
353
 100
AcDbEntity
   8
LEVEL002
 370
30
 100
AcDbLine
   6
CONTINUOUS
  62
7
  10
 324.45000000000
  20
 261.27500000000
  30
0.0
  11
 319.05000000000
  21
 261.27500000000
  31
0.0
   0
LINE
   5
354
 100
AcDbEntity
   8
LEVEL002
 370
30
 100
AcDbLine
   6
CONTINUOUS
  62
7
  10
 327.15000000000
  20
 261.27500000000
  30
0.0
  11
 320.75000000000
  21
 270.87500000000
  31
0.0
   0
LINE
   5
355
 100
AcDbEntity
   8
LEVEL002
 370
30
 100
AcDbLine
   6
CONTINUOUS
  62
7
  10
 320.75000000000
  20
 270.87500000000
  30
0.0
  11
 327.15000000000
  21
 280.47500000000
  31
0.0
   0
LINE
   5
356
 100
AcDbEntity
   8
LEVEL002
 370
30
 100
AcDbLine
   6
CONTINUOUS
  62
7
  10
 327.15000000000
  20
 280.47500000000
  30
0.0
  11
 332.55000000000
  21
 280.47500000000
  31
0.0
   0
LINE
   5
357
 100
AcDbEntity
   8
LEVEL002
 370
30
 100
AcDbLine
   6
CONTINUOUS
  62
7
  10
 332.55000000000
  20
 280.47500000000
  30
0.0
  11
 326.15000000000
  21
 270.87500000000
  31
0.0
   0
LINE
   5
358
 100
AcDbEntity
   8
LEVEL002
 370
30
 100
AcDbLine
   6
CONTINUOUS
  62
7
  10
 326.15000000000
  20
 270.87500000000
  30
0.0
  11
 332.55000000000
  21
 261.27500000000
  31
0.0
   0
LINE
   5
359
 100
AcDbEntity
   8
LEVEL002
 370
30
 100
AcDbLine
   6
CONTINUOUS
  62
7
  10
 332.55000000000
  20
 261.27500000000
  30
0.0
  11
 327.15000000000
  21
 261.27500000000
  31
0.0
   0
LINE
   5
35A
 100
AcDbEntity
   8
LEVEL001
 370
30
 100
AcDbLine
   6
DOT
  62
7
  10
0.0
  20
0.0
  30
0.0
  11
 420.00000000000
  21
0.0
  31
0.0
   0
LINE
   5
35B
 100
AcDbEntity
   8
LEVEL001
 370
30
 100
AcDbLine
   6
DOT
  62
7
  10
 420.00000000000
  20
0.0
  30
0.0
  11
 420.00000000000
  21
 297.00000000000
  31
0.0
   0
LINE
   5
35C
 100
AcDbEntity
   8
LEVEL001
 370
30
 100
AcDbLine
   6
DOT
  62
7
  10
 420.00000000000
  20
 297.00000000000
  30
0.0
  11
0.0
  21
 297.00000000000
  31
0.0
   0
LINE
   5
35D
 100
AcDbEntity
   8
LEVEL001
 370
30
 100
AcDbLine
   6
DOT
  62
7
  10
0.0
  20
 297.00000000000
  30
0.0
  11
0.0
  21
0.0
  31
0.0
   0
LINE
   5
35E
 100
AcDbEntity
   8
LEVEL002
 370
40
 100
AcDbLine
   6
CONTINUOUS
  62
3
  10
 15.499999999950
  20
 216.75000000000
  30
0.0
  11
 304.49999999995
  21
 216.75000000000
  31
0.0
   0
LINE
   5
35F
 100
AcDbEntity
   8
LEVEL002
 370
40
 100
AcDbLine
   6
CONTINUOUS
  62
3
  10
 15.499999999950
  20
 275.00000000000
  30
0.0
  11
 304.49999999995
  21
 275.00000000000
  31
0.0
   0
LINE
   5
360
 100
AcDbEntity
   8
LEVEL002
 370
40
 100
AcDbLine
   6
CONTINUOUS
  62
3
  10
 15.499999999950
  20
 206.75000000000
  30
0.0
  11
 304.49999999995
  21
 206.75000000000
  31
0.0
   0
LINE
   5
361
 100
AcDbEntity
   8
LEVEL002
 370
40
 100
AcDbLine
   6
CONTINUOUS
  62
3
  10
 304.49999999995
  20
 256.75000000000
  30
0.0
  11
 404.49999999995
  21
 256.75000000000
  31
0.0
   0
LINE
   5
362
 100
AcDbEntity
   8
LEVEL002
 370
40
 100
AcDbLine
   6
CONTINUOUS
  62
3
  10
 304.49999999995
  20
 236.75000000000
  30
0.0
  11
 404.49999999995
  21
 236.75000000000
  31
0.0
   0
LINE
   5
363
 100
AcDbEntity
   8
LEVEL002
 370
40
 100
AcDbLine
   6
CONTINUOUS
  62
3
  10
 304.49999999995
  20
 216.75000000000
  30
0.0
  11
 404.49999999995
  21
 216.75000000000
  31
0.0
   0
LINE
   5
364
 100
AcDbEntity
   8
LEVEL002
 370
40
 100
AcDbLine
   6
CONTINUOUS
  62
3
  10
 232.24999999995
  20
 285.00000000000
  30
0.0
  11
 232.24999999995
  21
 12.000000000010
  31
0.0
   0
LINE
   5
365
 100
AcDbEntity
   8
LEVEL002
 370
40
 100
AcDbLine
   6
CONTINUOUS
  62
3
  10
 159.99999999995
  20
 285.00000000000
  30
0.0
  11
 159.99999999995
  21
 12.000000000010
  31
0.0
   0
LINE
   5
366
 100
AcDbEntity
   8
LEVEL002
 370
40
 100
AcDbLine
   6
CONTINUOUS
  62
3
  10
 87.749999999950
  20
 285.00000000000
  30
0.0
  11
 87.749999999950
  21
 12.000000000010
  31
0.0
   0
LINE
   5
367
 100
AcDbEntity
   8
LEVEL002
 370
40
 100
AcDbLine
   6
CONTINUOUS
  62
3
  10
 15.499999999950
  20
 148.50000000001
  30
0.0
  11
 304.49999999995
  21
 148.50000000001
  31
0.0
   0
LINE
   5
368
 100
AcDbEntity
   8
LEVEL002
 370
40
 100
AcDbLine
   6
CONTINUOUS
  62
3
  10
 15.499999999950
  20
 138.50000000001
  30
0.0
  11
 304.49999999995
  21
 138.50000000001
  31
0.0
   0
LINE
   5
369
 100
AcDbEntity
   8
LEVEL002
 370
40
 100
AcDbLine
   6
CONTINUOUS
  62
3
  10
 15.499999999950
  20
 80.250000000010
  30
0.0
  11
 304.49999999995
  21
 80.250000000010
  31
0.0
   0
LINE
   5
36A
 100
AcDbEntity
   8
LEVEL002
 370
40
 100
AcDbLine
   6
CONTINUOUS
  62
3
  10
 15.499999999950
  20
 70.250000000010
  30
0.0
  11
 304.49999999995
  21
 70.250000000010
  31
0.0
   0
LINE
   5
36B
 100
AcDbEntity
   8
LEVEL002
 370
40
 100
AcDbLine
   6
CONTINUOUS
  62
3
  10
 304.49999999995
  20
 72.000000000010
  30
0.0
  11
 404.49999999995
  21
 72.000000000010
  31
0.0
   0
LINE
   5
36C
 100
AcDbEntity
   8
LEVEL002
 370
40
 100
AcDbLine
   6
CONTINUOUS
  62
3
  10
 304.49999999995
  20
 52.000000000010
  30
0.0
  11
 404.49999999995
  21
 52.000000000010
  31
0.0
   0
LINE
   5
36D
 100
AcDbEntity
   8
LEVEL002
 370
40
 100
AcDbLine
   6
CONTINUOUS
  62
3
  10
 304.49999999995
  20
 32.000000000010
  30
0.0
  11
 404.49999999995
  21
 32.000000000010
  31
0.0
   0
LINE
   5
36E
 100
AcDbEntity
   8
LEVEL002
 370
40
 100
AcDbLine
   6
CONTINUOUS
  62
3
  10
 354.49999999995
  20
 52.000000000010
  30
0.0
  11
 354.49999999995
  21
 12.000000000010
  31
0.0
   0
LINE
   5
36F
 100
AcDbEntity
   8
LEVEL002
 370
40
 100
AcDbLine
   6
CONTINUOUS
  62
3
  10
 354.49999999995
  20
 38.666666666680
  30
0.0
  11
 404.49999999995
  21
 38.666666666680
  31
0.0
   0
LINE
   5
370
 100
AcDbEntity
   8
LEVEL002
 370
40
 100
AcDbLine
   6
CONTINUOUS
  62
3
  10
 354.49999999995
  20
 45.333333333345
  30
0.0
  11
 404.49999999995
  21
 45.333333333345
  31
0.0
   0
LINE
   5
371
 100
AcDbEntity
   8
LEVEL002
 370
50
 100
AcDbLine
   6
CONTINUOUS
  62
4
  10
 404.49999999995
  20
 285.00000000000
  30
0.0
  11
 15.499999999950
  21
 285.00000000000
  31
0.0
   0
LINE
   5
372
 100
AcDbEntity
   8
LEVEL002
 370
50
 100
AcDbLine
   6
CONTINUOUS
  62
4
  10
 304.49999999995
  20
 285.00000000000
  30
0.0
  11
 304.49999999995
  21
 12.000000000010
  31
0.0
   0
LINE
   5
373
 100
AcDbEntity
   8
LEVEL002
 370
50
 100
AcDbLine
   6
CONTINUOUS
  62
4
  10
 404.49999999995
  20
 12.000000000010
  30
0.0
  11
 404.49999999995
  21
 285.00000000000
  31
0.0
   0
LINE
   5
374
 100
AcDbEntity
   8
LEVEL002
 370
50
 100
AcDbLine
   6
CONTINUOUS
  62
4
  10
 15.499999999950
  20
 285.00000000000
  30
0.0
  11
 15.499999999950
  21
 12.000000000010
  31
0.0
   0
LINE
   5
375
 100
AcDbEntity
   8
LEVEL002
 370
50
 100
AcDbLine
   6
CONTINUOUS
  62
4
  10
 15.499999999950
  20
 12.000000000010
  30
0.0
  11
 404.49999999995
  21
 12.000000000010
  31
0.0
   0
HATCH
   5
376
 100
AcDbEntity
   8
LEVEL001
  62
1
 100
AcDbHatch
  10
0.0
  20
0.0
  30
0.0
 210
0.0
 220
0.0
 230
 1.0000000000000
   2
SOLID
  70
1
  71
1
  91
7
  92
1
  93
6
  72
1
  10
 324.45000000000
  20
 280.47500000000
  11
 318.05000000000
  21
 270.87500000000
  72
1
  10
 318.05000000000
  20
 270.87500000000
  11
 324.45000000000
  21
 261.27500000000
  72
1
  10
 324.45000000000
  20
 261.27500000000
  11
 319.05000000000
  21
 261.27500000000
  72
1
  10
 319.05000000000
  20
 261.27500000000
  11
 312.65000000000
  21
 270.87500000000
  72
1
  10
 312.65000000000
  20
 270.87500000000
  11
 319.05000000000
  21
 280.47500000000
  72
1
  10
 319.05000000000
  20
 280.47500000000
  11
 324.45000000000
  21
 280.47500000000
  97
1
 330

  92
16
  93
6
  72
1
  10
 327.15000000000
  20
 280.47500000000
  11
 332.55000000000
  21
 280.47500000000
  72
1
  10
 332.55000000000
  20
 280.47500000000
  11
 326.15000000000
  21
 270.87500000000
  72
1
  10
 326.15000000000
  20
 270.87500000000
  11
 332.55000000000
  21
 261.27500000000
  72
1
  10
 332.55000000000
  20
 261.27500000000
  11
 327.15000000000
  21
 261.27500000000
  72
1
  10
 327.15000000000
  20
 261.27500000000
  11
 320.75000000000
  21
 270.87500000000
  72
1
  10
 320.75000000000
  20
 270.87500000000
  11
 327.15000000000
  21
 280.47500000000
  97
1
 330

  92
16
  93
3
  72
1
  10
 333.35000000000
  20
 270.87500000000
  11
 328.85000000000
  21
 270.87500000000
  72
1
  10
 328.85000000000
  20
 270.87500000000
  11
 333.35000000000
  21
 263.67500000000
  72
1
  10
 333.35000000000
  20
 263.67500000000
  11
 333.35000000000
  21
 270.87500000000
  97
1
 330

  92
16
  93
6
  72
1
  10
 336.95000000000
  20
 272.07500000000
  11
 344.15000000000
  21
 272.07500000000
  72
2
  10
 344.15000000000
  20
 267.57500000000
  40
 4.5000000000000
  50
 270.00000000000
  51
 90.000000000000
  73
0
  72
1
  10
 344.15000000000
  20
 263.07500000000
  11
 340.55000000000
  21
 263.07500000000
  72
1
  10
 340.55000000000
  20
 263.07500000000
  11
 340.55000000000
  21
 261.27500000000
  72
1
  10
 340.55000000000
  20
 261.27500000000
  11
 336.95000000000
  21
 261.27500000000
  72
1
  10
 336.95000000000
  20
 261.27500000000
  11
 336.95000000000
  21
 272.07500000000
  97
1
 330

  92
16
  93
4
  72
1
  10
 344.15000000000
  20
 268.47500000000
  11
 340.55000000000
  21
 268.47500000000
  72
1
  10
 340.55000000000
  20
 268.47500000000
  11
 340.55000000000
  21
 266.67500000000
  72
1
  10
 340.55000000000
  20
 266.67500000000
  11
 344.15000000000
  21
 266.67500000000
  72
2
  10
 344.15000000000
  20
 267.57500000000
  40
 0.90000000000000
  50
 270.00000000000
  51
 90.000000000000
  73
1
  97
1
 330

  92
16
  93
4
  72
1
  10
 345.95000000000
  20
 261.27500000000
  11
 353.15000000000
  21
 272.07500000000
  72
1
  10
 353.15000000000
  20
 272.07500000000
  11
 358.55000000000
  21
 272.07500000000
  72
1
  10
 358.55000000000
  20
 272.07500000000
  11
 351.35000000000
  21
 261.27500000000
  72
1
  10
 351.35000000000
  20
 261.27500000000
  11
 345.95000000000
  21
 261.27500000000
  97
1
 330

  92
16
  93
3
  72
1
  10
 357.35000000000
  20
 268.11166923470
  11
 352.79222051020
  21
 261.27500000000
  72
1
  10
 352.79222051020
  20
 261.27500000000
  11
 357.35000000000
  21
 261.27500000000
  72
1
  10
 357.35000000000
  20
 261.27500000000
  11
 357.35000000000
  21
 268.11166923470
  97
1
 330

  75
0
  76
1
  98
1
  10
0.0
  20
0.0
   0
HATCH
   5
377
 100
AcDbEntity
   8
LEVEL001
  62
1
 100
AcDbHatch
  10
0.0
  20
0.0
  30
0.0
 210
0.0
 220
0.0
 230
 1.0000000000000
   2
SOLID
  70
1
  71
1
  91
1
  92
1
  93
22
  72
1
  10
 358.55000000000
  20
 272.07500000000
  11
 362.15000000000
  21
 272.07500000000
  72
1
  10
 362.15000000000
  20
 272.07500000000
  11
 362.15000000000
  21
 264.87500000000
  72
1
  10
 362.15000000000
  20
 264.87500000000
  11
 367.55000000000
  21
 264.87500000000
  72
1
  10
 367.55000000000
  20
 264.87500000000
  11
 367.55000000000
  21
 268.47500000000
  72
1
  10
 367.55000000000
  20
 268.47500000000
  11
 363.95000000000
  21
 268.47500000000
  72
1
  10
 363.95000000000
  20
 268.47500000000
  11
 363.95000000000
  21
 272.07500000000
  72
1
  10
 363.95000000000
  20
 272.07500000000
  11
 385.55000000000
  21
 272.07500000000
  72
1
  10
 385.55000000000
  20
 272.07500000000
  11
 385.55000000000
  21
 268.47500000000
  72
1
  10
 385.55000000000
  20
 268.47500000000
  11
 378.35000000000
  21
 268.47500000000
  72
1
  10
 378.35000000000
  20
 268.47500000000
  11
 378.35000000000
  21
 267.57500000000
  72
1
  10
 378.35000000000
  20
 267.57500000000
  11
 384.65000000000
  21
 267.57500000000
  72
1
  10
 384.65000000000
  20
 267.57500000000
  11
 384.65000000000
  21
 265.77500000000
  72
1
  10
 384.65000000000
  20
 265.77500000000
  11
 378.35000000000
  21
 265.77500000000
  72
1
  10
 378.35000000000
  20
 265.77500000000
  11
 378.35000000000
  21
 264.87500000000
  72
1
  10
 378.35000000000
  20
 264.87500000000
  11
 385.55000000000
  21
 264.87500000000
  72
1
  10
 385.55000000000
  20
 264.87500000000
  11
 385.55000000000
  21
 261.27500000000
  72
1
  10
 385.55000000000
  20
 261.27500000000
  11
 374.75000000000
  21
 261.27500000000
  72
1
  10
 374.75000000000
  20
 261.27500000000
  11
 374.75000000000
  21
 268.47500000000
  72
1
  10
 374.75000000000
  20
 268.47500000000
  11
 371.15000000000
  21
 268.47500000000
  72
1
  10
 371.15000000000
  20
 268.47500000000
  11
 371.15000000000
  21
 261.27500000000
  72
1
  10
 371.15000000000
  20
 261.27500000000
  11
 358.55000000000
  21
 261.27500000000
  72
1
  10
 358.55000000000
  20
 261.27500000000
  11
 358.55000000000
  21
 272.07500000000
  97
1
 330

  75
0
  76
1
  98
1
  10
0.0
  20
0.0
   0
HATCH
   5
378
 100
AcDbEntity
   8
LEVEL001
  62
1
 100
AcDbHatch
  10
0.0
  20
0.0
  30
0.0
 210
0.0
 220
0.0
 230
 1.0000000000000
   2
SOLID
  70
1
  71
1
  91
1
  92
1
  93
8
  72
1
  10
 396.35000000000
  20
 272.07500000000
  11
 390.95000000000
  21
 272.07500000000
  72
2
  10
 390.95000000000
  20
 266.67500000000
  40
 5.4000000000000
  50
 90.000000000000
  51
 270.00000000000
  73
1
  72
1
  10
 390.95000000000
  20
 261.27500000000
  11
 396.35000000000
  21
 261.27500000000
  72
1
  10
 396.35000000000
  20
 261.27500000000
  11
 396.35000000000
  21
 264.87500000000
  72
1
  10
 396.35000000000
  20
 264.87500000000
  11
 390.95000000000
  21
 264.87500000000
  72
2
  10
 390.95000000000
  20
 266.67500000000
  40
 1.8000000000000
  50
 90.000000000000
  51
 270.00000000000
  73
0
  72
1
  10
 390.95000000000
  20
 268.47500000000
  11
 396.35000000000
  21
 268.47500000000
  72
1
  10
 396.35000000000
  20
 268.47500000000
  11
 396.35000000000
  21
 272.07500000000
  97
1
 330

  75
0
  76
1
  98
1
  10
0.0
  20
0.0
   0
MTEXT
   5
37A
 100
AcDbEntity
   8
LEVEL002
 370
15
  62
8
 100
AcDbMText
  10
 310.79999999995
  20
 28.250000000010
  30
0.0
  40
 3.0000000000000
  41
0.0
  71
5
  72
1
   1
\T1.000000;サイズ：
   7
GMM002
  44
 0.79999984000003
   0
MTEXT
   5
37C
 100
AcDbEntity
   8
LEVEL002
 370
15
  62
8
 100
AcDbMText
  10
 309.29999999995
  20
 48.250000000010
  30
0.0
  40
 3.0000000000000
  41
0.0
  71
5
  72
1
   1
\T1.000000;縮尺：
   7
GMM002
  44
 0.79999984000003
   0
MTEXT
   5
37E
 100
AcDbEntity
   8
LEVEL002
 370
15
  62
8
 100
AcDbMText
  10
 312.29999999995
  20
 68.250000000010
  30
0.0
  40
 3.0000000000000
  41
0.0
  71
5
  72
1
   1
\T1.000000;図面名称：
   7
GMM002
  44
 0.79999984000003
   0
MTEXT
   5
380
 100
AcDbEntity
   8
LEVEL002
 370
15
  62
8
 100
AcDbMText
  10
 363.79999999995
  20
 28.250000000010
  30
0.0
  40
 3.0000000000000
  41
0.0
  71
5
  72
1
   1
\T1.000000;ファイル名：
   7
GMM002
  44
 0.79999984000003
   0
MTEXT
   5
382
 100
AcDbEntity
   8
LEVEL002
 370
15
  62
8
 100
AcDbMText
  10
 362.29999999995
  20
 48.666666666680
  30
0.0
  40
 2.8000000000000
  41
0.0
  71
5
  72
1
   1
\T1.000000;作成日付：
   7
GMM003
  44
 0.79999984000003
   0
MTEXT
   5
384
 100
AcDbEntity
   8
LEVEL002
 370
15
  62
8
 100
AcDbMText
  10
 362.29999999995
  20
 42.000000000010
  30
0.0
  40
 2.8000000000000
  41
0.0
  71
5
  72
1
   1
\T1.000000;変更日付：
   7
GMM003
  44
 0.79999984000003
   0
MTEXT
   5
386
 100
AcDbEntity
   8
LEVEL002
 370
15
  62
8
 100
AcDbMText
  10
 329.49999999995
  20
 18.250000000010
  30
0.0
  40
 3.7500000000000
  41
0.0
  71
5
  72
1
   1
\T1.000000;Ａ３
   7
GMM002
  44
 0.79999984000003
   0
MTEXT
   5
388
 100
AcDbEntity
   8
LEVEL002
 370
15
  62
8
 100
AcDbMText
  10
 309.29999999995
  20
 213.00000000000
  30
0.0
  40
 3.0000000000000
  41
0.0
  71
5
  72
1
   1
\T1.000000;仕様：
   7
GMM002
  44
 0.79999984000003
   0
MTEXT
   5
38A
 100
AcDbEntity
   8
LEVEL002
 370
15
  62
8
 100
AcDbMText
  10
 309.29999999995
  20
 233.00000000000
  30
0.0
  40
 3.0000000000000
  41
0.0
  71
5
  72
1
   1
\T1.000000;形式：
   7
GMM002
  44
 0.79999984000003
   0
MTEXT
   5
38C
 100
AcDbEntity
   8
LEVEL002
 370
15
  62
8
 100
AcDbMText
  10
 310.79999999995
  20
 253.00000000000
  30
0.0
  40
 3.0000000000000
  41
0.0
  71
5
  72
1
   1
\T1.000000;商品名：
   7
GMM002
  44
 0.79999984000003
   0
MTEXT
   5
38E
 100
AcDbEntity
   8
LEVEL002
 370
15
  62
8
 100
AcDbMText
  10
 346.89999999995
  20
 76.870803459012
  30
0.0
  40
 4.0000000000000
  41
0.0
  71
5
  72
1
   1
\T1.000000;　※本製品は予告無しに変更する事があります。
   7
GMM002
  44
 0.79999984000003
   0
MTEXT
   5
390
 100
AcDbEntity
   8
LEVEL002
 370
15
  62
8
 100
AcDbMText
  10
 354.49999999995
  20
 58.250000000010
  30
0.0
  40
 3.7500000000000
  41
0.0
  71
5
  72
1
   1
\T1.000000;断面図
   7
GMM002
  44
 0.79999984000003
   0
MTEXT
   5
392
 100
AcDbEntity
   8
LEVEL002
 370
15
  62
8
 100
AcDbMText
  10
 329.49999999995
  20
 38.250000000010
  30
0.0
  40
 3.7500000000000
  41
0.0
  71
5
  72
1
   1
\T1.000000;Ｓ＝１：１
   7
GMM002
  44
 0.79999984000003
   0
MTEXT
   5
394
 100
AcDbEntity
   8
LEVEL002
 370
15
  62
8
 100
AcDbMText
  10
 322.49999999995
  20
 244.50000000000
  30
0.0
  40
 4.5000000000000
  41
0.0
  71
7
  72
1
   1
\W0.888889;\T1.000000;　フロアー金具\W0.444444;\T1.000000;(\W0.888889;\T1.000000;アルミタイプ\W0.444444;\T1.000000;)
   7
GMM004
  44
 0.79999984000003
   0
MTEXT
   5
396
 100
AcDbEntity
   8
LEVEL002
 370
15
  62
8
 100
AcDbMText
  10
 51.624999999950
  20
 280.00000000000
  30
0.0
  40
 3.0000000000000
  41
0.0
  71
5
  72
1
   1
\T1.000000;ＡＭ２１
   7
GMM002
  44
 0.79999984000003
   0
MTEXT
   5
398
 100
AcDbEntity
   8
LEVEL002
 370
15
  62
8
 100
AcDbMText
  10
 123.87499999995
  20
 280.00000000000
  30
0.0
  40
 3.0000000000000
  41
0.0
  71
5
  72
1
   1
\T1.000000;ＡＭ２２
   7
GMM002
  44
 0.79999984000003
   0
ARC
   5
399
 100
AcDbEntity
   8
LEVEL001
 370
30
   6
CONTINUOUS
  62
7
 100
AcDbCircle
  10
 59.365620043246
  20
 233.14733006871
  30
0.0
  40
 3.0000000000000
 100
AcDbArc
  50
 41.138051087525
  51
 89.325963102016
   0
LWPOLYLINE
   5
39A
 100
AcDbEntity
   8
LEVEL001
 370
30
   6
CONTINUOUS
  62
7
 100
AcDbPolyline
  90
3
  70
0
  10
 56.374999999950
  20
 236.18272143920
  10
 56.624999999950
  20
 235.97976642238
  10
 56.874999999950
  20
 236.17683908626
   0
LINE
   5
39B
 100
AcDbEntity
   8
LEVEL001
 370
30
 100
AcDbLine
   6
CONTINUOUS
  62
7
  10
 56.874999999950
  20
 236.17683908626
  30
0.0
  11
 59.400911718647
  21
 236.14712247781
  31
0.0
   0
LINE
   5
39C
 100
AcDbEntity
   8
LEVEL001
 370
30
 100
AcDbLine
   6
CONTINUOUS
  62
7
  10
 44.624999999950
  20
 236.32095673332
  30
0.0
  11
 56.374999999950
  21
 236.18272143920
  31
0.0
   0
LINE
   5
39D
 100
AcDbEntity
   8
LEVEL001
 370
15
 100
AcDbLine
   6
DASHDOT
  62
8
  10
 56.624999999950
  20
 235.04877498641
  30
0.0
  11
 56.624999999950
  21
 236.91075785835
  31
0.0
   0
LINE
   5
39E
 100
AcDbEntity
   8
LEVEL001
 370
30
 100
AcDbLine
   6
CONTINUOUS
  62
7
  10
 42.624999999950
  20
 235.12095673332
  30
0.0
  11
 42.725767075341
  21
 236.74571702226
  31
0.0
   0
LINE
   5
39F
 100
AcDbEntity
   8
LEVEL001
 370
30
 100
AcDbLine
   6
CONTINUOUS
  62
7
  10
 43.624999999950
  20
 235.12095673332
  30
0.0
  11
 43.524232924559
  21
 236.74571702226
  31
0.0
   0
ARC
   5
3A0
 100
AcDbEntity
   8
LEVEL001
 370
30
   6
CONTINUOUS
  62
7
 100
AcDbCircle
  10
 43.124999999950
  20
 236.72095673332
  30
0.0
  40
 0.40000000000000
 100
AcDbArc
  50
 3.5489190033044
  51
 176.45108099670
   0
LINE
   5
3A1
 100
AcDbEntity
   8
LEVEL001
 370
30
 100
AcDbLine
   6
CONTINUOUS
  62
7
  10
 61.624999999950
  20
 235.12095673332
  30
0.0
  11
 43.624999999950
  21
 235.12095673332
  31
0.0
   0
LWPOLYLINE
   5
3A2
 100
AcDbEntity
   8
LEVEL001
 370
30
   6
CONTINUOUS
  62
7
 100
AcDbPolyline
  90
5
  70
0
  10
 42.624999999950
  20
 235.12095673332
  10
 41.624999999950
  20
 235.12095673332
  10
 41.624999999950
  20
 239.62095673332
  10
 44.624999999950
  20
 239.62095673332
  10
 44.624999999950
  20
 236.32095673332
   0
DIMENSION
   5
3A3
 100
AcDbEntity
   8
LEVEL001
 370
15
   6
CONTINUOUS
  62
8
 100
AcDbDimension
   2
*D1
  10
 61.624999999950
  20
 227.12095673332
  30
0.0
  11
 51.624999999950
  21
 227.12095673332
  31
0.0
  70
0
   3
GMM001
 100
AcDbAlignedDimension
  13
 41.624999999950
  23
 235.12095673332
  33
0.0
  14
 61.624999999950
  24
 235.12095673332
  34
0.0
 100
AcDbRotatedDimension
   0
DIMENSION
   5
3A4
 100
AcDbEntity
   8
LEVEL001
 370
15
   6
CONTINUOUS
  62
8
 100
AcDbDimension
   2
*D2
  10
 37.056492897299
  20
 239.62095673332
  30
0.0
  11
 37.056492897299
  21
 237.37095673332
  31
0.0
  70
0
   3
GMM001
 100
AcDbAlignedDimension
  13
 41.624999999950
  23
 235.12095673332
  33
0.0
  14
 41.624999999950
  24
 239.62095673332
  34
0.0
  50
 90.000000000000
 100
AcDbRotatedDimension
   0
DIMENSION
   5
3A5
 100
AcDbEntity
   8
LEVEL001
 370
15
   6
CONTINUOUS
  62
8
 100
AcDbDimension
   2
*D3
  10
 66.439565930230
  20
 236.12095673332
  30
0.0
  11
 66.439565930230
  21
 232.97425137757
  31
0.0
  70
128
   3
GMM002
 100
AcDbAlignedDimension
  13
 61.624999999950
  23
 235.12095673332
  33
0.0
  14
 61.624999999950
  24
 236.12095673332
  34
0.0
  50
 90.000000000000
 100
AcDbRotatedDimension
   0
MTEXT
   5
3A7
 100
AcDbEntity
   8
LEVEL001
 370
15
  62
8
 100
AcDbMText
  10
 15.799999999950
  20
 280.00000000000
  30
0.0
  40
 3.0000000000000
  41
0.0
  71
4
  72
1
   1
\W0.500000;\T1.000000; \W1.000000;\T1.000000;床見切
   7
GMM002
  44
 0.79999984000003
   0
MTEXT
   5
3A9
 100
AcDbEntity
   8
LEVEL001
 370
15
  62
8
 100
AcDbMText
  10
 88.049999999950
  20
 280.00000000000
  30
0.0
  40
 3.0000000000000
  41
0.0
  71
4
  72
1
   1
\W0.500000;\T1.000000; \W1.000000;\T1.000000;床見切
   7
GMM002
  44
 0.79999984000003
   0
LINE
   5
3AA
 100
AcDbEntity
   8
LEVEL001
 370
15
 100
AcDbLine
   6
DASHDOT
  62
8
  10
 128.87499999995
  20
 235.04877498641
  30
0.0
  11
 128.87499999995
  21
 236.91075785835
  31
0.0
   0
DIMENSION
   5
3AB
 100
AcDbEntity
   8
LEVEL001
 370
15
   6
CONTINUOUS
  62
8
 100
AcDbDimension
   2
*D4
  10
 133.87499999995
  20
 227.12095673332
  30
0.0
  11
 123.87499999995
  21
 227.12095673332
  31
0.0
  70
0
   3
GMM001
 100
AcDbAlignedDimension
  13
 113.87499999995
  23
 235.12095673332
  33
0.0
  14
 133.87499999995
  24
 235.12095673332
  34
0.0
 100
AcDbRotatedDimension
   0
DIMENSION
   5
3AC
 100
AcDbEntity
   8
LEVEL001
 370
15
   6
CONTINUOUS
  62
8
 100
AcDbDimension
   2
*D5
  10
 109.30649289730
  20
 239.62095673332
  30
0.0
  11
 109.30649289730
  21
 237.37095673332
  31
0.0
  70
0
   3
GMM001
 100
AcDbAlignedDimension
  13
 113.87499999995
  23
 235.12095673332
  33
0.0
  14
 113.87499999995
  24
 239.62095673332
  34
0.0
  50
 90.000000000000
 100
AcDbRotatedDimension
   0
DIMENSION
   5
3AD
 100
AcDbEntity
   8
LEVEL001
 370
15
   6
CONTINUOUS
  62
8
 100
AcDbDimension
   2
*D6
  10
 138.68956593023
  20
 236.12095673332
  30
0.0
  11
 138.68956593023
  21
 232.97425137757
  31
0.0
  70
128
   3
GMM002
 100
AcDbAlignedDimension
  13
 133.87499999995
  23
 235.12095673332
  33
0.0
  14
 133.87499999995
  24
 236.12095673332
  34
0.0
  50
 90.000000000000
 100
AcDbRotatedDimension
   0
LINE
   5
3AE
 100
AcDbEntity
   8
LEVEL001
 370
30
 100
AcDbLine
   6
CONTINUOUS
  62
7
  10
 113.87499999995
  20
 235.12095673332
  30
0.0
  11
 113.87499999995
  21
 239.62095673332
  31
0.0
   0
LINE
   5
3AF
 100
AcDbEntity
   8
LEVEL001
 370
30
 100
AcDbLine
   6
CONTINUOUS
  62
7
  10
 113.87499999995
  20
 239.62095673332
  30
0.0
  11
 118.87499999995
  21
 239.62095673332
  31
0.0
   0
LINE
   5
3B0
 100
AcDbEntity
   8
LEVEL001
 370
30
 100
AcDbLine
   6
CONTINUOUS
  62
7
  10
 118.87499999995
  20
 239.62095673332
  30
0.0
  11
 118.87499999995
  21
 236.32095673332
  31
0.0
   0
LWPOLYLINE
   5
3B1
 100
AcDbEntity
   8
LEVEL001
 370
30
   6
CONTINUOUS
  62
7
 100
AcDbPolyline
  90
3
  70
0
  10
 128.62499999995
  20
 236.19095673332
  10
 128.87499999995
  20
 235.98760562300
  10
 129.12499999995
  20
 236.18429006665
   0
LINE
   5
3B2
 100
AcDbEntity
   8
LEVEL001
 370
30
 100
AcDbLine
   6
CONTINUOUS
  62
7
  10
 118.87499999995
  20
 236.32095673332
  30
0.0
  11
 128.62499999995
  21
 236.19095673332
  31
0.0
   0
LINE
   5
3B3
 100
AcDbEntity
   8
LEVEL001
 370
30
 100
AcDbLine
   6
CONTINUOUS
  62
7
  10
 129.12499999995
  20
 236.18429006665
  30
0.0
  11
 131.65254121109
  21
 236.15058951717
  31
0.0
   0
ARC
   5
3B4
 100
AcDbEntity
   8
LEVEL001
 370
30
   6
CONTINUOUS
  62
7
 100
AcDbCircle
  10
 131.61254476617
  20
 233.15085614829
  30
0.0
  40
 3.0000000000000
 100
AcDbArc
  50
 41.048693811832
  51
 89.236101539071
   0
LINE
   5
3B5
 100
AcDbEntity
   8
LEVEL001
 370
30
 100
AcDbLine
   6
CONTINUOUS
  62
7
  10
 115.07499999995
  20
 235.12095673332
  30
0.0
  11
 113.87499999995
  21
 235.12095673332
  31
0.0
   0
LINE
   5
3B6
 100
AcDbEntity
   8
LEVEL001
 370
30
 100
AcDbLine
   6
CONTINUOUS
  62
7
  10
 133.87499999995
  20
 235.12095673332
  30
0.0
  11
 117.67499999995
  21
 235.12095673332
  31
0.0
   0
LWPOLYLINE
   5
3B7
 100
AcDbEntity
   8
LEVEL001
 370
30
   6
CONTINUOUS
  62
7
 100
AcDbPolyline
  90
4
  70
0
  10
 115.07499999995
  20
 235.12095673332
  10
 115.07499999995
  20
 238.42095673332
  10
 117.67499999995
  20
 238.42095673332
  10
 117.67499999995
  20
 235.12095673332
   0
DIMENSION
   5
3B8
 100
AcDbEntity
   8
LEVEL001
 370
15
   6
CONTINUOUS
  62
8
 100
AcDbDimension
   2
*D7
  10
 44.624999999950
  20
 243.60142529140
  30
0.0
  11
 43.124999999950
  21
 243.60142529140
  31
0.0
  70
0
   3
GMM001
 100
AcDbAlignedDimension
  13
 41.624999999950
  23
 239.62095673332
  33
0.0
  14
 44.624999999950
  24
 239.62095673332
  34
0.0
 100
AcDbRotatedDimension
   0
DIMENSION
   5
3B9
 100
AcDbEntity
   8
LEVEL001
 370
15
   6
CONTINUOUS
  62
8
 100
AcDbDimension
   2
*D8
  10
 51.951157742878
  20
 239.62095673332
  30
0.0
  11
 51.951157742878
  21
 241.23627725889
  31
0.0
  70
128
   3
GMM003
 100
AcDbAlignedDimension
  13
 44.624999999950
  23
 236.32095673332
  33
0.0
  14
 44.624999999950
  24
 239.62095673332
  34
0.0
  50
 90.000000000000
 100
AcDbRotatedDimension
   0
DIMENSION
   5
3BA
 100
AcDbEntity
   8
LEVEL001
 370
15
   6
CONTINUOUS
  62
8
 100
AcDbDimension
   2
*D9
  10
 126.20115774288
  20
 239.62095673332
  30
0.0
  11
 126.20115774288
  21
 241.23627725889
  31
0.0
  70
128
   3
GMM003
 100
AcDbAlignedDimension
  13
 118.87499999995
  23
 236.32095673332
  33
0.0
  14
 118.87499999995
  24
 239.62095673332
  34
0.0
  50
 90.000000000000
 100
AcDbRotatedDimension
   0
DIMENSION
   5
3BB
 100
AcDbEntity
   8
LEVEL001
 370
15
   6
CONTINUOUS
  62
8
 100
AcDbDimension
   2
*D10
  10
 118.87499999995
  20
 243.60142529140
  30
0.0
  11
 116.37499999995
  21
 243.60142529140
  31
0.0
  70
0
   3
GMM001
 100
AcDbAlignedDimension
  13
 113.87499999995
  23
 239.62095673332
  33
0.0
  14
 118.87499999995
  24
 239.62095673332
  34
0.0
 100
AcDbRotatedDimension
   0
MTEXT
   5
3BD
 100
AcDbEntity
   8
LEVEL002
 370
15
  62
8
 100
AcDbMText
  10
 319.49999999995
  20
 207.91666666670
  30
0.0
  40
 3.5000000000000
  41
0.0
  71
1
  72
1
   1
{\W0.500000;\T1.000000;･\W1.000000;\T1.000000;材質：Ａ６０６３Ｓ－Ｔ５}\P\P{\W1.000000;\T1.000000;※仕上げ・定尺は各種参照}
   7
GMM002
  44
 0.79999984000003
   0
MTEXT
   5
3BF
 100
AcDbEntity
   8
LEVEL002
 370
15
  62
8
 100
AcDbMText
  10
 379.49999999995
  20
 20.083333333345
  30
0.0
  40
 2.5000000000000
  41
0.0
  71
5
  72
1
   1
\T1.000000;フロアー金具アルミ－２
   7
GMM002
  44
 0.79999984000003
   0
MTEXT
   5
3C1
 100
AcDbEntity
   8
LEVEL002
 370
15
  62
8
 100
AcDbMText
  10
 196.12499999995
  20
 280.00000000000
  30
0.0
  40
 3.0000000000000
  41
0.0
  71
5
  72
1
   1
\T1.000000;ＡＭ３１
   7
GMM002
  44
 0.79999984000003
   0
MTEXT
   5
3C3
 100
AcDbEntity
   8
LEVEL002
 370
15
  62
8
 100
AcDbMText
  10
 268.37499999995
  20
 280.00000000000
  30
0.0
  40
 3.0000000000000
  41
0.0
  71
5
  72
1
   1
\T1.000000;ＡＭ３１Ｂ
   7
GMM002
  44
 0.79999984000003
   0
MTEXT
   5
3C5
 100
AcDbEntity
   8
LEVEL001
 370
15
  62
8
 100
AcDbMText
  10
 160.24999999995
  20
 281.54166666667
  30
0.0
  40
 2.5000000000000
  41
0.0
  71
1
  72
1
   1
{\W0.500000;\T1.000000; \W1.000000;\T1.000000;床エッジ}\P{\W0.500000;\T1.000000; \W1.000000;\T1.000000;巻き上げエッジ}
   7
GMM002
  44
 0.73999985200003
   0
MTEXT
   5
3C7
 100
AcDbEntity
   8
LEVEL001
 370
15
  62
8
 100
AcDbMText
  10
 232.49999999995
  20
 281.54166666667
  30
0.0
  40
 2.5000000000000
  41
0.0
  71
1
  72
1
   1
{\W0.500000;\T1.000000; \W1.000000;\T1.000000;床エッジ}\P{\W0.500000;\T1.000000; \W1.000000;\T1.000000;巻き上げエッジ}
   7
GMM002
  44
 0.73999985200003
   0
ARC
   5
3C8
 100
AcDbEntity
   8
LEVEL001
 370
30
   6
CONTINUOUS
  62
7
 100
AcDbCircle
  10
 278.57499999995
  20
 233.61790144114
  30
0.0
  40
 0.80000000000000
 100
AcDbArc
  50
0.0
  51
 90.000000000000
   0
POINT
   5
3C9
 100
AcDbEntity
   8
LEVEL001
 100
AcDbPoint
  62
7
  10
 257.37499999995
  20
 238.11790144114
  30
0.0
   0
POINT
   5
3CA
 100
AcDbEntity
   8
LEVEL001
 100
AcDbPoint
  62
7
  10
 258.37499999995
  20
 237.11790144114
  30
0.0
   0
ARC
   5
3CB
 100
AcDbEntity
   8
LEVEL001
 370
30
   6
CONTINUOUS
  62
7
 100
AcDbCircle
  10
 259.37499999995
  20
 235.60805138580
  30
0.0
  40
 1.0000000000000
 100
AcDbArc
  50
 180.00000000000
  51
 269.43284475438
   0
POINT
   5
3CC
 100
AcDbEntity
   8
LEVEL001
 100
AcDbPoint
  62
7
  10
 258.37499999995
  20
 234.61790144114
  30
0.0
   0
LINE
   5
3CD
 100
AcDbEntity
   8
LEVEL001
 370
30
 100
AcDbLine
   6
CONTINUOUS
  62
7
  10
 259.36510143520
  20
 234.60810037779
  30
0.0
  11
 272.17300039582
  21
 234.48131434908
  31
0.0
   0
LINE
   5
3CE
 100
AcDbEntity
   8
LEVEL001
 370
30
 100
AcDbLine
   6
CONTINUOUS
  62
7
  10
 272.17300039582
  20
 234.48131434908
  30
0.0
  11
 272.37499999995
  21
 234.27931474496
  31
0.0
   0
LINE
   5
3CF
 100
AcDbEntity
   8
LEVEL001
 370
30
 100
AcDbLine
   6
CONTINUOUS
  62
7
  10
 272.57303959614
  20
 234.47735434115
  30
0.0
  11
 278.58291885175
  21
 234.41786224754
  31
0.0
   0
LINE
   5
3D0
 100
AcDbEntity
   8
LEVEL001
 370
30
 100
AcDbLine
   6
CONTINUOUS
  62
7
  10
 272.57303959614
  20
 234.47735434115
  30
0.0
  11
 272.37499999995
  21
 234.27931474496
  31
0.0
   0
ARC
   5
3D1
 100
AcDbEntity
   8
LEVEL001
 370
30
   6
CONTINUOUS
  62
7
 100
AcDbCircle
  10
 263.87499999995
  20
 238.11790144114
  30
0.0
  40
 0.50000000000000
 100
AcDbArc
  50
0.0
  51
 90.000000000000
   0
POINT
   5
3D2
 100
AcDbEntity
   8
LEVEL001
 100
AcDbPoint
  62
7
  10
 264.37499999995
  20
 238.61790144114
  30
0.0
   0
LINE
   5
3D3
 100
AcDbEntity
   8
LEVEL001
 370
30
 100
AcDbLine
   6
CONTINUOUS
  62
7
  10
 264.37499999995
  20
 238.11790144114
  30
0.0
  11
 264.37499999995
  21
 238.01790144114
  31
0.0
   0
LINE
   5
3D4
 100
AcDbEntity
   8
LEVEL001
 370
30
 100
AcDbLine
   6
CONTINUOUS
  62
7
  10
 263.87499999995
  20
 238.61790144114
  30
0.0
  11
 258.37499999995
  21
 238.61790144114
  31
0.0
   0
ARC
   5
3D5
 100
AcDbEntity
   8
LEVEL001
 370
30
   6
CONTINUOUS
  62
7
 100
AcDbCircle
  10
 259.37499999995
  20
 236.65177008068
  30
0.0
  40
 1.0000000000000
 100
AcDbArc
  50
 91.973762521988
  51
 180.00000000000
   0
LINE
   5
3D6
 100
AcDbEntity
   8
LEVEL001
 370
30
 100
AcDbLine
   6
CONTINUOUS
  62
7
  10
 259.34055815831
  20
 237.65117678446
  30
0.0
  11
 264.18188836828
  21
 237.81802010038
  31
0.0
   0
ARC
   5
3D7
 100
AcDbEntity
   8
LEVEL001
 370
30
   6
CONTINUOUS
  62
7
 100
AcDbCircle
  10
 264.17499999995
  20
 238.01790144114
  30
0.0
  40
 0.20000000000000
 100
AcDbArc
  50
 270.00000000000
  51
0.0
   0
ARC
   5
3D8
 100
AcDbEntity
   8
LEVEL001
 370
30
   6
CONTINUOUS
  62
7
 100
AcDbCircle
  10
 258.37499999995
  20
 237.61790144114
  30
0.0
  40
 1.0000000000000
 100
AcDbArc
  50
 90.000000000000
  51
 180.00000000000
   0
LINE
   5
3D9
 100
AcDbEntity
   8
LEVEL001
 370
30
 100
AcDbLine
   6
CONTINUOUS
  62
7
  10
 258.37499999995
  20
 236.65177008068
  30
0.0
  11
 258.37499999995
  21
 235.60805138580
  31
0.0
   0
LWPOLYLINE
   5
3DA
 100
AcDbEntity
   8
LEVEL001
 370
30
   6
CONTINUOUS
  62
7
 100
AcDbPolyline
  90
3
  70
0
  10
 257.37499999995
  20
 237.61790144114
  10
 257.37499999995
  20
 233.61790144114
  10
 279.37499999995
  20
 233.61790144114
   0
DIMENSION
   5
3DB
 100
AcDbEntity
   8
LEVEL001
 370
15
   6
CONTINUOUS
  62
8
 100
AcDbDimension
   2
*D11
  10
 252.36403293223
  20
 238.61790144114
  30
0.0
  11
 252.36403293223
  21
 236.11790144114
  31
0.0
  70
0
   3
GMM004
 100
AcDbAlignedDimension
  13
 257.37499999995
  23
 233.61790144114
  33
0.0
  14
 257.37499999995
  24
 238.61790144114
  34
0.0
  50
 90.000000000000
 100
AcDbRotatedDimension
   0
DIMENSION
   5
3DC
 100
AcDbEntity
   8
LEVEL001
 370
15
   6
CONTINUOUS
  62
8
 100
AcDbDimension
   2
*D12
  10
 285.12547871542
  20
 234.41790144114
  30
0.0
  11
 285.12547871542
  21
 235.77140327987
  31
0.0
  70
128
   3
GMM005
 100
AcDbAlignedDimension
  13
 279.37499999995
  23
 233.61790144114
  33
0.0
  14
 278.58291885175
  24
 234.41790144114
  34
0.0
  50
 90.000000000000
 100
AcDbRotatedDimension
   0
DIMENSION
   5
3DD
 100
AcDbEntity
   8
LEVEL001
 370
15
   6
CONTINUOUS
  62
8
 100
AcDbDimension
   2
*D13
  10
 264.37499999995
  20
 244.29897446205
  30
0.0
  11
 260.87499999995
  21
 244.29897446205
  31
0.0
  70
0
   3
GMM004
 100
AcDbAlignedDimension
  13
 257.37499999995
  23
 238.61790144114
  33
0.0
  14
 264.37499999995
  24
 238.61790144114
  34
0.0
 100
AcDbRotatedDimension
   0
DIMENSION
   5
3DE
 100
AcDbEntity
   8
LEVEL001
 370
15
   6
CONTINUOUS
  62
8
 100
AcDbDimension
   2
*D14
  10
 279.37499999995
  20
 225.53778095921
  30
0.0
  11
 268.37499999995
  21
 225.53778095921
  31
0.0
  70
0
   3
GMM004
 100
AcDbAlignedDimension
  13
 257.37499999995
  23
 233.61790144114
  33
0.0
  14
 279.37499999995
  24
 233.61790144114
  34
0.0
 100
AcDbRotatedDimension
   0
LINE
   5
3DF
 100
AcDbEntity
   8
LEVEL001
 370
15
 100
AcDbLine
   6
DASHDOT
  62
8
  10
 272.37499999995
  20
 233.82577767035
  30
0.0
  11
 272.37499999995
  21
 235.13285181957
  31
0.0
   0
ARC
   5
3E0
 100
AcDbEntity
   8
LEVEL001
 370
30
   6
CONTINUOUS
  62
7
 100
AcDbCircle
  10
 206.32499999995
  20
 235.53778095921
  30
0.0
  40
 0.80000000000000
 100
AcDbArc
  50
0.0
  51
 90.000000000000
   0
ARC
   5
3E1
 100
AcDbEntity
   8
LEVEL001
 370
30
   6
CONTINUOUS
  62
7
 100
AcDbCircle
  10
 191.62499999995
  20
 239.53778095921
  30
0.0
  40
 0.50000000000000
 100
AcDbArc
  50
0.0
  51
 90.000000000000
   0
POINT
   5
3E2
 100
AcDbEntity
   8
LEVEL001
 100
AcDbPoint
  62
7
  10
 192.12499999995
  20
 240.03778095921
  30
0.0
   0
LINE
   5
3E3
 100
AcDbEntity
   8
LEVEL001
 370
30
 100
AcDbLine
   6
CONTINUOUS
  62
7
  10
 192.12499999995
  20
 239.53778095921
  30
0.0
  11
 192.12499999995
  21
 239.43778095921
  31
0.0
   0
LINE
   5
3E4
 100
AcDbEntity
   8
LEVEL001
 370
30
 100
AcDbLine
   6
CONTINUOUS
  62
7
  10
 191.62499999995
  20
 240.03778095921
  30
0.0
  11
 186.12499999995
  21
 240.03778095921
  31
0.0
   0
LWPOLYLINE
   5
3E5
 100
AcDbEntity
   8
LEVEL001
 370
30
   6
CONTINUOUS
  62
7
 100
AcDbPolyline
  90
3
  70
0
  10
 185.12499999995
  20
 239.03778095921
  10
 185.12499999995
  20
 235.53778095921
  10
 207.12499999995
  20
 235.53778095921
   0
ARC
   5
3E6
 100
AcDbEntity
   8
LEVEL001
 370
30
   6
CONTINUOUS
  62
7
 100
AcDbCircle
  10
 186.12499999995
  20
 239.03778095921
  30
0.0
  40
 1.0000000000000
 100
AcDbArc
  50
 90.000000000000
  51
 180.00000000000
   0
POINT
   5
3E7
 100
AcDbEntity
   8
LEVEL001
 100
AcDbPoint
  62
7
  10
 185.12499999995
  20
 240.03778095921
  30
0.0
   0
ARC
   5
3E8
 100
AcDbEntity
   8
LEVEL001
 370
30
   6
CONTINUOUS
  62
7
 100
AcDbCircle
  10
 187.12499999995
  20
 238.07164959876
  30
0.0
  40
 1.0000000000000
 100
AcDbArc
  50
 91.973762521988
  51
 180.00000000001
   0
POINT
   5
3E9
 100
AcDbEntity
   8
LEVEL001
 100
AcDbPoint
  62
7
  10
 186.12499999995
  20
 239.03778095921
  30
0.0
   0
LINE
   5
3EA
 100
AcDbEntity
   8
LEVEL001
 370
30
 100
AcDbLine
   6
CONTINUOUS
  62
7
  10
 187.09055815831
  20
 239.07105630253
  30
0.0
  11
 191.93188836828
  21
 239.23789961845
  31
0.0
   0
LINE
   5
3EB
 100
AcDbEntity
   8
LEVEL001
 370
30
 100
AcDbLine
   6
CONTINUOUS
  62
7
  10
 186.12499999995
  20
 238.07164959876
  30
0.0
  11
 186.12499999995
  21
 237.52793090387
  31
0.0
   0
ARC
   5
3EC
 100
AcDbEntity
   8
LEVEL001
 370
30
   6
CONTINUOUS
  62
7
 100
AcDbCircle
  10
 187.12499999995
  20
 237.52793090387
  30
0.0
  40
 1.0000000000000
 100
AcDbArc
  50
 180.00000000000
  51
 269.43284475438
   0
POINT
   5
3ED
 100
AcDbEntity
   8
LEVEL001
 100
AcDbPoint
  62
7
  10
 186.12499999995
  20
 236.53778095921
  30
0.0
   0
LINE
   5
3EE
 100
AcDbEntity
   8
LEVEL001
 370
30
 100
AcDbLine
   6
CONTINUOUS
  62
7
  10
 187.11510143520
  20
 236.52797989587
  30
0.0
  11
 199.92300039582
  21
 236.40119386716
  31
0.0
   0
LINE
   5
3EF
 100
AcDbEntity
   8
LEVEL001
 370
30
 100
AcDbLine
   6
CONTINUOUS
  62
7
  10
 199.92300039582
  20
 236.40119386716
  30
0.0
  11
 200.12499999995
  21
 236.19919426303
  31
0.0
   0
LINE
   5
3F0
 100
AcDbEntity
   8
LEVEL001
 370
30
 100
AcDbLine
   6
CONTINUOUS
  62
7
  10
 200.32303959614
  20
 236.39723385922
  30
0.0
  11
 206.33291885175
  21
 236.33774176561
  31
0.0
   0
LINE
   5
3F1
 100
AcDbEntity
   8
LEVEL001
 370
30
 100
AcDbLine
   6
CONTINUOUS
  62
7
  10
 200.32303959614
  20
 236.39723385922
  30
0.0
  11
 200.12499999995
  21
 236.19919426303
  31
0.0
   0
ARC
   5
3F2
 100
AcDbEntity
   8
LEVEL001
 370
30
   6
CONTINUOUS
  62
7
 100
AcDbCircle
  10
 191.92499999995
  20
 239.43778095921
  30
0.0
  40
 0.20000000000000
 100
AcDbArc
  50
 270.00000000007
  51
0.0
   0
DIMENSION
   5
3F3
 100
AcDbEntity
   8
LEVEL001
 370
15
   6
CONTINUOUS
  62
8
 100
AcDbDimension
   2
*D15
  10
 181.70439437792
  20
 240.03778095921
  30
0.0
  11
 181.70439437792
  21
 237.78778095921
  31
0.0
  70
0
   3
GMM004
 100
AcDbAlignedDimension
  13
 185.12499999995
  23
 235.53778095921
  33
0.0
  14
 185.12499999995
  24
 240.03778095921
  34
0.0
  50
 90.000000000000
 100
AcDbRotatedDimension
   0
DIMENSION
   5
3F4
 100
AcDbEntity
   8
LEVEL001
 370
15
   6
CONTINUOUS
  62
8
 100
AcDbDimension
   2
*D16
  10
 213.35258714905
  20
 236.33778095921
  30
0.0
  11
 213.35258714905
  21
 237.69128279794
  31
0.0
  70
128
   3
GMM005
 100
AcDbAlignedDimension
  13
 207.12499999995
  23
 235.53778095921
  33
0.0
  14
 206.33291885175
  24
 236.33778095921
  34
0.0
  50
 90.000000000000
 100
AcDbRotatedDimension
   0
DIMENSION
   5
3F5
 100
AcDbEntity
   8
LEVEL001
 370
15
   6
CONTINUOUS
  62
8
 100
AcDbDimension
   2
*D17
  10
 192.12499999995
  20
 244.45801060662
  30
0.0
  11
 188.62499999995
  21
 244.45801060662
  31
0.0
  70
0
   3
GMM004
 100
AcDbAlignedDimension
  13
 185.12499999995
  23
 240.03778095921
  33
0.0
  14
 192.12499999995
  24
 240.03778095921
  34
0.0
 100
AcDbRotatedDimension
   0
DIMENSION
   5
3F6
 100
AcDbEntity
   8
LEVEL001
 370
15
   6
CONTINUOUS
  62
8
 100
AcDbDimension
   2
*D18
  10
 207.12499999995
  20
 225.53778095921
  30
0.0
  11
 196.12499999995
  21
 225.53778095921
  31
0.0
  70
0
   3
GMM004
 100
AcDbAlignedDimension
  13
 185.12499999995
  23
 235.53778095921
  33
0.0
  14
 207.12499999995
  24
 235.53778095921
  34
0.0
 100
AcDbRotatedDimension
   0
LINE
   5
3F7
 100
AcDbEntity
   8
LEVEL001
 370
15
 100
AcDbLine
   6
DASHDOT
  62
8
  10
 200.12499999995
  20
 235.74565718842
  30
0.0
  11
 200.12499999995
  21
 237.05273133764
  31
0.0
   0
DIMENSION
   5
3F8
 100
AcDbEntity
   8
LEVEL001
 370
15
   6
CONTINUOUS
  62
8
 100
AcDbDimension
   2
*D19
  10
 79.241586538412
  20
 166.42762252995
  30
0.0
  11
 79.241586538412
  21
 163.49190543289
  31
0.0
  70
128
   3
GMM006
 100
AcDbAlignedDimension
  13
 68.124999999950
  23
 164.92762252995
  33
0.0
  14
 54.124999999950
  24
 166.42762252995
  34
0.0
  50
 90.000000000000
 100
AcDbRotatedDimension
   0
DIMENSION
   5
3F9
 100
AcDbEntity
   8
LEVEL001
 370
15
   6
CONTINUOUS
  62
8
 100
AcDbDimension
   2
*D20
  10
 79.241586538412
  20
 174.42762252995
  30
0.0
  11
 79.241586538412
  21
 170.42762252995
  31
0.0
  70
0
   3
GMM001
 100
AcDbAlignedDimension
  13
 54.124999999950
  23
 166.42762252995
  33
0.0
  14
 50.624999999950
  24
 174.42762252995
  34
0.0
  50
 90.000000000000
 100
AcDbRotatedDimension
   0
DIMENSION
   5
3FA
 100
AcDbEntity
   8
LEVEL001
 370
15
   6
CONTINUOUS
  62
8
 100
AcDbDimension
   2
*D21
  10
 30.385364363364
  20
 167.42762252995
  30
0.0
  11
 30.385364363364
  21
 169.02871935526
  31
0.0
  70
128
   3
GMM007
 100
AcDbAlignedDimension
  13
 40.124999999950
  23
 164.92762252995
  33
0.0
  14
 35.124999999950
  24
 167.42762252995
  34
0.0
  50
 90.000000000000
 100
AcDbRotatedDimension
   0
LINE
   5
3FB
 100
AcDbEntity
   8
LEVEL001
 370
30
 100
AcDbLine
   6
CONTINUOUS
  62
7
  10
 40.124999999950
  20
 164.92762252995
  30
0.0
  11
 40.124999999950
  21
 167.98762252995
  31
0.0
   0
ARC
   5
3FC
 100
AcDbEntity
   8
LEVEL001
 370
30
   6
CONTINUOUS
  62
7
 100
AcDbCircle
  10
 39.184999999950
  20
 167.98762252995
  30
0.0
  40
 0.94000000000000
 100
AcDbArc
  50
 0.34647744615092E-11
  51
 111.11245132603
   0
LWPOLYLINE
   5
3FD
 100
AcDbEntity
   8
LEVEL001
 370
30
   6
CONTINUOUS
  62
7
 100
AcDbPolyline
  90
4
  70
0
  10
 38.846412426765
  20
 168.86452529268
  10
 35.124999999950
  20
 167.42762252995
  10
 35.124999999950
  20
 168.49957718669
  10
 36.688424944050
  20
 169.10324304359
   0
ARC
   5
3FE
 100
AcDbEntity
   8
LEVEL001
 370
30
   6
CONTINUOUS
  62
7
 100
AcDbCircle
  10
 36.874999999950
  20
 169.17528295278
  30
0.0
  40
 0.20000000000000
 100
AcDbArc
  50
 201.11245132604
  51
 21.112451326044
   0
LINE
   5
3FF
 100
AcDbEntity
   8
LEVEL001
 370
30
 100
AcDbLine
   6
CONTINUOUS
  62
7
  10
 37.061575055850
  20
 169.24732286196
  30
0.0
  11
 38.188424944050
  21
 169.68241941452
  31
0.0
   0
ARC
   5
400
 100
AcDbEntity
   8
LEVEL001
 370
30
   6
CONTINUOUS
  62
7
 100
AcDbCircle
  10
 38.374999999950
  20
 169.75445932371
  30
0.0
  40
 0.20000000000000
 100
AcDbArc
  50
 201.11245132604
  51
 21.112451326044
   0
ARC
   5
401
 100
AcDbEntity
   8
LEVEL001
 370
30
   6
CONTINUOUS
  62
7
 100
AcDbCircle
  10
 44.874999999950
  20
 171.55262252995
  30
0.0
  40
 0.20000000000000
 100
AcDbArc
  50
 206.56505117708
  51
 26.565051177093
   0
LINE
   5
402
 100
AcDbEntity
   8
LEVEL001
 370
30
 100
AcDbLine
   6
CONTINUOUS
  62
7
  10
 45.053885438150
  20
 171.64206524905
  30
0.0
  11
 46.196114561750
  21
 172.21317981085
  31
0.0
   0
ARC
   5
403
 100
AcDbEntity
   8
LEVEL001
 370
30
   6
CONTINUOUS
  62
7
 100
AcDbCircle
  10
 46.374999999950
  20
 172.30262252995
  30
0.0
  40
 0.20000000000000
 100
AcDbArc
  50
 206.56505117708
  51
 26.565051177093
   0
LINE
   5
404
 100
AcDbEntity
   8
LEVEL001
 370
30
 100
AcDbLine
   6
CONTINUOUS
  62
7
  10
 46.553885438150
  20
 172.39206524905
  30
0.0
  11
 47.696114561750
  21
 172.96317981085
  31
0.0
   0
ARC
   5
405
 100
AcDbEntity
   8
LEVEL001
 370
30
   6
CONTINUOUS
  62
7
 100
AcDbCircle
  10
 47.874999999950
  20
 173.05262252995
  30
0.0
  40
 0.20000000000000
 100
AcDbArc
  50
 206.56505117708
  51
 26.565051177093
   0
LINE
   5
406
 100
AcDbEntity
   8
LEVEL001
 370
30
 100
AcDbLine
   6
CONTINUOUS
  62
7
  10
 48.053885438150
  20
 173.14206524905
  30
0.0
  11
 49.196114561750
  21
 173.71317981085
  31
0.0
   0
ARC
   5
407
 100
AcDbEntity
   8
LEVEL001
 370
30
   6
CONTINUOUS
  62
7
 100
AcDbCircle
  10
 49.374999999950
  20
 173.80262252995
  30
0.0
  40
 0.20000000000000
 100
AcDbArc
  50
 206.56505117708
  51
 26.565051177093
   0
ARC
   5
408
 100
AcDbEntity
   8
LEVEL001
 370
30
   6
CONTINUOUS
  62
7
 100
AcDbCircle
  10
 44.124999999950
  20
 166.90437957856
  30
0.0
  40
 0.50000000000000
 100
AcDbArc
  50
 180.00000000001
  51
 267.27368900610
   0
LWPOLYLINE
   5
409
 100
AcDbEntity
   8
LEVEL001
 370
30
   6
CONTINUOUS
  62
7
 100
AcDbPolyline
  90
4
  70
0
  10
 44.101217425242
  20
 166.40494550969
  10
 54.124999999950
  20
 165.92762252995
  10
 54.124999999950
  20
 166.42762252995
  10
 67.653524895219
  20
 165.65456396450
   0
ARC
   5
40A
 100
AcDbEntity
   8
LEVEL001
 370
30
   6
CONTINUOUS
  62
7
 100
AcDbCircle
  10
 67.624999999950
  20
 165.15537829729
  30
0.0
  40
 0.50000000000000
 100
AcDbArc
  50
0.0
  51
 86.729512076805
   0
LWPOLYLINE
   5
40B
 100
AcDbEntity
   8
LEVEL001
 370
30
   6
CONTINUOUS
  62
7
 100
AcDbPolyline
  90
36
  70
0
  10
 68.124999999950
  20
 165.15537829729
  10
 68.124999999950
  20
 164.92762252995
  10
 61.824999999850
  20
 164.92762252995
  10
 61.624999999840
  20
 165.12762252996
  10
 61.424999999850
  20
 164.92762252997
  10
 60.224999999950
  20
 164.92762252995
  10
 60.024999999950
  20
 165.12762252995
  10
 59.824999999959
  20
 164.92762252996
  10
 58.624999999950
  20
 164.92762252995
  10
 58.424999999950
  20
 165.12762252995
  10
 58.224999999959
  20
 164.92762252996
  10
 57.024999999749
  20
 164.92762252995
  10
 56.824999999731
  20
 165.12762252997
  10
 56.624999999740
  20
 164.92762252997
  10
 55.424999999850
  20
 164.92762252995
  10
 55.224999999840
  20
 165.12762252996
  10
 55.024999999850
  20
 164.92762252997
  10
 53.824999999850
  20
 164.92762252995
  10
 53.624999999840
  20
 165.12762252996
  10
 53.424999999850
  20
 164.92762252997
  10
 52.224999999950
  20
 164.92762252995
  10
 52.024999999950
  20
 165.12762252995
  10
 51.824999999959
  20
 164.92762252996
  10
 50.624999999850
  20
 164.92762252995
  10
 50.424999999840
  20
 165.12762252996
  10
 50.224999999850
  20
 164.92762252997
  10
 49.024999999950
  20
 164.92762252995
  10
 48.824999999950
  20
 165.12762252995
  10
 48.624999999959
  20
 164.92762252996
  10
 47.424999999950
  20
 164.92762252995
  10
 47.224999999950
  20
 165.12762252995
  10
 47.024999999959
  20
 164.92762252996
  10
 45.825000000051
  20
 164.92762252995
  10
 45.625000000060
  20
 165.12762252994
  10
 45.425000000069
  20
 164.92762252995
  10
 42.749999999950
  20
 164.92762252995
   0
ARC
   5
40C
 100
AcDbEntity
   8
LEVEL001
 370
30
   6
CONTINUOUS
  62
7
 100
AcDbCircle
  10
 41.874999999950
  20
 164.92762252995
  30
0.0
  40
 0.87500000000000
 100
AcDbArc
  50
0.0
  51
 180.00000000000
   0
LINE
   5
40D
 100
AcDbEntity
   8
LEVEL001
 370
30
 100
AcDbLine
   6
CONTINUOUS
  62
7
  10
 40.999999999950
  20
 164.92762252995
  30
0.0
  11
 40.124999999950
  21
 164.92762252995
  31
0.0
   0
LINE
   5
40E
 100
AcDbEntity
   8
LEVEL001
 370
30
 100
AcDbLine
   6
CONTINUOUS
  62
7
  10
 38.561575055850
  20
 169.82649923289
  30
0.0
  11
 40.118415063206
  21
 170.42762252995
  31
0.0
   0
LINE
   5
40F
 100
AcDbEntity
   8
LEVEL001
 370
30
 100
AcDbLine
   6
CONTINUOUS
  62
7
  10
 40.118415063206
  20
 170.42762252995
  30
0.0
  11
 43.224999999950
  21
 170.42762252995
  31
0.0
   0
LINE
   5
410
 100
AcDbEntity
   8
LEVEL001
 370
30
 100
AcDbLine
   6
CONTINUOUS
  62
7
  10
 43.224999999950
  20
 170.42762252995
  30
0.0
  11
 43.624999999950
  21
 170.22762252995
  31
0.0
   0
LINE
   5
411
 100
AcDbEntity
   8
LEVEL001
 370
30
 100
AcDbLine
   6
CONTINUOUS
  62
7
  10
 43.624999999950
  20
 170.22762252995
  30
0.0
  11
 43.624999999950
  21
 170.92762252995
  31
0.0
   0
LINE
   5
412
 100
AcDbEntity
   8
LEVEL001
 370
30
 100
AcDbLine
   6
CONTINUOUS
  62
7
  10
 43.624999999950
  20
 170.92762252995
  30
0.0
  11
 44.696114561750
  21
 171.46317981085
  31
0.0
   0
LINE
   5
413
 100
AcDbEntity
   8
LEVEL001
 370
30
 100
AcDbLine
   6
CONTINUOUS
  62
7
  10
 49.553885438150
  20
 173.89206524905
  30
0.0
  11
 50.624999999950
  21
 174.42762252995
  31
0.0
   0
LINE
   5
414
 100
AcDbEntity
   8
LEVEL001
 370
30
 100
AcDbLine
   6
CONTINUOUS
  62
7
  10
 50.624999999950
  20
 174.42762252995
  30
0.0
  11
 53.124999999950
  21
 173.44155455242
  31
0.0
   0
LINE
   5
415
 100
AcDbEntity
   8
LEVEL001
 370
30
 100
AcDbLine
   6
CONTINUOUS
  62
7
  10
 53.124999999950
  20
 173.44155455242
  30
0.0
  11
 51.923140602546
  21
 172.84062485372
  31
0.0
   0
LINE
   5
416
 100
AcDbEntity
   8
LEVEL001
 370
30
 100
AcDbLine
   6
CONTINUOUS
  62
7
  10
 51.923140602546
  20
 172.84062485372
  30
0.0
  11
 51.048140602556
  21
 173.18574864585
  31
0.0
   0
LINE
   5
417
 100
AcDbEntity
   8
LEVEL001
 370
30
 100
AcDbLine
   6
CONTINUOUS
  62
7
  10
 51.048140602556
  20
 173.18574864585
  30
0.0
  11
 43.624999999950
  21
 169.47417834455
  31
0.0
   0
LINE
   5
418
 100
AcDbEntity
   8
LEVEL001
 370
30
 100
AcDbLine
   6
CONTINUOUS
  62
7
  10
 43.624999999950
  20
 169.47417834455
  30
0.0
  11
 43.624999999950
  21
 166.90437957856
  31
0.0
   0
DIMENSION
   5
419
 100
AcDbEntity
   8
LEVEL001
 370
15
   6
CONTINUOUS
  62
8
 100
AcDbDimension
   2
*D22
  10
 53.124999999950
  20
 178.35883983720
  30
0.0
  11
 44.124999999950
  21
 178.35883983720
  31
0.0
  70
0
   3
GMM001
 100
AcDbAlignedDimension
  13
 35.124999999950
  23
 168.49957718669
  33
0.0
  14
 53.124999999950
  24
 173.46439393285
  34
0.0
 100
AcDbRotatedDimension
   0
DIMENSION
   5
41A
 100
AcDbEntity
   8
LEVEL001
 370
15
   6
CONTINUOUS
  62
8
 100
AcDbDimension
   2
*D23
  10
 68.124999999950
  20
 156.55619086537
  30
0.0
  11
 51.624999999950
  21
 156.55619086537
  31
0.0
  70
0
   3
GMM001
 100
AcDbAlignedDimension
  13
 35.124999999950
  23
 167.42762252995
  33
0.0
  14
 68.124999999950
  24
 164.92762252995
  34
0.0
 100
AcDbRotatedDimension
   0
MTEXT
   5
41C
 100
AcDbEntity
   8
LEVEL002
 370
15
  62
8
 100
AcDbMText
  10
 51.624999999950
  20
 211.75000000000
  30
0.0
  40
 3.0000000000000
  41
0.0
  71
5
  72
1
   1
\T1.000000;ＷＬ１
   7
GMM002
  44
 0.79999984000003
   0
MTEXT
   5
41E
 100
AcDbEntity
   8
LEVEL001
 370
15
  62
8
 100
AcDbMText
  10
 79.949999999950
  20
 211.75000000000
  30
0.0
  40
 3.0000000000000
  41
0.0
  71
5
  72
1
   1
\W0.500000;\T1.000000;(\W1.000000;\T1.000000;廃盤予定\W0.500000;\T1.000000;)
   7
GMM002
  44
 0.79999984000003
   0
MTEXT
   5
420
 100
AcDbEntity
   8
LEVEL001
 370
15
  62
8
 100
AcDbMText
  10
 15.799999999950
  20
 211.75000000000
  30
0.0
  40
 3.0000000000000
  41
0.0
  71
4
  72
1
   1
\W0.500000;\T1.000000; \W1.000000;\T1.000000;Ｗロック
   7
GMM002
  44
 0.79999984000003
   0
MTEXT
   5
422
 100
AcDbEntity
   8
LEVEL002
 370
15
  62
8
 100
AcDbMText
  10
 354.49999999995
  20
 227.86325301205
  30
0.0
  40
 4.0000000000000
  41
0.0
  71
5
  72
1
   1
\T1.000000;アルミ②
   7
GMM002
  44
 0.79999984000003
   0
MTEXT
   5
424
 100
AcDbEntity
   8
LEVEL002
 370
15
  62
8
 100
AcDbMText
  10
 354.49999999995
  20
 222.52991967871
  30
0.0
  40
 2.7500000000000
  41
0.0
  71
2
  72
1
   3
{\W1.000000;\T1.000000;（床見切\W0.500000;\T1.000000;､\W1.000000;\T1.000000;床エッジ\W0.500000;\T1.000000;､\W1.000000;\T1.000000;巻き上げエッジ\W0.500000;\T1.000000;､\W1.000000;\T1.000000;Ｗロック\W0.500000;\T1.000000;､}\P{\W1.000000;\T1.000000;　リ
   1
ノコーナー\W0.500000;\T1.000000;､\W1.000000;\T1.000000;コーナーエッジ\W0.500000;\T1.000000;､\W1.000000;\T1.000000;コーナー押え\W0.500000;\T1.000000;､\W1.000000;\T1.000000;角切目地）}
   7
GMM002
  44
 0.79999984000003
   0
ARC
   5
425
 100
AcDbEntity
   8
LEVEL001
 370
15
   6
DOT
  62
2
 100
AcDbCircle
  10
 50.665549333087
  20
 170.96702601052
  30
0.0
  40
 0.20000000000000
 100
AcDbArc
  50
 181.56505117709
  51
 1.5650511770884
   0
LINE
   5
426
 100
AcDbEntity
   8
LEVEL001
 370
15
 100
AcDbLine
   6
DOT
  62
2
  10
 50.865474725186
  20
 170.97248839039
  30
0.0
  11
 52.062570480470
  21
 171.00519555024
  31
0.0
   0
LINE
   5
427
 100
AcDbEntity
   8
LEVEL001
 370
15
 100
AcDbLine
   6
DOT
  62
2
  10
 52.062570480470
  20
 171.00519555024
  30
0.0
  11
 53.911609613441
  21
 169.05496880931
  31
0.0
   0
LINE
   5
428
 100
AcDbEntity
   8
LEVEL001
 370
15
 100
AcDbLine
   6
DOT
  62
2
  10
 53.911609613441
  20
 169.05496880931
  30
0.0
  11
 52.568391217958
  21
 169.01826927330
  31
0.0
   0
LINE
   5
429
 100
AcDbEntity
   8
LEVEL001
 370
15
 100
AcDbLine
   6
DOT
  62
2
  10
 52.568391217958
  20
 169.01826927330
  30
0.0
  11
 51.921227521425
  21
 169.70084863262
  31
0.0
   0
LINE
   5
42A
 100
AcDbEntity
   8
LEVEL001
 370
15
 100
AcDbLine
   6
DOT
  62
2
  10
 51.921227521425
  20
 169.70084863262
  30
0.0
  11
 43.624999999950
  21
 169.47417834455
  31
0.0
   0
LINE
   5
42B
 100
AcDbEntity
   8
LEVEL001
 370
15
 100
AcDbLine
   6
DOT
  62
2
  10
 47.512623971465
  20
 170.88088149506
  30
0.0
  11
 48.789198564127
  21
 170.91576018298
  31
0.0
   0
ARC
   5
42C
 100
AcDbEntity
   8
LEVEL001
 370
15
   6
DOT
  62
2
 100
AcDbCircle
  10
 48.989123956226
  20
 170.92122256285
  30
0.0
  40
 0.20000000000000
 100
AcDbArc
  50
 181.56505117707
  51
 1.5650511770888
   0
LINE
   5
42D
 100
AcDbEntity
   8
LEVEL001
 370
15
 100
AcDbLine
   6
DOT
  62
2
  10
 49.189049348325
  20
 170.92668494272
  30
0.0
  11
 50.465623940987
  21
 170.96156363065
  31
0.0
   0
LINE
   5
42E
 100
AcDbEntity
   8
LEVEL001
 370
15
 100
AcDbLine
   6
DOT
  62
2
  10
 45.836198594604
  20
 170.83507804739
  30
0.0
  11
 47.112773187266
  21
 170.86995673531
  31
0.0
   0
ARC
   5
42F
 100
AcDbEntity
   8
LEVEL001
 370
15
   6
DOT
  62
2
 100
AcDbCircle
  10
 47.312698579366
  20
 170.87541911519
  30
0.0
  40
 0.20000000000000
 100
AcDbArc
  50
 181.56505117709
  51
 1.5650511770884
   0
ARC
   5
430
 100
AcDbEntity
   8
LEVEL001
 370
15
   6
DOT
  62
2
 100
AcDbCircle
  10
 45.636273202505
  20
 170.82961566752
  30
0.0
  40
 0.20000000000000
 100
AcDbArc
  50
 181.56505117709
  51
 1.5650511770888
   0
LINE
   5
431
 100
AcDbEntity
   8
LEVEL001
 370
15
 100
AcDbLine
   6
DOT
  62
2
  10
 44.239252055121
  20
 170.79144612780
  30
0.0
  11
 45.436347810406
  21
 170.82415328765
  31
0.0
   0
LINE
   5
432
 100
AcDbEntity
   8
LEVEL001
 370
15
 100
AcDbLine
   6
DOT
  62
2
  10
 43.943419271903
  20
 170.15703067687
  30
0.0
  11
 44.239252055121
  21
 170.79144612780
  31
0.0
   0
MTEXT
   5
434
 100
AcDbEntity
   8
LEVEL002
 370
15
  62
8
 100
AcDbMText
  10
 387.21508456075
  20
 42.000000000010
  30
0.0
  40
 3.0000000000000
  41
0.0
  71
5
  72
1
   1
\T1.000000;令和　　年　　月　　日
   7
GMM002
  44
 0.79999984000003
   0
MTEXT
   5
436
 100
AcDbEntity
   8
LEVEL002
 370
15
  62
8
 100
AcDbMText
  10
 387.21508456075
  20
 35.333333333345
  30
0.0
  40
 3.0000000000000
  41
0.0
  71
5
  72
1
   1
\T1.000000;令和　　年　　月　　日
   7
GMM002
  44
 0.79999984000003
   0
MTEXT
   5
438
 100
AcDbEntity
   8
LEVEL002
 370
15
  62
8
 100
AcDbMText
  10
 387.21508456075
  20
 48.666666666680
  30
0.0
  40
 3.0000000000000
  41
0.0
  71
5
  72
1
   1
\T1.000000;令和０５年０３月３０日
   7
GMM002
  44
 0.79999984000003
   0
MTEXT
   5
43A
 100
AcDbEntity
   8
LEVEL002
 370
15
  62
8
 100
AcDbMText
  10
 17.999999999950
  20
 273.16666666670
  30
0.0
  40
 2.0000000000000
  41
0.0
  71
1
  72
1
   3
{\W0.500000;\T1.000000;･\W1.000000;\T1.000000;定尺：４０００\W0.500000;\T1.000000;m/m}\P{\W0.500000;\T1.000000;･\W1.000000;\T1.000000;材質：Ａ６０６３Ｓ－Ｔ５}\P{\W0.500000;\T1.000000;･\W1.000000;\T1.000000;仕上：Ｂ２シルバー}\P{\W1.000000;\T1.000000
   1
;　　　（穴付）バカ穴%%c５＋%%c２\W0.500000;\T1.000000;.\W1.000000;\T1.000000;３}\P\P{\W0.500000;\T1.000000;･\W1.000000;\T1.000000;長尺シート用}
   7
GMM002
  44
 0.79999984000003
   0
MTEXT
   5
43C
 100
AcDbEntity
   8
LEVEL002
 370
15
  62
8
 100
AcDbMText
  10
 90.249999999950
  20
 273.16666666670
  30
0.0
  40
 2.0000000000000
  41
0.0
  71
1
  72
1
   3
{\W0.500000;\T1.000000;･\W1.000000;\T1.000000;定尺：４０００\W0.500000;\T1.000000;m/m}\P{\W0.500000;\T1.000000;･\W1.000000;\T1.000000;材質：Ａ６０６３Ｓ－Ｔ５}\P{\W0.500000;\T1.000000;･\W1.000000;\T1.000000;仕上：Ｂ２シルバー}\P{\W1.000000;\T1.000000
   1
;　　　（穴付）バカ穴%%c５＋%%c２\W0.500000;\T1.000000;.\W1.000000;\T1.000000;３}\P\P{\W0.500000;\T1.000000;･\W1.000000;\T1.000000;長尺シート用}
   7
GMM002
  44
 0.79999984000003
   0
MTEXT
   5
43E
 100
AcDbEntity
   8
LEVEL002
 370
15
  62
8
 100
AcDbMText
  10
 162.49999999995
  20
 273.16666666670
  30
0.0
  40
 2.0000000000000
  41
0.0
  71
1
  72
1
   3
{\W0.500000;\T1.000000;･\W1.000000;\T1.000000;定尺：４０００\W0.500000;\T1.000000;m/m}\P{\W0.500000;\T1.000000;･\W1.000000;\T1.000000;材質：Ａ６０６３Ｓ－Ｔ５}\P{\W0.500000;\T1.000000;･\W1.000000;\T1.000000;仕上：Ｂ２シルバー}\P{\W1.000000;\T1.000000
   1
;　　　（穴付）バカ穴%%c５＋%%c２\W0.500000;\T1.000000;.\W1.000000;\T1.000000;３}\P\P{\W0.500000;\T1.000000;･\W1.000000;\T1.000000;長尺シート用}
   7
GMM002
  44
 0.79999984000003
   0
MTEXT
   5
440
 100
AcDbEntity
   8
LEVEL002
 370
15
  62
8
 100
AcDbMText
  10
 234.74999999995
  20
 273.16666666670
  30
0.0
  40
 2.0000000000000
  41
0.0
  71
1
  72
1
   3
{\W0.500000;\T1.000000;･\W1.000000;\T1.000000;定尺：４０００\W0.500000;\T1.000000;m/m}\P{\W0.500000;\T1.000000;･\W1.000000;\T1.000000;材質：Ａ６０６３Ｓ－Ｔ５}\P{\W0.500000;\T1.000000;･\W1.000000;\T1.000000;仕上：Ｂ２シルバー}\P{\W1.000000;\T1.000000
   1
;　　　（穴付）バカ穴%%c５＋%%c２\W0.500000;\T1.000000;.\W1.000000;\T1.000000;３}\P\P{\W0.500000;\T1.000000;･\W1.000000;\T1.000000;長尺シート用}
   7
GMM002
  44
 0.79999984000003
   0
MTEXT
   5
442
 100
AcDbEntity
   8
LEVEL002
 370
15
  62
8
 100
AcDbMText
  10
 17.999999999950
  20
 204.91666666670
  30
0.0
  40
 2.0000000000000
  41
0.0
  71
1
  72
1
   3
{\W0.500000;\T1.000000;･\W1.000000;\T1.000000;定尺：３６４０\W0.500000;\T1.000000;m/m}\P{\W0.500000;\T1.000000;･\W1.000000;\T1.000000;材質：Ａ６０６３Ｓ－Ｔ５}\P{\W0.500000;\T1.000000;･\W1.000000;\T1.000000;仕上：Ｂ２シルバー}\P{\W1.000000;\T1.000000
   3
;　　　（穴付）バカ穴%%c５＋%%c２\W0.500000;\T1.000000;.\W1.000000;\T1.000000;３}\P\P{\W0.500000;\T1.000000;･\W1.000000;\T1.000000;長尺シート用}\P{\W0.500000;\T1.000000;･\W1.000000;\T1.000000;パンチカーペット}\P{\W0.500000;\T1.000000; \W1.000000;\T1.
   1
000000;タイルカーペット用}
   7
GMM002
  44
 0.79999984000003
   0
MTEXT
   5
444
 100
AcDbEntity
   8
LEVEL002
 370
15
  62
8
 100
AcDbMText
  10
 51.624999999950
  20
 143.50000000001
  30
0.0
  40
 3.0000000000000
  41
0.0
  71
5
  72
1
   1
\T1.000000;ＲＣ１
   7
GMM002
  44
 0.79999984000003
   0
MTEXT
   5
446
 100
AcDbEntity
   8
LEVEL001
 370
15
  62
8
 100
AcDbMText
  10
 15.799999999950
  20
 143.50000000001
  30
0.0
  40
 3.0000000000000
  41
0.0
  71
4
  72
1
   1
\W0.500000;\T1.000000; \W1.000000;\T1.000000;リノコーナー
   7
GMM002
  44
 0.79999984000003
   0
LINE
   5
447
 100
AcDbEntity
   8
LEVEL001
 370
30
 100
AcDbLine
   6
CONTINUOUS
  62
7
  10
 68.293836058527
  20
 96.732446985972
  30
0.0
  11
 31.893836058527
  21
 96.732446985972
  31
0.0
   0
ARC
   5
448
 100
AcDbEntity
   8
LEVEL001
 370
30
   6
CONTINUOUS
  62
7
 100
AcDbCircle
  10
 31.893836058523
  20
 97.032446985972
  30
0.0
  40
 0.30000000000000
 100
AcDbArc
  50
 103.28486648492
  51
 270.00000000076
   0
LINE
   5
449
 100
AcDbEntity
   8
LEVEL001
 370
30
 100
AcDbLine
   6
CONTINUOUS
  62
7
  10
 31.824898253396
  20
 97.324418866509
  30
0.0
  11
 46.224898253398
  21
 100.72441886651
  31
0.0
   0
ARC
   5
44A
 100
AcDbEntity
   8
LEVEL001
 370
30
   6
CONTINUOUS
  62
7
 100
AcDbCircle
  10
 46.293836058526
  20
 100.43244698597
  30
0.0
  40
 0.30000000000000
 100
AcDbArc
  50
 318.83425926775
  51
 103.28486648522
   0
LWPOLYLINE
   5
44B
 100
AcDbEntity
   8
LEVEL001
 370
30
   6
CONTINUOUS
  62
7
 100
AcDbPolyline
  90
3
  70
0
  10
 46.519678647281
  20
 100.23497515227
  10
 44.593836058527
  20
 98.032446985972
  10
 51.593836058527
  20
 97.941142638146
   0
ARC
   5
44C
 100
AcDbEntity
   8
LEVEL001
 370
30
   6
CONTINUOUS
  62
7
 100
AcDbCircle
  10
 52.093836058527
  20
 98.203622813305
  30
0.0
  40
 0.56470863491827
 100
AcDbArc
  50
 207.69769187982
  51
 330.80772036652
   0
LINE
   5
44D
 100
AcDbEntity
   8
LEVEL001
 370
30
 100
AcDbLine
   6
CONTINUOUS
  62
7
  10
 52.586819810975
  20
 97.928190676158
  30
0.0
  11
 57.593836058528
  21
 97.862881768581
  31
0.0
   0
ARC
   5
44E
 100
AcDbEntity
   8
LEVEL001
 370
30
   6
CONTINUOUS
  62
7
 100
AcDbCircle
  10
 58.093836058527
  20
 98.125708471562
  30
0.0
  40
 0.56486978658753
 100
AcDbArc
  50
 207.72881319867
  51
 330.77659904768
   0
LINE
   5
44F
 100
AcDbEntity
   8
LEVEL001
 370
30
 100
AcDbLine
   6
CONTINUOUS
  62
7
  10
 58.586810772657
  20
 97.849929924484
  30
0.0
  11
 63.593836058527
  21
 97.784620899016
  31
0.0
   0
ARC
   5
450
 100
AcDbEntity
   8
LEVEL001
 370
30
   6
CONTINUOUS
  62
7
 100
AcDbCircle
  10
 64.093836058527
  20
 98.047885479635
  30
0.0
  40
 0.56507365839226
 100
AcDbArc
  50
 207.76811315151
  51
 330.73729909483
   0
LWPOLYLINE
   5
451
 100
AcDbEntity
   8
LEVEL001
 370
30
   6
CONTINUOUS
  62
7
 100
AcDbPolyline
  90
3
  70
0
  10
 64.586799351705
  20
 97.771669203888
  10
 67.593836058527
  20
 97.732446985972
  10
 68.431707082785
  20
 97.298889438802
   0
ARC
   5
452
 100
AcDbEntity
   8
LEVEL001
 370
30
   6
CONTINUOUS
  62
7
 100
AcDbCircle
  10
 68.293836058527
  20
 97.032446985972
  30
0.0
  40
 0.30000000000000
 100
AcDbArc
  50
 269.99999999998
  51
 62.640630913644
   0
DIMENSION
   5
453
 100
AcDbEntity
   8
LEVEL001
 370
15
   6
CONTINUOUS
  62
8
 100
AcDbDimension
   2
*D24
  10
 68.593774741853
  20
 87.274287878579
  30
0.0
  11
 50.093774741853
  21
 87.274287878579
  31
0.0
  70
0
   3
GMM001
 100
AcDbAlignedDimension
  13
 31.593774741853
  23
 96.732446985972
  33
0.0
  14
 68.593774741853
  24
 96.732446985972
  34
0.0
 100
AcDbRotatedDimension
   0
DIMENSION
   5
454
 100
AcDbEntity
   8
LEVEL001
 370
15
   6
CONTINUOUS
  62
8
 100
AcDbDimension
   2
*D25
  10
 74.875216452346
  20
 97.732446985972
  30
0.0
  11
 74.875216452346
  21
 94.990486004427
  31
0.0
  70
128
   3
GMM008
 100
AcDbAlignedDimension
  13
 68.593774741853
  23
 96.732446985972
  33
0.0
  14
 68.593774741853
  24
 97.732446985972
  34
0.0
  50
 90.000000000000
 100
AcDbRotatedDimension
   0
DIMENSION
   5
455
 100
AcDbEntity
   8
LEVEL001
 370
15
   6
CONTINUOUS
  62
8
 100
AcDbDimension
   2
*D26
  10
 74.875216452346
  20
 100.73244698597
  30
0.0
  11
 74.875216452346
  21
 102.38861184112
  31
0.0
  70
128
   3
GMM009
 100
AcDbAlignedDimension
  13
 68.593774741853
  23
 97.732446985972
  33
0.0
  14
 46.593774741853
  24
 100.73244698597
  34
0.0
  50
 90.000000000000
 100
AcDbRotatedDimension
   0
DIMENSION
   5
456
 100
AcDbEntity
   8
LEVEL001
 370
15
   6
CONTINUOUS
  62
8
 100
AcDbDimension
   2
*D27
  10
 46.593774741853
  20
 109.24483674073
  30
0.0
  11
 39.093774741853
  21
 109.24483674073
  31
0.0
  70
0
   3
GMM001
 100
AcDbAlignedDimension
  13
 31.593774741853
  23
 97.732446985972
  33
0.0
  14
 46.593774741853
  24
 100.73244698597
  34
0.0
 100
AcDbRotatedDimension
   0
MTEXT
   5
458
 100
AcDbEntity
   8
LEVEL002
 370
15
  62
8
 100
AcDbMText
  10
 17.999999999950
  20
 136.66666666671
  30
0.0
  40
 2.0000000000000
  41
0.0
  71
1
  72
1
   3
{\W0.500000;\T1.000000;･\W1.000000;\T1.000000;定尺：３６４０\W0.500000;\T1.000000;m/m}\P{\W0.500000;\T1.000000;･\W1.000000;\T1.000000;材質：Ａ６０６３Ｓ－Ｔ５}\P{\W0.500000;\T1.000000;･\W1.000000;\T1.000000;仕上：Ｂ２シルバー}\P{\W1.000000;\T1.000000
   1
;　　　（穴付）バカ穴%%c５＋%%c２\W0.500000;\T1.000000;.\W1.000000;\T1.000000;３}\P\P{\W0.500000;\T1.000000;･\W1.000000;\T1.000000;長尺シート用}
   7
GMM002
  44
 0.79999984000003
   0
LWPOLYLINE
   5
459
 100
AcDbEntity
   8
LEVEL001
 370
30
   6
CONTINUOUS
  62
7
 100
AcDbPolyline
  90
6
  70
0
  10
 41.624999999950
  20
 28.867901441145
  10
 46.624999999950
  20
 28.867901441145
  10
 46.624999999950
  20
 30.867901441145
  10
 61.624999999950
  20
 30.867901441145
  10
 60.624999999950
  20
 32.367901441145
  10
 58.824888981346
  20
 32.427905141766
   0
ARC
   5
45A
 100
AcDbEntity
   8
LEVEL001
 370
30
   6
CONTINUOUS
  62
7
 100
AcDbCircle
  10
 58.624999999950
  20
 32.434568107812
  30
0.0
  40
 0.20000000000000
 100
AcDbArc
  50
 178.09084756701
  51
 358.09084756701
   0
LINE
   5
45B
 100
AcDbEntity
   8
LEVEL001
 370
30
 100
AcDbLine
   6
CONTINUOUS
  62
7
  10
 58.425111018554
  20
 32.441231073859
  30
0.0
  11
 57.524888981346
  21
 32.471238475099
  31
0.0
   0
ARC
   5
45C
 100
AcDbEntity
   8
LEVEL001
 370
30
   6
CONTINUOUS
  62
7
 100
AcDbCircle
  10
 57.324999999950
  20
 32.477901441145
  30
0.0
  40
 0.20000000000000
 100
AcDbArc
  50
 178.09084756699
  51
 358.09084756701
   0
LINE
   5
45D
 100
AcDbEntity
   8
LEVEL001
 370
30
 100
AcDbLine
   6
CONTINUOUS
  62
7
  10
 57.125111018554
  20
 32.484564407192
  30
0.0
  11
 56.224888981346
  21
 32.514571808432
  31
0.0
   0
ARC
   5
45E
 100
AcDbEntity
   8
LEVEL001
 370
30
   6
CONTINUOUS
  62
7
 100
AcDbCircle
  10
 56.024999999950
  20
 32.521234774479
  30
0.0
  40
 0.20000000000000
 100
AcDbArc
  50
 178.09084756701
  51
 358.09084756701
   0
LINE
   5
45F
 100
AcDbEntity
   8
LEVEL001
 370
30
 100
AcDbLine
   6
CONTINUOUS
  62
7
  10
 55.825111018554
  20
 32.527897740525
  30
0.0
  11
 54.924888981346
  21
 32.557905141766
  31
0.0
   0
ARC
   5
460
 100
AcDbEntity
   8
LEVEL001
 370
30
   6
CONTINUOUS
  62
7
 100
AcDbCircle
  10
 54.724999999950
  20
 32.564568107812
  30
0.0
  40
 0.20000000000000
 100
AcDbArc
  50
 178.09084756701
  51
 358.09084756701
   0
LINE
   5
461
 100
AcDbEntity
   8
LEVEL001
 370
30
 100
AcDbLine
   6
CONTINUOUS
  62
7
  10
 54.525111018554
  20
 32.571231073859
  30
0.0
  11
 53.624888981346
  21
 32.601238475099
  31
0.0
   0
ARC
   5
462
 100
AcDbEntity
   8
LEVEL001
 370
30
   6
CONTINUOUS
  62
7
 100
AcDbCircle
  10
 53.424999999950
  20
 32.607901441145
  30
0.0
  40
 0.20000000000000
 100
AcDbArc
  50
 178.09084756699
  51
 358.09084756701
   0
LINE
   5
463
 100
AcDbEntity
   8
LEVEL001
 370
30
 100
AcDbLine
   6
CONTINUOUS
  62
7
  10
 53.225111018554
  20
 32.614564407192
  30
0.0
  11
 52.324888981346
  21
 32.644571808432
  31
0.0
   0
ARC
   5
464
 100
AcDbEntity
   8
LEVEL001
 370
30
   6
CONTINUOUS
  62
7
 100
AcDbCircle
  10
 52.124999999950
  20
 32.651234774479
  30
0.0
  40
 0.20000000000000
 100
AcDbArc
  50
 178.09084756701
  51
 358.09084756699
   0
LINE
   5
465
 100
AcDbEntity
   8
LEVEL001
 370
30
 100
AcDbLine
   6
CONTINUOUS
  62
7
  10
 51.925111018554
  20
 32.657897740525
  30
0.0
  11
 51.024888981346
  21
 32.687905141766
  31
0.0
   0
ARC
   5
466
 100
AcDbEntity
   8
LEVEL001
 370
30
   6
CONTINUOUS
  62
7
 100
AcDbCircle
  10
 50.824999999950
  20
 32.694568107812
  30
0.0
  40
 0.20000000000000
 100
AcDbArc
  50
 178.09084756701
  51
 358.09084756701
   0
LINE
   5
467
 100
AcDbEntity
   8
LEVEL001
 370
30
 100
AcDbLine
   6
CONTINUOUS
  62
7
  10
 50.625111018554
  20
 32.701231073859
  30
0.0
  11
 49.724888981346
  21
 32.731238475099
  31
0.0
   0
ARC
   5
468
 100
AcDbEntity
   8
LEVEL001
 370
30
   6
CONTINUOUS
  62
7
 100
AcDbCircle
  10
 49.524999999950
  20
 32.737901441145
  30
0.0
  40
 0.20000000000000
 100
AcDbArc
  50
 178.09084756699
  51
 358.09084756701
   0
LINE
   5
469
 100
AcDbEntity
   8
LEVEL001
 370
30
 100
AcDbLine
   6
CONTINUOUS
  62
7
  10
 49.325111018554
  20
 32.744564407192
  30
0.0
  11
 48.424888981346
  21
 32.774571808432
  31
0.0
   0
ARC
   5
46A
 100
AcDbEntity
   8
LEVEL001
 370
30
   6
CONTINUOUS
  62
7
 100
AcDbCircle
  10
 48.224999999950
  20
 32.781234774479
  30
0.0
  40
 0.20000000000000
 100
AcDbArc
  50
 178.09084756701
  51
 358.09084756699
   0
LINE
   5
46B
 100
AcDbEntity
   8
LEVEL001
 370
30
 100
AcDbLine
   6
CONTINUOUS
  62
7
  10
 48.025111018554
  20
 32.787897740525
  30
0.0
  11
 47.124888981346
  21
 32.817905141766
  31
0.0
   0
ARC
   5
46C
 100
AcDbEntity
   8
LEVEL001
 370
30
   6
CONTINUOUS
  62
7
 100
AcDbCircle
  10
 46.924999999950
  20
 32.824568107812
  30
0.0
  40
 0.20000000000000
 100
AcDbArc
  50
 178.09084756701
  51
 358.09084756701
   0
LWPOLYLINE
   5
46D
 100
AcDbEntity
   8
LEVEL001
 370
30
   6
CONTINUOUS
  62
7
 100
AcDbPolyline
  90
3
  70
0
  10
 46.725111018554
  20
 32.831231073859
  10
 45.624999999950
  20
 32.867901441145
  10
 41.624999999950
  20
 28.867901441145
   0
DIMENSION
   5
46E
 100
AcDbEntity
   8
LEVEL001
 370
15
   6
CONTINUOUS
  62
8
 100
AcDbDimension
   2
*D28
  10
 68.926201923027
  20
 30.867901441145
  30
0.0
  11
 68.926201923027
  21
 27.300870431133
  31
0.0
  70
128
   3
GMM010
 100
AcDbAlignedDimension
  13
 46.624999999950
  23
 28.867901441145
  33
0.0
  14
 61.624999999950
  24
 30.867901441145
  34
0.0
  50
 90.000000000000
 100
AcDbRotatedDimension
   0
DIMENSION
   5
46F
 100
AcDbEntity
   8
LEVEL001
 370
15
   6
CONTINUOUS
  62
8
 100
AcDbDimension
   2
*D29
  10
 68.926201923027
  20
 32.367901441145
  30
0.0
  11
 68.926201923027
  21
 33.143976187501
  31
0.0
  70
128
   3
GMM011
 100
AcDbAlignedDimension
  13
 61.624999999950
  23
 30.867901441145
  33
0.0
  14
 60.624999999950
  24
 32.367901441145
  34
0.0
  50
 90.000000000000
 100
AcDbRotatedDimension
   0
DIMENSION
   5
470
 100
AcDbEntity
   8
LEVEL001
 370
15
   6
CONTINUOUS
  62
8
 100
AcDbDimension
   2
*D30
  10
 37.071348578229
  20
 32.867901441145
  30
0.0
  11
 37.071348578229
  21
 30.867901441145
  31
0.0
  70
0
   3
GMM001
 100
AcDbAlignedDimension
  13
 41.624999999950
  23
 28.867901441145
  33
0.0
  14
 45.624999999950
  24
 32.867901441145
  34
0.0
  50
 90.000000000000
 100
AcDbRotatedDimension
   0
DIMENSION
   5
471
 100
AcDbEntity
   8
LEVEL001
 370
15
   6
CONTINUOUS
  62
8
 100
AcDbDimension
   2
*D31
  10
 61.624999999950
  20
 39.057764674793
  30
0.0
  11
 51.624999999950
  21
 39.057764674793
  31
0.0
  70
0
   3
GMM001
 100
AcDbAlignedDimension
  13
 41.624999999950
  23
 28.867901441145
  33
0.0
  14
 61.624999999950
  24
 30.867901441145
  34
0.0
 100
AcDbRotatedDimension
   0
MTEXT
   5
473
 100
AcDbEntity
   8
LEVEL002
 370
15
  62
8
 100
AcDbMText
  10
 17.999999999950
  20
 68.416666666710
  30
0.0
  40
 2.0000000000000
  41
0.0
  71
1
  72
1
   3
{\W0.500000;\T1.000000;･\W1.000000;\T1.000000;定尺：３６４０\W0.500000;\T1.000000;m/m}\P{\W0.500000;\T1.000000;･\W1.000000;\T1.000000;材質：Ａ６０６３Ｓ－Ｔ５}\P{\W0.500000;\T1.000000;･\W1.000000;\T1.000000;仕上：Ｂ２シルバー}\P{\W0.500000;\T1.000000
   1
;      \W1.000000;\T1.000000;（穴なし・穴付）}\P{\W0.500000;\T1.000000;        \W1.000000;\T1.000000;穴サイズ：下穴%%c５／皿%%c７}\P\P\P{\W0.500000;\T1.000000;･\W1.000000;\T1.000000;長尺シート用}
   7
GMM002
  44
 0.79999984000003
   0
MTEXT
   5
475
 100
AcDbEntity
   8
LEVEL002
 370
15
  62
8
 100
AcDbMText
  10
 51.624999999950
  20
 75.250000000010
  30
0.0
  40
 3.0000000000000
  41
0.0
  71
5
  72
1
   1
\T1.000000;ＣＯ１
   7
GMM002
  44
 0.79999984000003
   0
MTEXT
   5
477
 100
AcDbEntity
   8
LEVEL001
 370
15
  62
8
 100
AcDbMText
  10
 15.799999999950
  20
 75.250000000010
  30
0.0
  40
 3.0000000000000
  41
0.0
  71
4
  72
1
   1
\W0.500000;\T1.000000; \W1.000000;\T1.000000;コーナー押え
   7
GMM002
  44
 0.79999984000003
   0
MTEXT
   5
479
 100
AcDbEntity
   8
LEVEL002
 370
15
  62
8
 100
AcDbMText
  10
 196.12499999995
  20
 143.50000000001
  30
0.0
  40
 3.0000000000000
  41
0.0
  71
5
  72
1
   1
\T1.000000;ＣＯＥ１
   7
GMM002
  44
 0.79999984000003
   0
LINE
   5
47A
 100
AcDbEntity
   8
LEVEL002
 370
30
 100
AcDbLine
   6
CONTINUOUS
  62
7
  10
 196.15305472634
  20
 96.732446985972
  30
0.0
  11
 196.66015472634
  21
 96.732446985972
  31
0.0
   0
ARC
   5
47B
 100
AcDbEntity
   8
LEVEL002
 370
30
   6
CONTINUOUS
  62
7
 100
AcDbCircle
  10
 197.02252476856
  20
 96.469192158594
  30
0.0
  40
 0.44790082789920
 100
AcDbArc
  50
 117.17634355203
  51
 144.00232015963
   0
ARC
   5
47C
 100
AcDbEntity
   8
LEVEL002
 370
30
   6
CONTINUOUS
  62
7
 100
AcDbCircle
  10
 197.16128322634
  20
 96.185013211030
  30
0.0
  40
 0.76410950105219
 100
AcDbArc
  50
 79.223536686045
  51
 116.69996509596
   0
ARC
   5
47D
 100
AcDbEntity
   8
LEVEL002
 370
30
   6
CONTINUOUS
  62
7
 100
AcDbCircle
  10
 197.22413094043
  20
 96.396195040149
  30
0.0
  40
 0.54535512115004
 100
AcDbArc
  50
 38.966055170844
  51
 81.562120801042
   0
ARC
   5
47E
 100
AcDbEntity
   8
LEVEL002
 370
30
   6
CONTINUOUS
  62
7
 100
AcDbCircle
  10
 197.36067838951
  20
 96.554271521091
  30
0.0
  40
 0.34179172277279
 100
AcDbArc
  50
 31.419383345882
  51
 32.744990966129
   0
LINE
   5
47F
 100
AcDbEntity
   8
LEVEL002
 370
30
 100
AcDbLine
   6
CONTINUOUS
  62
7
  10
 197.65235472634
  20
 96.732446985972
  30
0.0
  11
 197.63025472634
  21
 96.732446985972
  31
0.0
   0
LINE
   5
480
 100
AcDbEntity
   8
LEVEL002
 370
30
 100
AcDbLine
   6
CONTINUOUS
  62
7
  10
 197.63025472634
  20
 96.732446985972
  30
0.0
  11
 198.13735472634
  21
 96.732446985972
  31
0.0
   0
ARC
   5
481
 100
AcDbEntity
   8
LEVEL002
 370
30
   6
CONTINUOUS
  62
7
 100
AcDbCircle
  10
 198.49984070663
  20
 96.469056840345
  30
0.0
  40
 0.44807416207147
 100
AcDbArc
  50
 117.18162912017
  51
 143.99703459154
   0
ARC
   5
482
 100
AcDbEntity
   8
LEVEL002
 370
30
   6
CONTINUOUS
  62
7
 100
AcDbCircle
  10
 198.63849055523
  20
 96.184960809415
  30
0.0
  40
 0.76415960836814
 100
AcDbArc
  50
 79.224811144673
  51
 116.69869063734
   0
ARC
   5
483
 100
AcDbEntity
   8
LEVEL002
 370
30
   6
CONTINUOUS
  62
7
 100
AcDbCircle
  10
 198.70134087681
  20
 96.396212435139
  30
0.0
  40
 0.54533645646525
 100
AcDbArc
  50
 38.965290682405
  51
 81.562885289454
   0
ARC
   5
484
 100
AcDbEntity
   8
LEVEL002
 370
30
   6
CONTINUOUS
  62
7
 100
AcDbCircle
  10
 198.83784388802
  20
 96.554249893287
  30
0.0
  40
 0.34183244000084
 100
AcDbArc
  50
 31.419462299693
  51
 32.744912013710
   0
LINE
   5
485
 100
AcDbEntity
   8
LEVEL002
 370
30
 100
AcDbLine
   6
CONTINUOUS
  62
7
  10
 199.12955472634
  20
 96.732446985972
  30
0.0
  11
 199.63665472634
  21
 96.732446985972
  31
0.0
   0
ARC
   5
486
 100
AcDbEntity
   8
LEVEL002
 370
30
   6
CONTINUOUS
  62
7
 100
AcDbCircle
  10
 199.99914070663
  20
 96.469056840345
  30
0.0
  40
 0.44807416207151
 100
AcDbArc
  50
 117.18162912014
  51
 143.99703459152
   0
ARC
   5
487
 100
AcDbEntity
   8
LEVEL002
 370
30
   6
CONTINUOUS
  62
7
 100
AcDbCircle
  10
 200.13779055523
  20
 96.184960809415
  30
0.0
  40
 0.76415960836812
 100
AcDbArc
  50
 79.224811144673
  51
 116.69869063734
   0
ARC
   5
488
 100
AcDbEntity
   8
LEVEL002
 370
30
   6
CONTINUOUS
  62
7
 100
AcDbCircle
  10
 200.20064087681
  20
 96.396212435139
  30
0.0
  40
 0.54533645646527
 100
AcDbArc
  50
 38.965290682409
  51
 81.562885289466
   0
ARC
   5
489
 100
AcDbEntity
   8
LEVEL002
 370
30
   6
CONTINUOUS
  62
7
 100
AcDbCircle
  10
 200.33714388802
  20
 96.554249893291
  30
0.0
  40
 0.34183244000085
 100
AcDbArc
  50
 31.419462299000
  51
 32.744912013007
   0
LINE
   5
48A
 100
AcDbEntity
   8
LEVEL002
 370
30
 100
AcDbLine
   6
CONTINUOUS
  62
7
  10
 200.62885472634
  20
 96.732446985972
  30
0.0
  11
 200.65095472634
  21
 96.732446985972
  31
0.0
   0
LINE
   5
48B
 100
AcDbEntity
   8
LEVEL002
 370
30
 100
AcDbLine
   6
CONTINUOUS
  62
7
  10
 200.65095472634
  20
 96.732446985972
  30
0.0
  11
 201.15805472634
  21
 96.732446985972
  31
0.0
   0
ARC
   5
48C
 100
AcDbEntity
   8
LEVEL002
 370
30
   6
CONTINUOUS
  62
7
 100
AcDbCircle
  10
 201.52042476856
  20
 96.469192158594
  30
0.0
  40
 0.44790082789917
 100
AcDbArc
  50
 117.17634355207
  51
 144.00232015965
   0
ARC
   5
48D
 100
AcDbEntity
   8
LEVEL002
 370
30
   6
CONTINUOUS
  62
7
 100
AcDbCircle
  10
 201.65918322634
  20
 96.185013211030
  30
0.0
  40
 0.76410950105219
 100
AcDbArc
  50
 79.223536686045
  51
 116.69996509596
   0
ARC
   5
48E
 100
AcDbEntity
   8
LEVEL002
 370
30
   6
CONTINUOUS
  62
7
 100
AcDbCircle
  10
 201.72203094043
  20
 96.396195040149
  30
0.0
  40
 0.54535512115004
 100
AcDbArc
  50
 38.966055170844
  51
 81.562120801042
   0
ARC
   5
48F
 100
AcDbEntity
   8
LEVEL002
 370
30
   6
CONTINUOUS
  62
7
 100
AcDbCircle
  10
 201.85857838951
  20
 96.554271521087
  30
0.0
  40
 0.34179172277312
 100
AcDbArc
  50
 31.419383346580
  51
 32.744990966835
   0
LINE
   5
490
 100
AcDbEntity
   8
LEVEL002
 370
30
 100
AcDbLine
   6
CONTINUOUS
  62
7
  10
 202.15025472634
  20
 96.732446985972
  30
0.0
  11
 202.65735472634
  21
 96.732446985972
  31
0.0
   0
ARC
   5
491
 100
AcDbEntity
   8
LEVEL002
 370
30
   6
CONTINUOUS
  62
7
 100
AcDbCircle
  10
 203.01972476856
  20
 96.469192158594
  30
0.0
  40
 0.44790082789927
 100
AcDbArc
  50
 117.17634355204
  51
 144.00232015963
   0
ARC
   5
492
 100
AcDbEntity
   8
LEVEL002
 370
30
   6
CONTINUOUS
  62
7
 100
AcDbCircle
  10
 203.15848322634
  20
 96.185013211030
  30
0.0
  40
 0.76410950105215
 100
AcDbArc
  50
 79.223536686044
  51
 116.69996509596
   0
ARC
   5
493
 100
AcDbEntity
   8
LEVEL002
 370
30
   6
CONTINUOUS
  62
7
 100
AcDbCircle
  10
 203.22133094043
  20
 96.396195040149
  30
0.0
  40
 0.54535512115004
 100
AcDbArc
  50
 38.966055170844
  51
 81.562120801030
   0
ARC
   5
494
 100
AcDbEntity
   8
LEVEL002
 370
30
   6
CONTINUOUS
  62
7
 100
AcDbCircle
  10
 203.35787838951
  20
 96.554271521087
  30
0.0
  40
 0.34179172277248
 100
AcDbArc
  50
 31.419383346571
  51
 32.744990966828
   0
LINE
   5
495
 100
AcDbEntity
   8
LEVEL002
 370
30
 100
AcDbLine
   6
CONTINUOUS
  62
7
  10
 203.64955472634
  20
 96.732446985972
  30
0.0
  11
 204.15665472634
  21
 96.732446985972
  31
0.0
   0
ARC
   5
496
 100
AcDbEntity
   8
LEVEL002
 370
30
   6
CONTINUOUS
  62
7
 100
AcDbCircle
  10
 204.51902476856
  20
 96.469192158594
  30
0.0
  40
 0.44790082789921
 100
AcDbArc
  50
 117.17634355207
  51
 144.00232015965
   0
ARC
   5
497
 100
AcDbEntity
   8
LEVEL002
 370
30
   6
CONTINUOUS
  62
7
 100
AcDbCircle
  10
 204.65778322634
  20
 96.185013211030
  30
0.0
  40
 0.76410950105219
 100
AcDbArc
  50
 79.223536686045
  51
 116.69996509597
   0
ARC
   5
498
 100
AcDbEntity
   8
LEVEL002
 370
30
   6
CONTINUOUS
  62
7
 100
AcDbCircle
  10
 204.72063094043
  20
 96.396195040149
  30
0.0
  40
 0.54535512115004
 100
AcDbArc
  50
 38.966055170844
  51
 81.562120801030
   0
ARC
   5
499
 100
AcDbEntity
   8
LEVEL002
 370
30
   6
CONTINUOUS
  62
7
 100
AcDbCircle
  10
 204.85717838951
  20
 96.554271521091
  30
0.0
  40
 0.34179172277248
 100
AcDbArc
  50
 31.419383345878
  51
 32.744990966125
   0
LINE
   5
49A
 100
AcDbEntity
   8
LEVEL002
 370
30
 100
AcDbLine
   6
CONTINUOUS
  62
7
  10
 205.14885472634
  20
 96.732446985972
  30
0.0
  11
 205.65595472634
  21
 96.732446985972
  31
0.0
   0
ARC
   5
49B
 100
AcDbEntity
   8
LEVEL002
 370
30
   6
CONTINUOUS
  62
7
 100
AcDbCircle
  10
 206.01844070663
  20
 96.469056840345
  30
0.0
  40
 0.44807416207150
 100
AcDbArc
  50
 117.18162912017
  51
 143.99703459154
   0
ARC
   5
49C
 100
AcDbEntity
   8
LEVEL002
 370
30
   6
CONTINUOUS
  62
7
 100
AcDbCircle
  10
 206.15709055523
  20
 96.184960809415
  30
0.0
  40
 0.76415960836813
 100
AcDbArc
  50
 79.224811144673
  51
 116.69869063734
   0
ARC
   5
49D
 100
AcDbEntity
   8
LEVEL002
 370
30
   6
CONTINUOUS
  62
7
 100
AcDbCircle
  10
 206.21994087681
  20
 96.396212435139
  30
0.0
  40
 0.54533645646525
 100
AcDbArc
  50
 38.965290682409
  51
 81.562885289466
   0
ARC
   5
49E
 100
AcDbEntity
   8
LEVEL002
 370
30
   6
CONTINUOUS
  62
7
 100
AcDbCircle
  10
 206.35644388802
  20
 96.554249893291
  30
0.0
  40
 0.34183244000085
 100
AcDbArc
  50
 31.419462299000
  51
 32.744912013007
   0
LINE
   5
49F
 100
AcDbEntity
   8
LEVEL002
 370
30
 100
AcDbLine
   6
CONTINUOUS
  62
7
  10
 206.64815472634
  20
 96.732446985972
  30
0.0
  11
 207.15525472634
  21
 96.732446985972
  31
0.0
   0
ARC
   5
4A0
 100
AcDbEntity
   8
LEVEL002
 370
30
   6
CONTINUOUS
  62
7
 100
AcDbCircle
  10
 207.51774070663
  20
 96.469056840345
  30
0.0
  40
 0.44807416207146
 100
AcDbArc
  50
 117.18162912017
  51
 143.99703459154
   0
ARC
   5
4A1
 100
AcDbEntity
   8
LEVEL002
 370
30
   6
CONTINUOUS
  62
7
 100
AcDbCircle
  10
 207.65639055523
  20
 96.184960809415
  30
0.0
  40
 0.76415960836813
 100
AcDbArc
  50
 79.224811144673
  51
 116.69869063734
   0
ARC
   5
4A2
 100
AcDbEntity
   8
LEVEL002
 370
30
   6
CONTINUOUS
  62
7
 100
AcDbCircle
  10
 207.71924087681
  20
 96.396212435139
  30
0.0
  40
 0.54533645646525
 100
AcDbArc
  50
 38.965290682409
  51
 81.562885289466
   0
ARC
   5
4A3
 100
AcDbEntity
   8
LEVEL002
 370
30
   6
CONTINUOUS
  62
7
 100
AcDbCircle
  10
 207.85574388802
  20
 96.554249893291
  30
0.0
  40
 0.34183244000019
 100
AcDbArc
  50
 31.419462299001
  51
 32.744912013010
   0
LINE
   5
4A4
 100
AcDbEntity
   8
LEVEL002
 370
30
 100
AcDbLine
   6
CONTINUOUS
  62
7
  10
 208.14745472634
  20
 96.732446985972
  30
0.0
  11
 208.65455472634
  21
 96.732446985972
  31
0.0
   0
ARC
   5
4A5
 100
AcDbEntity
   8
LEVEL002
 370
30
   6
CONTINUOUS
  62
7
 100
AcDbCircle
  10
 209.01704070663
  20
 96.469056840345
  30
0.0
  40
 0.44807416207144
 100
AcDbArc
  50
 117.18162912016
  51
 143.99703459154
   0
ARC
   5
4A6
 100
AcDbEntity
   8
LEVEL002
 370
30
   6
CONTINUOUS
  62
7
 100
AcDbCircle
  10
 209.15569055523
  20
 96.184960809415
  30
0.0
  40
 0.76415960836813
 100
AcDbArc
  50
 79.224811144673
  51
 116.69869063734
   0
ARC
   5
4A7
 100
AcDbEntity
   8
LEVEL002
 370
30
   6
CONTINUOUS
  62
7
 100
AcDbCircle
  10
 209.21854087681
  20
 96.396212435139
  30
0.0
  40
 0.54533645646525
 100
AcDbArc
  50
 38.965290682405
  51
 81.562885289454
   0
ARC
   5
4A8
 100
AcDbEntity
   8
LEVEL002
 370
30
   6
CONTINUOUS
  62
7
 100
AcDbCircle
  10
 209.35504388802
  20
 96.554249893287
  30
0.0
  40
 0.34183244000083
 100
AcDbArc
  50
 31.419462299693
  51
 32.744912013710
   0
LINE
   5
4A9
 100
AcDbEntity
   8
LEVEL002
 370
30
 100
AcDbLine
   6
CONTINUOUS
  62
7
  10
 209.64675472634
  20
 96.732446985972
  30
0.0
  11
 209.62475472634
  21
 96.732446985972
  31
0.0
   0
LINE
   5
4AA
 100
AcDbEntity
   8
LEVEL002
 370
30
 100
AcDbLine
   6
CONTINUOUS
  62
7
  10
 209.62475472634
  20
 96.732446985972
  30
0.0
  11
 210.13185472634
  21
 96.732446985972
  31
0.0
   0
ARC
   5
4AB
 100
AcDbEntity
   8
LEVEL002
 370
30
   6
CONTINUOUS
  62
7
 100
AcDbCircle
  10
 210.49422476856
  20
 96.469192158594
  30
0.0
  40
 0.44790082789921
 100
AcDbArc
  50
 117.17634355207
  51
 144.00232015965
   0
ARC
   5
4AC
 100
AcDbEntity
   8
LEVEL002
 370
30
   6
CONTINUOUS
  62
7
 100
AcDbCircle
  10
 210.63298322634
  20
 96.185013211030
  30
0.0
  40
 0.76410950105215
 100
AcDbArc
  50
 79.223536686044
  51
 116.69996509596
   0
ARC
   5
4AD
 100
AcDbEntity
   8
LEVEL002
 370
30
   6
CONTINUOUS
  62
7
 100
AcDbCircle
  10
 210.69583094043
  20
 96.396195040149
  30
0.0
  40
 0.54535512115008
 100
AcDbArc
  50
 38.966055170848
  51
 81.562120801043
   0
ARC
   5
4AE
 100
AcDbEntity
   8
LEVEL002
 370
30
   6
CONTINUOUS
  62
7
 100
AcDbCircle
  10
 210.83237838951
  20
 96.554271521087
  30
0.0
  40
 0.34179172277312
 100
AcDbArc
  50
 31.419383346580
  51
 32.744990966835
   0
LINE
   5
4AF
 100
AcDbEntity
   8
LEVEL002
 370
30
 100
AcDbLine
   6
CONTINUOUS
  62
7
  10
 211.12405472634
  20
 96.732446985972
  30
0.0
  11
 215.11485472634
  21
 96.732446985972
  31
0.0
   0
ARC
   5
4B0
 100
AcDbEntity
   8
LEVEL002
 370
30
   6
CONTINUOUS
  62
7
 100
AcDbCircle
  10
 214.59149235177
  20
 96.747982229473
  30
0.0
  40
 0.52359289424970
 100
AcDbArc
  50
 358.29975817797
  51
 46.749184272403
   0
ARC
   5
4B1
 100
AcDbEntity
   8
LEVEL002
 370
30
   6
CONTINUOUS
  62
7
 100
AcDbCircle
  10
 214.64278414831
  20
 96.756278244968
  30
0.0
  40
 0.48344435240122
 100
AcDbArc
  50
 50.505812504331
  51
 91.544378976337
   0
LINE
   5
4B2
 100
AcDbEntity
   8
LEVEL002
 370
30
 100
AcDbLine
   6
CONTINUOUS
  62
7
  10
 214.62975472634
  20
 97.239546985972
  30
0.0
  11
 202.30495472634
  21
 97.671246985972
  31
0.0
   0
LINE
   5
4B3
 100
AcDbEntity
   8
LEVEL002
 370
30
 100
AcDbLine
   6
CONTINUOUS
  62
7
  10
 202.30495472634
  20
 97.671246985972
  30
0.0
  11
 202.12815472634
  21
 97.544446985972
  31
0.0
   0
LINE
   5
4B4
 100
AcDbEntity
   8
LEVEL002
 370
30
 100
AcDbLine
   6
CONTINUOUS
  62
7
  10
 202.12815472634
  20
 97.544446985972
  30
0.0
  11
 201.97385472634
  21
 97.682946985972
  31
0.0
   0
LINE
   5
4B5
 100
AcDbEntity
   8
LEVEL002
 370
30
 100
AcDbLine
   6
CONTINUOUS
  62
7
  10
 201.97385472634
  20
 97.682946985972
  30
0.0
  11
 195.11675472634
  21
 97.923046985972
  31
0.0
   0
LINE
   5
4B6
 100
AcDbEntity
   8
LEVEL002
 370
30
 100
AcDbLine
   6
CONTINUOUS
  62
7
  10
 195.11675472634
  20
 97.923046985972
  30
0.0
  11
 195.11675472634
  21
 104.44944698597
  31
0.0
   0
ARC
   5
4B7
 100
AcDbEntity
   8
LEVEL002
 370
30
   6
CONTINUOUS
  62
7
 100
AcDbCircle
  10
 195.10321136835
  20
 104.87534006816
  30
0.0
  40
 0.42610836649706
 100
AcDbArc
  50
 271.82138635245
  51
 325.89998116081
   0
ARC
   5
4B8
 100
AcDbEntity
   8
LEVEL002
 370
30
   6
CONTINUOUS
  62
7
 100
AcDbCircle
  10
 195.10944752137
  20
 104.81661752136
  30
0.0
  40
 0.39063790953386
 100
AcDbArc
  50
 332.53405431818
  51
 357.64223145573
   0
ARC
   5
4B9
 100
AcDbEntity
   8
LEVEL002
 370
30
   6
CONTINUOUS
  62
7
 100
AcDbCircle
  10
 194.87836272073
  20
 104.82924366208
  30
0.0
  40
 0.62205427725919
 100
AcDbArc
  50
 357.35588639835
  51
 18.123812697478
   0
ARC
   5
4BA
 100
AcDbEntity
   8
LEVEL002
 370
30
   6
CONTINUOUS
  62
7
 100
AcDbCircle
  10
 195.10035339408
  20
 104.86551815582
  30
0.0
  40
 0.40128609342701
 100
AcDbArc
  50
 23.067313546632
  51
 75.628663968046
   0
ARC
   5
4BB
 100
AcDbEntity
   8
LEVEL002
 370
30
   6
CONTINUOUS
  62
7
 100
AcDbCircle
  10
 195.10859568044
  20
 104.92763329437
  30
0.0
  40
 0.33915037787270
 100
AcDbArc
  50
 74.372848469604
  51
 111.47130052214
   0
LINE
   5
4BC
 100
AcDbEntity
   8
LEVEL002
 370
30
 100
AcDbLine
   6
CONTINUOUS
  62
7
  10
 194.98445472634
  20
 105.24324698597
  30
0.0
  11
 194.55445472634
  21
 105.01204698597
  31
0.0
   0
LINE
   5
4BD
 100
AcDbEntity
   8
LEVEL002
 370
30
 100
AcDbLine
   6
CONTINUOUS
  62
7
  10
 194.55445472634
  20
 105.01204698597
  30
0.0
  11
 194.42215472634
  21
 104.76474698597
  31
0.0
   0
LINE
   5
4BE
 100
AcDbEntity
   8
LEVEL002
 370
30
 100
AcDbLine
   6
CONTINUOUS
  62
7
  10
 194.42215472634
  20
 104.76474698597
  30
0.0
  11
 194.17485472634
  21
 104.89704698597
  31
0.0
   0
LINE
   5
4BF
 100
AcDbEntity
   8
LEVEL002
 370
30
 100
AcDbLine
   6
CONTINUOUS
  62
7
  10
 194.17485472634
  20
 104.89704698597
  30
0.0
  11
 191.68475472634
  21
 104.14284698597
  31
0.0
   0
LINE
   5
4C0
 100
AcDbEntity
   8
LEVEL002
 370
30
 100
AcDbLine
   6
CONTINUOUS
  62
7
  10
 191.68475472634
  20
 104.14284698597
  30
0.0
  11
 191.55245472634
  21
 103.89514698597
  31
0.0
   0
LINE
   5
4C1
 100
AcDbEntity
   8
LEVEL002
 370
30
 100
AcDbLine
   6
CONTINUOUS
  62
7
  10
 191.55245472634
  20
 103.89514698597
  30
0.0
  11
 191.28405472634
  21
 104.02124698597
  31
0.0
   0
LINE
   5
4C2
 100
AcDbEntity
   8
LEVEL002
 370
30
 100
AcDbLine
   6
CONTINUOUS
  62
7
  10
 191.28405472634
  20
 104.02124698597
  30
0.0
  11
 188.81495472634
  21
 103.27294698597
  31
0.0
   0
LINE
   5
4C3
 100
AcDbEntity
   8
LEVEL002
 370
30
 100
AcDbLine
   6
CONTINUOUS
  62
7
  10
 188.81495472634
  20
 103.27294698597
  30
0.0
  11
 188.66165472634
  21
 103.01904698597
  31
0.0
   0
LINE
   5
4C4
 100
AcDbEntity
   8
LEVEL002
 370
30
 100
AcDbLine
   6
CONTINUOUS
  62
7
  10
 188.66165472634
  20
 103.01904698597
  30
0.0
  11
 188.41395472634
  21
 103.15174698597
  31
0.0
   0
LINE
   5
4C5
 100
AcDbEntity
   8
LEVEL002
 370
30
 100
AcDbLine
   6
CONTINUOUS
  62
7
  10
 188.41395472634
  20
 103.15174698597
  30
0.0
  11
 185.92415472634
  21
 102.39724698597
  31
0.0
   0
LINE
   5
4C6
 100
AcDbEntity
   8
LEVEL002
 370
30
 100
AcDbLine
   6
CONTINUOUS
  62
7
  10
 185.92415472634
  20
 102.39724698597
  30
0.0
  11
 185.79185472634
  21
 102.14984698597
  31
0.0
   0
LINE
   5
4C7
 100
AcDbEntity
   8
LEVEL002
 370
30
 100
AcDbLine
   6
CONTINUOUS
  62
7
  10
 185.79185472634
  20
 102.14984698597
  30
0.0
  11
 185.54455472634
  21
 102.28214698597
  31
0.0
   0
LINE
   5
4C8
 100
AcDbEntity
   8
LEVEL002
 370
30
 100
AcDbLine
   6
CONTINUOUS
  62
7
  10
 185.54455472634
  20
 102.28214698597
  30
0.0
  11
 183.05475472634
  21
 101.52774698597
  31
0.0
   0
LINE
   5
4C9
 100
AcDbEntity
   8
LEVEL002
 370
30
 100
AcDbLine
   6
CONTINUOUS
  62
7
  10
 183.05475472634
  20
 101.52774698597
  30
0.0
  11
 182.92215472634
  21
 101.27994698597
  31
0.0
   0
LINE
   5
4CA
 100
AcDbEntity
   8
LEVEL002
 370
30
 100
AcDbLine
   6
CONTINUOUS
  62
7
  10
 182.92215472634
  20
 101.27994698597
  30
0.0
  11
 182.67475472634
  21
 101.41264698597
  31
0.0
   0
LINE
   5
4CB
 100
AcDbEntity
   8
LEVEL002
 370
30
 100
AcDbLine
   6
CONTINUOUS
  62
7
  10
 182.67475472634
  20
 101.41264698597
  30
0.0
  11
 180.18495472634
  21
 100.65814698597
  31
0.0
   0
LINE
   5
4CC
 100
AcDbEntity
   8
LEVEL002
 370
30
 100
AcDbLine
   6
CONTINUOUS
  62
7
  10
 180.18495472634
  20
 100.65814698597
  30
0.0
  11
 180.05235472634
  21
 100.41084698597
  31
0.0
   0
LINE
   5
4CD
 100
AcDbEntity
   8
LEVEL002
 370
30
 100
AcDbLine
   6
CONTINUOUS
  62
7
  10
 180.05235472634
  20
 100.41084698597
  30
0.0
  11
 179.80465472634
  21
 100.54304698597
  31
0.0
   0
LINE
   5
4CE
 100
AcDbEntity
   8
LEVEL002
 370
30
 100
AcDbLine
   6
CONTINUOUS
  62
7
  10
 179.80465472634
  20
 100.54304698597
  30
0.0
  11
 177.12505472634
  21
 99.731046985972
  31
0.0
   0
LINE
   5
4CF
 100
AcDbEntity
   8
LEVEL002
 370
30
 100
AcDbLine
   6
CONTINUOUS
  62
7
  10
 177.12505472634
  20
 99.731046985972
  30
0.0
  11
 177.12505472634
  21
 96.732446985972
  31
0.0
   0
LINE
   5
4D0
 100
AcDbEntity
   8
LEVEL002
 370
30
 100
AcDbLine
   6
CONTINUOUS
  62
7
  10
 177.12505472634
  20
 96.732446985972
  30
0.0
  11
 178.31565472634
  21
 96.732446985972
  31
0.0
   0
LINE
   5
4D1
 100
AcDbEntity
   8
LEVEL002
 370
30
 100
AcDbLine
   6
CONTINUOUS
  62
7
  10
 178.31565472634
  20
 96.732446985972
  30
0.0
  11
 178.31565472634
  21
 97.923046985972
  31
0.0
   0
LINE
   5
4D2
 100
AcDbEntity
   8
LEVEL002
 370
30
 100
AcDbLine
   6
CONTINUOUS
  62
7
  10
 178.31565472634
  20
 97.923046985972
  30
0.0
  11
 180.91745472634
  21
 97.923046985972
  31
0.0
   0
LINE
   5
4D3
 100
AcDbEntity
   8
LEVEL002
 370
30
 100
AcDbLine
   6
CONTINUOUS
  62
7
  10
 180.91745472634
  20
 97.923046985972
  30
0.0
  11
 180.91745472634
  21
 96.732446985972
  31
0.0
   0
LINE
   5
4D4
 100
AcDbEntity
   8
LEVEL002
 370
30
 100
AcDbLine
   6
CONTINUOUS
  62
7
  10
 180.91745472634
  20
 96.732446985972
  30
0.0
  11
 182.13005472634
  21
 96.732446985972
  31
0.0
   0
LINE
   5
4D5
 100
AcDbEntity
   8
LEVEL002
 370
30
 100
AcDbLine
   6
CONTINUOUS
  62
7
  10
 182.13005472634
  20
 96.732446985972
  30
0.0
  11
 182.13005472634
  21
 99.998746985972
  31
0.0
   0
LINE
   5
4D6
 100
AcDbEntity
   8
LEVEL002
 370
30
 100
AcDbLine
   6
CONTINUOUS
  62
7
  10
 182.13005472634
  20
 99.998746985972
  30
0.0
  11
 192.61425472634
  21
 103.18164698597
  31
0.0
   0
ARC
   5
4D7
 100
AcDbEntity
   8
LEVEL002
 370
30
   6
CONTINUOUS
  62
7
 100
AcDbCircle
  10
 192.93402829595
  20
 102.05739261314
  30
0.0
  40
 1.1688468807513
 100
AcDbArc
  50
 74.068903800574
  51
 105.87743172051
   0
ARC
   5
4D8
 100
AcDbEntity
   8
LEVEL002
 370
30
   6
CONTINUOUS
  62
7
 100
AcDbCircle
  10
 192.94751470767
  20
 102.25218861666
  30
0.0
  40
 0.97866907703099
 100
AcDbArc
  50
 359.55847395615
  51
 71.697205920699
   0
LINE
   5
4D9
 100
AcDbEntity
   8
LEVEL002
 370
30
 100
AcDbLine
   6
CONTINUOUS
  62
7
  10
 193.92615472634
  20
 102.24464698597
  30
0.0
  11
 193.92615472634
  21
 97.923046985972
  31
0.0
   0
LINE
   5
4DA
 100
AcDbEntity
   8
LEVEL002
 370
30
 100
AcDbLine
   6
CONTINUOUS
  62
7
  10
 193.92615472634
  20
 97.923046985972
  30
0.0
  11
 192.71345472634
  21
 97.923046985972
  31
0.0
   0
ARC
   5
4DB
 100
AcDbEntity
   8
LEVEL002
 370
30
   6
CONTINUOUS
  62
7
 100
AcDbCircle
  10
 192.73000006516
  20
 97.311201647155
  30
0.0
  40
 0.61206900498958
 100
AcDbArc
  50
 91.548997851654
  51
 178.45100214834
   0
ARC
   5
4DC
 100
AcDbEntity
   8
LEVEL002
 370
30
   6
CONTINUOUS
  62
7
 100
AcDbCircle
  10
 192.74149738886
  20
 97.355169844544
  30
0.0
  40
 0.62394558102751
 100
AcDbArc
  50
 182.51900228125
  51
 266.41244006056
   0
LINE
   5
4DD
 100
AcDbEntity
   8
LEVEL002
 370
30
 100
AcDbLine
   6
CONTINUOUS
  62
7
  10
 192.70245472634
  20
 96.732446985972
  30
0.0
  11
 195.16085472634
  21
 96.732446985972
  31
0.0
   0
ARC
   5
4DE
 100
AcDbEntity
   8
LEVEL002
 370
30
   6
CONTINUOUS
  62
7
 100
AcDbCircle
  10
 195.79701375268
  20
 96.515724654598
  30
0.0
  40
 0.39810192514819
 100
AcDbArc
  50
 32.982923765777
  51
 60.862121616554
   0
ARC
   5
4DF
 100
AcDbEntity
   8
LEVEL002
 370
30
   6
CONTINUOUS
  62
7
 100
AcDbCircle
  10
 195.64825357015
  20
 96.228201199004
  30
0.0
  40
 0.72174286424418
 100
AcDbArc
  50
 61.661099460268
  51
 100.15073630716
   0
ARC
   5
4E0
 100
AcDbEntity
   8
LEVEL002
 370
30
   6
CONTINUOUS
  62
7
 100
AcDbCircle
  10
 195.59870465898
  20
 96.332339862182
  30
0.0
  40
 0.61125922520322
 100
AcDbArc
  50
 97.298158995328
  51
 137.45594772582
   0
ARC
   5
4E1
 100
AcDbEntity
   8
LEVEL002
 370
30
   6
CONTINUOUS
  62
7
 100
AcDbCircle
  10
 195.45455867687
  20
 96.512862294679
  30
0.0
  40
 0.38464213474428
 100
AcDbArc
  50
 142.75690124627
  51
 145.18835198358
   0
DIMENSION
   5
4E2
 100
AcDbEntity
   8
LEVEL001
 370
15
   6
CONTINUOUS
  62
8
 100
AcDbDimension
   2
*D32
  10
 172.85888638589
  20
 99.731046985972
  30
0.0
  11
 172.85888638589
  21
 98.231746985972
  31
0.0
  70
0
   1
\A1;3
   3
GMM001
 100
AcDbAlignedDimension
  13
 177.12505472634
  23
 96.732446985972
  33
0.0
  14
 177.12505472634
  24
 99.731046985972
  34
0.0
  50
 90.000000000000
 100
AcDbRotatedDimension
   0
DIMENSION
   5
4E3
 100
AcDbEntity
   8
LEVEL001
 370
15
   6
CONTINUOUS
  62
8
 100
AcDbDimension
   2
*D33
  10
 195.49935844130
  20
 110.73334698597
  30
0.0
  11
 186.31220658382
  21
 110.73334698597
  31
0.0
  70
0
   1
\A1;18
   3
GMM001
 100
AcDbAlignedDimension
  13
 177.12505472634
  23
 99.731046985972
  33
0.0
  14
 195.49935844130
  24
 104.86551815582
  34
0.0
 100
AcDbRotatedDimension
   0
DIMENSION
   5
4E4
 100
AcDbEntity
   8
LEVEL001
 370
15
   6
CONTINUOUS
  62
8
 100
AcDbDimension
   2
*D34
  10
 219.74674619281
  20
 97.866346985972
  30
0.0
  11
 219.74674619281
  21
 95.127882203732
  31
0.0
  70
128
   1
\A1;1.2
   3
GMM012
 100
AcDbAlignedDimension
  13
 215.11485472634
  23
 96.732446985972
  33
0.0
  14
 199.31885520496
  24
 97.866346985972
  34
0.0
  50
 90.000000000000
 100
AcDbRotatedDimension
   0
DIMENSION
   5
4E5
 100
AcDbEntity
   8
LEVEL001
 370
15
   6
CONTINUOUS
  62
8
 100
AcDbDimension
   2
*D35
  10
 219.74674619281
  20
 105.26678260246
  30
0.0
  11
 219.74674619281
  21
 101.56656479422
  31
0.0
  70
0
   1
\A1;7.3
   3
GMM001
 100
AcDbAlignedDimension
  13
 199.31885520496
  23
 97.866346985972
  33
0.0
  14
 195.49935844130
  24
 105.26678260246
  34
0.0
  50
 90.000000000000
 100
AcDbRotatedDimension
   0
DIMENSION
   5
4E6
 100
AcDbEntity
   8
LEVEL001
 370
15
   6
CONTINUOUS
  62
8
 100
AcDbDimension
   2
*D36
  10
 215.11485472634
  20
 87.274287878579
  30
0.0
  11
 196.11995472634
  21
 87.274287878579
  31
0.0
  70
0
   1
\A1;38
   3
GMM001
 100
AcDbAlignedDimension
  13
 177.12505472634
  23
 96.732446985972
  33
0.0
  14
 215.11485472634
  24
 96.732446985972
  34
0.0
 100
AcDbRotatedDimension
   0
MTEXT
   5
4E8
 100
AcDbEntity
   8
LEVEL002
 370
15
  62
8
 100
AcDbMText
  10
 162.49999999995
  20
 136.66666666671
  30
0.0
  40
 2.0000000000000
  41
0.0
  71
1
  72
1
   3
{\W0.500000;\T1.000000;･\W1.000000;\T1.000000;定尺：３６４０\W0.500000;\T1.000000;m/m}\P{\W0.500000;\T1.000000;･\W1.000000;\T1.000000;材質：Ａ６０６３Ｓ－Ｔ５}\P{\W0.500000;\T1.000000;･\W1.000000;\T1.000000;仕上：Ｂ２シルバー}\P{\W1.000000;\T1.000000
   3
;　　　\W0.500000;\T1.000000; (\W1.000000;\T1.000000;穴付\W0.500000;\T1.000000;)\W1.000000;\T1.000000;下穴%%c５／皿%%c８}\P\P{\W0.500000;\T1.000000;･\W1.000000;\T1.000000;パンチカーペット}\P{\W0.500000;\T1.000000; \W1.000000;\T1.000000;タイルカーペッ
   1
ト用}
   7
GMM002
  44
 0.79999984000003
   0
MTEXT
   5
4EA
 100
AcDbEntity
   8
LEVEL001
 370
15
  62
8
 100
AcDbMText
  10
 160.29999999995
  20
 143.50000000001
  30
0.0
  40
 3.0000000000000
  41
0.0
  71
4
  72
1
   1
\W0.500000;\T1.000000; \W1.000000;\T1.000000;コーナーエッジ
   7
GMM002
  44
 0.79999984000003
   0
MTEXT
   5
4EC
 100
AcDbEntity
   8
LEVEL001
 370
15
  62
8
 100
AcDbMText
  10
 88.049999999950
  20
 143.50000000001
  30
0.0
  40
 3.0000000000000
  41
0.0
  71
4
  72
1
   1
\W0.500000;\T1.000000; \W1.000000;\T1.000000;リノコーナー
   7
GMM002
  44
 0.79999984000003
   0
MTEXT
   5
4EE
 100
AcDbEntity
   8
LEVEL002
 370
15
  62
8
 100
AcDbMText
  10
 123.87499999995
  20
 143.50000000001
  30
0.0
  40
 3.0000000000000
  41
0.0
  71
5
  72
1
   1
\T1.000000;ＲＣ２
   7
GMM002
  44
 0.79999984000003
   0
MTEXT
   5
4F0
 100
AcDbEntity
   8
LEVEL001
 370
15
  62
8
 100
AcDbMText
  10
 152.19999999995
  20
 143.50000000001
  30
0.0
  40
 3.0000000000000
  41
0.0
  71
5
  72
1
   1
\W0.500000;\T1.000000;(\W1.000000;\T1.000000;廃盤予定\W0.500000;\T1.000000;)
   7
GMM002
  44
 0.79999984000003
   0
DIMENSION
   5
4F1
 100
AcDbEntity
   8
LEVEL001
 370
15
   6
CONTINUOUS
  62
8
 100
AcDbDimension
   2
*D37
  10
 119.46590663257
  20
 109.03614648793
  30
0.0
  11
 111.96590663257
  21
 109.03614648793
  31
0.0
  70
0
   3
GMM001
 100
AcDbAlignedDimension
  13
 104.46590663257
  23
 96.732446985972
  33
0.0
  14
 119.46590663257
  24
 101.43244698597
  34
0.0
 100
AcDbRotatedDimension
   0
DIMENSION
   5
4F2
 100
AcDbEntity
   8
LEVEL001
 370
15
   6
CONTINUOUS
  62
8
 100
AcDbDimension
   2
*D38
  10
 151.70989701719
  20
 97.932446985973
  30
0.0
  11
 151.70989701719
  21
 95.108286544997
  31
0.0
  70
128
   3
GMM013
 100
AcDbAlignedDimension
  13
 142.46590663257
  23
 96.732446985972
  33
0.0
  14
 116.96590663257
  24
 97.932446985973
  34
0.0
  50
 90.000000000000
 100
AcDbRotatedDimension
   0
DIMENSION
   5
4F3
 100
AcDbEntity
   8
LEVEL001
 370
15
   6
CONTINUOUS
  62
8
 100
AcDbDimension
   2
*D39
  10
 151.70989701719
  20
 101.43244698597
  30
0.0
  11
 151.70989701719
  21
 103.05232517911
  31
0.0
  70
128
   3
GMM014
 100
AcDbAlignedDimension
  13
 116.96590663257
  23
 97.932446985973
  33
0.0
  14
 119.26590663257
  24
 101.43244698597
  34
0.0
  50
 90.000000000000
 100
AcDbRotatedDimension
   0
DIMENSION
   5
4F4
 100
AcDbEntity
   8
LEVEL001
 370
15
   6
CONTINUOUS
  62
8
 100
AcDbDimension
   2
*D40
  10
 142.46590663257
  20
 88.557206601356
  30
0.0
  11
 123.46590663257
  21
 88.557206601356
  31
0.0
  70
0
   3
GMM001
 100
AcDbAlignedDimension
  13
 104.46590663257
  23
 96.732446985972
  33
0.0
  14
 142.46590663257
  24
 96.732446985972
  34
0.0
 100
AcDbRotatedDimension
   0
INSERT
   5
4F5
 100
AcDbEntity
   8
0
 100
AcDbBlockReference
   2
BLOCK001
  10
0.0
  20
0.0
  30
0.0
   0
INSERT
   5
4F6
 100
AcDbEntity
   8
0
 100
AcDbBlockReference
   2
BLOCK002
  10
0.0
  20
0.0
  30
0.0
   0
INSERT
   5
4F7
 100
AcDbEntity
   8
0
 100
AcDbBlockReference
   2
BLOCK003
  10
0.0
  20
0.0
  30
0.0
   0
INSERT
   5
4F8
 100
AcDbEntity
   8
0
 100
AcDbBlockReference
   2
BLOCK004
  10
0.0
  20
0.0
  30
0.0
   0
LINE
   5
4F9
 100
AcDbEntity
   8
LEVEL001
 370
30
 100
AcDbLine
   6
CONTINUOUS
  62
7
  10
 104.46590663257
  20
 96.732446985973
  30
0.0
  11
 106.12688670651
  21
 96.732446985973
  31
0.0
   0
MTEXT
   5
4FB
 100
AcDbEntity
   8
LEVEL002
 370
15
  62
8
 100
AcDbMText
  10
 90.249999999950
  20
 136.66666666671
  30
0.0
  40
 2.0000000000000
  41
0.0
  71
1
  72
1
   3
{\W0.500000;\T1.000000;･\W1.000000;\T1.000000;定尺：３６４０\W0.500000;\T1.000000;m/m}\P{\W0.500000;\T1.000000;･\W1.000000;\T1.000000;材質：Ａ６０６３Ｓ－Ｔ５}\P{\W0.500000;\T1.000000;･\W1.000000;\T1.000000;仕上：Ｂ２シルバー・ＡＢアンバーＥＤ}\P{\W1
   1
.000000;\T1.000000;　　　（穴付）バカ穴%%c５＋%%c２\W0.500000;\T1.000000;.\W1.000000;\T1.000000;３}\P\P{\W0.500000;\T1.000000;･\W1.000000;\T1.000000;長尺シート用}
   7
GMM002
  44
 0.79999984000003
   0
ENDSEC
  0
SECTION
  2
OBJECTS
  0
DICTIONARY
  5
C
100
AcDbDictionary
  3
ACAD_GROUP
350
D
  3
ACAD_MLINESTYLE
350
1B
  3
DWGPROPS
350
1C
  0
DICTIONARY
  5
D
102
{ACAD_REACTORS
330
C
102
}
100
AcDbDictionary
  0
DICTIONARY
  5
1B
102
{ACAD_REACTORS
330
C
102
}
100
AcDbDictionary
  3
STANDARD
350
1D
  0
MLINESTYLE
  5
1D
102
{ACAD_REACTORS
330
1B
102
}
100
AcDbMlineStyle
  2
STANDARD
 70
     0
  3

 62
   256
 51
90.0
 52
90.0
 71
     2
 49
0.5
 62
   256
  6
BYLAYER
 49
-0.5
 62
   256
  6
BYLAYER
   0
XRECORD
   5
1C
 102
{ACAD_REACTORS
 330
C
 102
}
 330
C
 100
AcDbXrecord
 280
1
   1
DWGPROPS COOKIE
   2
 
   3
 
   4
 
   6
 
   7
00000000.DRW
   8
 
   9

 300
 = 
 301
 = 
 302
 = 
 303
 = 
 304
 = 
 305
 = 
 306
 = 
 307
 = 
 308
 = 
 309
 = 
  40
0.0
  41
 2460114.5000000
  42
 2460114.5000000
   1

  90
10
   0
ENDSEC
   0
EOF
