   0
SECTION
   2
HEADER
   9
$ACADVER
   1
AC1015
   9
$DWGCODEPAGE
   3
ANSI_932
   9
$LIMMIN
  10
0.0
  20
0.0
   9
$LIMMAX
  10
 4200.0000000000
  20
 2970.0000000000
   9
$EXTMIN
  10
0.0
  20
0.0
  30
0.0
   9
$EXTMAX
  10
 4200.0000000000
  20
 2970.0000000000
  30
0.0
   9
$LTSCALE
  40
 84.000000000000
   9
$HANDSEED
   5
435
   0
ENDSEC
   0
SECTION
   2
TABLES
  0
TABLE
  2
VPORT
  5
8
100
AcDbSymbolTable
 70
     1
  0
VPORT
  5
434
100
AcDbSymbolTableRecord
100
AcDbViewportTableRecord
  2
*ACTIVE
 70
     0
 10
0.0
 20
0.0
 11
1.0
 21
1.0
  12
 2100.0000000000
  22
 1485.0000000000
 13
0.0
 23
0.0
 14
1.0
 24
1.0
 15
0.0
 25
0.0
 16
0.0
 26
0.0
 36
1.0
 17
0.0
 27
0.0
 37
0.0
  40
 4200.0000000000
  41
 1.4787878787879
 42
50.0
 43
0.0
 44
0.0
 50
0.0
 51
0.0
 71
     0
 72
   100
 73
     1
 74
     1
 75
     0
 76
     0
 77
     0
 78
     0
  0
ENDTAB
  0
TABLE
  2
LTYPE
  5
5
100
AcDbSymbolTable
 70
    25
  0
LTYPE
  5
12
100
AcDbSymbolTableRecord
100
AcDbLinetypeTableRecord
  2
BYBLOCK
 70
     0
  3

 72
    65
 73
     0
 40
0.0
  0
LTYPE
  5
13
100
AcDbSymbolTableRecord
100
AcDbLinetypeTableRecord
  2
BYLAYER
 70
     0
  3

 72
    65
 73
     0
 40
0.0
  0
LTYPE
  5
14
100
AcDbSymbolTableRecord
100
AcDbLinetypeTableRecord
  2
CONTINUOUS
 70
     0
  3
Solid line
 72
    65
 73
     0
 40
0.0
  0
LTYPE
  5
20
100
AcDbSymbolTableRecord
100
AcDbLinetypeTableRecord
  2
BORDER
 70
     0
  3
__ __ . __ __ . __ __ . __ __ . __ __ . __ __ .
 72
    65
 73
     6
 40
1.75
 49
0.5
 74
     0
 49
-0.25
 74
     0
 49
0.5
 74
     0
 49
-0.25
 74
     0
 49
0.0
 74
     0
 49
-0.25
 74
     0
  0
LTYPE
  5
21
100
AcDbSymbolTableRecord
100
AcDbLinetypeTableRecord
  2
BORDER2
 70
     0
  3
__.__.__.__.__.__.__.__.__.__.__.__.__.__.__.__
 72
    65
 73
     6
 40
0.875
 49
0.25
 74
     0
 49
-0.125
 74
     0
 49
0.25
 74
     0
 49
-0.125
 74
     0
 49
0.0
 74
     0
 49
-0.125
 74
     0
  0
LTYPE
  5
22
100
AcDbSymbolTableRecord
100
AcDbLinetypeTableRecord
  2
BORDERX2
 70
     0
  3
____  ____  .  ____  ____  .  ____  ____  .  __
 72
    65
 73
     6
 40
3.5
 49
1.0
 74
     0
 49
-0.5
 74
     0
 49
1.0
 74
     0
 49
-0.5
 74
     0
 49
0.0
 74
     0
 49
-0.5
 74
     0
  0
LTYPE
  5
23
100
AcDbSymbolTableRecord
100
AcDbLinetypeTableRecord
  2
CENTER
 70
     0
  3
____ _ ____ _ ____ _ ____ _ ____ _ ____ _ ____ 
 72
    65
 73
     4
 40
2.0
 49
1.25
 74
     0
 49
-0.25
 74
     0
 49
0.25
 74
     0
 49
-0.25
 74
     0
  0
LTYPE
  5
24
100
AcDbSymbolTableRecord
100
AcDbLinetypeTableRecord
  2
CENTER2
 70
     0
  3
___ _ ___ _ ___ _ ___ _ ___ _ ___ _ ___ _ ___ _
 72
    65
 73
     4
 40
1.125
 49
0.75
 74
     0
 49
-0.125
 74
     0
 49
0.125
 74
     0
 49
-0.125
 74
     0
  0
LTYPE
  5
25
100
AcDbSymbolTableRecord
100
AcDbLinetypeTableRecord
  2
CENTERX2
 70
     0
  3
________  __  ________  __  ________  __  _____
 72
    65
 73
     4
 40
4.0
 49
2.5
 74
     0
 49
-0.5
 74
     0
 49
0.5
 74
     0
 49
-0.5
 74
     0
  0
LTYPE
  5
26
100
AcDbSymbolTableRecord
100
AcDbLinetypeTableRecord
  2
DASHDOT
 70
     0
  3
__ . __ . __ . __ . __ . __ . __ . __ . __ . __
 72
    65
 73
     4
 40
1.0
 49
0.5
 74
     0
 49
-0.25
 74
     0
 49
0.0
 74
     0
 49
-0.25
 74
     0
  0
LTYPE
  5
27
100
AcDbSymbolTableRecord
100
AcDbLinetypeTableRecord
  2
DASHDOT2
 70
     0
  3
_._._._._._._._._._._._._._._._._._._._._._._._
 72
    65
 73
     4
 40
0.5
 49
0.25
 74
     0
 49
-0.125
 74
     0
 49
0.0
 74
     0
 49
-0.125
 74
     0
  0
LTYPE
  5
28
100
AcDbSymbolTableRecord
100
AcDbLinetypeTableRecord
  2
DASHDOTX2
 70
     0
  3
____  .  ____  .  ____  .  ____  .  ____  .  __
 72
    65
 73
     4
 40
2.0
 49
1.0
 74
     0
 49
-0.5
 74
     0
 49
0.0
 74
     0
 49
-0.5
 74
     0
  0
LTYPE
  5
29
100
AcDbSymbolTableRecord
100
AcDbLinetypeTableRecord
  2
DASHED
 70
     0
  3
__ __ __ __ __ __ __ __ __ __ __ __ __ __ __ __
 72
    65
 73
     2
 40
0.75
 49
0.5
 74
     0
 49
-0.25
 74
     0
  0
LTYPE
  5
2A
100
AcDbSymbolTableRecord
100
AcDbLinetypeTableRecord
  2
DASHED2
 70
     0
  3
_ _ _ _ _ _ _ _ _ _ _ _ _ _ _ _ _ _ _ _ _ _ _ _
 72
    65
 73
     2
 40
0.375
 49
0.25
 74
     0
 49
-0.125
 74
     0
  0
LTYPE
  5
2B
100
AcDbSymbolTableRecord
100
AcDbLinetypeTableRecord
  2
DASHEDX2
 70
     0
  3
____  ____  ____  ____  ____  ____  ____  ____ 
 72
    65
 73
     2
 40
1.5
 49
1.0
 74
     0
 49
-0.5
 74
     0
  0
LTYPE
  5
2C
100
AcDbSymbolTableRecord
100
AcDbLinetypeTableRecord
  2
DIVIDE
 70
     0
  3
____ . . ____ . . ____ . . ____ . . ____ . . __
 72
    65
 73
     6
 40
1.25
 49
0.5
 74
     0
 49
-0.25
 74
     0
 49
0.0
 74
     0
 49
-0.25
 74
     0
 49
0.0
 74
     0
 49
-0.25
 74
     0
  0
LTYPE
  5
2D
100
AcDbSymbolTableRecord
100
AcDbLinetypeTableRecord
  2
DIVIDE2
 70
     0
  3
__..__..__..__..__..__..__..__..__..__..__..__.
 72
    65
 73
     6
 40
0.625
 49
0.25
 74
     0
 49
-0.125
 74
     0
 49
0.0
 74
     0
 49
-0.125
 74
     0
 49
0.0
 74
     0
 49
-0.125
 74
     0
  0
LTYPE
  5
2E
100
AcDbSymbolTableRecord
100
AcDbLinetypeTableRecord
  2
DIVIDEX2
 70
     0
  3
________  .  .  ________  .  .  ________  .  . 
 72
    65
 73
     6
 40
2.5
 49
1.0
 74
     0
 49
-0.5
 74
     0
 49
0.0
 74
     0
 49
-0.5
 74
     0
 49
0.0
 74
     0
 49
-0.5
 74
     0
  0
LTYPE
  5
2F
100
AcDbSymbolTableRecord
100
AcDbLinetypeTableRecord
  2
DOT
 70
     0
  3
. . . . . . . . . . . . . . . . . . . . . . . .
 72
    65
 73
     2
 40
0.25
 49
0.0
 74
     0
 49
-0.25
 74
     0
  0
LTYPE
  5
30
100
AcDbSymbolTableRecord
100
AcDbLinetypeTableRecord
  2
DOT2
 70
     0
  3
...............................................
 72
    65
 73
     2
 40
0.125
 49
0.0
 74
     0
 49
-0.125
 74
     0
  0
LTYPE
  5
31
100
AcDbSymbolTableRecord
100
AcDbLinetypeTableRecord
  2
DOTX2
 70
     0
  3
.  .  .  .  .  .  .  .  .  .  .  .  .  .  .  . 
 72
    65
 73
     2
 40
0.5
 49
0.0
 74
     0
 49
-0.5
 74
     0
  0
LTYPE
  5
32
100
AcDbSymbolTableRecord
100
AcDbLinetypeTableRecord
  2
HIDDEN
 70
     0
  3
__ __ __ __ __ __ __ __ __ __ __ __ __ __ __ __
 72
    65
 73
     2
 40
0.375
 49
0.25
 74
     0
 49
-0.125
 74
     0
  0
LTYPE
  5
33
100
AcDbSymbolTableRecord
100
AcDbLinetypeTableRecord
  2
HIDDEN2
 70
     0
  3
_ _ _ _ _ _ _ _ _ _ _ _ _ _ _ _ _ _ _ _ _ _ _ _
 72
    65
 73
     2
 40
0.1875
 49
0.125
 74
     0
 49
-0.0625
 74
     0
  0
LTYPE
  5
34
100
AcDbSymbolTableRecord
100
AcDbLinetypeTableRecord
  2
HIDDENX2
 70
     0
  3
____ ____ ____ ____ ____ ____ ____ ____ ____ __
 72
    65
 73
     2
 40
0.75
 49
0.5
 74
     0
 49
-0.25
 74
     0
  0
LTYPE
  5
35
100
AcDbSymbolTableRecord
100
AcDbLinetypeTableRecord
  2
PHANTOM
 70
     0
  3
______  __  __  ______  __  __  ______  __  __ 
 72
    65
 73
     6
 40
2.5
 49
1.25
 74
     0
 49
-0.25
 74
     0
 49
0.25
 74
     0
 49
-0.25
 74
     0
 49
0.25
 74
     0
 49
-0.25
 74
     0
  0
LTYPE
  5
36
100
AcDbSymbolTableRecord
100
AcDbLinetypeTableRecord
  2
PHANTOM2
 70
     0
  3
___ _ _ ___ _ _ ___ _ _ ___ _ _ ___ _ _ ___ _ _
 72
    65
 73
     6
 40
1.25
 49
0.625
 74
     0
 49
-0.125
 74
     0
 49
0.125
 74
     0
 49
-0.125
 74
     0
 49
0.125
 74
     0
 49
-0.125
 74
     0
  0
LTYPE
  5
37
100
AcDbSymbolTableRecord
100
AcDbLinetypeTableRecord
  2
PHANTOMX2
 70
     0
  3
____________    ____    ____    ____________   
 72
    65
 73
     6
 40
5.0
 49
2.5
 74
     0
 49
-0.5
 74
     0
 49
0.5
 74
     0
 49
-0.5
 74
     0
 49
0.5
 74
     0
 49
-0.5
 74
     0
  0
ENDTAB
   0
TABLE
   2
LAYER
   5
2
 100
AcDbSymbolTable
  70
3
   0
LAYER
   5
E
 100
AcDbSymbolTableRecord
 100
AcDbLayerTableRecord
   2
0
  70
0
  62
7
   6
CONTINUOUS
 390
30
   0
LAYER
   5
39
 100
AcDbSymbolTableRecord
 100
AcDbLayerTableRecord
   2
LEVEL001
  70
0
  62
7
   6
CONTINUOUS
 390
30
   0
LAYER
   5
3A
 100
AcDbSymbolTableRecord
 100
AcDbLayerTableRecord
   2
LEVEL002
  70
0
  62
7
   6
CONTINUOUS
 390
30
   0
ENDTAB
  0
TABLE
  2
STYLE
  5
3
100
AcDbSymbolTable
  70
5
  0
STYLE
  5
F
100
AcDbSymbolTableRecord
100
AcDbTextStyleTableRecord
  2
STANDARD
 70
     0
 40
0.0
 41
1.0
 50
0.0
 71
     0
 42
0.2
  3
TXT
  4
BIGFONT
  0
STYLE
  5
38
100
AcDbSymbolTableRecord
100
AcDbTextStyleTableRecord
  2
STANDARD1
 70
     4
 40
0.0
 41
1.0
 50
0.0
 71
     0
 42
0.2
  3
TXT
  4
BIGFONT
   0
STYLE
   5
3B
 100
AcDbSymbolTableRecord
 100
AcDbTextStyleTableRecord
   2
GMM001
  70
0
  40
0.0
  41
 0.80000000000000
  50
0.0
  71
     0
  42
1.0
   3
txt.shx
   4
bigfont.shx
   0
STYLE
   5
3C
 100
AcDbSymbolTableRecord
 100
AcDbTextStyleTableRecord
   2
GMM002
  70
0
  40
0.0
  41
 1.0000000000000
  50
0.0
  71
     0
  42
1.0
   3
txt.shx
   4
bigfont.shx
   0
STYLE
   5
3D
 100
AcDbSymbolTableRecord
 100
AcDbTextStyleTableRecord
   2
GMM003
  70
0
  40
0.0
  41
 1.0714285714286
  50
0.0
  71
     0
  42
1.0
   3
txt.shx
   4
bigfont.shx
   0
ENDTAB
  0
TABLE
  2
VIEW
  5
6
100
AcDbSymbolTable
 70
     0
  0
ENDTAB
  0
TABLE
  2
UCS
  5
7
100
AcDbSymbolTable
 70
     0
  0
ENDTAB
  0
TABLE
  2
APPID
  5
9
100
AcDbSymbolTable
 70
     1
  0
APPID
  5
10
100
AcDbSymbolTableRecord
100
AcDbRegAppTableRecord
  2
ACAD
 70
     0
  0
ENDTAB
   0
TABLE
   2
DIMSTYLE
   5
A
 100
AcDbSymbolTable
  70
14
 100
AcDbDimStyleTable
  0
DIMSTYLE
105
1D
100
AcDbSymbolTableRecord
100
AcDbDimStyleTableRecord
  2
STANDARD
 70
     0
  3

  4

  5

  6

  7

 40
1.0
 41
0.18
 42
0.0625
 43
0.38
 44
0.18
 45
0.0
 46
0.0
 47
0.0
 48
0.0
140
0.18
141
0.09
142
0.0
143
25.4
144
1.0
145
0.0
146
1.0
147
0.09
 71
     0
 72
     0
 73
     1
 74
     1
 75
     0
 76
     0
 77
     0
 78
     0
170
     0
171
     2
172
     0
173
     0
174
     0
175
     0
176
     0
177
     0
178
     0
270
     2
271
     4
272
     4
273
     2
274
     2
340
F
275
     0
280
     0
281
     0
282
     0
283
     1
284
     0
285
     0
286
     0
287
     3
288
     0
   0
DIMSTYLE
 105
3E
 100
AcDbSymbolTableRecord
 100
AcDbDimStyleTableRecord
   2
GMM001
  70
0
   3

   4

   5

   6

   7

  40
 1.0000000000000
  41
 20.000000000000
  42
 10.000000000000
  43
 80.000000000000
  44
 10.000000000000
  45
0.0
  46
0.0
  47
0.0
  48
0.0
 140
 30.000000000000
 141
 10.000000000000
 142
0.0
 143
 0.39400000000000E-1
 144
 1.0000000000000
 145
0.0
 146
 0.83333333333333
 147
0.0
  71
0
  72
0
  73
0
  74
0
  75
0
  76
0
  77
1
  78
0
 170
0
 171
2
 172
1
 173
1
 174
0
 175
0
 176
8
 177
8
 178
8
 270
2
 271
0
 272
0
 273
2
 274
2
 340
3C
 275
1
 280
0
 281
0
 282
0
 283
1
 284
0
 285
0
 286
0
 287
3
 288
0
   0
DIMSTYLE
 105
3F
 100
AcDbSymbolTableRecord
 100
AcDbDimStyleTableRecord
   2
GMM002
  70
0
   3
%%c<>
   4

   5

   6
_DOT
   7
_DOT
  40
 1.0000000000000
  41
 4.0000000000000
  42
 10.000000000000
  43
 80.000000000000
  44
0.0
  45
0.0
  46
0.0
  47
0.0
  48
0.0
 140
 30.000000000000
 141
 10.000000000000
 142
0.0
 143
 0.39400000000000E-1
 144
 1.0000000000000
 145
0.0
 146
 0.83333333333333
 147
 10.000000000000
  71
0
  72
0
  73
0
  74
0
  75
1
  76
1
  77
3
  78
0
 170
0
 171
2
 172
1
 173
1
 174
0
 175
0
 176
8
 177
8
 178
8
 270
2
 271
0
 272
0
 273
2
 274
2
 340
3C
 275
1
 280
0
 281
0
 282
0
 283
1
 284
0
 285
0
 286
0
 287
3
 288
1
   0
DIMSTYLE
 105
40
 100
AcDbSymbolTableRecord
 100
AcDbDimStyleTableRecord
   2
GMM003
  70
0
   3

   4

   5

   6
_DOT
   7
_NONE
  40
 1.0000000000000
  41
 4.0000000000000
  42
 10.000000000000
  43
 80.000000000000
  44
 10.000000000000
  45
0.0
  46
0.0
  47
0.0
  48
0.0
 140
 30.000000000000
 141
 10.000000000000
 142
0.0
 143
 0.39400000000000E-1
 144
 1.0000000000000
 145
0.0
 146
 0.83333333333333
 147
 10.000000000000
  71
0
  72
0
  73
0
  74
0
  75
0
  76
0
  77
3
  78
8
 170
0
 171
2
 172
1
 173
1
 174
0
 175
0
 176
8
 177
8
 178
8
 270
2
 271
6
 272
0
 273
2
 274
2
 340
3C
 275
0
 280
0
 281
0
 282
0
 283
1
 284
0
 285
0
 286
0
 287
3
 288
0
   0
DIMSTYLE
 105
41
 100
AcDbSymbolTableRecord
 100
AcDbDimStyleTableRecord
   2
GMM004
  70
0
   3

   4

   5

   6
_DOT
   7
_DOT
  40
 1.0000000000000
  41
 4.0000000000000
  42
 10.000000000000
  43
 80.000000000000
  44
 10.000000000000
  45
0.0
  46
0.0
  47
0.0
  48
0.0
 140
 30.000000000000
 141
 10.000000000000
 142
0.0
 143
 0.39400000000000E-1
 144
 1.0000000000000
 145
0.0
 146
 0.83333333333333
 147
 10.673482017333
  71
0
  72
0
  73
0
  74
0
  75
0
  76
0
  77
3
  78
8
 170
0
 171
2
 172
1
 173
1
 174
0
 175
0
 176
8
 177
8
 178
8
 270
2
 271
6
 272
0
 273
2
 274
2
 340
3C
 275
0
 280
0
 281
0
 282
0
 283
1
 284
0
 285
0
 286
0
 287
3
 288
1
   0
DIMSTYLE
 105
42
 100
AcDbSymbolTableRecord
 100
AcDbDimStyleTableRecord
   2
GMM005
  70
0
   3

   4

   5

   6
_DOT
   7
_DOT
  40
 1.0000000000000
  41
 4.0000000000000
  42
 10.000000000000
  43
 80.000000000000
  44
 10.000000000000
  45
0.0
  46
0.0
  47
0.0
  48
0.0
 140
 30.000000000000
 141
 10.000000000000
 142
0.0
 143
 0.39400000000000E-1
 144
 1.0000000000000
 145
0.0
 146
 0.83333333333333
 147
 10.000000000000
  71
0
  72
0
  73
0
  74
0
  75
0
  76
0
  77
3
  78
0
 170
0
 171
2
 172
1
 173
1
 174
0
 175
0
 176
8
 177
8
 178
8
 270
2
 271
0
 272
0
 273
2
 274
2
 340
3C
 275
1
 280
0
 281
0
 282
0
 283
1
 284
0
 285
0
 286
0
 287
3
 288
0
   0
DIMSTYLE
 105
43
 100
AcDbSymbolTableRecord
 100
AcDbDimStyleTableRecord
   2
GMM006
  70
0
   3

   4

   5

   6
_DOT
   7
_DOT
  40
 1.0000000000000
  41
 4.0000000000000
  42
 10.000000000000
  43
 80.000000000000
  44
 10.000000000000
  45
0.0
  46
0.0
  47
0.0
  48
0.0
 140
 30.000000000000
 141
 10.000000000000
 142
0.0
 143
 0.39400000000000E-1
 144
 1.0000000000000
 145
0.0
 146
 0.83333333333333
 147
 10.000000000000
  71
0
  72
0
  73
0
  74
0
  75
0
  76
0
  77
3
  78
8
 170
0
 171
2
 172
1
 173
1
 174
0
 175
0
 176
8
 177
8
 178
8
 270
2
 271
6
 272
0
 273
2
 274
2
 340
3C
 275
0
 280
0
 281
0
 282
0
 283
1
 284
0
 285
0
 286
0
 287
3
 288
0
   0
DIMSTYLE
 105
44
 100
AcDbSymbolTableRecord
 100
AcDbDimStyleTableRecord
   2
GMM007
  70
0
   3

   4

   5

   6
_DOT
   7
_NONE
  40
 1.0000000000000
  41
 4.0000000000000
  42
 10.000000000000
  43
 80.000000000000
  44
 10.000000000000
  45
0.0
  46
0.0
  47
0.0
  48
0.0
 140
 30.000000000000
 141
 10.000000000000
 142
0.0
 143
 0.39400000000000E-1
 144
 1.0000000000000
 145
0.0
 146
 0.83333333333333
 147
 8.7261632341733
  71
0
  72
0
  73
0
  74
0
  75
0
  76
0
  77
3
  78
8
 170
0
 171
2
 172
1
 173
1
 174
0
 175
0
 176
8
 177
8
 178
8
 270
2
 271
6
 272
0
 273
2
 274
2
 340
3C
 275
0
 280
0
 281
0
 282
0
 283
1
 284
0
 285
0
 286
0
 287
3
 288
1
   0
DIMSTYLE
 105
45
 100
AcDbSymbolTableRecord
 100
AcDbDimStyleTableRecord
   2
GMM008
  70
0
   3

   4

   5

   6
_DOT
   7
_DOT
  40
 1.0000000000000
  41
 4.0000000000000
  42
 10.000000000000
  43
 80.000000000000
  44
 10.000000000000
  45
0.0
  46
0.0
  47
0.0
  48
0.0
 140
 30.000000000000
 141
 10.000000000000
 142
0.0
 143
 0.39400000000000E-1
 144
 1.0000000000000
 145
0.0
 146
 0.83333333333333
 147
 10.068649885585
  71
0
  72
0
  73
0
  74
0
  75
0
  76
0
  77
3
  78
8
 170
0
 171
2
 172
1
 173
1
 174
0
 175
0
 176
8
 177
8
 178
8
 270
2
 271
6
 272
0
 273
2
 274
2
 340
3C
 275
0
 280
0
 281
0
 282
0
 283
1
 284
0
 285
0
 286
0
 287
3
 288
1
   0
DIMSTYLE
 105
46
 100
AcDbSymbolTableRecord
 100
AcDbDimStyleTableRecord
   2
GMM009
  70
0
   3

   4

   5

   6
_DOT
   7
_NONE
  40
 1.0000000000000
  41
 4.0000000000000
  42
 10.000000000000
  43
 80.000000000000
  44
 10.000000000000
  45
0.0
  46
0.0
  47
0.0
  48
0.0
 140
 30.000000000000
 141
 10.000000000000
 142
0.0
 143
 0.39400000000000E-1
 144
 1.0000000000000
 145
0.0
 146
 0.83333333333333
 147
 9.8246413457273
  71
0
  72
0
  73
0
  74
0
  75
0
  76
0
  77
3
  78
8
 170
0
 171
2
 172
1
 173
1
 174
0
 175
0
 176
8
 177
8
 178
8
 270
2
 271
6
 272
0
 273
2
 274
2
 340
3C
 275
0
 280
0
 281
0
 282
0
 283
1
 284
0
 285
0
 286
0
 287
3
 288
1
   0
DIMSTYLE
 105
47
 100
AcDbSymbolTableRecord
 100
AcDbDimStyleTableRecord
   2
GMM010
  70
0
   3

   4

   5

   6
_DOT
   7
_DOT
  40
 1.0000000000000
  41
 4.0000000000000
  42
 10.000000000000
  43
 80.000000000000
  44
 10.000000000000
  45
0.0
  46
0.0
  47
0.0
  48
0.0
 140
 30.000000000000
 141
 10.000000000000
 142
0.0
 143
 0.39400000000000E-1
 144
 1.0000000000000
 145
0.0
 146
 0.83333333333333
 147
 10.000000000000
  71
0
  72
0
  73
0
  74
0
  75
0
  76
0
  77
3
  78
0
 170
0
 171
2
 172
1
 173
1
 174
0
 175
0
 176
8
 177
8
 178
8
 270
2
 271
0
 272
0
 273
2
 274
2
 340
3C
 275
1
 280
0
 281
0
 282
0
 283
1
 284
0
 285
0
 286
0
 287
3
 288
0
   0
DIMSTYLE
 105
48
 100
AcDbSymbolTableRecord
 100
AcDbDimStyleTableRecord
   2
GMM011
  70
0
   3
R<>
   4

   5

   6
_NONE
   7

  40
 1.0000000000000
  41
 20.000000000000
  42
 10.000000000000
  43
 80.000000000000
  44
 10.000000000000
  45
0.0
  46
0.0
  47
0.0
  48
0.0
 140
 30.000000000000
 141
 10.000000000000
 142
0.0
 143
 0.39400000000000E-1
 144
 1.0000000000000
 145
0.0
 146
 0.83333333333333
 147
 10.000000000000
  71
0
  72
0
  73
0
  74
0
  75
0
  76
0
  77
3
  78
0
 170
0
 171
2
 172
1
 173
1
 174
0
 175
0
 176
8
 177
8
 178
8
 270
2
 271
0
 272
0
 273
2
 274
2
 340
3C
 275
1
 280
0
 281
0
 282
0
 283
1
 284
0
 285
0
 286
0
 287
3
 288
1
   0
DIMSTYLE
 105
49
 100
AcDbSymbolTableRecord
 100
AcDbDimStyleTableRecord
   2
GMM012
  70
0
   3

   4

   5

   6
_DOT
   7
_DOT
  40
 1.0000000000000
  41
 4.0000000000000
  42
 10.000000000000
  43
 80.000000000000
  44
 10.000000000000
  45
0.0
  46
0.0
  47
0.0
  48
0.0
 140
 30.000000000000
 141
 10.000000000000
 142
0.0
 143
 0.39400000000000E-1
 144
 1.0000000000000
 145
0.0
 146
 0.83333333333333
 147
 10.000000000000
  71
0
  72
0
  73
0
  74
0
  75
0
  76
0
  77
3
  78
8
 170
0
 171
2
 172
1
 173
1
 174
0
 175
0
 176
8
 177
8
 178
8
 270
2
 271
4
 272
0
 273
2
 274
2
 340
3C
 275
0
 280
0
 281
0
 282
0
 283
1
 284
0
 285
0
 286
0
 287
3
 288
0
   0
ENDTAB
  0
TABLE
  2
BLOCK_RECORD
  5
1
100
AcDbSymbolTable
 70
     0
  0
BLOCK_RECORD
  5
18
100
AcDbSymbolTableRecord
100
AcDbBlockTableRecord
  2
*MODEL_SPACE
  0
BLOCK_RECORD
  5
15
100
AcDbSymbolTableRecord
100
AcDbBlockTableRecord
  2
*PAPER_SPACE
   0
BLOCK_RECORD
   5
4A
 100
AcDbSymbolTableRecord
 100
AcDbBlockTableRecord
   2
*D2
   0
BLOCK_RECORD
   5
4B
 100
AcDbSymbolTableRecord
 100
AcDbBlockTableRecord
   2
*D3
   0
BLOCK_RECORD
   5
4C
 100
AcDbSymbolTableRecord
 100
AcDbBlockTableRecord
   2
*D4
   0
BLOCK_RECORD
   5
4D
 100
AcDbSymbolTableRecord
 100
AcDbBlockTableRecord
   2
*D5
   0
BLOCK_RECORD
   5
4E
 100
AcDbSymbolTableRecord
 100
AcDbBlockTableRecord
   2
*D6
   0
BLOCK_RECORD
   5
4F
 100
AcDbSymbolTableRecord
 100
AcDbBlockTableRecord
   2
*D7
   0
BLOCK_RECORD
   5
50
 100
AcDbSymbolTableRecord
 100
AcDbBlockTableRecord
   2
*D8
   0
BLOCK_RECORD
   5
51
 100
AcDbSymbolTableRecord
 100
AcDbBlockTableRecord
   2
*D9
   0
BLOCK_RECORD
   5
52
 100
AcDbSymbolTableRecord
 100
AcDbBlockTableRecord
   2
*D10
   0
BLOCK_RECORD
   5
53
 100
AcDbSymbolTableRecord
 100
AcDbBlockTableRecord
   2
*D11
   0
BLOCK_RECORD
   5
54
 100
AcDbSymbolTableRecord
 100
AcDbBlockTableRecord
   2
*D12
   0
BLOCK_RECORD
   5
55
 100
AcDbSymbolTableRecord
 100
AcDbBlockTableRecord
   2
*D13
   0
BLOCK_RECORD
   5
56
 100
AcDbSymbolTableRecord
 100
AcDbBlockTableRecord
   2
*D14
   0
BLOCK_RECORD
   5
57
 100
AcDbSymbolTableRecord
 100
AcDbBlockTableRecord
   2
*D15
   0
BLOCK_RECORD
   5
58
 100
AcDbSymbolTableRecord
 100
AcDbBlockTableRecord
   2
*D16
   0
BLOCK_RECORD
   5
59
 100
AcDbSymbolTableRecord
 100
AcDbBlockTableRecord
   2
*D17
   0
BLOCK_RECORD
   5
5A
 100
AcDbSymbolTableRecord
 100
AcDbBlockTableRecord
   2
*D18
   0
BLOCK_RECORD
   5
5B
 100
AcDbSymbolTableRecord
 100
AcDbBlockTableRecord
   2
*D19
   0
BLOCK_RECORD
   5
5C
 100
AcDbSymbolTableRecord
 100
AcDbBlockTableRecord
   2
*D21
   0
BLOCK_RECORD
   5
5D
 100
AcDbSymbolTableRecord
 100
AcDbBlockTableRecord
   2
*D22
   0
BLOCK_RECORD
   5
5E
 100
AcDbSymbolTableRecord
 100
AcDbBlockTableRecord
   2
*D23
   0
BLOCK_RECORD
   5
5F
 100
AcDbSymbolTableRecord
 100
AcDbBlockTableRecord
   2
*D24
   0
BLOCK_RECORD
   5
60
 100
AcDbSymbolTableRecord
 100
AcDbBlockTableRecord
   2
*D25
   0
BLOCK_RECORD
   5
61
 100
AcDbSymbolTableRecord
 100
AcDbBlockTableRecord
   2
*D26
   0
BLOCK_RECORD
   5
62
 100
AcDbSymbolTableRecord
 100
AcDbBlockTableRecord
   2
*D27
   0
BLOCK_RECORD
   5
63
 100
AcDbSymbolTableRecord
 100
AcDbBlockTableRecord
   2
*D28
   0
BLOCK_RECORD
   5
64
 100
AcDbSymbolTableRecord
 100
AcDbBlockTableRecord
   2
*D29
   0
BLOCK_RECORD
   5
65
 100
AcDbSymbolTableRecord
 100
AcDbBlockTableRecord
   2
*D30
   0
BLOCK_RECORD
   5
66
 100
AcDbSymbolTableRecord
 100
AcDbBlockTableRecord
   2
*D31
   0
BLOCK_RECORD
   5
67
 100
AcDbSymbolTableRecord
 100
AcDbBlockTableRecord
   2
*D32
   0
BLOCK_RECORD
   5
68
 100
AcDbSymbolTableRecord
 100
AcDbBlockTableRecord
   2
*D33
   0
BLOCK_RECORD
   5
69
 100
AcDbSymbolTableRecord
 100
AcDbBlockTableRecord
   2
*D34
   0
BLOCK_RECORD
   5
6A
 100
AcDbSymbolTableRecord
 100
AcDbBlockTableRecord
   2
*D35
   0
BLOCK_RECORD
   5
6B
 100
AcDbSymbolTableRecord
 100
AcDbBlockTableRecord
   2
*D36
   0
BLOCK_RECORD
   5
6C
 100
AcDbSymbolTableRecord
 100
AcDbBlockTableRecord
   2
*D37
   0
BLOCK_RECORD
   5
6D
 100
AcDbSymbolTableRecord
 100
AcDbBlockTableRecord
   2
*D38
   0
BLOCK_RECORD
   5
6E
 100
AcDbSymbolTableRecord
 100
AcDbBlockTableRecord
   2
_ARCHTICK
   0
BLOCK_RECORD
   5
6F
 100
AcDbSymbolTableRecord
 100
AcDbBlockTableRecord
   2
_BOXBLANK
   0
BLOCK_RECORD
   5
70
 100
AcDbSymbolTableRecord
 100
AcDbBlockTableRecord
   2
_BOXFILLED
   0
BLOCK_RECORD
   5
71
 100
AcDbSymbolTableRecord
 100
AcDbBlockTableRecord
   2
_CLOSED
   0
BLOCK_RECORD
   5
72
 100
AcDbSymbolTableRecord
 100
AcDbBlockTableRecord
   2
_CLOSEDBLANK
   0
BLOCK_RECORD
   5
73
 100
AcDbSymbolTableRecord
 100
AcDbBlockTableRecord
   2
_DATUMBLANK
   0
BLOCK_RECORD
   5
74
 100
AcDbSymbolTableRecord
 100
AcDbBlockTableRecord
   2
_DATUMFILLED
   0
BLOCK_RECORD
   5
75
 100
AcDbSymbolTableRecord
 100
AcDbBlockTableRecord
   2
_DOT
   0
BLOCK_RECORD
   5
76
 100
AcDbSymbolTableRecord
 100
AcDbBlockTableRecord
   2
_DOTBLANK
   0
BLOCK_RECORD
   5
77
 100
AcDbSymbolTableRecord
 100
AcDbBlockTableRecord
   2
_DOTSMALL
   0
BLOCK_RECORD
   5
78
 100
AcDbSymbolTableRecord
 100
AcDbBlockTableRecord
   2
_INTEGRAL
   0
BLOCK_RECORD
   5
79
 100
AcDbSymbolTableRecord
 100
AcDbBlockTableRecord
   2
_NONE
   0
BLOCK_RECORD
   5
7A
 100
AcDbSymbolTableRecord
 100
AcDbBlockTableRecord
   2
_OBLIQUE
   0
BLOCK_RECORD
   5
7B
 100
AcDbSymbolTableRecord
 100
AcDbBlockTableRecord
   2
_OPEN
   0
BLOCK_RECORD
   5
7C
 100
AcDbSymbolTableRecord
 100
AcDbBlockTableRecord
   2
_OPEN30
   0
BLOCK_RECORD
   5
7D
 100
AcDbSymbolTableRecord
 100
AcDbBlockTableRecord
   2
_OPEN90
   0
BLOCK_RECORD
   5
7E
 100
AcDbSymbolTableRecord
 100
AcDbBlockTableRecord
   2
_ORIGIN
   0
ENDTAB
   0
ENDSEC
  0
SECTION
  2
BLOCKS
  0
BLOCK
  5
19
100
AcDbEntity
  8
0
100
AcDbBlockBegin
  2
*MODEL_SPACE
 70
     0
 10
0.0
 20
0.0
 30
0.0
  3
*MODEL_SPACE
  1

  0
ENDBLK
  5
1A
100
AcDbEntity
  8
0
100
AcDbBlockEnd
  0
BLOCK
  5
16
100
AcDbEntity
 67
     1
  8
0
100
AcDbBlockBegin
  2
*PAPER_SPACE
 70
     0
 10
0.0
 20
0.0
 30
0.0
  3
*PAPER_SPACE
  1

  0
ENDBLK
  5
17
100
AcDbEntity
 67
     1
  8
0
100
AcDbBlockEnd
   0
BLOCK
   5
7F
 100
AcDbEntity
   8
0
 100
AcDbBlockBegin
   2
_ARCHTICK
  70
0
  10
0.0
  20
0.0
  30
0.0
   3
_ARCHTICK
   0
POLYLINE
   5
80
 100
AcDbEntity
   8
0
 370
-2
   6
BYBLOCK
  62
0
 100
AcDb2dPolyline
  66
1
  10
0.0
  20
0.0
  30
0.0
  70
1
  40
 0.15000000000000
  41
 0.15000000000000
   0
VERTEX
   5
81
 100
AcDbEntity
   8
0
   6
BYBLOCK
  62
0
 100
AcDbVertex
 100
AcDb2dVertex
  10
-0.50000000000000
  20
-0.50000000000000
  30
0.0
  40
 0.15000000000000
  41
 0.15000000000000
   0
VERTEX
   5
82
 100
AcDbEntity
   8
0
   6
BYBLOCK
  62
0
 100
AcDbVertex
 100
AcDb2dVertex
  10
 0.50000000000000
  20
 0.50000000000000
  30
0.0
  40
 0.15000000000000
  41
 0.15000000000000
   0
SEQEND
   5
83
 100
AcDbEntity
   8
0
   6
BYBLOCK
  62
0
   0
ENDBLK
   5
84
 100
AcDbEntity
   8
0
 100
AcDbBlockEnd
   0
BLOCK
   5
85
 100
AcDbEntity
   8
0
 100
AcDbBlockBegin
   2
_OBLIQUE
  70
0
  10
0.0
  20
0.0
  30
0.0
   3
_OBLIQUE
   0
LINE
   5
86
 100
AcDbEntity
   8
0
 370
-2
 100
AcDbLine
   6
BYBLOCK
  62
0
  10
-0.50000000000000
  20
-0.50000000000000
  30
0.0
  11
 0.50000000000000
  21
 0.50000000000000
  31
0.0
   0
ENDBLK
   5
87
 100
AcDbEntity
   8
0
 100
AcDbBlockEnd
   0
BLOCK
   5
88
 100
AcDbEntity
   8
0
 100
AcDbBlockBegin
   2
_BOXBLANK
  70
0
  10
0.0
  20
0.0
  30
0.0
   3
_BOXBLANK
   0
LINE
   5
89
 100
AcDbEntity
   8
0
 370
-2
 100
AcDbLine
   6
BYBLOCK
  62
0
  10
-0.50000000000000
  20
-0.50000000000000
  30
0.0
  11
 0.50000000000000
  21
-0.50000000000000
  31
0.0
   0
LINE
   5
8A
 100
AcDbEntity
   8
0
 370
-2
 100
AcDbLine
   6
BYBLOCK
  62
0
  10
 0.50000000000000
  20
-0.50000000000000
  30
0.0
  11
 0.50000000000000
  21
 0.50000000000000
  31
0.0
   0
LINE
   5
8B
 100
AcDbEntity
   8
0
 370
-2
 100
AcDbLine
   6
BYBLOCK
  62
0
  10
 0.50000000000000
  20
 0.50000000000000
  30
0.0
  11
-0.50000000000000
  21
 0.50000000000000
  31
0.0
   0
LINE
   5
8C
 100
AcDbEntity
   8
0
 370
-2
 100
AcDbLine
   6
BYBLOCK
  62
0
  10
-0.50000000000000
  20
 0.50000000000000
  30
0.0
  11
-0.50000000000000
  21
-0.50000000000000
  31
0.0
   0
LINE
   5
8D
 100
AcDbEntity
   8
0
 370
-2
 100
AcDbLine
   6
BYBLOCK
  62
0
  10
-0.50000000000000
  20
0.0
  30
0.0
  11
-1.0000000000000
  21
0.0
  31
0.0
   0
ENDBLK
   5
8E
 100
AcDbEntity
   8
0
 100
AcDbBlockEnd
   0
BLOCK
   5
8F
 100
AcDbEntity
   8
0
 100
AcDbBlockBegin
   2
_BOXFILLED
  70
0
  10
0.0
  20
0.0
  30
0.0
   3
_BOXFILLED
   0
SOLID
   5
90
 100
AcDbEntity
   8
0
 100
AcDbTrace
   6
BYBLOCK
  62
0
  10
-0.50000000000000
  20
 0.50000000000000
  30
0.0
  11
 0.50000000000000
  21
 0.50000000000000
  31
0.0
  12
-0.50000000000000
  22
-0.50000000000000
  32
0.0
  13
 0.50000000000000
  23
-0.50000000000000
  33
0.0
   0
LINE
   5
91
 100
AcDbEntity
   8
0
 370
-2
 100
AcDbLine
   6
BYBLOCK
  62
0
  10
-0.50000000000000
  20
0.0
  30
0.0
  11
-1.0000000000000
  21
0.0
  31
0.0
   0
ENDBLK
   5
92
 100
AcDbEntity
   8
0
 100
AcDbBlockEnd
   0
BLOCK
   5
93
 100
AcDbEntity
   8
0
 100
AcDbBlockBegin
   2
_CLOSED
  70
0
  10
0.0
  20
0.0
  30
0.0
   3
_CLOSED
   0
LINE
   5
94
 100
AcDbEntity
   8
0
 370
-2
 100
AcDbLine
   6
BYBLOCK
  62
0
  10
-1.0000000000000
  20
 0.16666666666667
  30
0.0
  11
0.0
  21
0.0
  31
0.0
   0
LINE
   5
95
 100
AcDbEntity
   8
0
 370
-2
 100
AcDbLine
   6
BYBLOCK
  62
0
  10
0.0
  20
0.0
  30
0.0
  11
-1.0000000000000
  21
-0.16666666666667
  31
0.0
   0
LINE
   5
96
 100
AcDbEntity
   8
0
 370
-2
 100
AcDbLine
   6
BYBLOCK
  62
0
  10
-1.0000000000000
  20
 0.16666666666667
  30
0.0
  11
-1.0000000000000
  21
-0.16666666666667
  31
0.0
   0
LINE
   5
97
 100
AcDbEntity
   8
0
 370
-2
 100
AcDbLine
   6
BYBLOCK
  62
0
  10
0.0
  20
0.0
  30
0.0
  11
-1.0000000000000
  21
0.0
  31
0.0
   0
ENDBLK
   5
98
 100
AcDbEntity
   8
0
 100
AcDbBlockEnd
   0
BLOCK
   5
99
 100
AcDbEntity
   8
0
 100
AcDbBlockBegin
   2
_OPEN
  70
0
  10
0.0
  20
0.0
  30
0.0
   3
_OPEN
   0
LINE
   5
9A
 100
AcDbEntity
   8
0
 370
-2
 100
AcDbLine
   6
BYBLOCK
  62
0
  10
-1.0000000000000
  20
 0.16666666666667
  30
0.0
  11
0.0
  21
0.0
  31
0.0
   0
LINE
   5
9B
 100
AcDbEntity
   8
0
 370
-2
 100
AcDbLine
   6
BYBLOCK
  62
0
  10
0.0
  20
0.0
  30
0.0
  11
-1.0000000000000
  21
-0.16666666666667
  31
0.0
   0
LINE
   5
9C
 100
AcDbEntity
   8
0
 370
-2
 100
AcDbLine
   6
BYBLOCK
  62
0
  10
0.0
  20
0.0
  30
0.0
  11
-1.0000000000000
  21
0.0
  31
0.0
   0
ENDBLK
   5
9D
 100
AcDbEntity
   8
0
 100
AcDbBlockEnd
   0
BLOCK
   5
9E
 100
AcDbEntity
   8
0
 100
AcDbBlockBegin
   2
_OPEN30
  70
0
  10
0.0
  20
0.0
  30
0.0
   3
_OPEN30
   0
LINE
   5
9F
 100
AcDbEntity
   8
0
 370
-2
 100
AcDbLine
   6
BYBLOCK
  62
0
  10
-1.0000000000000
  20
 0.26794919243110
  30
0.0
  11
0.0
  21
0.0
  31
0.0
   0
LINE
   5
A0
 100
AcDbEntity
   8
0
 370
-2
 100
AcDbLine
   6
BYBLOCK
  62
0
  10
0.0
  20
0.0
  30
0.0
  11
-1.0000000000000
  21
-0.26794919243110
  31
0.0
   0
LINE
   5
A1
 100
AcDbEntity
   8
0
 370
-2
 100
AcDbLine
   6
BYBLOCK
  62
0
  10
0.0
  20
0.0
  30
0.0
  11
-1.0000000000000
  21
0.0
  31
0.0
   0
ENDBLK
   5
A2
 100
AcDbEntity
   8
0
 100
AcDbBlockEnd
   0
BLOCK
   5
A3
 100
AcDbEntity
   8
0
 100
AcDbBlockBegin
   2
_OPEN90
  70
0
  10
0.0
  20
0.0
  30
0.0
   3
_OPEN90
   0
LINE
   5
A4
 100
AcDbEntity
   8
0
 370
-2
 100
AcDbLine
   6
BYBLOCK
  62
0
  10
-0.50000000000000
  20
 0.50000000000000
  30
0.0
  11
0.0
  21
0.0
  31
0.0
   0
LINE
   5
A5
 100
AcDbEntity
   8
0
 370
-2
 100
AcDbLine
   6
BYBLOCK
  62
0
  10
0.0
  20
0.0
  30
0.0
  11
-0.50000000000000
  21
-0.50000000000000
  31
0.0
   0
LINE
   5
A6
 100
AcDbEntity
   8
0
 370
-2
 100
AcDbLine
   6
BYBLOCK
  62
0
  10
0.0
  20
0.0
  30
0.0
  11
-1.0000000000000
  21
0.0
  31
0.0
   0
ENDBLK
   5
A7
 100
AcDbEntity
   8
0
 100
AcDbBlockEnd
   0
BLOCK
   5
A8
 100
AcDbEntity
   8
0
 100
AcDbBlockBegin
   2
_CLOSEDBLANK
  70
0
  10
0.0
  20
0.0
  30
0.0
   3
_CLOSEDBLANK
   0
LINE
   5
A9
 100
AcDbEntity
   8
0
 370
-2
 100
AcDbLine
   6
BYBLOCK
  62
0
  10
-1.0000000000000
  20
 0.16666666666667
  30
0.0
  11
0.0
  21
0.0
  31
0.0
   0
LINE
   5
AA
 100
AcDbEntity
   8
0
 370
-2
 100
AcDbLine
   6
BYBLOCK
  62
0
  10
0.0
  20
0.0
  30
0.0
  11
-1.0000000000000
  21
-0.16666666666667
  31
0.0
   0
LINE
   5
AB
 100
AcDbEntity
   8
0
 370
-2
 100
AcDbLine
   6
BYBLOCK
  62
0
  10
-1.0000000000000
  20
 0.16666666666667
  30
0.0
  11
-1.0000000000000
  21
-0.16666666666667
  31
0.0
   0
ENDBLK
   5
AC
 100
AcDbEntity
   8
0
 100
AcDbBlockEnd
   0
BLOCK
   5
AD
 100
AcDbEntity
   8
0
 100
AcDbBlockBegin
   2
_DOT
  70
0
  10
0.0
  20
0.0
  30
0.0
   3
_DOT
   0
POLYLINE
   5
AE
 100
AcDbEntity
   8
0
 370
-2
   6
BYBLOCK
  62
0
 100
AcDb2dPolyline
  66
1
  10
0.0
  20
0.0
  30
0.0
  70
1
  40
 0.50000000000000
  41
 0.50000000000000
   0
VERTEX
   5
AF
 100
AcDbEntity
   8
0
   6
BYBLOCK
  62
0
 100
AcDbVertex
 100
AcDb2dVertex
  10
-0.25000000000000
  20
0.0
  30
0.0
  42
 1.0000000000000
  40
 0.50000000000000
  41
 0.50000000000000
   0
VERTEX
   5
B0
 100
AcDbEntity
   8
0
   6
BYBLOCK
  62
0
 100
AcDbVertex
 100
AcDb2dVertex
  10
 0.25000000000000
  20
0.0
  30
0.0
  42
 1.0000000000000
  40
 0.50000000000000
  41
 0.50000000000000
   0
SEQEND
   5
B1
 100
AcDbEntity
   8
0
   6
BYBLOCK
  62
0
   0
LINE
   5
B2
 100
AcDbEntity
   8
0
 370
-2
 100
AcDbLine
   6
BYBLOCK
  62
0
  10
-0.50000000000000
  20
0.0
  30
0.0
  11
-1.0000000000000
  21
0.0
  31
0.0
   0
ENDBLK
   5
B3
 100
AcDbEntity
   8
0
 100
AcDbBlockEnd
   0
BLOCK
   5
B4
 100
AcDbEntity
   8
0
 100
AcDbBlockBegin
   2
_DOTSMALL
  70
0
  10
0.0
  20
0.0
  30
0.0
   3
_DOTSMALL
   0
POLYLINE
   5
B5
 100
AcDbEntity
   8
0
 370
-2
   6
BYBLOCK
  62
0
 100
AcDb2dPolyline
  66
1
  10
0.0
  20
0.0
  30
0.0
  70
1
  40
 0.50000000000000
  41
 0.50000000000000
   0
VERTEX
   5
B6
 100
AcDbEntity
   8
0
   6
BYBLOCK
  62
0
 100
AcDbVertex
 100
AcDb2dVertex
  10
-0.62500000000000E-1
  20
0.0
  30
0.0
  42
 1.0000000000000
  40
 0.50000000000000
  41
 0.50000000000000
   0
VERTEX
   5
B7
 100
AcDbEntity
   8
0
   6
BYBLOCK
  62
0
 100
AcDbVertex
 100
AcDb2dVertex
  10
 0.62500000000000E-1
  20
0.0
  30
0.0
  42
 1.0000000000000
  40
 0.50000000000000
  41
 0.50000000000000
   0
SEQEND
   5
B8
 100
AcDbEntity
   8
0
   6
BYBLOCK
  62
0
   0
ENDBLK
   5
B9
 100
AcDbEntity
   8
0
 100
AcDbBlockEnd
   0
BLOCK
   5
BA
 100
AcDbEntity
   8
0
 100
AcDbBlockBegin
   2
_DATUMBLANK
  70
0
  10
0.0
  20
0.0
  30
0.0
   3
_DATUMBLANK
   0
LINE
   5
BB
 100
AcDbEntity
   8
0
 370
-2
 100
AcDbLine
   6
BYBLOCK
  62
0
  10
0.0
  20
 0.57735027000000
  30
0.0
  11
-1.0000000000000
  21
0.0
  31
0.0
   0
LINE
   5
BC
 100
AcDbEntity
   8
0
 370
-2
 100
AcDbLine
   6
BYBLOCK
  62
0
  10
-1.0000000000000
  20
0.0
  30
0.0
  11
0.0
  21
-0.57735027000000
  31
0.0
   0
LINE
   5
BD
 100
AcDbEntity
   8
0
 370
-2
 100
AcDbLine
   6
BYBLOCK
  62
0
  10
0.0
  20
-0.57735027000000
  30
0.0
  11
0.0
  21
 0.57735027000000
  31
0.0
   0
ENDBLK
   5
BE
 100
AcDbEntity
   8
0
 100
AcDbBlockEnd
   0
BLOCK
   5
BF
 100
AcDbEntity
   8
0
 100
AcDbBlockBegin
   2
_DATUMFILLED
  70
0
  10
0.0
  20
0.0
  30
0.0
   3
_DATUMFILLED
   0
SOLID
   5
C0
 100
AcDbEntity
   8
0
 100
AcDbTrace
   6
BYBLOCK
  62
0
  10
0.0
  20
 0.57735027000000
  30
0.0
  11
-1.0000000000000
  21
0.0
  31
0.0
  12
0.0
  22
-0.57735027000000
  32
0.0
  13
0.0
  23
-0.57735027000000
  33
0.0
   0
ENDBLK
   5
C1
 100
AcDbEntity
   8
0
 100
AcDbBlockEnd
   0
BLOCK
   5
C2
 100
AcDbEntity
   8
0
 100
AcDbBlockBegin
   2
_ORIGIN
  70
0
  10
0.0
  20
0.0
  30
0.0
   3
_ORIGIN
   0
CIRCLE
   5
C3
 100
AcDbEntity
   8
0
 370
-2
 100
AcDbCircle
   6
BYBLOCK
  62
0
  10
0.0
  20
0.0
  30
0.0
  40
 0.50000000000000
   0
LINE
   5
C4
 100
AcDbEntity
   8
0
 370
-2
 100
AcDbLine
   6
BYBLOCK
  62
0
  10
0.0
  20
0.0
  30
0.0
  11
-1.0000000000000
  21
0.0
  31
0.0
   0
ENDBLK
   5
C5
 100
AcDbEntity
   8
0
 100
AcDbBlockEnd
   0
BLOCK
   5
C6
 100
AcDbEntity
   8
0
 100
AcDbBlockBegin
   2
_NONE
  70
0
  10
0.0
  20
0.0
  30
0.0
   3
_NONE
   0
CIRCLE
   5
C7
 100
AcDbEntity
   8
0
 370
-2
 100
AcDbCircle
   6
BYBLOCK
  62
0
  10
0.0
  20
0.0
  30
0.0
  40
 0.25000000000000
   0
ENDBLK
   5
C8
 100
AcDbEntity
   8
0
 100
AcDbBlockEnd
   0
BLOCK
   5
C9
 100
AcDbEntity
   8
0
 100
AcDbBlockBegin
   2
_DOTBLANK
  70
0
  10
0.0
  20
0.0
  30
0.0
   3
_DOTBLANK
   0
CIRCLE
   5
CA
 100
AcDbEntity
   8
0
 370
-2
 100
AcDbCircle
   6
BYBLOCK
  62
0
  10
0.0
  20
0.0
  30
0.0
  40
 0.50000000000000
   0
LINE
   5
CB
 100
AcDbEntity
   8
0
 370
-2
 100
AcDbLine
   6
BYBLOCK
  62
0
  10
-0.50000000000000
  20
0.0
  30
0.0
  11
-1.0000000000000
  21
0.0
  31
0.0
   0
ENDBLK
   5
CC
 100
AcDbEntity
   8
0
 100
AcDbBlockEnd
   0
BLOCK
   5
CD
 100
AcDbEntity
   8
0
 100
AcDbBlockBegin
   2
_INTEGRAL
  70
0
  10
0.0
  20
0.0
  30
0.0
   3
_INTEGRAL
   0
ARC
   5
CE
 100
AcDbEntity
   8
0
 370
-2
   6
BYBLOCK
  62
0
 100
AcDbCircle
  10
 0.44488800000000
  20
-0.91335000000000E-1
  30
0.0
  40
 0.45416700000000
 100
AcDbArc
  50
 102.00000000000
  51
 168.00000000000
   0
ARC
   5
CF
 100
AcDbEntity
   8
0
 370
-2
   6
BYBLOCK
  62
0
 100
AcDbCircle
  10
-0.44488800000000
  20
 0.91335000000000E-1
  30
0.0
  40
 0.45416700000000
 100
AcDbArc
  50
 282.00000000000
  51
 348.00000000000
   0
ENDBLK
   5
D0
 100
AcDbEntity
   8
0
 100
AcDbBlockEnd
   0
BLOCK
   5
D1
 100
AcDbEntity
   8
0
 100
AcDbBlockBegin
   2
*D2
  70
65
  10
0.0
  20
0.0
  30
0.0
   3
*D2
   0
LINE
   5
D2
 100
AcDbEntity
   8
LEVEL001
 370
15
 100
AcDbLine
   6
CONTINUOUS
  62
8
  10
 1369.6910592291
  20
 1767.3333645149
  30
0.0
  11
 1352.6910592291
  21
 1767.3333645149
  31
0.0
   0
LINE
   5
D3
 100
AcDbEntity
   8
LEVEL001
 370
15
 100
AcDbLine
   6
CONTINUOUS
  62
8
  10
 1215.1607157021
  20
 1767.3333645149
  30
0.0
  11
 1352.6910592291
  21
 1767.3333645149
  31
0.0
   0
INSERT
   5
D4
 100
AcDbEntity
   8
LEVEL001
   6
CONTINUOUS
  62
8
 100
AcDbBlockReference
   2
_DOT
  10
 1369.6910592291
  20
 1767.3333645149
  30
0.0
  41
 4.0000000000000
  42
 4.0000000000000
  43
 4.0000000000000
  50
0.0
   0
INSERT
   5
D5
 100
AcDbEntity
   8
LEVEL001
   6
CONTINUOUS
  62
8
 100
AcDbBlockReference
   2
_DOT
  10
 1335.6910592291
  20
 1767.3333645149
  30
0.0
  41
 4.0000000000000
  42
 4.0000000000000
  43
 4.0000000000000
  50
 180.00000000000
   0
MTEXT
   5
D6
 100
AcDbEntity
   8
LEVEL001
 370
15
  62
8
 100
AcDbMText
  10
 1295.1607157021
  20
 1777.3333645149
  30
0.0
  40
 30.000000000000
  41
0.0
  71
9
  72
1
   1
\A1;%%c34
   7
GMM002
   0
ENDBLK
   5
D7
 100
AcDbEntity
   8
0
 100
AcDbBlockEnd
   0
BLOCK
   5
D8
 100
AcDbEntity
   8
0
 100
AcDbBlockBegin
   2
*D3
  70
65
  10
0.0
  20
0.0
  30
0.0
   3
*D3
   0
LINE
   5
D9
 100
AcDbEntity
   8
LEVEL001
 370
15
 100
AcDbLine
   6
CONTINUOUS
  62
8
  10
 1362.6910592291
  20
 1017.5184371811
  30
0.0
  11
 1492.6910592291
  21
 1017.5184371811
  31
0.0
   0
LINE
   5
DA
 100
AcDbEntity
   8
LEVEL001
 370
15
 100
AcDbLine
   6
CONTINUOUS
  62
8
  10
 1482.6910592291
  20
 1017.5184371811
  30
0.0
  11
 1482.6910592291
  21
 1045.0184371811
  31
0.0
   0
LINE
   5
DB
 100
AcDbEntity
   8
LEVEL001
 370
15
 100
AcDbLine
   6
CONTINUOUS
  62
8
  10
 1482.6910592291
  20
 1072.5184371811
  30
0.0
  11
 1482.6910592291
  21
 1045.0184371811
  31
0.0
   0
INSERT
   5
DC
 100
AcDbEntity
   8
LEVEL001
   6
CONTINUOUS
  62
8
 100
AcDbBlockReference
   2
_DOT
  10
 1482.6910592291
  20
 1017.5184371811
  30
0.0
  41
 4.0000000000000
  42
 4.0000000000000
  43
 4.0000000000000
  50
 270.00000000000
   0
MTEXT
   5
DD
 100
AcDbEntity
   8
LEVEL001
 370
15
  62
8
 100
AcDbMText
  10
 1472.6910592291
  20
 1045.0184371811
  30
0.0
  40
 30.000000000000
  41
0.0
  71
8
  72
1
   1
\A1;55
   7
GMM002
  11
0.0
  21
 1.0000000000000
  31
0.0
   0
ENDBLK
   5
DE
 100
AcDbEntity
   8
0
 100
AcDbBlockEnd
   0
BLOCK
   5
DF
 100
AcDbEntity
   8
0
 100
AcDbBlockBegin
   2
*D4
  70
65
  10
0.0
  20
0.0
  30
0.0
   3
*D4
   0
LINE
   5
E0
 100
AcDbEntity
   8
LEVEL001
 370
15
 100
AcDbLine
   6
CONTINUOUS
  62
8
  10
 1403.4560744273
  20
 1072.5184371811
  30
0.0
  11
 1492.6910592291
  21
 1072.5184371811
  31
0.0
   0
LINE
   5
E1
 100
AcDbEntity
   8
LEVEL001
 370
15
 100
AcDbLine
   6
CONTINUOUS
  62
8
  10
 1482.6910592291
  20
 1072.5184371811
  30
0.0
  11
 1482.6910592291
  21
 1172.5184371811
  31
0.0
   0
LINE
   5
E2
 100
AcDbEntity
   8
LEVEL001
 370
15
 100
AcDbLine
   6
CONTINUOUS
  62
8
  10
 1482.6910592291
  20
 1272.5184371811
  30
0.0
  11
 1482.6910592291
  21
 1172.5184371811
  31
0.0
   0
INSERT
   5
E3
 100
AcDbEntity
   8
LEVEL001
   6
CONTINUOUS
  62
8
 100
AcDbBlockReference
   2
_DOT
  10
 1482.6910592291
  20
 1072.5184371811
  30
0.0
  41
 4.0000000000000
  42
 4.0000000000000
  43
 4.0000000000000
  50
 270.00000000000
   0
MTEXT
   5
E4
 100
AcDbEntity
   8
LEVEL001
 370
15
  62
8
 100
AcDbMText
  10
 1472.6910592291
  20
 1172.5184371811
  30
0.0
  40
 30.000000000000
  41
0.0
  71
8
  72
1
   1
\A1;200
   7
GMM002
  11
0.0
  21
 1.0000000000000
  31
0.0
   0
ENDBLK
   5
E5
 100
AcDbEntity
   8
0
 100
AcDbBlockEnd
   0
BLOCK
   5
E6
 100
AcDbEntity
   8
0
 100
AcDbBlockBegin
   2
*D5
  70
65
  10
0.0
  20
0.0
  30
0.0
   3
*D5
   0
LINE
   5
E7
 100
AcDbEntity
   8
LEVEL001
 370
15
 100
AcDbLine
   6
CONTINUOUS
  62
8
  10
 1403.4560744273
  20
 1272.5184371811
  30
0.0
  11
 1492.6910592291
  21
 1272.5184371811
  31
0.0
   0
LINE
   5
E8
 100
AcDbEntity
   8
LEVEL001
 370
15
 100
AcDbLine
   6
CONTINUOUS
  62
8
  10
 1412.6910592291
  20
 1287.5184371811
  30
0.0
  11
 1492.6910592291
  21
 1287.5184371811
  31
0.0
   0
LINE
   5
E9
 100
AcDbEntity
   8
LEVEL001
 370
15
 100
AcDbLine
   6
CONTINUOUS
  62
8
  10
 1482.6910592291
  20
 1272.5184371811
  30
0.0
  11
 1482.6910592291
  21
 1280.0184371811
  31
0.0
   0
LINE
   5
EA
 100
AcDbEntity
   8
LEVEL001
 370
15
 100
AcDbLine
   6
CONTINUOUS
  62
8
  10
 1482.6910592291
  20
 1348.2749371590
  30
0.0
  11
 1482.6910592291
  21
 1280.0184371811
  31
0.0
   0
INSERT
   5
EB
 100
AcDbEntity
   8
LEVEL001
   6
CONTINUOUS
  62
8
 100
AcDbBlockReference
   2
_DOT
  10
 1482.6910592291
  20
 1272.5184371811
  30
0.0
  41
 4.0000000000000
  42
 4.0000000000000
  43
 4.0000000000000
  50
 270.00000000000
   0
INSERT
   5
EC
 100
AcDbEntity
   8
LEVEL001
   6
CONTINUOUS
  62
8
 100
AcDbBlockReference
   2
_DOT
  10
 1482.6910592291
  20
 1287.5184371811
  30
0.0
  41
 4.0000000000000
  42
 4.0000000000000
  43
 4.0000000000000
  50
 90.000000000000
   0
MTEXT
   5
ED
 100
AcDbEntity
   8
LEVEL001
 370
15
  62
8
 100
AcDbMText
  10
 1472.0175772118
  20
 1293.2749371590
  30
0.0
  40
 30.000000000000
  41
0.0
  71
7
  72
1
   1
\A1;15
   7
GMM002
  11
0.0
  21
 1.0000000000000
  31
0.0
   0
ENDBLK
   5
EE
 100
AcDbEntity
   8
0
 100
AcDbBlockEnd
   0
BLOCK
   5
EF
 100
AcDbEntity
   8
0
 100
AcDbBlockBegin
   2
*D6
  70
65
  10
0.0
  20
0.0
  30
0.0
   3
*D6
   0
LINE
   5
F0
 100
AcDbEntity
   8
LEVEL001
 370
15
 100
AcDbLine
   6
CONTINUOUS
  62
8
  10
 1292.1774288990
  20
 1052.5184371811
  30
0.0
  11
 1242.6910592291
  21
 1052.5184371811
  31
0.0
   0
LINE
   5
F1
 100
AcDbEntity
   8
LEVEL001
 370
15
 100
AcDbLine
   6
CONTINUOUS
  62
8
  10
 1292.1774288990
  20
 1192.5184371811
  30
0.0
  11
 1242.6910592291
  21
 1192.5184371811
  31
0.0
   0
LINE
   5
F2
 100
AcDbEntity
   8
LEVEL001
 370
15
 100
AcDbLine
   6
CONTINUOUS
  62
8
  10
 1252.6910592291
  20
 1052.5184371811
  30
0.0
  11
 1252.6910592291
  21
 1122.5184371811
  31
0.0
   0
LINE
   5
F3
 100
AcDbEntity
   8
LEVEL001
 370
15
 100
AcDbLine
   6
CONTINUOUS
  62
8
  10
 1252.6910592291
  20
 1192.5184371811
  30
0.0
  11
 1252.6910592291
  21
 1122.5184371811
  31
0.0
   0
INSERT
   5
F4
 100
AcDbEntity
   8
LEVEL001
   6
CONTINUOUS
  62
8
 100
AcDbBlockReference
   2
_DOT
  10
 1252.6910592291
  20
 1052.5184371811
  30
0.0
  41
 4.0000000000000
  42
 4.0000000000000
  43
 4.0000000000000
  50
 270.00000000000
   0
INSERT
   5
F5
 100
AcDbEntity
   8
LEVEL001
   6
CONTINUOUS
  62
8
 100
AcDbBlockReference
   2
_DOT
  10
 1252.6910592291
  20
 1192.5184371811
  30
0.0
  41
 4.0000000000000
  42
 4.0000000000000
  43
 4.0000000000000
  50
 90.000000000000
   0
MTEXT
   5
F6
 100
AcDbEntity
   8
LEVEL001
 370
15
  62
8
 100
AcDbMText
  10
 1242.6910592291
  20
 1122.5184371811
  30
0.0
  40
 30.000000000000
  41
0.0
  71
8
  72
1
   1
\A1;140
   7
GMM002
  11
0.0
  21
 1.0000000000000
  31
0.0
   0
ENDBLK
   5
F7
 100
AcDbEntity
   8
0
 100
AcDbBlockEnd
   0
BLOCK
   5
F8
 100
AcDbEntity
   8
0
 100
AcDbBlockBegin
   2
*D7
  70
65
  10
0.0
  20
0.0
  30
0.0
   3
*D7
   0
LINE
   5
F9
 100
AcDbEntity
   8
LEVEL001
 370
15
 100
AcDbLine
   6
CONTINUOUS
  62
8
  10
 1342.6910592291
  20
 1017.5184371811
  30
0.0
  11
 1192.6910592291
  21
 1017.5184371811
  31
0.0
   0
LINE
   5
FA
 100
AcDbEntity
   8
LEVEL001
 370
15
 100
AcDbLine
   6
CONTINUOUS
  62
8
  10
 1292.6910592291
  20
 1287.5184371811
  30
0.0
  11
 1192.6910592291
  21
 1287.5184371811
  31
0.0
   0
LINE
   5
FB
 100
AcDbEntity
   8
LEVEL001
 370
15
 100
AcDbLine
   6
CONTINUOUS
  62
8
  10
 1202.6910592291
  20
 1017.5184371811
  30
0.0
  11
 1202.6910592291
  21
 1152.5184371811
  31
0.0
   0
LINE
   5
FC
 100
AcDbEntity
   8
LEVEL001
 370
15
 100
AcDbLine
   6
CONTINUOUS
  62
8
  10
 1202.6910592291
  20
 1287.5184371811
  30
0.0
  11
 1202.6910592291
  21
 1152.5184371811
  31
0.0
   0
INSERT
   5
FD
 100
AcDbEntity
   8
LEVEL001
   6
CONTINUOUS
  62
8
 100
AcDbBlockReference
   2
_DOT
  10
 1202.6910592291
  20
 1017.5184371811
  30
0.0
  41
 4.0000000000000
  42
 4.0000000000000
  43
 4.0000000000000
  50
 270.00000000000
   0
INSERT
   5
FE
 100
AcDbEntity
   8
LEVEL001
   6
CONTINUOUS
  62
8
 100
AcDbBlockReference
   2
_DOT
  10
 1202.6910592291
  20
 1287.5184371811
  30
0.0
  41
 4.0000000000000
  42
 4.0000000000000
  43
 4.0000000000000
  50
 90.000000000000
   0
MTEXT
   5
FF
 100
AcDbEntity
   8
LEVEL001
 370
15
  62
8
 100
AcDbMText
  10
 1192.6910592291
  20
 1152.5184371811
  30
0.0
  40
 30.000000000000
  41
0.0
  71
8
  72
1
   1
\A1;270
   7
GMM002
  11
0.0
  21
 1.0000000000000
  31
0.0
   0
ENDBLK
   5
100
 100
AcDbEntity
   8
0
 100
AcDbBlockEnd
   0
BLOCK
   5
101
 100
AcDbEntity
   8
0
 100
AcDbBlockBegin
   2
*D8
  70
65
  10
0.0
  20
0.0
  30
0.0
   3
*D8
   0
LINE
   5
102
 100
AcDbEntity
   8
LEVEL001
 370
15
 100
AcDbLine
   6
CONTINUOUS
  62
8
  10
 1302.6910592291
  20
 1297.5184371811
  30
0.0
  11
 1302.6910592291
  21
 1367.2668008762
  31
0.0
   0
LINE
   5
103
 100
AcDbEntity
   8
LEVEL001
 370
15
 100
AcDbLine
   6
CONTINUOUS
  62
8
  10
 1239.8093392255
  20
 1357.2668008762
  30
0.0
  11
 1312.6910592291
  21
 1357.2668008762
  31
0.0
   0
LINE
   5
104
 100
AcDbEntity
   8
LEVEL001
 370
15
 100
AcDbLine
   6
CONTINUOUS
  62
8
  10
 1322.6910592291
  20
 1357.2668008762
  30
0.0
  11
 1312.6910592291
  21
 1357.2668008762
  31
0.0
   0
INSERT
   5
105
 100
AcDbEntity
   8
LEVEL001
   6
CONTINUOUS
  62
8
 100
AcDbBlockReference
   2
_DOT
  10
 1302.6910592291
  20
 1357.2668008762
  30
0.0
  41
 4.0000000000000
  42
 4.0000000000000
  43
 4.0000000000000
  50
 180.00000000000
   0
MTEXT
   5
106
 100
AcDbEntity
   8
LEVEL001
 370
15
  62
8
 100
AcDbMText
  10
 1294.8093392255
  20
 1365.9929641104
  30
0.0
  40
 30.000000000000
  41
0.0
  71
9
  72
1
   1
\A1;20
   7
GMM002
   0
ENDBLK
   5
107
 100
AcDbEntity
   8
0
 100
AcDbBlockEnd
   0
BLOCK
   5
108
 100
AcDbEntity
   8
0
 100
AcDbBlockBegin
   2
*D9
  70
65
  10
0.0
  20
0.0
  30
0.0
   3
*D9
   0
LINE
   5
109
 100
AcDbEntity
   8
LEVEL001
 370
15
 100
AcDbLine
   6
CONTINUOUS
  62
8
  10
 1322.6910592291
  20
 1295.1308667736
  30
0.0
  11
 1322.6910592291
  21
 1367.2668008762
  31
0.0
   0
LINE
   5
10A
 100
AcDbEntity
   8
LEVEL001
 370
15
 100
AcDbLine
   6
CONTINUOUS
  62
8
  10
 1322.6910592291
  20
 1357.2668008762
  30
0.0
  11
 1352.6910592291
  21
 1357.2668008762
  31
0.0
   0
LINE
   5
10B
 100
AcDbEntity
   8
LEVEL001
 370
15
 100
AcDbLine
   6
CONTINUOUS
  62
8
  10
 1382.6910592291
  20
 1357.2668008762
  30
0.0
  11
 1352.6910592291
  21
 1357.2668008762
  31
0.0
   0
INSERT
   5
10C
 100
AcDbEntity
   8
LEVEL001
   6
CONTINUOUS
  62
8
 100
AcDbBlockReference
   2
_DOT
  10
 1322.6910592291
  20
 1357.2668008762
  30
0.0
  41
 4.0000000000000
  42
 4.0000000000000
  43
 4.0000000000000
  50
 180.00000000000
   0
MTEXT
   5
10D
 100
AcDbEntity
   8
LEVEL001
 370
15
  62
8
 100
AcDbMText
  10
 1352.6910592291
  20
 1367.2668008762
  30
0.0
  40
 30.000000000000
  41
0.0
  71
8
  72
1
   1
\A1;60
   7
GMM002
   0
ENDBLK
   5
10E
 100
AcDbEntity
   8
0
 100
AcDbBlockEnd
   0
BLOCK
   5
10F
 100
AcDbEntity
   8
0
 100
AcDbBlockBegin
   2
*D10
  70
65
  10
0.0
  20
0.0
  30
0.0
   3
*D10
   0
LINE
   5
110
 100
AcDbEntity
   8
LEVEL001
 370
15
 100
AcDbLine
   6
CONTINUOUS
  62
8
  10
 1382.6910592291
  20
 1295.1308667736
  30
0.0
  11
 1382.6910592291
  21
 1367.2668008762
  31
0.0
   0
LINE
   5
111
 100
AcDbEntity
   8
LEVEL001
 370
15
 100
AcDbLine
   6
CONTINUOUS
  62
8
  10
 1402.6910592291
  20
 1297.5184371811
  30
0.0
  11
 1402.6910592291
  21
 1367.2668008762
  31
0.0
   0
LINE
   5
112
 100
AcDbEntity
   8
LEVEL001
 370
15
 100
AcDbLine
   6
CONTINUOUS
  62
8
  10
 1382.6910592291
  20
 1357.2668008762
  30
0.0
  11
 1392.6910592291
  21
 1357.2668008762
  31
0.0
   0
LINE
   5
113
 100
AcDbEntity
   8
LEVEL001
 370
15
 100
AcDbLine
   6
CONTINUOUS
  62
8
  10
 1465.2631912469
  20
 1357.2668008762
  30
0.0
  11
 1392.6910592291
  21
 1357.2668008762
  31
0.0
   0
INSERT
   5
114
 100
AcDbEntity
   8
LEVEL001
   6
CONTINUOUS
  62
8
 100
AcDbBlockReference
   2
_DOT
  10
 1382.6910592291
  20
 1357.2668008762
  30
0.0
  41
 4.0000000000000
  42
 4.0000000000000
  43
 4.0000000000000
  50
 180.00000000000
   0
INSERT
   5
115
 100
AcDbEntity
   8
LEVEL001
   6
CONTINUOUS
  62
8
 100
AcDbBlockReference
   2
_DOT
  10
 1402.6910592291
  20
 1357.2668008762
  30
0.0
  41
 4.0000000000000
  42
 4.0000000000000
  43
 4.0000000000000
  50
0.0
   0
MTEXT
   5
116
 100
AcDbEntity
   8
LEVEL001
 370
15
  62
8
 100
AcDbMText
  10
 1410.2631912469
  20
 1367.3354507618
  30
0.0
  40
 30.000000000000
  41
0.0
  71
7
  72
1
   1
\A1;20
   7
GMM002
   0
ENDBLK
   5
117
 100
AcDbEntity
   8
0
 100
AcDbBlockEnd
   0
BLOCK
   5
118
 100
AcDbEntity
   8
0
 100
AcDbBlockBegin
   2
*D11
  70
65
  10
0.0
  20
0.0
  30
0.0
   3
*D11
   0
LINE
   5
119
 100
AcDbEntity
   8
LEVEL001
 370
15
 100
AcDbLine
   6
CONTINUOUS
  62
8
  10
 1302.6910592291
  20
 1054.8734408219
  30
0.0
  11
 1302.6910592291
  21
 878.40333787087
  31
0.0
   0
LINE
   5
11A
 100
AcDbEntity
   8
LEVEL001
 370
15
 100
AcDbLine
   6
CONTINUOUS
  62
8
  10
 1402.6910592291
  20
 1057.6616145761
  30
0.0
  11
 1402.6910592291
  21
 878.40333787087
  31
0.0
   0
LINE
   5
11B
 100
AcDbEntity
   8
LEVEL001
 370
15
 100
AcDbLine
   6
CONTINUOUS
  62
8
  10
 1302.6910592291
  20
 888.40333787087
  30
0.0
  11
 1352.6910592291
  21
 888.40333787087
  31
0.0
   0
LINE
   5
11C
 100
AcDbEntity
   8
LEVEL001
 370
15
 100
AcDbLine
   6
CONTINUOUS
  62
8
  10
 1402.6910592291
  20
 888.40333787087
  30
0.0
  11
 1352.6910592291
  21
 888.40333787087
  31
0.0
   0
INSERT
   5
11D
 100
AcDbEntity
   8
LEVEL001
   6
CONTINUOUS
  62
8
 100
AcDbBlockReference
   2
_DOT
  10
 1302.6910592291
  20
 888.40333787087
  30
0.0
  41
 4.0000000000000
  42
 4.0000000000000
  43
 4.0000000000000
  50
 180.00000000000
   0
INSERT
   5
11E
 100
AcDbEntity
   8
LEVEL001
   6
CONTINUOUS
  62
8
 100
AcDbBlockReference
   2
_DOT
  10
 1402.6910592291
  20
 888.40333787087
  30
0.0
  41
 4.0000000000000
  42
 4.0000000000000
  43
 4.0000000000000
  50
0.0
   0
MTEXT
   5
11F
 100
AcDbEntity
   8
LEVEL001
 370
15
  62
8
 100
AcDbMText
  10
 1352.6910592291
  20
 898.40333787087
  30
0.0
  40
 30.000000000000
  41
0.0
  71
8
  72
1
   1
\A1;100
   7
GMM002
   0
ENDBLK
   5
120
 100
AcDbEntity
   8
0
 100
AcDbBlockEnd
   0
BLOCK
   5
121
 100
AcDbEntity
   8
0
 100
AcDbBlockBegin
   2
*D12
  70
65
  10
0.0
  20
0.0
  30
0.0
   3
*D12
   0
LINE
   5
122
 100
AcDbEntity
   8
LEVEL001
 370
15
 100
AcDbLine
   6
CONTINUOUS
  62
8
  10
 1302.6910592291
  20
 1057.6616145761
  30
0.0
  11
 1302.6910592291
  21
 957.51843718113
  31
0.0
   0
LINE
   5
123
 100
AcDbEntity
   8
LEVEL001
 370
15
 100
AcDbLine
   6
CONTINUOUS
  62
8
  10
 1238.5787264617
  20
 967.51843718113
  30
0.0
  11
 1312.6910592291
  21
 967.51843718113
  31
0.0
   0
LINE
   5
124
 100
AcDbEntity
   8
LEVEL001
 370
15
 100
AcDbLine
   6
CONTINUOUS
  62
8
  10
 1322.6910592291
  20
 967.51843718113
  30
0.0
  11
 1312.6910592291
  21
 967.51843718113
  31
0.0
   0
INSERT
   5
125
 100
AcDbEntity
   8
LEVEL001
   6
CONTINUOUS
  62
8
 100
AcDbBlockReference
   2
_DOT
  10
 1302.6910592291
  20
 967.51843718113
  30
0.0
  41
 4.0000000000000
  42
 4.0000000000000
  43
 4.0000000000000
  50
 180.00000000000
   0
MTEXT
   5
126
 100
AcDbEntity
   8
LEVEL001
 370
15
  62
8
 100
AcDbMText
  10
 1293.5787264617
  20
 977.34307852686
  30
0.0
  40
 30.000000000000
  41
0.0
  71
9
  72
1
   1
\A1;20
   7
GMM002
   0
ENDBLK
   5
127
 100
AcDbEntity
   8
0
 100
AcDbBlockEnd
   0
BLOCK
   5
128
 100
AcDbEntity
   8
0
 100
AcDbBlockBegin
   2
*D13
  70
65
  10
0.0
  20
0.0
  30
0.0
   3
*D13
   0
LINE
   5
129
 100
AcDbEntity
   8
LEVEL001
 370
15
 100
AcDbLine
   6
CONTINUOUS
  62
8
  10
 1322.6910592291
  20
 1049.9060075887
  30
0.0
  11
 1322.6910592291
  21
 957.51843718113
  31
0.0
   0
LINE
   5
12A
 100
AcDbEntity
   8
LEVEL001
 370
15
 100
AcDbLine
   6
CONTINUOUS
  62
8
  10
 1322.6910592291
  20
 967.51843718113
  30
0.0
  11
 1352.6910592291
  21
 967.51843718113
  31
0.0
   0
LINE
   5
12B
 100
AcDbEntity
   8
LEVEL001
 370
15
 100
AcDbLine
   6
CONTINUOUS
  62
8
  10
 1382.6910592291
  20
 967.51843718113
  30
0.0
  11
 1352.6910592291
  21
 967.51843718113
  31
0.0
   0
INSERT
   5
12C
 100
AcDbEntity
   8
LEVEL001
   6
CONTINUOUS
  62
8
 100
AcDbBlockReference
   2
_DOT
  10
 1322.6910592291
  20
 967.51843718113
  30
0.0
  41
 4.0000000000000
  42
 4.0000000000000
  43
 4.0000000000000
  50
 180.00000000000
   0
MTEXT
   5
12D
 100
AcDbEntity
   8
LEVEL001
 370
15
  62
8
 100
AcDbMText
  10
 1352.6910592291
  20
 977.51843718113
  30
0.0
  40
 30.000000000000
  41
0.0
  71
8
  72
1
   1
\A1;60
   7
GMM002
   0
ENDBLK
   5
12E
 100
AcDbEntity
   8
0
 100
AcDbBlockEnd
   0
BLOCK
   5
12F
 100
AcDbEntity
   8
0
 100
AcDbBlockBegin
   2
*D14
  70
65
  10
0.0
  20
0.0
  30
0.0
   3
*D14
   0
LINE
   5
130
 100
AcDbEntity
   8
LEVEL001
 370
15
 100
AcDbLine
   6
CONTINUOUS
  62
8
  10
 1382.6910592291
  20
 1049.9060075887
  30
0.0
  11
 1382.6910592291
  21
 957.51843718113
  31
0.0
   0
LINE
   5
131
 100
AcDbEntity
   8
LEVEL001
 370
15
 100
AcDbLine
   6
CONTINUOUS
  62
8
  10
 1402.6910592291
  20
 1057.6616145761
  30
0.0
  11
 1402.6910592291
  21
 957.51843718113
  31
0.0
   0
LINE
   5
132
 100
AcDbEntity
   8
LEVEL001
 370
15
 100
AcDbLine
   6
CONTINUOUS
  62
8
  10
 1382.6910592291
  20
 967.51843718113
  30
0.0
  11
 1392.6910592291
  21
 967.51843718113
  31
0.0
   0
LINE
   5
133
 100
AcDbEntity
   8
LEVEL001
 370
15
 100
AcDbLine
   6
CONTINUOUS
  62
8
  10
 1402.6910592291
  20
 967.51843718113
  30
0.0
  11
 1392.6910592291
  21
 967.51843718113
  31
0.0
   0
INSERT
   5
134
 100
AcDbEntity
   8
LEVEL001
   6
CONTINUOUS
  62
8
 100
AcDbBlockReference
   2
_DOT
  10
 1382.6910592291
  20
 967.51843718113
  30
0.0
  41
 4.0000000000000
  42
 4.0000000000000
  43
 4.0000000000000
  50
 180.00000000000
   0
INSERT
   5
135
 100
AcDbEntity
   8
LEVEL001
   6
CONTINUOUS
  62
8
 100
AcDbBlockReference
   2
_DOT
  10
 1402.6910592291
  20
 967.51843718113
  30
0.0
  41
 4.0000000000000
  42
 4.0000000000000
  43
 4.0000000000000
  50
0.0
   0
MTEXT
   5
136
 100
AcDbEntity
   8
LEVEL001
 370
15
  62
8
 100
AcDbMText
  10
 1392.6910592291
  20
 977.51843718113
  30
0.0
  40
 30.000000000000
  41
0.0
  71
8
  72
1
   1
\A1;20
   7
GMM002
   0
ENDBLK
   5
137
 100
AcDbEntity
   8
0
 100
AcDbBlockEnd
   0
BLOCK
   5
138
 100
AcDbEntity
   8
0
 100
AcDbBlockBegin
   2
*D15
  70
65
  10
0.0
  20
0.0
  30
0.0
   3
*D15
   0
LINE
   5
139
 100
AcDbEntity
   8
LEVEL001
 370
15
 100
AcDbLine
   6
CONTINUOUS
  62
8
  10
 365.02387011794
  20
 1165.4855693698
  30
0.0
  11
 365.02387011794
  21
 1386.5582623923
  31
0.0
   0
LINE
   5
13A
 100
AcDbEntity
   8
LEVEL001
 370
15
 100
AcDbLine
   6
CONTINUOUS
  62
8
  10
 365.02387011794
  20
 1376.5582623923
  30
0.0
  11
 715.02387011794
  21
 1376.5582623923
  31
0.0
   0
LINE
   5
13B
 100
AcDbEntity
   8
LEVEL001
 370
15
 100
AcDbLine
   6
CONTINUOUS
  62
8
  10
 1065.0238701179
  20
 1376.5582623923
  30
0.0
  11
 715.02387011794
  21
 1376.5582623923
  31
0.0
   0
INSERT
   5
13C
 100
AcDbEntity
   8
LEVEL001
   6
CONTINUOUS
  62
8
 100
AcDbBlockReference
   2
_DOT
  10
 365.02387011794
  20
 1376.5582623923
  30
0.0
  41
 4.0000000000000
  42
 4.0000000000000
  43
 4.0000000000000
  50
 180.00000000000
   0
INSERT
   5
13D
 100
AcDbEntity
   8
LEVEL001
   6
CONTINUOUS
  62
8
 100
AcDbBlockReference
   2
_DOT
  10
 1065.0238701179
  20
 1376.5582623923
  30
0.0
  41
 4.0000000000000
  42
 4.0000000000000
  43
 4.0000000000000
  50
0.0
   0
MTEXT
   5
13E
 100
AcDbEntity
   8
LEVEL001
 370
15
  62
8
 100
AcDbMText
  10
 715.02387011794
  20
 1386.5582623923
  30
0.0
  40
 30.000000000000
  41
0.0
  71
8
  72
1
   1
\A1;700
   7
GMM002
   0
ENDBLK
   5
13F
 100
AcDbEntity
   8
0
 100
AcDbBlockEnd
   0
BLOCK
   5
140
 100
AcDbEntity
   8
0
 100
AcDbBlockBegin
   2
*D16
  70
65
  10
0.0
  20
0.0
  30
0.0
   3
*D16
   0
LINE
   5
141
 100
AcDbEntity
   8
LEVEL001
 370
15
 100
AcDbLine
   6
CONTINUOUS
  62
8
  10
 415.02387011794
  20
 1052.5184371811
  30
0.0
  11
 256.95383346824
  21
 1052.5184371811
  31
0.0
   0
LINE
   5
142
 100
AcDbEntity
   8
LEVEL001
 370
15
 100
AcDbLine
   6
CONTINUOUS
  62
8
  10
 415.02387011794
  20
 1192.5184371811
  30
0.0
  11
 256.95383346824
  21
 1192.5184371811
  31
0.0
   0
LINE
   5
143
 100
AcDbEntity
   8
LEVEL001
 370
15
 100
AcDbLine
   6
CONTINUOUS
  62
8
  10
 266.95383346824
  20
 1052.5184371811
  30
0.0
  11
 266.95383346824
  21
 1122.5184371811
  31
0.0
   0
LINE
   5
144
 100
AcDbEntity
   8
LEVEL001
 370
15
 100
AcDbLine
   6
CONTINUOUS
  62
8
  10
 266.95383346824
  20
 1192.5184371811
  30
0.0
  11
 266.95383346824
  21
 1122.5184371811
  31
0.0
   0
INSERT
   5
145
 100
AcDbEntity
   8
LEVEL001
   6
CONTINUOUS
  62
8
 100
AcDbBlockReference
   2
_DOT
  10
 266.95383346824
  20
 1052.5184371811
  30
0.0
  41
 4.0000000000000
  42
 4.0000000000000
  43
 4.0000000000000
  50
 270.00000000000
   0
INSERT
   5
146
 100
AcDbEntity
   8
LEVEL001
   6
CONTINUOUS
  62
8
 100
AcDbBlockReference
   2
_DOT
  10
 266.95383346824
  20
 1192.5184371811
  30
0.0
  41
 4.0000000000000
  42
 4.0000000000000
  43
 4.0000000000000
  50
 90.000000000000
   0
MTEXT
   5
147
 100
AcDbEntity
   8
LEVEL001
 370
15
  62
8
 100
AcDbMText
  10
 256.95383346824
  20
 1122.5184371811
  30
0.0
  40
 30.000000000000
  41
0.0
  71
8
  72
1
   1
\A1;140
   7
GMM002
  11
0.0
  21
 1.0000000000000
  31
0.0
   0
ENDBLK
   5
148
 100
AcDbEntity
   8
0
 100
AcDbBlockEnd
   0
BLOCK
   5
149
 100
AcDbEntity
   8
0
 100
AcDbBlockBegin
   2
*D17
  70
65
  10
0.0
  20
0.0
  30
0.0
   3
*D17
   0
LINE
   5
14A
 100
AcDbEntity
   8
LEVEL001
 370
15
 100
AcDbLine
   6
CONTINUOUS
  62
8
  10
 861.02387011794
  20
 1752.5184371811
  30
0.0
  11
 861.02387011794
  21
 1813.3671585169
  31
0.0
   0
LINE
   5
14B
 100
AcDbEntity
   8
LEVEL001
 370
15
 100
AcDbLine
   6
CONTINUOUS
  62
8
  10
 455.02387011794
  20
 1209.5184371811
  30
0.0
  11
 257.17514878222
  21
 1209.5184371811
  31
0.0
   0
ARC
   5
14C
 100
AcDbEntity
   8
LEVEL001
 370
15
   6
CONTINUOUS
  62
8
 100
AcDbCircle
  10
 861.02387011794
  20
 1209.5184371811
  30
0.0
  40
 593.84872133572
 100
AcDbArc
  50
 90.000000000000
  51
 135.00000000000
   0
ARC
   5
14D
 100
AcDbEntity
   8
LEVEL001
 370
15
   6
CONTINUOUS
  62
8
 100
AcDbCircle
  10
 861.02387011794
  20
 1209.5184371811
  30
0.0
  40
 593.84872133572
 100
AcDbArc
  50
 135.00000000000
  51
 180.00000000000
   0
INSERT
   5
14E
 100
AcDbEntity
   8
LEVEL001
   6
CONTINUOUS
  62
8
 100
AcDbBlockReference
   2
_DOT
  10
 861.02387011794
  20
 1803.3671585169
  30
0.0
  41
 4.0000000000000
  42
 4.0000000000000
  43
 4.0000000000000
  50
 360.00000000000
   0
INSERT
   5
14F
 100
AcDbEntity
   8
LEVEL001
   6
CONTINUOUS
  62
8
 100
AcDbBlockReference
   2
_DOT
  10
 267.17514878222
  20
 1209.5184371811
  30
0.0
  41
 4.0000000000000
  42
 4.0000000000000
  43
 4.0000000000000
  50
 270.00000000000
   0
MTEXT
   5
150
 100
AcDbEntity
   8
LEVEL001
 370
15
  62
8
 100
AcDbMText
  10
 412.82514101503
  20
 1657.7171662840
  30
0.0
  40
 30.000000000000
  41
0.0
  71
8
  72
1
   1
\A1;90\U+00B0
   7
GMM002
  11
 0.70710678118655
  21
 0.70710678118655
  31
0.0
  44
 0.79999984000003
   0
ENDBLK
   5
151
 100
AcDbEntity
   8
0
 100
AcDbBlockEnd
   0
BLOCK
   5
152
 100
AcDbEntity
   8
0
 100
AcDbBlockBegin
   2
*D18
  70
65
  10
0.0
  20
0.0
  30
0.0
   3
*D18
   0
LINE
   5
153
 100
AcDbEntity
   8
LEVEL001
 370
15
 100
AcDbLine
   6
CONTINUOUS
  62
8
  10
 435.02387011794
  20
 1122.5184371811
  30
0.0
  11
 411.09053812941
  21
 1096.9803162650
  31
0.0
   0
LINE
   5
154
 100
AcDbEntity
   8
LEVEL001
 370
15
 100
AcDbLine
   6
CONTINUOUS
  62
8
  10
 411.09053812941
  20
 1096.9803162650
  30
0.0
  11
 285.45708088490
  21
 962.92282590975
  31
0.0
   0
SOLID
   5
155
 100
AcDbEntity
   8
LEVEL001
 100
AcDbTrace
   6
CONTINUOUS
  62
8
  10
 387.15720614088
  20
 1071.4421953489
  30
0.0
  11
 370.90783943080
  21
 1059.2604646356
  31
0.0
  12
 376.05419343550
  22
 1054.4375021580
  32
0.0
  13
 376.05419343550
  23
 1054.4375021580
  33
0.0
   0
MTEXT
   5
156
 100
AcDbEntity
   8
LEVEL001
 370
15
  62
8
 100
AcDbMText
  10
 332.86523373979
  20
 1028.1337685719
  30
0.0
  40
 30.000000000000
  41
0.0
  71
9
  72
1
   1
\A1;R70
   7
GMM002
  11
 0.68380948538659
  21
 0.72966059760366
  31
0.0
   0
ENDBLK
   5
157
 100
AcDbEntity
   8
0
 100
AcDbBlockEnd
   0
BLOCK
   5
158
 100
AcDbEntity
   8
0
 100
AcDbBlockBegin
   2
*D19
  70
65
  10
0.0
  20
0.0
  30
0.0
   3
*D19
   0
LINE
   5
159
 100
AcDbEntity
   8
LEVEL001
 370
15
 100
AcDbLine
   6
CONTINUOUS
  62
8
  10
 1402.6910592291
  20
 1662.2858953431
  30
0.0
  11
 1482.0175772118
  21
 1662.2858953431
  31
0.0
   0
LINE
   5
15A
 100
AcDbEntity
   8
LEVEL001
 370
15
 100
AcDbLine
   6
CONTINUOUS
  62
8
  10
 1492.6910592291
  20
 2362.2858953431
  30
0.0
  11
 1462.0175772118
  21
 2362.2858953431
  31
0.0
   0
LINE
   5
15B
 100
AcDbEntity
   8
LEVEL001
 370
15
 100
AcDbLine
   6
CONTINUOUS
  62
8
  10
 1472.0175772118
  20
 1662.2858953431
  30
0.0
  11
 1472.0175772118
  21
 2012.2858953431
  31
0.0
   0
LINE
   5
15C
 100
AcDbEntity
   8
LEVEL001
 370
15
 100
AcDbLine
   6
CONTINUOUS
  62
8
  10
 1472.0175772118
  20
 2362.2858953431
  30
0.0
  11
 1472.0175772118
  21
 2012.2858953431
  31
0.0
   0
INSERT
   5
15D
 100
AcDbEntity
   8
LEVEL001
   6
CONTINUOUS
  62
8
 100
AcDbBlockReference
   2
_DOT
  10
 1472.0175772118
  20
 1662.2858953431
  30
0.0
  41
 4.0000000000000
  42
 4.0000000000000
  43
 4.0000000000000
  50
 270.00000000000
   0
INSERT
   5
15E
 100
AcDbEntity
   8
LEVEL001
   6
CONTINUOUS
  62
8
 100
AcDbBlockReference
   2
_DOT
  10
 1472.0175772118
  20
 2362.2858953431
  30
0.0
  41
 4.0000000000000
  42
 4.0000000000000
  43
 4.0000000000000
  50
 90.000000000000
   0
MTEXT
   5
15F
 100
AcDbEntity
   8
LEVEL001
 370
15
  62
8
 100
AcDbMText
  10
 1462.0175772118
  20
 2012.2858953431
  30
0.0
  40
 30.000000000000
  41
0.0
  71
8
  72
1
   1
\A1;700
   7
GMM002
  11
0.0
  21
 1.0000000000000
  31
0.0
   0
ENDBLK
   5
160
 100
AcDbEntity
   8
0
 100
AcDbBlockEnd
   0
BLOCK
   5
161
 100
AcDbEntity
   8
0
 100
AcDbBlockBegin
   2
*D21
  70
65
  10
0.0
  20
0.0
  30
0.0
   3
*D21
   0
LINE
   5
162
 100
AcDbEntity
   8
LEVEL001
 370
15
 100
AcDbLine
   6
CONTINUOUS
  62
8
  10
 2807.6910592291
  20
 1017.5184371811
  30
0.0
  11
 2937.6910592291
  21
 1017.5184371811
  31
0.0
   0
LINE
   5
163
 100
AcDbEntity
   8
LEVEL001
 370
15
 100
AcDbLine
   6
CONTINUOUS
  62
8
  10
 2927.6910592291
  20
 1017.5184371811
  30
0.0
  11
 2927.6910592291
  21
 1045.0184371811
  31
0.0
   0
LINE
   5
164
 100
AcDbEntity
   8
LEVEL001
 370
15
 100
AcDbLine
   6
CONTINUOUS
  62
8
  10
 2927.6910592291
  20
 1072.5184371811
  30
0.0
  11
 2927.6910592291
  21
 1045.0184371811
  31
0.0
   0
INSERT
   5
165
 100
AcDbEntity
   8
LEVEL001
   6
CONTINUOUS
  62
8
 100
AcDbBlockReference
   2
_DOT
  10
 2927.6910592291
  20
 1017.5184371811
  30
0.0
  41
 4.0000000000000
  42
 4.0000000000000
  43
 4.0000000000000
  50
 270.00000000000
   0
MTEXT
   5
166
 100
AcDbEntity
   8
LEVEL001
 370
15
  62
8
 100
AcDbMText
  10
 2917.6910592291
  20
 1045.0184371811
  30
0.0
  40
 30.000000000000
  41
0.0
  71
8
  72
1
   1
\A1;55
   7
GMM002
  11
0.0
  21
 1.0000000000000
  31
0.0
   0
ENDBLK
   5
167
 100
AcDbEntity
   8
0
 100
AcDbBlockEnd
   0
BLOCK
   5
168
 100
AcDbEntity
   8
0
 100
AcDbBlockBegin
   2
*D22
  70
65
  10
0.0
  20
0.0
  30
0.0
   3
*D22
   0
LINE
   5
169
 100
AcDbEntity
   8
LEVEL001
 370
15
 100
AcDbLine
   6
CONTINUOUS
  62
8
  10
 2848.4560744273
  20
 1072.5184371811
  30
0.0
  11
 2937.6910592291
  21
 1072.5184371811
  31
0.0
   0
LINE
   5
16A
 100
AcDbEntity
   8
LEVEL001
 370
15
 100
AcDbLine
   6
CONTINUOUS
  62
8
  10
 2927.6910592291
  20
 1072.5184371811
  30
0.0
  11
 2927.6910592291
  21
 1172.5184371811
  31
0.0
   0
LINE
   5
16B
 100
AcDbEntity
   8
LEVEL001
 370
15
 100
AcDbLine
   6
CONTINUOUS
  62
8
  10
 2927.6910592291
  20
 1272.5184371811
  30
0.0
  11
 2927.6910592291
  21
 1172.5184371811
  31
0.0
   0
INSERT
   5
16C
 100
AcDbEntity
   8
LEVEL001
   6
CONTINUOUS
  62
8
 100
AcDbBlockReference
   2
_DOT
  10
 2927.6910592291
  20
 1072.5184371811
  30
0.0
  41
 4.0000000000000
  42
 4.0000000000000
  43
 4.0000000000000
  50
 270.00000000000
   0
MTEXT
   5
16D
 100
AcDbEntity
   8
LEVEL001
 370
15
  62
8
 100
AcDbMText
  10
 2917.6910592291
  20
 1172.5184371811
  30
0.0
  40
 30.000000000000
  41
0.0
  71
8
  72
1
   1
\A1;200
   7
GMM002
  11
0.0
  21
 1.0000000000000
  31
0.0
   0
ENDBLK
   5
16E
 100
AcDbEntity
   8
0
 100
AcDbBlockEnd
   0
BLOCK
   5
16F
 100
AcDbEntity
   8
0
 100
AcDbBlockBegin
   2
*D23
  70
65
  10
0.0
  20
0.0
  30
0.0
   3
*D23
   0
LINE
   5
170
 100
AcDbEntity
   8
LEVEL001
 370
15
 100
AcDbLine
   6
CONTINUOUS
  62
8
  10
 2848.4560744273
  20
 1272.5184371811
  30
0.0
  11
 2937.6910592291
  21
 1272.5184371811
  31
0.0
   0
LINE
   5
171
 100
AcDbEntity
   8
LEVEL001
 370
15
 100
AcDbLine
   6
CONTINUOUS
  62
8
  10
 2857.6910592291
  20
 1287.5184371811
  30
0.0
  11
 2937.6910592291
  21
 1287.5184371811
  31
0.0
   0
LINE
   5
172
 100
AcDbEntity
   8
LEVEL001
 370
15
 100
AcDbLine
   6
CONTINUOUS
  62
8
  10
 2927.6910592291
  20
 1272.5184371811
  30
0.0
  11
 2927.6910592291
  21
 1280.0184371811
  31
0.0
   0
LINE
   5
173
 100
AcDbEntity
   8
LEVEL001
 370
15
 100
AcDbLine
   6
CONTINUOUS
  62
8
  10
 2927.6910592291
  20
 1348.2749371590
  30
0.0
  11
 2927.6910592291
  21
 1280.0184371811
  31
0.0
   0
INSERT
   5
174
 100
AcDbEntity
   8
LEVEL001
   6
CONTINUOUS
  62
8
 100
AcDbBlockReference
   2
_DOT
  10
 2927.6910592291
  20
 1272.5184371811
  30
0.0
  41
 4.0000000000000
  42
 4.0000000000000
  43
 4.0000000000000
  50
 270.00000000000
   0
INSERT
   5
175
 100
AcDbEntity
   8
LEVEL001
   6
CONTINUOUS
  62
8
 100
AcDbBlockReference
   2
_DOT
  10
 2927.6910592291
  20
 1287.5184371811
  30
0.0
  41
 4.0000000000000
  42
 4.0000000000000
  43
 4.0000000000000
  50
 90.000000000000
   0
MTEXT
   5
176
 100
AcDbEntity
   8
LEVEL001
 370
15
  62
8
 100
AcDbMText
  10
 2917.0175772118
  20
 1293.2749371590
  30
0.0
  40
 30.000000000000
  41
0.0
  71
7
  72
1
   1
\A1;15
   7
GMM002
  11
0.0
  21
 1.0000000000000
  31
0.0
   0
ENDBLK
   5
177
 100
AcDbEntity
   8
0
 100
AcDbBlockEnd
   0
BLOCK
   5
178
 100
AcDbEntity
   8
0
 100
AcDbBlockBegin
   2
*D24
  70
65
  10
0.0
  20
0.0
  30
0.0
   3
*D24
   0
LINE
   5
179
 100
AcDbEntity
   8
LEVEL001
 370
15
 100
AcDbLine
   6
CONTINUOUS
  62
8
  10
 2737.1774288990
  20
 1052.5184371811
  30
0.0
  11
 2687.6910592291
  21
 1052.5184371811
  31
0.0
   0
LINE
   5
17A
 100
AcDbEntity
   8
LEVEL001
 370
15
 100
AcDbLine
   6
CONTINUOUS
  62
8
  10
 2737.1774288990
  20
 1192.5184371811
  30
0.0
  11
 2687.6910592291
  21
 1192.5184371811
  31
0.0
   0
LINE
   5
17B
 100
AcDbEntity
   8
LEVEL001
 370
15
 100
AcDbLine
   6
CONTINUOUS
  62
8
  10
 2697.6910592291
  20
 1052.5184371811
  30
0.0
  11
 2697.6910592291
  21
 1122.5184371811
  31
0.0
   0
LINE
   5
17C
 100
AcDbEntity
   8
LEVEL001
 370
15
 100
AcDbLine
   6
CONTINUOUS
  62
8
  10
 2697.6910592291
  20
 1192.5184371811
  30
0.0
  11
 2697.6910592291
  21
 1122.5184371811
  31
0.0
   0
INSERT
   5
17D
 100
AcDbEntity
   8
LEVEL001
   6
CONTINUOUS
  62
8
 100
AcDbBlockReference
   2
_DOT
  10
 2697.6910592291
  20
 1052.5184371811
  30
0.0
  41
 4.0000000000000
  42
 4.0000000000000
  43
 4.0000000000000
  50
 270.00000000000
   0
INSERT
   5
17E
 100
AcDbEntity
   8
LEVEL001
   6
CONTINUOUS
  62
8
 100
AcDbBlockReference
   2
_DOT
  10
 2697.6910592291
  20
 1192.5184371811
  30
0.0
  41
 4.0000000000000
  42
 4.0000000000000
  43
 4.0000000000000
  50
 90.000000000000
   0
MTEXT
   5
17F
 100
AcDbEntity
   8
LEVEL001
 370
15
  62
8
 100
AcDbMText
  10
 2687.6910592291
  20
 1122.5184371811
  30
0.0
  40
 30.000000000000
  41
0.0
  71
8
  72
1
   1
\A1;140
   7
GMM002
  11
0.0
  21
 1.0000000000000
  31
0.0
   0
ENDBLK
   5
180
 100
AcDbEntity
   8
0
 100
AcDbBlockEnd
   0
BLOCK
   5
181
 100
AcDbEntity
   8
0
 100
AcDbBlockBegin
   2
*D25
  70
65
  10
0.0
  20
0.0
  30
0.0
   3
*D25
   0
LINE
   5
182
 100
AcDbEntity
   8
LEVEL001
 370
15
 100
AcDbLine
   6
CONTINUOUS
  62
8
  10
 2787.6910592291
  20
 1017.5184371811
  30
0.0
  11
 2637.6910592291
  21
 1017.5184371811
  31
0.0
   0
LINE
   5
183
 100
AcDbEntity
   8
LEVEL001
 370
15
 100
AcDbLine
   6
CONTINUOUS
  62
8
  10
 2737.6910592291
  20
 1287.5184371811
  30
0.0
  11
 2637.6910592291
  21
 1287.5184371811
  31
0.0
   0
LINE
   5
184
 100
AcDbEntity
   8
LEVEL001
 370
15
 100
AcDbLine
   6
CONTINUOUS
  62
8
  10
 2647.6910592291
  20
 1017.5184371811
  30
0.0
  11
 2647.6910592291
  21
 1152.5184371811
  31
0.0
   0
LINE
   5
185
 100
AcDbEntity
   8
LEVEL001
 370
15
 100
AcDbLine
   6
CONTINUOUS
  62
8
  10
 2647.6910592291
  20
 1287.5184371811
  30
0.0
  11
 2647.6910592291
  21
 1152.5184371811
  31
0.0
   0
INSERT
   5
186
 100
AcDbEntity
   8
LEVEL001
   6
CONTINUOUS
  62
8
 100
AcDbBlockReference
   2
_DOT
  10
 2647.6910592291
  20
 1017.5184371811
  30
0.0
  41
 4.0000000000000
  42
 4.0000000000000
  43
 4.0000000000000
  50
 270.00000000000
   0
INSERT
   5
187
 100
AcDbEntity
   8
LEVEL001
   6
CONTINUOUS
  62
8
 100
AcDbBlockReference
   2
_DOT
  10
 2647.6910592291
  20
 1287.5184371811
  30
0.0
  41
 4.0000000000000
  42
 4.0000000000000
  43
 4.0000000000000
  50
 90.000000000000
   0
MTEXT
   5
188
 100
AcDbEntity
   8
LEVEL001
 370
15
  62
8
 100
AcDbMText
  10
 2637.6910592291
  20
 1152.5184371811
  30
0.0
  40
 30.000000000000
  41
0.0
  71
8
  72
1
   1
\A1;270
   7
GMM002
  11
0.0
  21
 1.0000000000000
  31
0.0
   0
ENDBLK
   5
189
 100
AcDbEntity
   8
0
 100
AcDbBlockEnd
   0
BLOCK
   5
18A
 100
AcDbEntity
   8
0
 100
AcDbBlockBegin
   2
*D26
  70
65
  10
0.0
  20
0.0
  30
0.0
   3
*D26
   0
LINE
   5
18B
 100
AcDbEntity
   8
LEVEL001
 370
15
 100
AcDbLine
   6
CONTINUOUS
  62
8
  10
 2747.6910592291
  20
 1297.5184371811
  30
0.0
  11
 2747.6910592291
  21
 1367.2668008762
  31
0.0
   0
LINE
   5
18C
 100
AcDbEntity
   8
LEVEL001
 370
15
 100
AcDbLine
   6
CONTINUOUS
  62
8
  10
 2684.8093392255
  20
 1357.2668008762
  30
0.0
  11
 2757.6910592291
  21
 1357.2668008762
  31
0.0
   0
LINE
   5
18D
 100
AcDbEntity
   8
LEVEL001
 370
15
 100
AcDbLine
   6
CONTINUOUS
  62
8
  10
 2767.6910592291
  20
 1357.2668008762
  30
0.0
  11
 2757.6910592291
  21
 1357.2668008762
  31
0.0
   0
INSERT
   5
18E
 100
AcDbEntity
   8
LEVEL001
   6
CONTINUOUS
  62
8
 100
AcDbBlockReference
   2
_DOT
  10
 2747.6910592291
  20
 1357.2668008762
  30
0.0
  41
 4.0000000000000
  42
 4.0000000000000
  43
 4.0000000000000
  50
 180.00000000000
   0
MTEXT
   5
18F
 100
AcDbEntity
   8
LEVEL001
 370
15
  62
8
 100
AcDbMText
  10
 2739.8093392255
  20
 1365.9929641104
  30
0.0
  40
 30.000000000000
  41
0.0
  71
9
  72
1
   1
\A1;20
   7
GMM002
   0
ENDBLK
   5
190
 100
AcDbEntity
   8
0
 100
AcDbBlockEnd
   0
BLOCK
   5
191
 100
AcDbEntity
   8
0
 100
AcDbBlockBegin
   2
*D27
  70
65
  10
0.0
  20
0.0
  30
0.0
   3
*D27
   0
LINE
   5
192
 100
AcDbEntity
   8
LEVEL001
 370
15
 100
AcDbLine
   6
CONTINUOUS
  62
8
  10
 2767.6910592291
  20
 1295.1308667736
  30
0.0
  11
 2767.6910592291
  21
 1367.2668008762
  31
0.0
   0
LINE
   5
193
 100
AcDbEntity
   8
LEVEL001
 370
15
 100
AcDbLine
   6
CONTINUOUS
  62
8
  10
 2767.6910592291
  20
 1357.2668008762
  30
0.0
  11
 2797.6910592291
  21
 1357.2668008762
  31
0.0
   0
LINE
   5
194
 100
AcDbEntity
   8
LEVEL001
 370
15
 100
AcDbLine
   6
CONTINUOUS
  62
8
  10
 2827.6910592291
  20
 1357.2668008762
  30
0.0
  11
 2797.6910592291
  21
 1357.2668008762
  31
0.0
   0
INSERT
   5
195
 100
AcDbEntity
   8
LEVEL001
   6
CONTINUOUS
  62
8
 100
AcDbBlockReference
   2
_DOT
  10
 2767.6910592291
  20
 1357.2668008762
  30
0.0
  41
 4.0000000000000
  42
 4.0000000000000
  43
 4.0000000000000
  50
 180.00000000000
   0
MTEXT
   5
196
 100
AcDbEntity
   8
LEVEL001
 370
15
  62
8
 100
AcDbMText
  10
 2797.6910592291
  20
 1367.2668008762
  30
0.0
  40
 30.000000000000
  41
0.0
  71
8
  72
1
   1
\A1;60
   7
GMM002
   0
ENDBLK
   5
197
 100
AcDbEntity
   8
0
 100
AcDbBlockEnd
   0
BLOCK
   5
198
 100
AcDbEntity
   8
0
 100
AcDbBlockBegin
   2
*D28
  70
65
  10
0.0
  20
0.0
  30
0.0
   3
*D28
   0
LINE
   5
199
 100
AcDbEntity
   8
LEVEL001
 370
15
 100
AcDbLine
   6
CONTINUOUS
  62
8
  10
 2827.6910592291
  20
 1295.1308667736
  30
0.0
  11
 2827.6910592291
  21
 1367.2668008762
  31
0.0
   0
LINE
   5
19A
 100
AcDbEntity
   8
LEVEL001
 370
15
 100
AcDbLine
   6
CONTINUOUS
  62
8
  10
 2847.6910592291
  20
 1297.5184371811
  30
0.0
  11
 2847.6910592291
  21
 1367.2668008762
  31
0.0
   0
LINE
   5
19B
 100
AcDbEntity
   8
LEVEL001
 370
15
 100
AcDbLine
   6
CONTINUOUS
  62
8
  10
 2827.6910592291
  20
 1357.2668008762
  30
0.0
  11
 2837.6910592291
  21
 1357.2668008762
  31
0.0
   0
LINE
   5
19C
 100
AcDbEntity
   8
LEVEL001
 370
15
 100
AcDbLine
   6
CONTINUOUS
  62
8
  10
 2910.2631912469
  20
 1357.2668008762
  30
0.0
  11
 2837.6910592291
  21
 1357.2668008762
  31
0.0
   0
INSERT
   5
19D
 100
AcDbEntity
   8
LEVEL001
   6
CONTINUOUS
  62
8
 100
AcDbBlockReference
   2
_DOT
  10
 2827.6910592291
  20
 1357.2668008762
  30
0.0
  41
 4.0000000000000
  42
 4.0000000000000
  43
 4.0000000000000
  50
 180.00000000000
   0
INSERT
   5
19E
 100
AcDbEntity
   8
LEVEL001
   6
CONTINUOUS
  62
8
 100
AcDbBlockReference
   2
_DOT
  10
 2847.6910592291
  20
 1357.2668008762
  30
0.0
  41
 4.0000000000000
  42
 4.0000000000000
  43
 4.0000000000000
  50
0.0
   0
MTEXT
   5
19F
 100
AcDbEntity
   8
LEVEL001
 370
15
  62
8
 100
AcDbMText
  10
 2855.2631912469
  20
 1367.3354507618
  30
0.0
  40
 30.000000000000
  41
0.0
  71
7
  72
1
   1
\A1;20
   7
GMM002
   0
ENDBLK
   5
1A0
 100
AcDbEntity
   8
0
 100
AcDbBlockEnd
   0
BLOCK
   5
1A1
 100
AcDbEntity
   8
0
 100
AcDbBlockBegin
   2
*D29
  70
65
  10
0.0
  20
0.0
  30
0.0
   3
*D29
   0
LINE
   5
1A2
 100
AcDbEntity
   8
LEVEL001
 370
15
 100
AcDbLine
   6
CONTINUOUS
  62
8
  10
 2747.6910592291
  20
 1054.8734408219
  30
0.0
  11
 2747.6910592291
  21
 878.40333787087
  31
0.0
   0
LINE
   5
1A3
 100
AcDbEntity
   8
LEVEL001
 370
15
 100
AcDbLine
   6
CONTINUOUS
  62
8
  10
 2847.6910592291
  20
 1057.6616145761
  30
0.0
  11
 2847.6910592291
  21
 878.40333787087
  31
0.0
   0
LINE
   5
1A4
 100
AcDbEntity
   8
LEVEL001
 370
15
 100
AcDbLine
   6
CONTINUOUS
  62
8
  10
 2747.6910592291
  20
 888.40333787087
  30
0.0
  11
 2797.6910592291
  21
 888.40333787087
  31
0.0
   0
LINE
   5
1A5
 100
AcDbEntity
   8
LEVEL001
 370
15
 100
AcDbLine
   6
CONTINUOUS
  62
8
  10
 2847.6910592291
  20
 888.40333787087
  30
0.0
  11
 2797.6910592291
  21
 888.40333787087
  31
0.0
   0
INSERT
   5
1A6
 100
AcDbEntity
   8
LEVEL001
   6
CONTINUOUS
  62
8
 100
AcDbBlockReference
   2
_DOT
  10
 2747.6910592291
  20
 888.40333787087
  30
0.0
  41
 4.0000000000000
  42
 4.0000000000000
  43
 4.0000000000000
  50
 180.00000000000
   0
INSERT
   5
1A7
 100
AcDbEntity
   8
LEVEL001
   6
CONTINUOUS
  62
8
 100
AcDbBlockReference
   2
_DOT
  10
 2847.6910592291
  20
 888.40333787087
  30
0.0
  41
 4.0000000000000
  42
 4.0000000000000
  43
 4.0000000000000
  50
0.0
   0
MTEXT
   5
1A8
 100
AcDbEntity
   8
LEVEL001
 370
15
  62
8
 100
AcDbMText
  10
 2797.6910592291
  20
 898.40333787087
  30
0.0
  40
 30.000000000000
  41
0.0
  71
8
  72
1
   1
\A1;100
   7
GMM002
   0
ENDBLK
   5
1A9
 100
AcDbEntity
   8
0
 100
AcDbBlockEnd
   0
BLOCK
   5
1AA
 100
AcDbEntity
   8
0
 100
AcDbBlockBegin
   2
*D30
  70
65
  10
0.0
  20
0.0
  30
0.0
   3
*D30
   0
LINE
   5
1AB
 100
AcDbEntity
   8
LEVEL001
 370
15
 100
AcDbLine
   6
CONTINUOUS
  62
8
  10
 2747.6910592291
  20
 1057.6616145761
  30
0.0
  11
 2747.6910592291
  21
 957.51843718113
  31
0.0
   0
LINE
   5
1AC
 100
AcDbEntity
   8
LEVEL001
 370
15
 100
AcDbLine
   6
CONTINUOUS
  62
8
  10
 2683.5787264617
  20
 967.51843718113
  30
0.0
  11
 2757.6910592291
  21
 967.51843718113
  31
0.0
   0
LINE
   5
1AD
 100
AcDbEntity
   8
LEVEL001
 370
15
 100
AcDbLine
   6
CONTINUOUS
  62
8
  10
 2767.6910592291
  20
 967.51843718113
  30
0.0
  11
 2757.6910592291
  21
 967.51843718113
  31
0.0
   0
INSERT
   5
1AE
 100
AcDbEntity
   8
LEVEL001
   6
CONTINUOUS
  62
8
 100
AcDbBlockReference
   2
_DOT
  10
 2747.6910592291
  20
 967.51843718113
  30
0.0
  41
 4.0000000000000
  42
 4.0000000000000
  43
 4.0000000000000
  50
 180.00000000000
   0
MTEXT
   5
1AF
 100
AcDbEntity
   8
LEVEL001
 370
15
  62
8
 100
AcDbMText
  10
 2738.5787264617
  20
 977.34307852686
  30
0.0
  40
 30.000000000000
  41
0.0
  71
9
  72
1
   1
\A1;20
   7
GMM002
   0
ENDBLK
   5
1B0
 100
AcDbEntity
   8
0
 100
AcDbBlockEnd
   0
BLOCK
   5
1B1
 100
AcDbEntity
   8
0
 100
AcDbBlockBegin
   2
*D31
  70
65
  10
0.0
  20
0.0
  30
0.0
   3
*D31
   0
LINE
   5
1B2
 100
AcDbEntity
   8
LEVEL001
 370
15
 100
AcDbLine
   6
CONTINUOUS
  62
8
  10
 2767.6910592291
  20
 1049.9060075887
  30
0.0
  11
 2767.6910592291
  21
 957.51843718113
  31
0.0
   0
LINE
   5
1B3
 100
AcDbEntity
   8
LEVEL001
 370
15
 100
AcDbLine
   6
CONTINUOUS
  62
8
  10
 2767.6910592291
  20
 967.51843718113
  30
0.0
  11
 2797.6910592291
  21
 967.51843718113
  31
0.0
   0
LINE
   5
1B4
 100
AcDbEntity
   8
LEVEL001
 370
15
 100
AcDbLine
   6
CONTINUOUS
  62
8
  10
 2827.6910592291
  20
 967.51843718113
  30
0.0
  11
 2797.6910592291
  21
 967.51843718113
  31
0.0
   0
INSERT
   5
1B5
 100
AcDbEntity
   8
LEVEL001
   6
CONTINUOUS
  62
8
 100
AcDbBlockReference
   2
_DOT
  10
 2767.6910592291
  20
 967.51843718113
  30
0.0
  41
 4.0000000000000
  42
 4.0000000000000
  43
 4.0000000000000
  50
 180.00000000000
   0
MTEXT
   5
1B6
 100
AcDbEntity
   8
LEVEL001
 370
15
  62
8
 100
AcDbMText
  10
 2797.6910592291
  20
 977.51843718113
  30
0.0
  40
 30.000000000000
  41
0.0
  71
8
  72
1
   1
\A1;60
   7
GMM002
   0
ENDBLK
   5
1B7
 100
AcDbEntity
   8
0
 100
AcDbBlockEnd
   0
BLOCK
   5
1B8
 100
AcDbEntity
   8
0
 100
AcDbBlockBegin
   2
*D32
  70
65
  10
0.0
  20
0.0
  30
0.0
   3
*D32
   0
LINE
   5
1B9
 100
AcDbEntity
   8
LEVEL001
 370
15
 100
AcDbLine
   6
CONTINUOUS
  62
8
  10
 2827.6910592291
  20
 1049.9060075887
  30
0.0
  11
 2827.6910592291
  21
 957.51843718113
  31
0.0
   0
LINE
   5
1BA
 100
AcDbEntity
   8
LEVEL001
 370
15
 100
AcDbLine
   6
CONTINUOUS
  62
8
  10
 2847.6910592291
  20
 1057.6616145761
  30
0.0
  11
 2847.6910592291
  21
 957.51843718113
  31
0.0
   0
LINE
   5
1BB
 100
AcDbEntity
   8
LEVEL001
 370
15
 100
AcDbLine
   6
CONTINUOUS
  62
8
  10
 2827.6910592291
  20
 967.51843718113
  30
0.0
  11
 2837.6910592291
  21
 967.51843718113
  31
0.0
   0
LINE
   5
1BC
 100
AcDbEntity
   8
LEVEL001
 370
15
 100
AcDbLine
   6
CONTINUOUS
  62
8
  10
 2847.6910592291
  20
 967.51843718113
  30
0.0
  11
 2837.6910592291
  21
 967.51843718113
  31
0.0
   0
INSERT
   5
1BD
 100
AcDbEntity
   8
LEVEL001
   6
CONTINUOUS
  62
8
 100
AcDbBlockReference
   2
_DOT
  10
 2827.6910592291
  20
 967.51843718113
  30
0.0
  41
 4.0000000000000
  42
 4.0000000000000
  43
 4.0000000000000
  50
 180.00000000000
   0
INSERT
   5
1BE
 100
AcDbEntity
   8
LEVEL001
   6
CONTINUOUS
  62
8
 100
AcDbBlockReference
   2
_DOT
  10
 2847.6910592291
  20
 967.51843718113
  30
0.0
  41
 4.0000000000000
  42
 4.0000000000000
  43
 4.0000000000000
  50
0.0
   0
MTEXT
   5
1BF
 100
AcDbEntity
   8
LEVEL001
 370
15
  62
8
 100
AcDbMText
  10
 2837.6910592291
  20
 977.51843718113
  30
0.0
  40
 30.000000000000
  41
0.0
  71
8
  72
1
   1
\A1;20
   7
GMM002
   0
ENDBLK
   5
1C0
 100
AcDbEntity
   8
0
 100
AcDbBlockEnd
   0
BLOCK
   5
1C1
 100
AcDbEntity
   8
0
 100
AcDbBlockBegin
   2
*D33
  70
65
  10
0.0
  20
0.0
  30
0.0
   3
*D33
   0
LINE
   5
1C2
 100
AcDbEntity
   8
LEVEL001
 370
15
 100
AcDbLine
   6
CONTINUOUS
  62
8
  10
 2030.0238701179
  20
 1122.5184371811
  30
0.0
  11
 2006.0905381294
  21
 1096.9803162650
  31
0.0
   0
LINE
   5
1C3
 100
AcDbEntity
   8
LEVEL001
 370
15
 100
AcDbLine
   6
CONTINUOUS
  62
8
  10
 2006.0905381294
  20
 1096.9803162650
  30
0.0
  11
 1880.4570808849
  21
 962.92282590974
  31
0.0
   0
SOLID
   5
1C4
 100
AcDbEntity
   8
LEVEL001
 100
AcDbTrace
   6
CONTINUOUS
  62
8
  10
 1982.1572061409
  20
 1071.4421953489
  30
0.0
  11
 1965.9078394308
  21
 1059.2604646356
  31
0.0
  12
 1971.0541934355
  22
 1054.4375021580
  32
0.0
  13
 1971.0541934355
  23
 1054.4375021580
  33
0.0
   0
MTEXT
   5
1C5
 100
AcDbEntity
   8
LEVEL001
 370
15
  62
8
 100
AcDbMText
  10
 1927.8652337398
  20
 1028.1337685719
  30
0.0
  40
 30.000000000000
  41
0.0
  71
9
  72
1
   1
\A1;R70
   7
GMM002
  11
 0.68380948538653
  21
 0.72966059760371
  31
0.0
   0
ENDBLK
   5
1C6
 100
AcDbEntity
   8
0
 100
AcDbBlockEnd
   0
BLOCK
   5
1C7
 100
AcDbEntity
   8
0
 100
AcDbBlockBegin
   2
*D34
  70
65
  10
0.0
  20
0.0
  30
0.0
   3
*D34
   0
LINE
   5
1C8
 100
AcDbEntity
   8
LEVEL001
 370
15
 100
AcDbLine
   6
CONTINUOUS
  62
8
  10
 2010.0238701179
  20
 1052.5184371811
  30
0.0
  11
 1851.9538334682
  21
 1052.5184371811
  31
0.0
   0
LINE
   5
1C9
 100
AcDbEntity
   8
LEVEL001
 370
15
 100
AcDbLine
   6
CONTINUOUS
  62
8
  10
 2010.0238701179
  20
 1192.5184371811
  30
0.0
  11
 1851.9538334682
  21
 1192.5184371811
  31
0.0
   0
LINE
   5
1CA
 100
AcDbEntity
   8
LEVEL001
 370
15
 100
AcDbLine
   6
CONTINUOUS
  62
8
  10
 1861.9538334682
  20
 1052.5184371811
  30
0.0
  11
 1861.9538334682
  21
 1122.5184371811
  31
0.0
   0
LINE
   5
1CB
 100
AcDbEntity
   8
LEVEL001
 370
15
 100
AcDbLine
   6
CONTINUOUS
  62
8
  10
 1861.9538334682
  20
 1192.5184371811
  30
0.0
  11
 1861.9538334682
  21
 1122.5184371811
  31
0.0
   0
INSERT
   5
1CC
 100
AcDbEntity
   8
LEVEL001
   6
CONTINUOUS
  62
8
 100
AcDbBlockReference
   2
_DOT
  10
 1861.9538334682
  20
 1052.5184371811
  30
0.0
  41
 4.0000000000000
  42
 4.0000000000000
  43
 4.0000000000000
  50
 270.00000000000
   0
INSERT
   5
1CD
 100
AcDbEntity
   8
LEVEL001
   6
CONTINUOUS
  62
8
 100
AcDbBlockReference
   2
_DOT
  10
 1861.9538334682
  20
 1192.5184371811
  30
0.0
  41
 4.0000000000000
  42
 4.0000000000000
  43
 4.0000000000000
  50
 90.000000000000
   0
MTEXT
   5
1CE
 100
AcDbEntity
   8
LEVEL001
 370
15
  62
8
 100
AcDbMText
  10
 1851.9538334682
  20
 1122.5184371811
  30
0.0
  40
 30.000000000000
  41
0.0
  71
8
  72
1
   1
\A1;140
   7
GMM002
  11
0.0
  21
 1.0000000000000
  31
0.0
   0
ENDBLK
   5
1CF
 100
AcDbEntity
   8
0
 100
AcDbBlockEnd
   0
BLOCK
   5
1D0
 100
AcDbEntity
   8
0
 100
AcDbBlockBegin
   2
*D35
  70
65
  10
0.0
  20
0.0
  30
0.0
   3
*D35
   0
LINE
   5
1D1
 100
AcDbEntity
   8
LEVEL001
 370
15
 100
AcDbLine
   6
CONTINUOUS
  62
8
  10
 1960.0238701179
  20
 1165.4855693698
  30
0.0
  11
 1960.0238701179
  21
 1386.5582623923
  31
0.0
   0
LINE
   5
1D2
 100
AcDbEntity
   8
LEVEL001
 370
15
 100
AcDbLine
   6
CONTINUOUS
  62
8
  10
 1960.0238701179
  20
 1376.5582623923
  30
0.0
  11
 2235.0238701179
  21
 1376.5582623923
  31
0.0
   0
LINE
   5
1D3
 100
AcDbEntity
   8
LEVEL001
 370
15
 100
AcDbLine
   6
CONTINUOUS
  62
8
  10
 2510.0238701179
  20
 1376.5582623923
  30
0.0
  11
 2235.0238701179
  21
 1376.5582623923
  31
0.0
   0
INSERT
   5
1D4
 100
AcDbEntity
   8
LEVEL001
   6
CONTINUOUS
  62
8
 100
AcDbBlockReference
   2
_DOT
  10
 1960.0238701179
  20
 1376.5582623923
  30
0.0
  41
 4.0000000000000
  42
 4.0000000000000
  43
 4.0000000000000
  50
 180.00000000000
   0
INSERT
   5
1D5
 100
AcDbEntity
   8
LEVEL001
   6
CONTINUOUS
  62
8
 100
AcDbBlockReference
   2
_DOT
  10
 2510.0238701179
  20
 1376.5582623923
  30
0.0
  41
 4.0000000000000
  42
 4.0000000000000
  43
 4.0000000000000
  50
0.0
   0
MTEXT
   5
1D6
 100
AcDbEntity
   8
LEVEL001
 370
15
  62
8
 100
AcDbMText
  10
 2235.0238701179
  20
 1386.5582623923
  30
0.0
  40
 30.000000000000
  41
0.0
  71
8
  72
1
   1
\A1;550
   7
GMM002
   0
ENDBLK
   5
1D7
 100
AcDbEntity
   8
0
 100
AcDbBlockEnd
   0
BLOCK
   5
1D8
 100
AcDbEntity
   8
0
 100
AcDbBlockBegin
   2
*D36
  70
65
  10
0.0
  20
0.0
  30
0.0
   3
*D36
   0
LINE
   5
1D9
 100
AcDbEntity
   8
LEVEL001
 370
15
 100
AcDbLine
   6
CONTINUOUS
  62
8
  10
 2306.0238701179
  20
 1653.9137538194
  30
0.0
  11
 2306.0238701179
  21
 1653.9137538194
  31
0.0
   0
LINE
   5
1DA
 100
AcDbEntity
   8
LEVEL001
 370
15
 100
AcDbLine
   6
CONTINUOUS
  62
8
  10
 2020.0238701179
  20
 1209.5184371811
  30
0.0
  11
 1851.6285534796
  21
 1209.5184371811
  31
0.0
   0
ARC
   5
1DB
 100
AcDbEntity
   8
LEVEL001
 370
15
   6
CONTINUOUS
  62
8
 100
AcDbCircle
  10
 2306.0238701179
  20
 1209.5184371811
  30
0.0
  40
 444.39531663831
 100
AcDbArc
  50
 90.000000000000
  51
 135.00000000000
   0
ARC
   5
1DC
 100
AcDbEntity
   8
LEVEL001
 370
15
   6
CONTINUOUS
  62
8
 100
AcDbCircle
  10
 2306.0238701179
  20
 1209.5184371811
  30
0.0
  40
 444.39531663831
 100
AcDbArc
  50
 135.00000000000
  51
 180.00000000000
   0
INSERT
   5
1DD
 100
AcDbEntity
   8
LEVEL001
   6
CONTINUOUS
  62
8
 100
AcDbBlockReference
   2
_DOT
  10
 2306.0238701179
  20
 1653.9137538194
  30
0.0
  41
 4.0000000000000
  42
 4.0000000000000
  43
 4.0000000000000
  50
 360.00000000000
   0
INSERT
   5
1DE
 100
AcDbEntity
   8
LEVEL001
   6
CONTINUOUS
  62
8
 100
AcDbBlockReference
   2
_DOT
  10
 1861.6285534796
  20
 1209.5184371811
  30
0.0
  41
 4.0000000000000
  42
 4.0000000000000
  43
 4.0000000000000
  50
 270.00000000000
   0
MTEXT
   5
1DF
 100
AcDbEntity
   8
LEVEL001
 370
15
  62
8
 100
AcDbMText
  10
 1984.7178603836
  20
 1530.8244469155
  30
0.0
  40
 30.000000000000
  41
0.0
  71
8
  72
1
   1
\A1;90\U+00B0
   7
GMM002
  11
 0.70710678118655
  21
 0.70710678118655
  31
0.0
   0
ENDBLK
   5
1E0
 100
AcDbEntity
   8
0
 100
AcDbBlockEnd
   0
BLOCK
   5
1E1
 100
AcDbEntity
   8
0
 100
AcDbBlockBegin
   2
*D37
  70
65
  10
0.0
  20
0.0
  30
0.0
   3
*D37
   0
LINE
   5
1E2
 100
AcDbEntity
   8
LEVEL001
 370
15
 100
AcDbLine
   6
CONTINUOUS
  62
8
  10
 2814.6910592291
  20
 1917.3333645149
  30
0.0
  11
 2797.6910592291
  21
 1917.3333645149
  31
0.0
   0
LINE
   5
1E3
 100
AcDbEntity
   8
LEVEL001
 370
15
 100
AcDbLine
   6
CONTINUOUS
  62
8
  10
 2660.1607157021
  20
 1917.3333645149
  30
0.0
  11
 2797.6910592291
  21
 1917.3333645149
  31
0.0
   0
INSERT
   5
1E4
 100
AcDbEntity
   8
LEVEL001
   6
CONTINUOUS
  62
8
 100
AcDbBlockReference
   2
_DOT
  10
 2814.6910592291
  20
 1917.3333645149
  30
0.0
  41
 4.0000000000000
  42
 4.0000000000000
  43
 4.0000000000000
  50
0.0
   0
INSERT
   5
1E5
 100
AcDbEntity
   8
LEVEL001
   6
CONTINUOUS
  62
8
 100
AcDbBlockReference
   2
_DOT
  10
 2780.6910592291
  20
 1917.3333645149
  30
0.0
  41
 4.0000000000000
  42
 4.0000000000000
  43
 4.0000000000000
  50
 180.00000000000
   0
MTEXT
   5
1E6
 100
AcDbEntity
   8
LEVEL001
 370
15
  62
8
 100
AcDbMText
  10
 2740.1607157021
  20
 1927.3333645149
  30
0.0
  40
 30.000000000000
  41
0.0
  71
9
  72
1
   1
\A1;%%c34
   7
GMM002
   0
ENDBLK
   5
1E7
 100
AcDbEntity
   8
0
 100
AcDbBlockEnd
   0
BLOCK
   5
1E8
 100
AcDbEntity
   8
0
 100
AcDbBlockBegin
   2
*D38
  70
65
  10
0.0
  20
0.0
  30
0.0
   3
*D38
   0
LINE
   5
1E9
 100
AcDbEntity
   8
LEVEL001
 370
15
 100
AcDbLine
   6
CONTINUOUS
  62
8
  10
 2847.6910592291
  20
 1812.2858953431
  30
0.0
  11
 2927.0175772118
  21
 1812.2858953431
  31
0.0
   0
LINE
   5
1EA
 100
AcDbEntity
   8
LEVEL001
 370
15
 100
AcDbLine
   6
CONTINUOUS
  62
8
  10
 2937.6910592291
  20
 2362.2858953431
  30
0.0
  11
 2907.0175772118
  21
 2362.2858953431
  31
0.0
   0
LINE
   5
1EB
 100
AcDbEntity
   8
LEVEL001
 370
15
 100
AcDbLine
   6
CONTINUOUS
  62
8
  10
 2917.0175772118
  20
 1812.2858953431
  30
0.0
  11
 2917.0175772118
  21
 2087.2858953431
  31
0.0
   0
LINE
   5
1EC
 100
AcDbEntity
   8
LEVEL001
 370
15
 100
AcDbLine
   6
CONTINUOUS
  62
8
  10
 2917.0175772118
  20
 2362.2858953431
  30
0.0
  11
 2917.0175772118
  21
 2087.2858953431
  31
0.0
   0
INSERT
   5
1ED
 100
AcDbEntity
   8
LEVEL001
   6
CONTINUOUS
  62
8
 100
AcDbBlockReference
   2
_DOT
  10
 2917.0175772118
  20
 1812.2858953431
  30
0.0
  41
 4.0000000000000
  42
 4.0000000000000
  43
 4.0000000000000
  50
 270.00000000000
   0
INSERT
   5
1EE
 100
AcDbEntity
   8
LEVEL001
   6
CONTINUOUS
  62
8
 100
AcDbBlockReference
   2
_DOT
  10
 2917.0175772118
  20
 2362.2858953431
  30
0.0
  41
 4.0000000000000
  42
 4.0000000000000
  43
 4.0000000000000
  50
 90.000000000000
   0
MTEXT
   5
1EF
 100
AcDbEntity
   8
LEVEL001
 370
15
  62
8
 100
AcDbMText
  10
 2907.0175772118
  20
 2087.2858953431
  30
0.0
  40
 30.000000000000
  41
0.0
  71
8
  72
1
   1
\A1;550
   7
GMM002
  11
0.0
  21
 1.0000000000000
  31
0.0
   0
ENDBLK
   5
1F0
 100
AcDbEntity
   8
0
 100
AcDbBlockEnd
   0
ENDSEC
   0
SECTION
   2
ENTITIES
   0
LINE
   5
1F1
 100
AcDbEntity
   8
LEVEL002
 370
30
 100
AcDbLine
   6
CONTINUOUS
  62
7
  10
 3441.5000000000
  20
 2720.7500000000
  30
0.0
  11
 3369.5000000000
  21
 2720.7500000000
  31
0.0
   0
LINE
   5
1F2
 100
AcDbEntity
   8
LEVEL002
 370
30
 100
AcDbLine
   6
CONTINUOUS
  62
7
  10
 3369.5000000000
  20
 2720.7500000000
  30
0.0
  11
 3369.5000000000
  21
 2612.7500000000
  31
0.0
   0
LINE
   5
1F3
 100
AcDbEntity
   8
LEVEL002
 370
30
 100
AcDbLine
   6
CONTINUOUS
  62
7
  10
 3369.5000000000
  20
 2612.7500000000
  30
0.0
  11
 3405.5000000000
  21
 2612.7500000000
  31
0.0
   0
LINE
   5
1F4
 100
AcDbEntity
   8
LEVEL002
 370
30
 100
AcDbLine
   6
CONTINUOUS
  62
7
  10
 3405.5000000000
  20
 2612.7500000000
  30
0.0
  11
 3405.5000000000
  21
 2630.7500000000
  31
0.0
   0
LINE
   5
1F5
 100
AcDbEntity
   8
LEVEL002
 370
30
 100
AcDbLine
   6
CONTINUOUS
  62
7
  10
 3405.5000000000
  20
 2630.7500000000
  30
0.0
  11
 3441.5000000000
  21
 2630.7500000000
  31
0.0
   0
ARC
   5
1F6
 100
AcDbEntity
   8
LEVEL002
 370
30
   6
CONTINUOUS
  62
7
 100
AcDbCircle
  10
 3441.5000000000
  20
 2675.7500000000
  30
0.0
  40
 45.000000000000
 100
AcDbArc
  50
 270.00000000000
  51
 90.000000000000
   0
LINE
   5
1F7
 100
AcDbEntity
   8
LEVEL002
 370
30
 100
AcDbLine
   6
CONTINUOUS
  62
7
  10
 3405.5000000000
  20
 2666.7500000000
  30
0.0
  11
 3441.5000000000
  21
 2666.7500000000
  31
0.0
   0
ARC
   5
1F8
 100
AcDbEntity
   8
LEVEL002
 370
30
   6
CONTINUOUS
  62
7
 100
AcDbCircle
  10
 3441.5000000000
  20
 2675.7500000000
  30
0.0
  40
 9.0000000000000
 100
AcDbArc
  50
 270.00000000000
  51
 90.000000000000
   0
LINE
   5
1F9
 100
AcDbEntity
   8
LEVEL002
 370
30
 100
AcDbLine
   6
CONTINUOUS
  62
7
  10
 3441.5000000000
  20
 2684.7500000000
  30
0.0
  11
 3405.5000000000
  21
 2684.7500000000
  31
0.0
   0
LINE
   5
1FA
 100
AcDbEntity
   8
LEVEL002
 370
30
 100
AcDbLine
   6
CONTINUOUS
  62
7
  10
 3405.5000000000
  20
 2684.7500000000
  30
0.0
  11
 3405.5000000000
  21
 2666.7500000000
  31
0.0
   0
LINE
   5
1FB
 100
AcDbEntity
   8
LEVEL002
 370
30
 100
AcDbLine
   6
CONTINUOUS
  62
7
  10
 3459.5000000000
  20
 2612.7500000000
  30
0.0
  11
 3531.5000000000
  21
 2720.7500000000
  31
0.0
   0
LINE
   5
1FC
 100
AcDbEntity
   8
LEVEL002
 370
30
 100
AcDbLine
   6
CONTINUOUS
  62
7
  10
 3531.5000000000
  20
 2720.7500000000
  30
0.0
  11
 3621.5000000000
  21
 2720.7500000000
  31
0.0
   0
LINE
   5
1FD
 100
AcDbEntity
   8
LEVEL002
 370
30
 100
AcDbLine
   6
CONTINUOUS
  62
7
  10
 3621.5000000000
  20
 2720.7500000000
  30
0.0
  11
 3621.5000000000
  21
 2648.7500000000
  31
0.0
   0
LINE
   5
1FE
 100
AcDbEntity
   8
LEVEL002
 370
30
 100
AcDbLine
   6
CONTINUOUS
  62
7
  10
 3621.5000000000
  20
 2648.7500000000
  30
0.0
  11
 3675.5000000000
  21
 2648.7500000000
  31
0.0
   0
LINE
   5
1FF
 100
AcDbEntity
   8
LEVEL002
 370
30
 100
AcDbLine
   6
CONTINUOUS
  62
7
  10
 3675.5000000000
  20
 2648.7500000000
  30
0.0
  11
 3675.5000000000
  21
 2684.7500000000
  31
0.0
   0
LINE
   5
200
 100
AcDbEntity
   8
LEVEL002
 370
30
 100
AcDbLine
   6
CONTINUOUS
  62
7
  10
 3675.5000000000
  20
 2684.7500000000
  30
0.0
  11
 3639.5000000000
  21
 2684.7500000000
  31
0.0
   0
LINE
   5
201
 100
AcDbEntity
   8
LEVEL002
 370
30
 100
AcDbLine
   6
CONTINUOUS
  62
7
  10
 3639.5000000000
  20
 2684.7500000000
  30
0.0
  11
 3639.5000000000
  21
 2720.7500000000
  31
0.0
   0
LINE
   5
202
 100
AcDbEntity
   8
LEVEL002
 370
30
 100
AcDbLine
   6
CONTINUOUS
  62
7
  10
 3639.5000000000
  20
 2720.7500000000
  30
0.0
  11
 3855.5000000000
  21
 2720.7500000000
  31
0.0
   0
LINE
   5
203
 100
AcDbEntity
   8
LEVEL002
 370
30
 100
AcDbLine
   6
CONTINUOUS
  62
7
  10
 3855.5000000000
  20
 2720.7500000000
  30
0.0
  11
 3855.5000000000
  21
 2684.7500000000
  31
0.0
   0
LINE
   5
204
 100
AcDbEntity
   8
LEVEL002
 370
30
 100
AcDbLine
   6
CONTINUOUS
  62
7
  10
 3855.5000000000
  20
 2684.7500000000
  30
0.0
  11
 3783.5000000000
  21
 2684.7500000000
  31
0.0
   0
LINE
   5
205
 100
AcDbEntity
   8
LEVEL002
 370
30
 100
AcDbLine
   6
CONTINUOUS
  62
7
  10
 3783.5000000000
  20
 2684.7500000000
  30
0.0
  11
 3783.5000000000
  21
 2675.7500000000
  31
0.0
   0
LINE
   5
206
 100
AcDbEntity
   8
LEVEL002
 370
30
 100
AcDbLine
   6
CONTINUOUS
  62
7
  10
 3783.5000000000
  20
 2675.7500000000
  30
0.0
  11
 3846.5000000000
  21
 2675.7500000000
  31
0.0
   0
LINE
   5
207
 100
AcDbEntity
   8
LEVEL002
 370
30
 100
AcDbLine
   6
CONTINUOUS
  62
7
  10
 3846.5000000000
  20
 2675.7500000000
  30
0.0
  11
 3846.5000000000
  21
 2657.7500000000
  31
0.0
   0
LINE
   5
208
 100
AcDbEntity
   8
LEVEL002
 370
30
 100
AcDbLine
   6
CONTINUOUS
  62
7
  10
 3846.5000000000
  20
 2657.7500000000
  30
0.0
  11
 3783.5000000000
  21
 2657.7500000000
  31
0.0
   0
LINE
   5
209
 100
AcDbEntity
   8
LEVEL002
 370
30
 100
AcDbLine
   6
CONTINUOUS
  62
7
  10
 3783.5000000000
  20
 2657.7500000000
  30
0.0
  11
 3783.5000000000
  21
 2648.7500000000
  31
0.0
   0
LINE
   5
20A
 100
AcDbEntity
   8
LEVEL002
 370
30
 100
AcDbLine
   6
CONTINUOUS
  62
7
  10
 3783.5000000000
  20
 2648.7500000000
  30
0.0
  11
 3855.5000000000
  21
 2648.7500000000
  31
0.0
   0
LINE
   5
20B
 100
AcDbEntity
   8
LEVEL002
 370
30
 100
AcDbLine
   6
CONTINUOUS
  62
7
  10
 3855.5000000000
  20
 2648.7500000000
  30
0.0
  11
 3855.5000000000
  21
 2612.7500000000
  31
0.0
   0
LINE
   5
20C
 100
AcDbEntity
   8
LEVEL002
 370
30
 100
AcDbLine
   6
CONTINUOUS
  62
7
  10
 3855.5000000000
  20
 2612.7500000000
  30
0.0
  11
 3747.5000000000
  21
 2612.7500000000
  31
0.0
   0
LINE
   5
20D
 100
AcDbEntity
   8
LEVEL002
 370
30
 100
AcDbLine
   6
CONTINUOUS
  62
7
  10
 3747.5000000000
  20
 2612.7500000000
  30
0.0
  11
 3747.5000000000
  21
 2684.7500000000
  31
0.0
   0
LINE
   5
20E
 100
AcDbEntity
   8
LEVEL002
 370
30
 100
AcDbLine
   6
CONTINUOUS
  62
7
  10
 3747.5000000000
  20
 2684.7500000000
  30
0.0
  11
 3711.5000000000
  21
 2684.7500000000
  31
0.0
   0
LINE
   5
20F
 100
AcDbEntity
   8
LEVEL002
 370
30
 100
AcDbLine
   6
CONTINUOUS
  62
7
  10
 3711.5000000000
  20
 2684.7500000000
  30
0.0
  11
 3711.5000000000
  21
 2612.7500000000
  31
0.0
   0
LINE
   5
210
 100
AcDbEntity
   8
LEVEL002
 370
30
 100
AcDbLine
   6
CONTINUOUS
  62
7
  10
 3711.5000000000
  20
 2612.7500000000
  30
0.0
  11
 3585.5000000000
  21
 2612.7500000000
  31
0.0
   0
LINE
   5
211
 100
AcDbEntity
   8
LEVEL002
 370
30
 100
AcDbLine
   6
CONTINUOUS
  62
7
  10
 3585.5000000000
  20
 2612.7500000000
  30
0.0
  11
 3585.5000000000
  21
 2720.7500000000
  31
0.0
   0
LINE
   5
212
 100
AcDbEntity
   8
LEVEL002
 370
30
 100
AcDbLine
   6
CONTINUOUS
  62
7
  10
 3585.5000000000
  20
 2720.7500000000
  30
0.0
  11
 3513.5000000000
  21
 2612.7500000000
  31
0.0
   0
LINE
   5
213
 100
AcDbEntity
   8
LEVEL002
 370
30
 100
AcDbLine
   6
CONTINUOUS
  62
7
  10
 3513.5000000000
  20
 2612.7500000000
  30
0.0
  11
 3459.5000000000
  21
 2612.7500000000
  31
0.0
   0
LINE
   5
214
 100
AcDbEntity
   8
LEVEL002
 370
30
 100
AcDbLine
   6
CONTINUOUS
  62
7
  10
 3573.5000000000
  20
 2681.1166923470
  30
0.0
  11
 3527.9222051020
  21
 2612.7500000000
  31
0.0
   0
LINE
   5
215
 100
AcDbEntity
   8
LEVEL002
 370
30
 100
AcDbLine
   6
CONTINUOUS
  62
7
  10
 3527.9222051020
  20
 2612.7500000000
  30
0.0
  11
 3573.5000000000
  21
 2612.7500000000
  31
0.0
   0
LINE
   5
216
 100
AcDbEntity
   8
LEVEL002
 370
30
 100
AcDbLine
   6
CONTINUOUS
  62
7
  10
 3573.5000000000
  20
 2612.7500000000
  30
0.0
  11
 3573.5000000000
  21
 2681.1166923470
  31
0.0
   0
ARC
   5
217
 100
AcDbEntity
   8
LEVEL002
 370
30
   6
CONTINUOUS
  62
7
 100
AcDbCircle
  10
 3909.5000000000
  20
 2666.7500000000
  30
0.0
  40
 54.000000000000
 100
AcDbArc
  50
 90.000000000000
  51
 270.00000000000
   0
ARC
   5
218
 100
AcDbEntity
   8
LEVEL002
 370
30
   6
CONTINUOUS
  62
7
 100
AcDbCircle
  10
 3909.5000000000
  20
 2666.7500000000
  30
0.0
  40
 18.000000000000
 100
AcDbArc
  50
 90.000000000000
  51
 270.00000000000
   0
LINE
   5
219
 100
AcDbEntity
   8
LEVEL002
 370
30
 100
AcDbLine
   6
CONTINUOUS
  62
7
  10
 3909.5000000000
  20
 2720.7500000000
  30
0.0
  11
 3963.5000000000
  21
 2720.7500000000
  31
0.0
   0
LINE
   5
21A
 100
AcDbEntity
   8
LEVEL002
 370
30
 100
AcDbLine
   6
CONTINUOUS
  62
7
  10
 3963.5000000000
  20
 2720.7500000000
  30
0.0
  11
 3963.5000000000
  21
 2684.7500000000
  31
0.0
   0
LINE
   5
21B
 100
AcDbEntity
   8
LEVEL002
 370
30
 100
AcDbLine
   6
CONTINUOUS
  62
7
  10
 3963.5000000000
  20
 2684.7500000000
  30
0.0
  11
 3909.5000000000
  21
 2684.7500000000
  31
0.0
   0
LINE
   5
21C
 100
AcDbEntity
   8
LEVEL002
 370
30
 100
AcDbLine
   6
CONTINUOUS
  62
7
  10
 3369.5000000000
  20
 2720.7500000000
  30
0.0
  11
 3369.5000000000
  21
 2612.7500000000
  31
0.0
   0
LINE
   5
21D
 100
AcDbEntity
   8
LEVEL002
 370
30
 100
AcDbLine
   6
CONTINUOUS
  62
7
  10
 3369.5000000000
  20
 2612.7500000000
  30
0.0
  11
 3405.5000000000
  21
 2612.7500000000
  31
0.0
   0
LINE
   5
21E
 100
AcDbEntity
   8
LEVEL002
 370
30
 100
AcDbLine
   6
CONTINUOUS
  62
7
  10
 3405.5000000000
  20
 2612.7500000000
  30
0.0
  11
 3405.5000000000
  21
 2630.7500000000
  31
0.0
   0
LINE
   5
21F
 100
AcDbEntity
   8
LEVEL002
 370
30
 100
AcDbLine
   6
CONTINUOUS
  62
7
  10
 3405.5000000000
  20
 2630.7500000000
  30
0.0
  11
 3441.5000000000
  21
 2630.7500000000
  31
0.0
   0
ARC
   5
220
 100
AcDbEntity
   8
LEVEL002
 370
30
   6
CONTINUOUS
  62
7
 100
AcDbCircle
  10
 3441.5000000000
  20
 2675.7500000000
  30
0.0
  40
 45.000000000000
 100
AcDbArc
  50
 270.00000000000
  51
 90.000000000000
   0
LINE
   5
221
 100
AcDbEntity
   8
LEVEL002
 370
30
 100
AcDbLine
   6
CONTINUOUS
  62
7
  10
 3441.5000000000
  20
 2720.7500000000
  30
0.0
  11
 3369.5000000000
  21
 2720.7500000000
  31
0.0
   0
LINE
   5
222
 100
AcDbEntity
   8
LEVEL002
 370
30
 100
AcDbLine
   6
CONTINUOUS
  62
7
  10
 3405.5000000000
  20
 2684.7500000000
  30
0.0
  11
 3405.5000000000
  21
 2666.7500000000
  31
0.0
   0
LINE
   5
223
 100
AcDbEntity
   8
LEVEL002
 370
30
 100
AcDbLine
   6
CONTINUOUS
  62
7
  10
 3405.5000000000
  20
 2666.7500000000
  30
0.0
  11
 3441.5000000000
  21
 2666.7500000000
  31
0.0
   0
ARC
   5
224
 100
AcDbEntity
   8
LEVEL002
 370
30
   6
CONTINUOUS
  62
7
 100
AcDbCircle
  10
 3441.5000000000
  20
 2675.7500000000
  30
0.0
  40
 9.0000000000000
 100
AcDbArc
  50
 270.00000000000
  51
 90.000000000000
   0
LINE
   5
225
 100
AcDbEntity
   8
LEVEL002
 370
30
 100
AcDbLine
   6
CONTINUOUS
  62
7
  10
 3441.5000000000
  20
 2684.7500000000
  30
0.0
  11
 3405.5000000000
  21
 2684.7500000000
  31
0.0
   0
LINE
   5
226
 100
AcDbEntity
   8
LEVEL002
 370
30
 100
AcDbLine
   6
CONTINUOUS
  62
7
  10
 3531.5000000000
  20
 2720.7500000000
  30
0.0
  11
 3459.5000000000
  21
 2612.7500000000
  31
0.0
   0
LINE
   5
227
 100
AcDbEntity
   8
LEVEL002
 370
30
 100
AcDbLine
   6
CONTINUOUS
  62
7
  10
 3459.5000000000
  20
 2612.7500000000
  30
0.0
  11
 3513.5000000000
  21
 2612.7500000000
  31
0.0
   0
LINE
   5
228
 100
AcDbEntity
   8
LEVEL002
 370
30
 100
AcDbLine
   6
CONTINUOUS
  62
7
  10
 3513.5000000000
  20
 2612.7500000000
  30
0.0
  11
 3585.5000000000
  21
 2720.7500000000
  31
0.0
   0
LINE
   5
229
 100
AcDbEntity
   8
LEVEL002
 370
30
 100
AcDbLine
   6
CONTINUOUS
  62
7
  10
 3585.5000000000
  20
 2720.7500000000
  30
0.0
  11
 3531.5000000000
  21
 2720.7500000000
  31
0.0
   0
LINE
   5
22A
 100
AcDbEntity
   8
LEVEL002
 370
30
 100
AcDbLine
   6
CONTINUOUS
  62
7
  10
 3573.5000000000
  20
 2612.7500000000
  30
0.0
  11
 3573.5000000000
  21
 2681.1166923470
  31
0.0
   0
LINE
   5
22B
 100
AcDbEntity
   8
LEVEL002
 370
30
 100
AcDbLine
   6
CONTINUOUS
  62
7
  10
 3573.5000000000
  20
 2681.1166923470
  30
0.0
  11
 3527.9222051020
  21
 2612.7500000000
  31
0.0
   0
LINE
   5
22C
 100
AcDbEntity
   8
LEVEL002
 370
30
 100
AcDbLine
   6
CONTINUOUS
  62
7
  10
 3527.9222051020
  20
 2612.7500000000
  30
0.0
  11
 3573.5000000000
  21
 2612.7500000000
  31
0.0
   0
LINE
   5
22D
 100
AcDbEntity
   8
LEVEL002
 370
30
 100
AcDbLine
   6
CONTINUOUS
  62
7
  10
 3585.5000000000
  20
 2612.7500000000
  30
0.0
  11
 3711.5000000000
  21
 2612.7500000000
  31
0.0
   0
LINE
   5
22E
 100
AcDbEntity
   8
LEVEL002
 370
30
 100
AcDbLine
   6
CONTINUOUS
  62
7
  10
 3711.5000000000
  20
 2612.7500000000
  30
0.0
  11
 3711.5000000000
  21
 2684.7500000000
  31
0.0
   0
LINE
   5
22F
 100
AcDbEntity
   8
LEVEL002
 370
30
 100
AcDbLine
   6
CONTINUOUS
  62
7
  10
 3711.5000000000
  20
 2684.7500000000
  30
0.0
  11
 3747.5000000000
  21
 2684.7500000000
  31
0.0
   0
LINE
   5
230
 100
AcDbEntity
   8
LEVEL002
 370
30
 100
AcDbLine
   6
CONTINUOUS
  62
7
  10
 3747.5000000000
  20
 2684.7500000000
  30
0.0
  11
 3747.5000000000
  21
 2612.7500000000
  31
0.0
   0
LINE
   5
231
 100
AcDbEntity
   8
LEVEL002
 370
30
 100
AcDbLine
   6
CONTINUOUS
  62
7
  10
 3747.5000000000
  20
 2612.7500000000
  30
0.0
  11
 3855.5000000000
  21
 2612.7500000000
  31
0.0
   0
LINE
   5
232
 100
AcDbEntity
   8
LEVEL002
 370
30
 100
AcDbLine
   6
CONTINUOUS
  62
7
  10
 3855.5000000000
  20
 2612.7500000000
  30
0.0
  11
 3855.5000000000
  21
 2648.7500000000
  31
0.0
   0
LINE
   5
233
 100
AcDbEntity
   8
LEVEL002
 370
30
 100
AcDbLine
   6
CONTINUOUS
  62
7
  10
 3855.5000000000
  20
 2648.7500000000
  30
0.0
  11
 3783.5000000000
  21
 2648.7500000000
  31
0.0
   0
LINE
   5
234
 100
AcDbEntity
   8
LEVEL002
 370
30
 100
AcDbLine
   6
CONTINUOUS
  62
7
  10
 3783.5000000000
  20
 2648.7500000000
  30
0.0
  11
 3783.5000000000
  21
 2657.7500000000
  31
0.0
   0
LINE
   5
235
 100
AcDbEntity
   8
LEVEL002
 370
30
 100
AcDbLine
   6
CONTINUOUS
  62
7
  10
 3783.5000000000
  20
 2657.7500000000
  30
0.0
  11
 3846.5000000000
  21
 2657.7500000000
  31
0.0
   0
LINE
   5
236
 100
AcDbEntity
   8
LEVEL002
 370
30
 100
AcDbLine
   6
CONTINUOUS
  62
7
  10
 3846.5000000000
  20
 2657.7500000000
  30
0.0
  11
 3846.5000000000
  21
 2675.7500000000
  31
0.0
   0
LINE
   5
237
 100
AcDbEntity
   8
LEVEL002
 370
30
 100
AcDbLine
   6
CONTINUOUS
  62
7
  10
 3846.5000000000
  20
 2675.7500000000
  30
0.0
  11
 3783.5000000000
  21
 2675.7500000000
  31
0.0
   0
LINE
   5
238
 100
AcDbEntity
   8
LEVEL002
 370
30
 100
AcDbLine
   6
CONTINUOUS
  62
7
  10
 3783.5000000000
  20
 2675.7500000000
  30
0.0
  11
 3783.5000000000
  21
 2684.7500000000
  31
0.0
   0
LINE
   5
239
 100
AcDbEntity
   8
LEVEL002
 370
30
 100
AcDbLine
   6
CONTINUOUS
  62
7
  10
 3783.5000000000
  20
 2684.7500000000
  30
0.0
  11
 3855.5000000000
  21
 2684.7500000000
  31
0.0
   0
LINE
   5
23A
 100
AcDbEntity
   8
LEVEL002
 370
30
 100
AcDbLine
   6
CONTINUOUS
  62
7
  10
 3855.5000000000
  20
 2684.7500000000
  30
0.0
  11
 3855.5000000000
  21
 2720.7500000000
  31
0.0
   0
LINE
   5
23B
 100
AcDbEntity
   8
LEVEL002
 370
30
 100
AcDbLine
   6
CONTINUOUS
  62
7
  10
 3855.5000000000
  20
 2720.7500000000
  30
0.0
  11
 3639.5000000000
  21
 2720.7500000000
  31
0.0
   0
LINE
   5
23C
 100
AcDbEntity
   8
LEVEL002
 370
30
 100
AcDbLine
   6
CONTINUOUS
  62
7
  10
 3639.5000000000
  20
 2720.7500000000
  30
0.0
  11
 3639.5000000000
  21
 2684.7500000000
  31
0.0
   0
LINE
   5
23D
 100
AcDbEntity
   8
LEVEL002
 370
30
 100
AcDbLine
   6
CONTINUOUS
  62
7
  10
 3639.5000000000
  20
 2684.7500000000
  30
0.0
  11
 3675.5000000000
  21
 2684.7500000000
  31
0.0
   0
LINE
   5
23E
 100
AcDbEntity
   8
LEVEL002
 370
30
 100
AcDbLine
   6
CONTINUOUS
  62
7
  10
 3675.5000000000
  20
 2684.7500000000
  30
0.0
  11
 3675.5000000000
  21
 2648.7500000000
  31
0.0
   0
LINE
   5
23F
 100
AcDbEntity
   8
LEVEL002
 370
30
 100
AcDbLine
   6
CONTINUOUS
  62
7
  10
 3675.5000000000
  20
 2648.7500000000
  30
0.0
  11
 3621.5000000000
  21
 2648.7500000000
  31
0.0
   0
LINE
   5
240
 100
AcDbEntity
   8
LEVEL002
 370
30
 100
AcDbLine
   6
CONTINUOUS
  62
7
  10
 3621.5000000000
  20
 2648.7500000000
  30
0.0
  11
 3621.5000000000
  21
 2720.7500000000
  31
0.0
   0
LINE
   5
241
 100
AcDbEntity
   8
LEVEL002
 370
30
 100
AcDbLine
   6
CONTINUOUS
  62
7
  10
 3621.5000000000
  20
 2720.7500000000
  30
0.0
  11
 3585.5000000000
  21
 2720.7500000000
  31
0.0
   0
LINE
   5
242
 100
AcDbEntity
   8
LEVEL002
 370
30
 100
AcDbLine
   6
CONTINUOUS
  62
7
  10
 3585.5000000000
  20
 2720.7500000000
  30
0.0
  11
 3585.5000000000
  21
 2612.7500000000
  31
0.0
   0
LINE
   5
243
 100
AcDbEntity
   8
LEVEL002
 370
30
 100
AcDbLine
   6
CONTINUOUS
  62
7
  10
 3909.5000000000
  20
 2612.7500000000
  30
0.0
  11
 3963.5000000000
  21
 2612.7500000000
  31
0.0
   0
LINE
   5
244
 100
AcDbEntity
   8
LEVEL002
 370
30
 100
AcDbLine
   6
CONTINUOUS
  62
7
  10
 3963.5000000000
  20
 2612.7500000000
  30
0.0
  11
 3963.5000000000
  21
 2648.7500000000
  31
0.0
   0
LINE
   5
245
 100
AcDbEntity
   8
LEVEL002
 370
30
 100
AcDbLine
   6
CONTINUOUS
  62
7
  10
 3963.5000000000
  20
 2648.7500000000
  30
0.0
  11
 3909.5000000000
  21
 2648.7500000000
  31
0.0
   0
ARC
   5
246
 100
AcDbEntity
   8
LEVEL002
 370
30
   6
CONTINUOUS
  62
7
 100
AcDbCircle
  10
 3909.5000000000
  20
 2666.7500000000
  30
0.0
  40
 18.000000000000
 100
AcDbArc
  50
 90.000000000000
  51
 270.00000000000
   0
LINE
   5
247
 100
AcDbEntity
   8
LEVEL002
 370
30
 100
AcDbLine
   6
CONTINUOUS
  62
7
  10
 3909.5000000000
  20
 2684.7500000000
  30
0.0
  11
 3963.5000000000
  21
 2684.7500000000
  31
0.0
   0
LINE
   5
248
 100
AcDbEntity
   8
LEVEL002
 370
30
 100
AcDbLine
   6
CONTINUOUS
  62
7
  10
 3963.5000000000
  20
 2684.7500000000
  30
0.0
  11
 3963.5000000000
  21
 2720.7500000000
  31
0.0
   0
LINE
   5
249
 100
AcDbEntity
   8
LEVEL002
 370
30
 100
AcDbLine
   6
CONTINUOUS
  62
7
  10
 3963.5000000000
  20
 2720.7500000000
  30
0.0
  11
 3909.5000000000
  21
 2720.7500000000
  31
0.0
   0
ARC
   5
24A
 100
AcDbEntity
   8
LEVEL002
 370
30
   6
CONTINUOUS
  62
7
 100
AcDbCircle
  10
 3909.5000000000
  20
 2666.7500000000
  30
0.0
  40
 54.000000000000
 100
AcDbArc
  50
 90.000000000000
  51
 270.00000000000
   0
MTEXT
   5
24C
 100
AcDbEntity
   8
LEVEL002
 370
30
  62
7
 100
AcDbMText
  10
 3369.5000000000
  20
 2738.7500000000
  30
0.0
  40
 37.500000000000
  41
0.0
  71
7
  72
1
   1
\T1.000000;ケージーパルテック株式会社
   7
GMM001
  44
 0.79999984000003
   0
LINE
   5
24D
 100
AcDbEntity
   8
LEVEL002
 370
30
 100
AcDbLine
   6
CONTINUOUS
  62
7
  10
 3333.5000000000
  20
 2636.7500000000
  30
0.0
  11
 3288.5000000000
  21
 2708.7500000000
  31
0.0
   0
LINE
   5
24E
 100
AcDbEntity
   8
LEVEL002
 370
30
 100
AcDbLine
   6
CONTINUOUS
  62
7
  10
 3288.5000000000
  20
 2708.7500000000
  30
0.0
  11
 3333.5000000000
  21
 2708.7500000000
  31
0.0
   0
LINE
   5
24F
 100
AcDbEntity
   8
LEVEL002
 370
30
 100
AcDbLine
   6
CONTINUOUS
  62
7
  10
 3333.5000000000
  20
 2708.7500000000
  30
0.0
  11
 3333.5000000000
  21
 2636.7500000000
  31
0.0
   0
LINE
   5
250
 100
AcDbEntity
   8
LEVEL002
 370
30
 100
AcDbLine
   6
CONTINUOUS
  62
7
  10
 3288.5000000000
  20
 2708.7500000000
  30
0.0
  11
 3333.5000000000
  21
 2636.7500000000
  31
0.0
   0
LINE
   5
251
 100
AcDbEntity
   8
LEVEL002
 370
30
 100
AcDbLine
   6
CONTINUOUS
  62
7
  10
 3333.5000000000
  20
 2636.7500000000
  30
0.0
  11
 3333.5000000000
  21
 2708.7500000000
  31
0.0
   0
LINE
   5
252
 100
AcDbEntity
   8
LEVEL002
 370
30
 100
AcDbLine
   6
CONTINUOUS
  62
7
  10
 3333.5000000000
  20
 2708.7500000000
  30
0.0
  11
 3288.5000000000
  21
 2708.7500000000
  31
0.0
   0
LINE
   5
253
 100
AcDbEntity
   8
LEVEL002
 370
30
 100
AcDbLine
   6
CONTINUOUS
  62
7
  10
 3190.5000000000
  20
 2804.7500000000
  30
0.0
  11
 3126.5000000000
  21
 2708.7500000000
  31
0.0
   0
LINE
   5
254
 100
AcDbEntity
   8
LEVEL002
 370
30
 100
AcDbLine
   6
CONTINUOUS
  62
7
  10
 3126.5000000000
  20
 2708.7500000000
  30
0.0
  11
 3190.5000000000
  21
 2612.7500000000
  31
0.0
   0
LINE
   5
255
 100
AcDbEntity
   8
LEVEL002
 370
30
 100
AcDbLine
   6
CONTINUOUS
  62
7
  10
 3244.5000000000
  20
 2612.7500000000
  30
0.0
  11
 3180.5000000000
  21
 2708.7500000000
  31
0.0
   0
LINE
   5
256
 100
AcDbEntity
   8
LEVEL002
 370
30
 100
AcDbLine
   6
CONTINUOUS
  62
7
  10
 3180.5000000000
  20
 2708.7500000000
  30
0.0
  11
 3244.5000000000
  21
 2804.7500000000
  31
0.0
   0
LINE
   5
257
 100
AcDbEntity
   8
LEVEL002
 370
30
 100
AcDbLine
   6
CONTINUOUS
  62
7
  10
 3271.5000000000
  20
 2804.7500000000
  30
0.0
  11
 3207.5000000000
  21
 2708.7500000000
  31
0.0
   0
LINE
   5
258
 100
AcDbEntity
   8
LEVEL002
 370
30
 100
AcDbLine
   6
CONTINUOUS
  62
7
  10
 3207.5000000000
  20
 2708.7500000000
  30
0.0
  11
 3271.5000000000
  21
 2612.7500000000
  31
0.0
   0
LINE
   5
259
 100
AcDbEntity
   8
LEVEL002
 370
30
 100
AcDbLine
   6
CONTINUOUS
  62
7
  10
 3325.5000000000
  20
 2612.7500000000
  30
0.0
  11
 3261.5000000000
  21
 2708.7500000000
  31
0.0
   0
LINE
   5
25A
 100
AcDbEntity
   8
LEVEL002
 370
30
 100
AcDbLine
   6
CONTINUOUS
  62
7
  10
 3261.5000000000
  20
 2708.7500000000
  30
0.0
  11
 3325.5000000000
  21
 2804.7500000000
  31
0.0
   0
LINE
   5
25B
 100
AcDbEntity
   8
LEVEL002
 370
30
 100
AcDbLine
   6
CONTINUOUS
  62
7
  10
 3190.5000000000
  20
 2612.7500000000
  30
0.0
  11
 3126.5000000000
  21
 2708.7500000000
  31
0.0
   0
LINE
   5
25C
 100
AcDbEntity
   8
LEVEL002
 370
30
 100
AcDbLine
   6
CONTINUOUS
  62
7
  10
 3126.5000000000
  20
 2708.7500000000
  30
0.0
  11
 3190.5000000000
  21
 2804.7500000000
  31
0.0
   0
LINE
   5
25D
 100
AcDbEntity
   8
LEVEL002
 370
30
 100
AcDbLine
   6
CONTINUOUS
  62
7
  10
 3190.5000000000
  20
 2804.7500000000
  30
0.0
  11
 3244.5000000000
  21
 2804.7500000000
  31
0.0
   0
LINE
   5
25E
 100
AcDbEntity
   8
LEVEL002
 370
30
 100
AcDbLine
   6
CONTINUOUS
  62
7
  10
 3244.5000000000
  20
 2804.7500000000
  30
0.0
  11
 3180.5000000000
  21
 2708.7500000000
  31
0.0
   0
LINE
   5
25F
 100
AcDbEntity
   8
LEVEL002
 370
30
 100
AcDbLine
   6
CONTINUOUS
  62
7
  10
 3180.5000000000
  20
 2708.7500000000
  30
0.0
  11
 3244.5000000000
  21
 2612.7500000000
  31
0.0
   0
LINE
   5
260
 100
AcDbEntity
   8
LEVEL002
 370
30
 100
AcDbLine
   6
CONTINUOUS
  62
7
  10
 3244.5000000000
  20
 2612.7500000000
  30
0.0
  11
 3190.5000000000
  21
 2612.7500000000
  31
0.0
   0
LINE
   5
261
 100
AcDbEntity
   8
LEVEL002
 370
30
 100
AcDbLine
   6
CONTINUOUS
  62
7
  10
 3271.5000000000
  20
 2612.7500000000
  30
0.0
  11
 3207.5000000000
  21
 2708.7500000000
  31
0.0
   0
LINE
   5
262
 100
AcDbEntity
   8
LEVEL002
 370
30
 100
AcDbLine
   6
CONTINUOUS
  62
7
  10
 3207.5000000000
  20
 2708.7500000000
  30
0.0
  11
 3271.5000000000
  21
 2804.7500000000
  31
0.0
   0
LINE
   5
263
 100
AcDbEntity
   8
LEVEL002
 370
30
 100
AcDbLine
   6
CONTINUOUS
  62
7
  10
 3271.5000000000
  20
 2804.7500000000
  30
0.0
  11
 3325.5000000000
  21
 2804.7500000000
  31
0.0
   0
LINE
   5
264
 100
AcDbEntity
   8
LEVEL002
 370
30
 100
AcDbLine
   6
CONTINUOUS
  62
7
  10
 3325.5000000000
  20
 2804.7500000000
  30
0.0
  11
 3261.5000000000
  21
 2708.7500000000
  31
0.0
   0
LINE
   5
265
 100
AcDbEntity
   8
LEVEL002
 370
30
 100
AcDbLine
   6
CONTINUOUS
  62
7
  10
 3261.5000000000
  20
 2708.7500000000
  30
0.0
  11
 3325.5000000000
  21
 2612.7500000000
  31
0.0
   0
LINE
   5
266
 100
AcDbEntity
   8
LEVEL002
 370
30
 100
AcDbLine
   6
CONTINUOUS
  62
7
  10
 3325.5000000000
  20
 2612.7500000000
  30
0.0
  11
 3271.5000000000
  21
 2612.7500000000
  31
0.0
   0
LINE
   5
267
 100
AcDbEntity
   8
LEVEL001
 370
30
 100
AcDbLine
   6
DOT
  62
7
  10
0.0
  20
0.0
  30
0.0
  11
 4200.0000000000
  21
0.0
  31
0.0
   0
LINE
   5
268
 100
AcDbEntity
   8
LEVEL001
 370
30
 100
AcDbLine
   6
DOT
  62
7
  10
 4200.0000000000
  20
0.0
  30
0.0
  11
 4200.0000000000
  21
 2970.0000000000
  31
0.0
   0
LINE
   5
269
 100
AcDbEntity
   8
LEVEL001
 370
30
 100
AcDbLine
   6
DOT
  62
7
  10
 4200.0000000000
  20
 2970.0000000000
  30
0.0
  11
0.0
  21
 2970.0000000000
  31
0.0
   0
LINE
   5
26A
 100
AcDbEntity
   8
LEVEL001
 370
30
 100
AcDbLine
   6
DOT
  62
7
  10
0.0
  20
 2970.0000000000
  30
0.0
  11
0.0
  21
0.0
  31
0.0
   0
LINE
   5
26B
 100
AcDbEntity
   8
LEVEL002
 370
40
 100
AcDbLine
   6
CONTINUOUS
  62
3
  10
 154.99999999950
  20
 2750.0000000000
  30
0.0
  11
 3044.9999999995
  21
 2750.0000000000
  31
0.0
   0
LINE
   5
26C
 100
AcDbEntity
   8
LEVEL002
 370
40
 100
AcDbLine
   6
CONTINUOUS
  62
3
  10
 3044.9999999995
  20
 2567.5000000000
  30
0.0
  11
 4044.9999999995
  21
 2567.5000000000
  31
0.0
   0
LINE
   5
26D
 100
AcDbEntity
   8
LEVEL002
 370
40
 100
AcDbLine
   6
CONTINUOUS
  62
3
  10
 3044.9999999995
  20
 2367.5000000000
  30
0.0
  11
 4044.9999999995
  21
 2367.5000000000
  31
0.0
   0
LINE
   5
26E
 100
AcDbEntity
   8
LEVEL002
 370
40
 100
AcDbLine
   6
CONTINUOUS
  62
3
  10
 3044.9999999995
  20
 2167.5000000000
  30
0.0
  11
 4044.9999999995
  21
 2167.5000000000
  31
0.0
   0
LINE
   5
26F
 100
AcDbEntity
   8
LEVEL002
 370
40
 100
AcDbLine
   6
CONTINUOUS
  62
3
  10
 3044.9999999995
  20
 720.00000000010
  30
0.0
  11
 4044.9999999995
  21
 720.00000000010
  31
0.0
   0
LINE
   5
270
 100
AcDbEntity
   8
LEVEL002
 370
40
 100
AcDbLine
   6
CONTINUOUS
  62
3
  10
 3044.9999999995
  20
 520.00000000010
  30
0.0
  11
 4044.9999999995
  21
 520.00000000010
  31
0.0
   0
LINE
   5
271
 100
AcDbEntity
   8
LEVEL002
 370
40
 100
AcDbLine
   6
CONTINUOUS
  62
3
  10
 3044.9999999995
  20
 320.00000000010
  30
0.0
  11
 4044.9999999995
  21
 320.00000000010
  31
0.0
   0
LINE
   5
272
 100
AcDbEntity
   8
LEVEL002
 370
40
 100
AcDbLine
   6
CONTINUOUS
  62
3
  10
 3544.9999999995
  20
 520.00000000010
  30
0.0
  11
 3544.9999999995
  21
 120.00000000010
  31
0.0
   0
LINE
   5
273
 100
AcDbEntity
   8
LEVEL002
 370
40
 100
AcDbLine
   6
CONTINUOUS
  62
3
  10
 3544.9999999995
  20
 386.66666666680
  30
0.0
  11
 4044.9999999995
  21
 386.66666666680
  31
0.0
   0
LINE
   5
274
 100
AcDbEntity
   8
LEVEL002
 370
40
 100
AcDbLine
   6
CONTINUOUS
  62
3
  10
 3544.9999999995
  20
 453.33333333345
  30
0.0
  11
 4044.9999999995
  21
 453.33333333345
  31
0.0
   0
LINE
   5
275
 100
AcDbEntity
   8
LEVEL002
 370
50
 100
AcDbLine
   6
CONTINUOUS
  62
4
  10
 4044.9999999995
  20
 2850.0000000000
  30
0.0
  11
 154.99999999950
  21
 2850.0000000000
  31
0.0
   0
LINE
   5
276
 100
AcDbEntity
   8
LEVEL002
 370
50
 100
AcDbLine
   6
CONTINUOUS
  62
4
  10
 3044.9999999995
  20
 2850.0000000000
  30
0.0
  11
 3044.9999999995
  21
 120.00000000010
  31
0.0
   0
LINE
   5
277
 100
AcDbEntity
   8
LEVEL002
 370
50
 100
AcDbLine
   6
CONTINUOUS
  62
4
  10
 4044.9999999995
  20
 120.00000000010
  30
0.0
  11
 4044.9999999995
  21
 2850.0000000000
  31
0.0
   0
LINE
   5
278
 100
AcDbEntity
   8
LEVEL002
 370
50
 100
AcDbLine
   6
CONTINUOUS
  62
4
  10
 154.99999999950
  20
 2850.0000000000
  30
0.0
  11
 154.99999999950
  21
 120.00000000010
  31
0.0
   0
LINE
   5
279
 100
AcDbEntity
   8
LEVEL002
 370
50
 100
AcDbLine
   6
CONTINUOUS
  62
4
  10
 154.99999999950
  20
 120.00000000010
  30
0.0
  11
 4044.9999999995
  21
 120.00000000010
  31
0.0
   0
HATCH
   5
27A
 100
AcDbEntity
   8
LEVEL001
  62
1
 100
AcDbHatch
  10
0.0
  20
0.0
  30
0.0
 210
0.0
 220
0.0
 230
 1.0000000000000
   2
SOLID
  70
1
  71
1
  91
7
  92
1
  93
6
  72
1
  10
 3244.5000000000
  20
 2804.7500000000
  11
 3180.5000000000
  21
 2708.7500000000
  72
1
  10
 3180.5000000000
  20
 2708.7500000000
  11
 3244.5000000000
  21
 2612.7500000000
  72
1
  10
 3244.5000000000
  20
 2612.7500000000
  11
 3190.5000000000
  21
 2612.7500000000
  72
1
  10
 3190.5000000000
  20
 2612.7500000000
  11
 3126.5000000000
  21
 2708.7500000000
  72
1
  10
 3126.5000000000
  20
 2708.7500000000
  11
 3190.5000000000
  21
 2804.7500000000
  72
1
  10
 3190.5000000000
  20
 2804.7500000000
  11
 3244.5000000000
  21
 2804.7500000000
  97
1
 330

  92
16
  93
6
  72
1
  10
 3271.5000000000
  20
 2804.7500000000
  11
 3325.5000000000
  21
 2804.7500000000
  72
1
  10
 3325.5000000000
  20
 2804.7500000000
  11
 3261.5000000000
  21
 2708.7500000000
  72
1
  10
 3261.5000000000
  20
 2708.7500000000
  11
 3325.5000000000
  21
 2612.7500000000
  72
1
  10
 3325.5000000000
  20
 2612.7500000000
  11
 3271.5000000000
  21
 2612.7500000000
  72
1
  10
 3271.5000000000
  20
 2612.7500000000
  11
 3207.5000000000
  21
 2708.7500000000
  72
1
  10
 3207.5000000000
  20
 2708.7500000000
  11
 3271.5000000000
  21
 2804.7500000000
  97
1
 330

  92
16
  93
3
  72
1
  10
 3333.5000000000
  20
 2708.7500000000
  11
 3288.5000000000
  21
 2708.7500000000
  72
1
  10
 3288.5000000000
  20
 2708.7500000000
  11
 3333.5000000000
  21
 2636.7500000000
  72
1
  10
 3333.5000000000
  20
 2636.7500000000
  11
 3333.5000000000
  21
 2708.7500000000
  97
1
 330

  92
16
  93
6
  72
1
  10
 3369.5000000000
  20
 2720.7500000000
  11
 3441.5000000000
  21
 2720.7500000000
  72
2
  10
 3441.5000000000
  20
 2675.7500000000
  40
 45.000000000000
  50
 270.00000000000
  51
 90.000000000000
  73
0
  72
1
  10
 3441.5000000000
  20
 2630.7500000000
  11
 3405.5000000000
  21
 2630.7500000000
  72
1
  10
 3405.5000000000
  20
 2630.7500000000
  11
 3405.5000000000
  21
 2612.7500000000
  72
1
  10
 3405.5000000000
  20
 2612.7500000000
  11
 3369.5000000000
  21
 2612.7500000000
  72
1
  10
 3369.5000000000
  20
 2612.7500000000
  11
 3369.5000000000
  21
 2720.7500000000
  97
1
 330

  92
16
  93
4
  72
1
  10
 3441.5000000000
  20
 2684.7500000000
  11
 3405.5000000000
  21
 2684.7500000000
  72
1
  10
 3405.5000000000
  20
 2684.7500000000
  11
 3405.5000000000
  21
 2666.7500000000
  72
1
  10
 3405.5000000000
  20
 2666.7500000000
  11
 3441.5000000000
  21
 2666.7500000000
  72
2
  10
 3441.5000000000
  20
 2675.7500000000
  40
 9.0000000000000
  50
 270.00000000000
  51
 90.000000000000
  73
1
  97
1
 330

  92
16
  93
4
  72
1
  10
 3459.5000000000
  20
 2612.7500000000
  11
 3531.5000000000
  21
 2720.7500000000
  72
1
  10
 3531.5000000000
  20
 2720.7500000000
  11
 3585.5000000000
  21
 2720.7500000000
  72
1
  10
 3585.5000000000
  20
 2720.7500000000
  11
 3513.5000000000
  21
 2612.7500000000
  72
1
  10
 3513.5000000000
  20
 2612.7500000000
  11
 3459.5000000000
  21
 2612.7500000000
  97
1
 330

  92
16
  93
3
  72
1
  10
 3573.5000000000
  20
 2681.1166923470
  11
 3527.9222051020
  21
 2612.7500000000
  72
1
  10
 3527.9222051020
  20
 2612.7500000000
  11
 3573.5000000000
  21
 2612.7500000000
  72
1
  10
 3573.5000000000
  20
 2612.7500000000
  11
 3573.5000000000
  21
 2681.1166923470
  97
1
 330

  75
0
  76
1
  98
1
  10
0.0
  20
0.0
   0
HATCH
   5
27B
 100
AcDbEntity
   8
LEVEL001
  62
1
 100
AcDbHatch
  10
0.0
  20
0.0
  30
0.0
 210
0.0
 220
0.0
 230
 1.0000000000000
   2
SOLID
  70
1
  71
1
  91
1
  92
1
  93
22
  72
1
  10
 3585.5000000000
  20
 2720.7500000000
  11
 3621.5000000000
  21
 2720.7500000000
  72
1
  10
 3621.5000000000
  20
 2720.7500000000
  11
 3621.5000000000
  21
 2648.7500000000
  72
1
  10
 3621.5000000000
  20
 2648.7500000000
  11
 3675.5000000000
  21
 2648.7500000000
  72
1
  10
 3675.5000000000
  20
 2648.7500000000
  11
 3675.5000000000
  21
 2684.7500000000
  72
1
  10
 3675.5000000000
  20
 2684.7500000000
  11
 3639.5000000000
  21
 2684.7500000000
  72
1
  10
 3639.5000000000
  20
 2684.7500000000
  11
 3639.5000000000
  21
 2720.7500000000
  72
1
  10
 3639.5000000000
  20
 2720.7500000000
  11
 3855.5000000000
  21
 2720.7500000000
  72
1
  10
 3855.5000000000
  20
 2720.7500000000
  11
 3855.5000000000
  21
 2684.7500000000
  72
1
  10
 3855.5000000000
  20
 2684.7500000000
  11
 3783.5000000000
  21
 2684.7500000000
  72
1
  10
 3783.5000000000
  20
 2684.7500000000
  11
 3783.5000000000
  21
 2675.7500000000
  72
1
  10
 3783.5000000000
  20
 2675.7500000000
  11
 3846.5000000000
  21
 2675.7500000000
  72
1
  10
 3846.5000000000
  20
 2675.7500000000
  11
 3846.5000000000
  21
 2657.7500000000
  72
1
  10
 3846.5000000000
  20
 2657.7500000000
  11
 3783.5000000000
  21
 2657.7500000000
  72
1
  10
 3783.5000000000
  20
 2657.7500000000
  11
 3783.5000000000
  21
 2648.7500000000
  72
1
  10
 3783.5000000000
  20
 2648.7500000000
  11
 3855.5000000000
  21
 2648.7500000000
  72
1
  10
 3855.5000000000
  20
 2648.7500000000
  11
 3855.5000000000
  21
 2612.7500000000
  72
1
  10
 3855.5000000000
  20
 2612.7500000000
  11
 3747.5000000000
  21
 2612.7500000000
  72
1
  10
 3747.5000000000
  20
 2612.7500000000
  11
 3747.5000000000
  21
 2684.7500000000
  72
1
  10
 3747.5000000000
  20
 2684.7500000000
  11
 3711.5000000000
  21
 2684.7500000000
  72
1
  10
 3711.5000000000
  20
 2684.7500000000
  11
 3711.5000000000
  21
 2612.7500000000
  72
1
  10
 3711.5000000000
  20
 2612.7500000000
  11
 3585.5000000000
  21
 2612.7500000000
  72
1
  10
 3585.5000000000
  20
 2612.7500000000
  11
 3585.5000000000
  21
 2720.7500000000
  97
1
 330

  75
0
  76
1
  98
1
  10
0.0
  20
0.0
   0
HATCH
   5
27C
 100
AcDbEntity
   8
LEVEL001
  62
1
 100
AcDbHatch
  10
0.0
  20
0.0
  30
0.0
 210
0.0
 220
0.0
 230
 1.0000000000000
   2
SOLID
  70
1
  71
1
  91
1
  92
1
  93
8
  72
1
  10
 3963.5000000000
  20
 2720.7500000000
  11
 3909.5000000000
  21
 2720.7500000000
  72
2
  10
 3909.5000000000
  20
 2666.7500000000
  40
 54.000000000000
  50
 90.000000000000
  51
 270.00000000000
  73
1
  72
1
  10
 3909.5000000000
  20
 2612.7500000000
  11
 3963.5000000000
  21
 2612.7500000000
  72
1
  10
 3963.5000000000
  20
 2612.7500000000
  11
 3963.5000000000
  21
 2648.7500000000
  72
1
  10
 3963.5000000000
  20
 2648.7500000000
  11
 3909.5000000000
  21
 2648.7500000000
  72
2
  10
 3909.5000000000
  20
 2666.7500000000
  40
 18.000000000000
  50
 90.000000000000
  51
 270.00000000000
  73
0
  72
1
  10
 3909.5000000000
  20
 2684.7500000000
  11
 3963.5000000000
  21
 2684.7500000000
  72
1
  10
 3963.5000000000
  20
 2684.7500000000
  11
 3963.5000000000
  21
 2720.7500000000
  97
1
 330

  75
0
  76
1
  98
1
  10
0.0
  20
0.0
   0
MTEXT
   5
27E
 100
AcDbEntity
   8
LEVEL002
 370
15
  62
8
 100
AcDbMText
  10
 3107.9999999995
  20
 282.50000000010
  30
0.0
  40
 30.000000000000
  41
0.0
  71
5
  72
1
   1
\T1.000000;サイズ：
   7
GMM002
  44
 0.79999984000003
   0
MTEXT
   5
280
 100
AcDbEntity
   8
LEVEL002
 370
15
  62
8
 100
AcDbMText
  10
 3092.9999999995
  20
 482.50000000010
  30
0.0
  40
 30.000000000000
  41
0.0
  71
5
  72
1
   1
\T1.000000;縮尺：
   7
GMM002
  44
 0.79999984000003
   0
MTEXT
   5
282
 100
AcDbEntity
   8
LEVEL002
 370
15
  62
8
 100
AcDbMText
  10
 3122.9999999995
  20
 682.50000000010
  30
0.0
  40
 30.000000000000
  41
0.0
  71
5
  72
1
   1
\T1.000000;図面名称：
   7
GMM002
  44
 0.79999984000003
   0
MTEXT
   5
284
 100
AcDbEntity
   8
LEVEL002
 370
15
  62
8
 100
AcDbMText
  10
 3637.9999999995
  20
 282.50000000010
  30
0.0
  40
 30.000000000000
  41
0.0
  71
5
  72
1
   1
\T1.000000;ファイル名：
   7
GMM002
  44
 0.79999984000003
   0
MTEXT
   5
286
 100
AcDbEntity
   8
LEVEL002
 370
15
  62
8
 100
AcDbMText
  10
 3622.9999999995
  20
 486.66666666680
  30
0.0
  40
 28.000000000000
  41
0.0
  71
5
  72
1
   1
\T1.000000;作成日付：
   7
GMM003
  44
 0.79999984000003
   0
MTEXT
   5
288
 100
AcDbEntity
   8
LEVEL002
 370
15
  62
8
 100
AcDbMText
  10
 3622.9999999995
  20
 420.00000000010
  30
0.0
  40
 28.000000000000
  41
0.0
  71
5
  72
1
   1
\T1.000000;変更日付：
   7
GMM003
  44
 0.79999984000003
   0
MTEXT
   5
28A
 100
AcDbEntity
   8
LEVEL002
 370
15
  62
8
 100
AcDbMText
  10
 3294.9999999995
  20
 182.50000000010
  30
0.0
  40
 37.500000000000
  41
0.0
  71
5
  72
1
   1
\T1.000000;Ａ３
   7
GMM002
  44
 0.79999984000003
   0
MTEXT
   5
28C
 100
AcDbEntity
   8
LEVEL002
 370
15
  62
8
 100
AcDbMText
  10
 3092.9999999995
  20
 2130.0000000000
  30
0.0
  40
 30.000000000000
  41
0.0
  71
5
  72
1
   1
\T1.000000;仕様：
   7
GMM002
  44
 0.79999984000003
   0
MTEXT
   5
28E
 100
AcDbEntity
   8
LEVEL002
 370
15
  62
8
 100
AcDbMText
  10
 3092.9999999995
  20
 2330.0000000000
  30
0.0
  40
 30.000000000000
  41
0.0
  71
5
  72
1
   1
\T1.000000;形式：
   7
GMM002
  44
 0.79999984000003
   0
MTEXT
   5
290
 100
AcDbEntity
   8
LEVEL002
 370
15
  62
8
 100
AcDbMText
  10
 3107.9999999995
  20
 2530.0000000000
  30
0.0
  40
 30.000000000000
  41
0.0
  71
5
  72
1
   1
\T1.000000;商品名：
   7
GMM002
  44
 0.79999984000003
   0
MTEXT
   5
292
 100
AcDbEntity
   8
LEVEL002
 370
15
  62
8
 100
AcDbMText
  10
 3468.9999999995
  20
 768.70803459012
  30
0.0
  40
 40.000000000000
  41
0.0
  71
5
  72
1
   1
\T1.000000;　※本製品は予告無しに変更する事があります。
   7
GMM002
  44
 0.79999984000003
   0
MTEXT
   5
294
 100
AcDbEntity
   8
LEVEL002
 370
15
  62
8
 100
AcDbMText
  10
 3544.9999999995
  20
 582.50000000010
  30
0.0
  40
 37.500000000000
  41
0.0
  71
5
  72
1
   1
\T1.000000;三面図
   7
GMM002
  44
 0.79999984000003
   0
MTEXT
   5
296
 100
AcDbEntity
   8
LEVEL002
 370
15
  62
8
 100
AcDbMText
  10
 3872.1508456075
  20
 420.00000000010
  30
0.0
  40
 30.000000000000
  41
0.0
  71
5
  72
1
   1
\T1.000000;令和　　年　　月　　日
   7
GMM002
  44
 0.79999984000003
   0
MTEXT
   5
298
 100
AcDbEntity
   8
LEVEL002
 370
15
  62
8
 100
AcDbMText
  10
 3872.1508456075
  20
 353.33333333345
  30
0.0
  40
 30.000000000000
  41
0.0
  71
5
  72
1
   1
\T1.000000;令和　　年　　月　　日
   7
GMM002
  44
 0.79999984000003
   0
MTEXT
   5
29A
 100
AcDbEntity
   8
LEVEL002
 370
15
  62
8
 100
AcDbMText
  10
 3294.9999999995
  20
 382.50000000010
  30
0.0
  40
 37.500000000000
  41
0.0
  71
5
  72
1
   1
\T1.000000;Ｓ＝１：１０
   7
GMM002
  44
 0.79999984000003
   0
LINE
   5
29B
 100
AcDbEntity
   8
LEVEL001
 370
40
 100
AcDbLine
   6
CONTINUOUS
  62
3
  10
 1599.9999999995
  20
 2850.0000000000
  30
0.0
  11
 1599.9999999995
  21
 120.00000000010
  31
0.0
   0
MTEXT
   5
29D
 100
AcDbEntity
   8
LEVEL002
 370
15
  62
8
 100
AcDbMText
  10
 3872.1508456075
  20
 486.66666666680
  30
0.0
  40
 30.000000000000
  41
0.0
  71
5
  72
1
   1
\T1.000000;令和０５年０６月１５日
   7
GMM002
  44
 0.79999984000003
   0
MTEXT
   5
29F
 100
AcDbEntity
   8
LEVEL002
 370
15
  62
8
 100
AcDbMText
  10
 3364.9999999995
  20
 2475.0000000000
  30
0.0
  40
 45.000000000000
  41
0.0
  71
4
  72
1
   1
{\T1.000000;ジャンティサポート}\P{\T1.000000;トイレ用（縦可動式）}
   7
GMM002
  44
 0.79999984000003
   0
MTEXT
   5
2A1
 100
AcDbEntity
   8
LEVEL002
 370
15
  62
8
 100
AcDbMText
  10
 3544.9999999995
  20
 2267.5000000000
  30
0.0
  40
 40.000000000000
  41
0.0
  71
5
  72
1
   1
\T1.000000;ＦＳＲＴ／ＦＳＲＴ（Ｍ）タイプ
   7
GMM002
  44
 0.79999984000003
   0
MTEXT
   5
2A3
 100
AcDbEntity
   8
LEVEL002
 370
15
  62
8
 100
AcDbMText
  10
 3194.9999999995
  20
 2079.1666666670
  30
0.0
  40
 35.000000000000
  41
0.0
  71
1
  72
1
   3
{\W0.500000;\T1.000000;･\W1.000000;\T1.000000;手摺本体\W0.500000;\T1.000000;(\W1.000000;\T1.000000;笠木%%c３４\W0.500000;\T1.000000;) }\P{\W1.000000;\T1.000000;表面材：樹脂被膜軟質塩ビ\W0.500000;\T1.000000;(\W1.000000;\T1.000000;抗菌剤入\W0.500000;\T
   3
1.000000;)}\P{\W0.500000;\T1.000000; }\P{\W1.000000;\T1.000000;芯　材：ステンレスパイプ\W0.500000;\T1.000000;(%%c\W1.000000;\T1.000000;２７\W0.500000;\T1.000000;.\W1.000000;\T1.000000;２×１\W0.500000;\T1.000000;.\W1.000000;\T1.000000;５ｔ\W0.500000;
   3
\T1.000000;)}\P\P{\W1.000000;\T1.000000;・ＦＳＲＴタイプ}\P{\W1.000000;\T1.000000;　色　：Ｃ００　ホワイト}\P{\W1.000000;\T1.000000;　　　　Ｃ０３　アイボリー}\P{\W1.000000;\T1.000000;　　　　Ｃ０７　イエロー}\P{\W1.000000;\T1.000000;　　　　Ｃ０８　
   3
エンジ}\P{\W1.000000;\T1.000000;　　　　Ｃ０９　ブラック}\P{\W1.000000;\T1.000000;　　　　Ｃ１４　ココア}\P{\W1.000000;\T1.000000;　　　　Ｃ１５　アクア}\P{\W1.000000;\T1.000000;・ＦＳＲＴ－Ｍタイプ（木目調）}\P{\W1.000000;\T1.000000;　　　　Ｍ０１　
   1
ナチュラル}\P{\W1.000000;\T1.000000;　　　　Ｍ０２　ミディアム}\P
   7
GMM002
  44
 0.79999984000003
   0
LINE
   5
2A4
 100
AcDbEntity
   8
LEVEL002
 370
30
 100
AcDbLine
   6
CONTINUOUS
  62
7
  10
 1302.6910592291
  20
 1204.5184371811
  30
0.0
  11
 1302.6910592291
  21
 1287.5184371811
  31
0.0
   0
LINE
   5
2A5
 100
AcDbEntity
   8
LEVEL002
 370
30
 100
AcDbLine
   6
CONTINUOUS
  62
7
  10
 1402.6910592291
  20
 1204.5184371811
  30
0.0
  11
 1402.6910592291
  21
 1287.5184371811
  31
0.0
   0
CIRCLE
   5
2A6
 100
AcDbEntity
   8
LEVEL002
 370
30
 100
AcDbCircle
   6
CONTINUOUS
  62
7
  10
 1382.6910592291
  20
 1272.5184371811
  30
0.0
  40
 6.0000000000000
   0
CIRCLE
   5
2A7
 100
AcDbEntity
   8
LEVEL002
 370
30
 100
AcDbCircle
   6
CONTINUOUS
  62
7
  10
 1352.6910592291
  20
 1272.5184371811
  30
0.0
  40
 10.000000000000
   0
ARC
   5
2A8
 100
AcDbEntity
   8
LEVEL002
 370
30
   6
CONTINUOUS
  62
7
 100
AcDbCircle
  10
 1352.6910592291
  20
 1052.5184371811
  30
0.0
  40
 17.000000000000
 100
AcDbArc
  50
 180.00000000000
  51
0.0
   0
ARC
   5
2A9
 100
AcDbEntity
   8
LEVEL002
 370
30
   6
CONTINUOUS
  62
7
 100
AcDbCircle
  10
 1352.6910592291
  20
 1052.5184371811
  30
0.0
  40
 19.000000000000
 100
AcDbArc
  50
 153.47464798344
  51
 26.525352016535
   0
ARC
   5
2AA
 100
AcDbEntity
   8
LEVEL002
 370
30
   6
CONTINUOUS
  62
7
 100
AcDbCircle
  10
 1352.6910592291
  20
 1192.5184371811
  30
0.0
  40
 17.000000000000
 100
AcDbArc
  50
0.0
  51
 180.00000000000
   0
ARC
   5
2AB
 100
AcDbEntity
   8
LEVEL002
 370
30
   6
CONTINUOUS
  62
7
 100
AcDbCircle
  10
 1352.6910592291
  20
 1192.5184371811
  30
0.0
  40
 21.000000000000
 100
AcDbArc
  50
 324.04943238037
  51
 215.95056761967
   0
LINE
   5
2AC
 100
AcDbEntity
   8
LEVEL002
 370
30
 100
AcDbLine
   6
CONTINUOUS
  62
7
  10
 1335.6910592291
  20
 1187.5184371811
  30
0.0
  11
 1335.6910592291
  21
 1192.5184371811
  31
0.0
   0
LINE
   5
2AD
 100
AcDbEntity
   8
LEVEL002
 370
30
 100
AcDbLine
   6
CONTINUOUS
  62
7
  10
 1369.6910592291
  20
 1187.5184371811
  30
0.0
  11
 1369.6910592291
  21
 1192.5184371811
  31
0.0
   0
LINE
   5
2AE
 100
AcDbEntity
   8
LEVEL002
 370
30
 100
AcDbLine
   6
CONTINUOUS
  62
7
  10
 1335.6910592291
  20
 1052.5184371811
  30
0.0
  11
 1335.6910592291
  21
 1187.5184371811
  31
0.0
   0
LINE
   5
2AF
 100
AcDbEntity
   8
LEVEL002
 370
30
 100
AcDbLine
   6
CONTINUOUS
  62
7
  10
 1369.6910592291
  20
 1052.5184371811
  30
0.0
  11
 1369.6910592291
  21
 1187.5184371811
  31
0.0
   0
LINE
   5
2B0
 100
AcDbEntity
   8
LEVEL002
 370
30
 100
AcDbLine
   6
CONTINUOUS
  62
7
  10
 1302.6910592291
  20
 1204.5184371811
  30
0.0
  11
 1302.6910592291
  21
 1287.5184371811
  31
0.0
   0
LINE
   5
2B1
 100
AcDbEntity
   8
LEVEL002
 370
30
 100
AcDbLine
   6
CONTINUOUS
  62
7
  10
 1317.6910592291
  20
 1165.0184371811
  30
0.0
  11
 1335.6910592291
  21
 1165.0184371811
  31
0.0
   0
LINE
   5
2B2
 100
AcDbEntity
   8
LEVEL002
 370
30
 100
AcDbLine
   6
CONTINUOUS
  62
7
  10
 1312.6910592291
  20
 1162.5184371811
  30
0.0
  11
 1317.6910592291
  21
 1162.5184371811
  31
0.0
   0
LINE
   5
2B3
 100
AcDbEntity
   8
LEVEL002
 370
30
 100
AcDbLine
   6
CONTINUOUS
  62
7
  10
 1317.6910592291
  20
 1204.5184371811
  30
0.0
  11
 1317.6910592291
  21
 1162.5184371811
  31
0.0
   0
LINE
   5
2B4
 100
AcDbEntity
   8
LEVEL002
 370
30
 100
AcDbLine
   6
CONTINUOUS
  62
7
  10
 1312.6910592291
  20
 1204.5184371811
  30
0.0
  11
 1312.6910592291
  21
 1162.5184371811
  31
0.0
   0
LINE
   5
2B5
 100
AcDbEntity
   8
LEVEL002
 370
30
 100
AcDbLine
   6
CONTINUOUS
  62
7
  10
 1312.6910592291
  20
 1222.5184371811
  30
0.0
  11
 1317.6910592291
  21
 1222.5184371811
  31
0.0
   0
LINE
   5
2B6
 100
AcDbEntity
   8
LEVEL002
 370
30
 100
AcDbLine
   6
CONTINUOUS
  62
7
  10
 1317.6910592291
  20
 1220.0184371811
  30
0.0
  11
 1387.6910592291
  21
 1220.0184371811
  31
0.0
   0
LINE
   5
2B7
 100
AcDbEntity
   8
LEVEL002
 370
30
 100
AcDbLine
   6
CONTINUOUS
  62
7
  10
 1387.6910592291
  20
 1222.5184371811
  30
0.0
  11
 1392.6910592291
  21
 1222.5184371811
  31
0.0
   0
LINE
   5
2B8
 100
AcDbEntity
   8
LEVEL002
 370
30
 100
AcDbLine
   6
CONTINUOUS
  62
7
  10
 1369.6910592291
  20
 1165.0184371811
  30
0.0
  11
 1387.6910592291
  21
 1165.0184371811
  31
0.0
   0
LINE
   5
2B9
 100
AcDbEntity
   8
LEVEL002
 370
30
 100
AcDbLine
   6
CONTINUOUS
  62
7
  10
 1387.6910592291
  20
 1162.5184371811
  30
0.0
  11
 1392.6910592291
  21
 1162.5184371811
  31
0.0
   0
LINE
   5
2BA
 100
AcDbEntity
   8
LEVEL002
 370
30
 100
AcDbLine
   6
CONTINUOUS
  62
7
  10
 1392.6910592291
  20
 1204.5184371811
  30
0.0
  11
 1392.6910592291
  21
 1162.5184371811
  31
0.0
   0
LINE
   5
2BB
 100
AcDbEntity
   8
LEVEL002
 370
30
 100
AcDbLine
   6
CONTINUOUS
  62
7
  10
 1387.6910592291
  20
 1204.5184371811
  30
0.0
  11
 1387.6910592291
  21
 1162.5184371811
  31
0.0
   0
LINE
   5
2BC
 100
AcDbEntity
   8
LEVEL002
 370
30
 100
AcDbLine
   6
CONTINUOUS
  62
7
  10
 1387.6910592291
  20
 1204.5184371811
  30
0.0
  11
 1387.6910592291
  21
 1222.5184371811
  31
0.0
   0
LINE
   5
2BD
 100
AcDbEntity
   8
LEVEL002
 370
30
 100
AcDbLine
   6
CONTINUOUS
  62
7
  10
 1392.6910592291
  20
 1204.5184371811
  30
0.0
  11
 1392.6910592291
  21
 1222.5184371811
  31
0.0
   0
LINE
   5
2BE
 100
AcDbEntity
   8
LEVEL002
 370
30
 100
AcDbLine
   6
CONTINUOUS
  62
7
  10
 1317.6910592291
  20
 1204.5184371811
  30
0.0
  11
 1317.6910592291
  21
 1222.5184371811
  31
0.0
   0
LINE
   5
2BF
 100
AcDbEntity
   8
LEVEL002
 370
30
 100
AcDbLine
   6
CONTINUOUS
  62
7
  10
 1312.6910592291
  20
 1204.5184371811
  30
0.0
  11
 1312.6910592291
  21
 1222.5184371811
  31
0.0
   0
CIRCLE
   5
2C0
 100
AcDbEntity
   8
LEVEL002
 370
30
 100
AcDbCircle
   6
CONTINUOUS
  62
7
  10
 1322.6910592291
  20
 1272.5184371811
  30
0.0
  40
 6.0000000000000
   0
LINE
   5
2C1
 100
AcDbEntity
   8
LEVEL002
 370
30
 100
AcDbLine
   6
CONTINUOUS
  62
7
  10
 1302.6910592291
  20
 1287.5184371811
  30
0.0
  11
 1402.6910592291
  21
 1287.5184371811
  31
0.0
   0
ARC
   5
2C2
 100
AcDbEntity
   8
LEVEL002
 370
30
   6
CONTINUOUS
  62
7
 100
AcDbCircle
  10
 1352.6910592291
  20
 2281.2858953431
  30
0.0
  40
 21.000000000000
 100
AcDbArc
  50
0.0
  51
 180.00000000000
   0
LINE
   5
2C3
 100
AcDbEntity
   8
LEVEL002
 370
30
 100
AcDbLine
   6
CONTINUOUS
  62
7
  10
 1342.6910592291
  20
 2333.2858953431
  30
0.0
  11
 1362.6910592291
  21
 2333.2858953431
  31
0.0
   0
LINE
   5
2C4
 100
AcDbEntity
   8
LEVEL002
 370
30
 100
AcDbLine
   6
CONTINUOUS
  62
7
  10
 1317.6910592291
  20
 2283.7858953431
  30
0.0
  11
 1331.6910592291
  21
 2283.7858953431
  31
0.0
   0
LINE
   5
2C5
 100
AcDbEntity
   8
LEVEL002
 370
30
 100
AcDbLine
   6
CONTINUOUS
  62
7
  10
 1312.6910592291
  20
 2281.2858953431
  30
0.0
  11
 1317.6910592291
  21
 2281.2858953431
  31
0.0
   0
LINE
   5
2C6
 100
AcDbEntity
   8
LEVEL002
 370
30
 100
AcDbLine
   6
CONTINUOUS
  62
7
  10
 1317.6910592291
  20
 2289.2858953431
  30
0.0
  11
 1317.6910592291
  21
 2281.2858953431
  31
0.0
   0
LINE
   5
2C7
 100
AcDbEntity
   8
LEVEL002
 370
30
 100
AcDbLine
   6
CONTINUOUS
  62
7
  10
 1312.6910592291
  20
 2289.2858953431
  30
0.0
  11
 1312.6910592291
  21
 2281.2858953431
  31
0.0
   0
LINE
   5
2C8
 100
AcDbEntity
   8
LEVEL002
 370
30
 100
AcDbLine
   6
CONTINUOUS
  62
7
  10
 1373.6910592291
  20
 2283.7858953431
  30
0.0
  11
 1387.6910592291
  21
 2283.7858953431
  31
0.0
   0
LINE
   5
2C9
 100
AcDbEntity
   8
LEVEL002
 370
30
 100
AcDbLine
   6
CONTINUOUS
  62
7
  10
 1387.6910592291
  20
 2281.2858953431
  30
0.0
  11
 1392.6910592291
  21
 2281.2858953431
  31
0.0
   0
LINE
   5
2CA
 100
AcDbEntity
   8
LEVEL002
 370
30
 100
AcDbLine
   6
CONTINUOUS
  62
7
  10
 1392.6910592291
  20
 2289.2858953431
  30
0.0
  11
 1392.6910592291
  21
 2281.2858953431
  31
0.0
   0
LINE
   5
2CB
 100
AcDbEntity
   8
LEVEL002
 370
30
 100
AcDbLine
   6
CONTINUOUS
  62
7
  10
 1387.6910592291
  20
 2289.2858953431
  30
0.0
  11
 1387.6910592291
  21
 2281.2858953431
  31
0.0
   0
LINE
   5
2CC
 100
AcDbEntity
   8
LEVEL002
 370
30
 100
AcDbLine
   6
CONTINUOUS
  62
7
  10
 1362.6910592291
  20
 2342.7858953431
  30
0.0
  11
 1387.6910592291
  21
 2342.7858953431
  31
0.0
   0
LINE
   5
2CD
 100
AcDbEntity
   8
LEVEL002
 370
30
 100
AcDbLine
   6
CONTINUOUS
  62
7
  10
 1392.6910592291
  20
 2289.2858953431
  30
0.0
  11
 1392.6910592291
  21
 2345.2858953431
  31
0.0
   0
LINE
   5
2CE
 100
AcDbEntity
   8
LEVEL002
 370
30
 100
AcDbLine
   6
CONTINUOUS
  62
7
  10
 1387.6910592291
  20
 2289.2858953431
  30
0.0
  11
 1387.6910592291
  21
 2345.2858953431
  31
0.0
   0
ARC
   5
2CF
 100
AcDbEntity
   8
LEVEL002
 370
30
   6
CONTINUOUS
  62
7
 100
AcDbCircle
  10
 1352.6910592291
  20
 1662.2858953431
  30
0.0
  40
 17.000000000000
 100
AcDbArc
  50
 180.00000000000
  51
0.0
   0
LINE
   5
2D0
 100
AcDbEntity
   8
LEVEL002
 370
30
 100
AcDbLine
   6
CONTINUOUS
  62
7
  10
 1505.2935601267
  20
 2362.2858953431
  30
0.0
  11
 1369.6910592291
  21
 2362.2858953431
  31
0.0
   0
LINE
   5
2D1
 100
AcDbEntity
   8
LEVEL002
 370
30
 100
AcDbLine
   6
CONTINUOUS
  62
7
  10
 1302.6910592291
  20
 2358.2858953431
  30
0.0
  11
 1302.6910592291
  21
 2362.2858953431
  31
0.0
   0
LINE
   5
2D2
 100
AcDbEntity
   8
LEVEL002
 370
30
 100
AcDbLine
   6
CONTINUOUS
  62
7
  10
 1402.6910592291
  20
 2358.2858953431
  30
0.0
  11
 1402.6910592291
  21
 2362.2858953431
  31
0.0
   0
LINE
   5
2D3
 100
AcDbEntity
   8
LEVEL002
 370
30
 100
AcDbLine
   6
CONTINUOUS
  62
7
  10
 1373.6910592291
  20
 2281.2858953431
  30
0.0
  11
 1373.6910592291
  21
 2223.2858953431
  31
0.0
   0
LINE
   5
2D4
 100
AcDbEntity
   8
LEVEL002
 370
30
 100
AcDbLine
   6
CONTINUOUS
  62
7
  10
 1331.6910592291
  20
 2281.2858953431
  30
0.0
  11
 1331.6910592291
  21
 2223.2858953431
  31
0.0
   0
LINE
   5
2D5
 100
AcDbEntity
   8
LEVEL002
 370
30
 100
AcDbLine
   6
CONTINUOUS
  62
7
  10
 1342.6910592291
  20
 2333.2858953431
  30
0.0
  11
 1342.6910592291
  21
 2358.2858953431
  31
0.0
   0
LINE
   5
2D6
 100
AcDbEntity
   8
LEVEL002
 370
30
 100
AcDbLine
   6
CONTINUOUS
  62
7
  10
 1362.6910592291
  20
 2333.2858953431
  30
0.0
  11
 1362.6910592291
  21
 2358.2858953431
  31
0.0
   0
LINE
   5
2D7
 100
AcDbEntity
   8
LEVEL002
 370
30
 100
AcDbLine
   6
CONTINUOUS
  62
7
  10
 1302.6910592291
  20
 2358.2858953431
  30
0.0
  11
 1402.6910592291
  21
 2358.2858953431
  31
0.0
   0
LINE
   5
2D8
 100
AcDbEntity
   8
LEVEL002
 370
30
 100
AcDbLine
   6
CONTINUOUS
  62
7
  10
 1369.6910592291
  20
 2221.2858953431
  30
0.0
  11
 1369.6910592291
  21
 1662.2858953431
  31
0.0
   0
LINE
   5
2D9
 100
AcDbEntity
   8
LEVEL002
 370
30
 100
AcDbLine
   6
CONTINUOUS
  62
7
  10
 1331.6910592291
  20
 2223.2858953431
  30
0.0
  11
 1331.6910592291
  21
 2221.2858953431
  31
0.0
   0
LINE
   5
2DA
 100
AcDbEntity
   8
LEVEL002
 370
30
 100
AcDbLine
   6
CONTINUOUS
  62
7
  10
 1369.6910592291
  20
 2221.2858953431
  30
0.0
  11
 1331.6910592291
  21
 2221.2858953431
  31
0.0
   0
LINE
   5
2DB
 100
AcDbEntity
   8
LEVEL002
 370
30
 100
AcDbLine
   6
CONTINUOUS
  62
7
  10
 1369.6910592291
  20
 2221.2858953431
  30
0.0
  11
 1373.6910592291
  21
 2221.2858953431
  31
0.0
   0
LINE
   5
2DC
 100
AcDbEntity
   8
LEVEL002
 370
30
 100
AcDbLine
   6
CONTINUOUS
  62
7
  10
 1373.6910592291
  20
 2223.2858953431
  30
0.0
  11
 1373.6910592291
  21
 2221.2858953431
  31
0.0
   0
LINE
   5
2DD
 100
AcDbEntity
   8
LEVEL002
 370
30
 100
AcDbLine
   6
CONTINUOUS
  62
7
  10
 1317.6910592291
  20
 2342.7858953431
  30
0.0
  11
 1342.6910592291
  21
 2342.7858953431
  31
0.0
   0
LINE
   5
2DE
 100
AcDbEntity
   8
LEVEL002
 370
30
 100
AcDbLine
   6
CONTINUOUS
  62
7
  10
 1312.6910592291
  20
 2289.2858953431
  30
0.0
  11
 1312.6910592291
  21
 2345.2858953431
  31
0.0
   0
LINE
   5
2DF
 100
AcDbEntity
   8
LEVEL002
 370
30
 100
AcDbLine
   6
CONTINUOUS
  62
7
  10
 1317.6910592291
  20
 2289.2858953431
  30
0.0
  11
 1317.6910592291
  21
 2345.2858953431
  31
0.0
   0
LINE
   5
2E0
 100
AcDbEntity
   8
LEVEL002
 370
30
 100
AcDbLine
   6
CONTINUOUS
  62
7
  10
 1312.6910592291
  20
 2345.2858953431
  30
0.0
  11
 1312.6910592291
  21
 2358.2858953431
  31
0.0
   0
LINE
   5
2E1
 100
AcDbEntity
   8
LEVEL002
 370
30
 100
AcDbLine
   6
CONTINUOUS
  62
7
  10
 1317.6910592291
  20
 2345.2858953431
  30
0.0
  11
 1317.6910592291
  21
 2358.2858953431
  31
0.0
   0
LINE
   5
2E2
 100
AcDbEntity
   8
LEVEL002
 370
30
 100
AcDbLine
   6
CONTINUOUS
  62
7
  10
 1387.6910592291
  20
 2345.2858953431
  30
0.0
  11
 1387.6910592291
  21
 2358.2858953431
  31
0.0
   0
LINE
   5
2E3
 100
AcDbEntity
   8
LEVEL002
 370
30
 100
AcDbLine
   6
CONTINUOUS
  62
7
  10
 1392.6910592291
  20
 2345.2858953431
  30
0.0
  11
 1392.6910592291
  21
 2358.2858953431
  31
0.0
   0
LINE
   5
2E4
 100
AcDbEntity
   8
LEVEL002
 370
15
 100
AcDbLine
   6
DASHDOT
  62
8
  10
 1393.2046895592
  20
 1052.5184371811
  30
0.0
  11
 1313.2046895592
  21
 1052.5184371811
  31
0.0
   0
LINE
   5
2E5
 100
AcDbEntity
   8
LEVEL002
 370
15
 100
AcDbLine
   6
DASHDOT
  62
8
  10
 1393.2046895592
  20
 1192.5184371811
  30
0.0
  11
 1313.2046895592
  21
 1192.5184371811
  31
0.0
   0
LINE
   5
2E6
 100
AcDbEntity
   8
LEVEL002
 370
15
 100
AcDbLine
   6
DASHDOT
  62
8
  10
 1352.6910592291
  20
 2415.6654000462
  30
0.0
  11
 1352.6910592291
  21
 1617.4402682040
  31
0.0
   0
LINE
   5
2E7
 100
AcDbEntity
   8
LEVEL002
 370
15
 100
AcDbLine
   6
DASHDOT
  62
8
  10
 1392.6910592291
  20
 1662.2858953431
  30
0.0
  11
 1312.6910592291
  21
 1662.2858953431
  31
0.0
   0
LEADER
   5
2E8
 100
AcDbEntity
   8
LEVEL001
 370
15
   6
CONTINUOUS
  62
8
 100
AcDbLeader
   3
GMM001
  73
0
  74
1
  75
0
  40
 30.000000000000
  41
 555.00000000000
  76
2
  10
 1348.4525701699
  20
 2061.8735400525
  30
0.0
  10
 1285.2472396126
  20
 2147.2789454579
  30
0.0
  77
8
 340
2E9
 213
0.0
 223
-10.000000000000
 233
0.0
   0
MTEXT
   5
2E9
 102
{ACAD_REACTORS
 330
2E8
 102
}
 100
AcDbEntity
   8
LEVEL001
 370
15
  62
8
 100
AcDbMText
  10
 730.24723961262
  20
 2157.2789454579
  30
0.0
  40
 30.000000000000
  41
0.0
  71
7
  72
1
   1
\A1;芯材：ステンレスパイプ (%%c２７.２×１.５ｔ)\P表面材：軟質塩ビ被膜（抗菌材入り）外径%%c３４
   7
GMM002
   0
DIMENSION
   5
2EA
 100
AcDbEntity
   8
LEVEL001
 370
15
   6
CONTINUOUS
  62
8
 100
AcDbDimension
   2
*D2
  10
 1335.6910592291
  20
 1767.3333645149
  30
0.0
  11
 1295.1607157021
  21
 1767.3333645149
  31
0.0
  70
128
   3
GMM002
 100
AcDbAlignedDimension
  13
 1369.6910592291
  23
 1767.3333645149
  33
0.0
  14
 1335.6910592291
  24
 1767.3333645149
  34
0.0
  50
 180.00000000000
 100
AcDbRotatedDimension
   0
LINE
   5
2EB
 100
AcDbEntity
   8
LEVEL002
 370
30
 100
AcDbLine
   6
CONTINUOUS
  62
7
  10
 1335.6910592291
  20
 2014.2858953431
  30
0.0
  11
 1335.6910592291
  21
 1662.2858953431
  31
0.0
   0
CIRCLE
   5
2EC
 100
AcDbEntity
   8
LEVEL002
 370
30
 100
AcDbCircle
   6
CONTINUOUS
  62
7
  10
 1322.6910592291
  20
 1072.5184371811
  30
0.0
  40
 6.0000000000000
   0
CIRCLE
   5
2ED
 100
AcDbEntity
   8
LEVEL002
 370
30
 100
AcDbCircle
   6
CONTINUOUS
  62
7
  10
 1382.6910592291
  20
 1072.5184371811
  30
0.0
  40
 6.0000000000000
   0
LINE
   5
2EE
 100
AcDbEntity
   8
LEVEL002
 370
30
 100
AcDbLine
   6
CONTINUOUS
  62
7
  10
 1302.6910592291
  20
 1204.5184371811
  30
0.0
  11
 1302.6910592291
  21
 1071.3013169188
  31
0.0
   0
ARC
   5
2EF
 100
AcDbEntity
   8
LEVEL002
 370
30
   6
CONTINUOUS
  62
7
 100
AcDbCircle
  10
 1312.6910592291
  20
 1071.3013169188
  30
0.0
  40
 10.000000000000
 100
AcDbArc
  50
 179.99999999999
  51
 219.99999999999
   0
POINT
   5
2F0
 100
AcDbEntity
   8
LEVEL002
 100
AcDbPoint
  62
7
  10
 1302.6910592291
  20
 1067.6616145761
  30
0.0
   0
LINE
   5
2F1
 100
AcDbEntity
   8
LEVEL001
 370
30
 100
AcDbLine
   6
CONTINUOUS
  62
7
  10
 1339.5105996598
  20
 1023.7817949901
  30
0.0
  11
 1305.0306147979
  21
 1064.8734408219
  31
0.0
   0
LINE
   5
2F2
 100
AcDbEntity
   8
LEVEL001
 370
30
 100
AcDbLine
   6
CONTINUOUS
  62
7
  10
 1365.8715187984
  20
 1023.7817949901
  30
0.0
  11
 1400.3515036603
  21
 1064.8734408219
  31
0.0
   0
ARC
   5
2F3
 100
AcDbEntity
   8
LEVEL001
 370
30
   6
CONTINUOUS
  62
7
 100
AcDbCircle
  10
 1392.6910592291
  20
 1071.3013169188
  30
0.0
  40
 10.000000000000
 100
AcDbArc
  50
 320.00000000000
  51
0.0
   0
POINT
   5
2F4
 100
AcDbEntity
   8
LEVEL001
 100
AcDbPoint
  62
7
  10
 1402.6910592291
  20
 1067.6616145761
  30
0.0
   0
LINE
   5
2F5
 100
AcDbEntity
   8
LEVEL002
 370
30
 100
AcDbLine
   6
CONTINUOUS
  62
7
  10
 1402.6910592291
  20
 1204.5184371811
  30
0.0
  11
 1402.6910592291
  21
 1071.3013169188
  31
0.0
   0
ARC
   5
2F6
 100
AcDbEntity
   8
LEVEL001
 370
30
   6
CONTINUOUS
  62
7
 100
AcDbCircle
  10
 1352.6910592291
  20
 1034.5184371811
  30
0.0
  40
 17.000000000000
 100
AcDbArc
  50
 219.16584164831
  51
 320.83415832101
   0
LINE
   5
2F7
 100
AcDbEntity
   8
LEVEL002
 370
30
 100
AcDbLine
   6
CONTINUOUS
  62
7
  10
 1335.6910592291
  20
 2221.2858953431
  30
0.0
  11
 1335.6910592291
  21
 2014.2858953431
  31
0.0
   0
LINE
   5
2F8
 100
AcDbEntity
   8
LEVEL001
 370
15
 100
AcDbLine
   6
DASHDOT
  62
8
  10
 1322.6910592291
  20
 1059.9060075887
  30
0.0
  11
 1322.6910592291
  21
 1085.1308667736
  31
0.0
   0
LINE
   5
2F9
 100
AcDbEntity
   8
LEVEL001
 370
15
 100
AcDbLine
   6
DASHDOT
  62
8
  10
 1311.9260440310
  20
 1072.5184371811
  30
0.0
  11
 1333.4560744273
  21
 1072.5184371811
  31
0.0
   0
LINE
   5
2FA
 100
AcDbEntity
   8
LEVEL001
 370
15
 100
AcDbLine
   6
DASHDOT
  62
8
  10
 1382.6910592291
  20
 1059.9060075887
  30
0.0
  11
 1382.6910592291
  21
 1085.1308667736
  31
0.0
   0
LINE
   5
2FB
 100
AcDbEntity
   8
LEVEL001
 370
15
 100
AcDbLine
   6
DASHDOT
  62
8
  10
 1371.9260440310
  20
 1072.5184371811
  30
0.0
  11
 1393.4560744273
  21
 1072.5184371811
  31
0.0
   0
LINE
   5
2FC
 100
AcDbEntity
   8
LEVEL001
 370
15
 100
AcDbLine
   6
DASHDOT
  62
8
  10
 1382.6910592291
  20
 1259.9060075887
  30
0.0
  11
 1382.6910592291
  21
 1285.1308667736
  31
0.0
   0
LINE
   5
2FD
 100
AcDbEntity
   8
LEVEL001
 370
15
 100
AcDbLine
   6
DASHDOT
  62
8
  10
 1371.9260440310
  20
 1272.5184371811
  30
0.0
  11
 1393.4560744273
  21
 1272.5184371811
  31
0.0
   0
LINE
   5
2FE
 100
AcDbEntity
   8
LEVEL001
 370
15
 100
AcDbLine
   6
DASHDOT
  62
8
  10
 1322.6910592291
  20
 1259.9060075887
  30
0.0
  11
 1322.6910592291
  21
 1285.1308667736
  31
0.0
   0
LINE
   5
2FF
 100
AcDbEntity
   8
LEVEL001
 370
15
 100
AcDbLine
   6
DASHDOT
  62
8
  10
 1311.9260440310
  20
 1272.5184371811
  30
0.0
  11
 1333.4560744273
  21
 1272.5184371811
  31
0.0
   0
DIMENSION
   5
300
 100
AcDbEntity
   8
LEVEL001
 370
15
   6
CONTINUOUS
  62
8
 100
AcDbDimension
   2
*D3
  10
 1482.6910592291
  20
 1072.5184371811
  30
0.0
  11
 1482.6910592291
  21
 1045.0184371811
  31
0.0
  70
0
   3
GMM003
 100
AcDbAlignedDimension
  13
 1352.6910592291
  23
 1017.5184371811
  33
0.0
  14
 1393.4560744273
  24
 1072.5184371811
  34
0.0
  50
 90.000000000000
 100
AcDbRotatedDimension
   0
DIMENSION
   5
301
 100
AcDbEntity
   8
LEVEL001
 370
15
   6
CONTINUOUS
  62
8
 100
AcDbDimension
   2
*D4
  10
 1482.6910592291
  20
 1272.5184371811
  30
0.0
  11
 1482.6910592291
  21
 1172.5184371811
  31
0.0
  70
0
   3
GMM003
 100
AcDbAlignedDimension
  13
 1393.4560744273
  23
 1072.5184371811
  33
0.0
  14
 1393.4560744273
  24
 1272.5184371811
  34
0.0
  50
 90.000000000000
 100
AcDbRotatedDimension
   0
DIMENSION
   5
302
 100
AcDbEntity
   8
LEVEL001
 370
15
   6
CONTINUOUS
  62
8
 100
AcDbDimension
   2
*D5
  10
 1482.6910592291
  20
 1287.5184371811
  30
0.0
  11
 1482.6910592291
  21
 1293.2749371590
  31
0.0
  70
128
   3
GMM004
 100
AcDbAlignedDimension
  13
 1393.4560744273
  23
 1272.5184371811
  33
0.0
  14
 1402.6910592291
  24
 1287.5184371811
  34
0.0
  50
 90.000000000000
 100
AcDbRotatedDimension
   0
LINE
   5
303
 100
AcDbEntity
   8
LEVEL002
 370
15
 100
AcDbLine
   6
DASHDOT
  62
8
  10
 1352.6910592291
  20
 999.27036049991
  30
0.0
  11
 1352.6910592291
  21
 1298.6448837646
  31
0.0
   0
DIMENSION
   5
304
 100
AcDbEntity
   8
LEVEL001
 370
15
   6
CONTINUOUS
  62
8
 100
AcDbDimension
   2
*D6
  10
 1252.6910592291
  20
 1192.5184371811
  30
0.0
  11
 1252.6910592291
  21
 1122.5184371811
  31
0.0
  70
0
   3
GMM005
 100
AcDbAlignedDimension
  13
 1302.1774288990
  23
 1052.5184371811
  33
0.0
  14
 1302.1774288990
  24
 1192.5184371811
  34
0.0
  50
 90.000000000000
 100
AcDbRotatedDimension
   0
DIMENSION
   5
305
 100
AcDbEntity
   8
LEVEL001
 370
15
   6
CONTINUOUS
  62
8
 100
AcDbDimension
   2
*D7
  10
 1202.6910592291
  20
 1287.5184371811
  30
0.0
  11
 1202.6910592291
  21
 1152.5184371811
  31
0.0
  70
0
   3
GMM006
 100
AcDbAlignedDimension
  13
 1352.6910592291
  23
 1017.5184371811
  33
0.0
  14
 1302.6910592291
  24
 1287.5184371811
  34
0.0
  50
 90.000000000000
 100
AcDbRotatedDimension
   0
DIMENSION
   5
306
 100
AcDbEntity
   8
LEVEL001
 370
15
   6
CONTINUOUS
  62
8
 100
AcDbDimension
   2
*D8
  10
 1322.6910592291
  20
 1357.2668008762
  30
0.0
  11
 1294.8093392255
  21
 1357.2668008762
  31
0.0
  70
128
   3
GMM007
 100
AcDbAlignedDimension
  13
 1302.6910592291
  23
 1287.5184371811
  33
0.0
  14
 1322.6910592291
  24
 1285.1308667736
  34
0.0
 100
AcDbRotatedDimension
   0
DIMENSION
   5
307
 100
AcDbEntity
   8
LEVEL001
 370
15
   6
CONTINUOUS
  62
8
 100
AcDbDimension
   2
*D9
  10
 1382.6910592291
  20
 1357.2668008762
  30
0.0
  11
 1352.6910592291
  21
 1357.2668008762
  31
0.0
  70
0
   3
GMM003
 100
AcDbAlignedDimension
  13
 1322.6910592291
  23
 1285.1308667736
  33
0.0
  14
 1382.6910592291
  24
 1285.1308667736
  34
0.0
 100
AcDbRotatedDimension
   0
DIMENSION
   5
308
 100
AcDbEntity
   8
LEVEL001
 370
15
   6
CONTINUOUS
  62
8
 100
AcDbDimension
   2
*D10
  10
 1402.6910592291
  20
 1357.2668008762
  30
0.0
  11
 1410.2631912469
  21
 1357.2668008762
  31
0.0
  70
128
   3
GMM008
 100
AcDbAlignedDimension
  13
 1382.6910592291
  23
 1285.1308667736
  33
0.0
  14
 1402.6910592291
  24
 1287.5184371811
  34
0.0
 100
AcDbRotatedDimension
   0
DIMENSION
   5
309
 100
AcDbEntity
   8
LEVEL001
 370
15
   6
CONTINUOUS
  62
8
 100
AcDbDimension
   2
*D11
  10
 1402.6910592291
  20
 888.40333787087
  30
0.0
  11
 1352.6910592291
  21
 888.40333787087
  31
0.0
  70
0
   3
GMM005
 100
AcDbAlignedDimension
  13
 1302.6910592291
  23
 1064.8734408219
  33
0.0
  14
 1402.6910592291
  24
 1067.6616145761
  34
0.0
 100
AcDbRotatedDimension
   0
DIMENSION
   5
30A
 100
AcDbEntity
   8
LEVEL001
 370
15
   6
CONTINUOUS
  62
8
 100
AcDbDimension
   2
*D12
  10
 1322.6910592291
  20
 967.51843718113
  30
0.0
  11
 1293.5787264617
  21
 967.51843718113
  31
0.0
  70
128
   3
GMM009
 100
AcDbAlignedDimension
  13
 1302.6910592291
  23
 1067.6616145761
  33
0.0
  14
 1322.6910592291
  24
 1059.9060075887
  34
0.0
 100
AcDbRotatedDimension
   0
DIMENSION
   5
30B
 100
AcDbEntity
   8
LEVEL001
 370
15
   6
CONTINUOUS
  62
8
 100
AcDbDimension
   2
*D13
  10
 1382.6910592291
  20
 967.51843718113
  30
0.0
  11
 1352.6910592291
  21
 967.51843718113
  31
0.0
  70
0
   3
GMM003
 100
AcDbAlignedDimension
  13
 1322.6910592291
  23
 1059.9060075887
  33
0.0
  14
 1382.6910592291
  24
 1059.9060075887
  34
0.0
 100
AcDbRotatedDimension
   0
DIMENSION
   5
30C
 100
AcDbEntity
   8
LEVEL001
 370
15
   6
CONTINUOUS
  62
8
 100
AcDbDimension
   2
*D14
  10
 1402.6910592291
  20
 967.51843718113
  30
0.0
  11
 1392.6910592291
  21
 967.51843718113
  31
0.0
  70
0
   3
GMM006
 100
AcDbAlignedDimension
  13
 1382.6910592291
  23
 1059.9060075887
  33
0.0
  14
 1402.6910592291
  24
 1067.6616145761
  34
0.0
 100
AcDbRotatedDimension
   0
LINE
   5
30D
 100
AcDbEntity
   8
LEVEL002
 370
15
 100
AcDbLine
   6
HIDDEN
  62
2
  10
 1039.0238701179
  20
 1282.5184371811
  30
0.0
  11
 1039.0238701179
  21
 1237.5184371811
  31
0.0
   0
LINE
   5
30E
 100
AcDbEntity
   8
LEVEL002
 370
30
 100
AcDbLine
   6
CONTINUOUS
  62
7
  10
 465.02387011794
  20
 1209.5184371811
  30
0.0
  11
 882.71469992984
  21
 1209.5184371811
  31
0.0
   0
LINE
   5
30F
 100
AcDbEntity
   8
LEVEL002
 370
30
 100
AcDbLine
   6
CONTINUOUS
  62
7
  10
 465.02387011794
  20
 1175.5184371811
  30
0.0
  11
 882.71469992984
  21
 1175.5184371811
  31
0.0
   0
LINE
   5
310
 100
AcDbEntity
   8
LEVEL002
 370
30
 100
AcDbLine
   6
CONTINUOUS
  62
7
  10
 926.02387011794
  20
 1171.5184371811
  30
0.0
  11
 976.22437263364
  21
 1171.5184371811
  31
0.0
   0
LINE
   5
311
 100
AcDbEntity
   8
LEVEL002
 370
30
 100
AcDbLine
   6
CONTINUOUS
  62
7
  10
 926.02387011794
  20
 1213.5184371811
  30
0.0
  11
 976.22437263364
  21
 1213.5184371811
  31
0.0
   0
LINE
   5
312
 100
AcDbEntity
   8
LEVEL002
 370
30
 100
AcDbLine
   6
CONTINUOUS
  62
7
  10
 935.02387011794
  20
 1069.5184371811
  30
0.0
  11
 1015.0238701179
  21
 1069.5184371811
  31
0.0
   0
LINE
   5
313
 100
AcDbEntity
   8
LEVEL002
 370
30
 100
AcDbLine
   6
CONTINUOUS
  62
7
  10
 935.02387011794
  20
 1035.5184371811
  30
0.0
  11
 1015.0238701179
  21
 1035.5184371811
  31
0.0
   0
LINE
   5
314
 100
AcDbEntity
   8
LEVEL002
 370
30
 100
AcDbLine
   6
CONTINUOUS
  62
7
  10
 465.02387011794
  20
 1035.5184371811
  30
0.0
  11
 935.02387011794
  21
 1035.5184371811
  31
0.0
   0
LINE
   5
315
 100
AcDbEntity
   8
LEVEL002
 370
30
 100
AcDbLine
   6
CONTINUOUS
  62
7
  10
 465.02387011794
  20
 1069.5184371811
  30
0.0
  11
 935.02387011794
  21
 1069.5184371811
  31
0.0
   0
ARC
   5
316
 100
AcDbEntity
   8
LEVEL002
 370
30
   6
CONTINUOUS
  62
7
 100
AcDbCircle
  10
 435.02387011794
  20
 1122.5184371811
  30
0.0
  40
 53.000000000000
 100
AcDbArc
  50
 90.000000000000
  51
 270.00000000000
   0
ARC
   5
317
 100
AcDbEntity
   8
LEVEL002
 370
30
   6
CONTINUOUS
  62
7
 100
AcDbCircle
  10
 435.02387011794
  20
 1122.5184371811
  30
0.0
  40
 87.000000000000
 100
AcDbArc
  50
 90.000000000000
  51
 270.00000000000
   0
LINE
   5
318
 100
AcDbEntity
   8
LEVEL002
 370
30
 100
AcDbLine
   6
CONTINUOUS
  62
7
  10
 465.02387011794
  20
 1035.5184371811
  30
0.0
  11
 435.02387011794
  21
 1035.5184371811
  31
0.0
   0
LINE
   5
319
 100
AcDbEntity
   8
LEVEL002
 370
30
 100
AcDbLine
   6
CONTINUOUS
  62
7
  10
 465.02387011794
  20
 1069.5184371811
  30
0.0
  11
 435.02387011794
  21
 1069.5184371811
  31
0.0
   0
LINE
   5
31A
 100
AcDbEntity
   8
LEVEL002
 370
30
 100
AcDbLine
   6
CONTINUOUS
  62
7
  10
 465.02387011794
  20
 1175.5184371811
  30
0.0
  11
 435.02387011794
  21
 1175.5184371811
  31
0.0
   0
LINE
   5
31B
 100
AcDbEntity
   8
LEVEL002
 370
30
 100
AcDbLine
   6
CONTINUOUS
  62
7
  10
 465.02387011794
  20
 1209.5184371811
  30
0.0
  11
 435.02387011794
  21
 1209.5184371811
  31
0.0
   0
LINE
   5
31C
 100
AcDbEntity
   8
LEVEL002
 370
30
 100
AcDbLine
   6
CONTINUOUS
  62
7
  10
 1043.0238701179
  20
 1072.5184371811
  30
0.0
  11
 1061.0238701179
  21
 1072.5184371811
  31
0.0
   0
LINE
   5
31D
 100
AcDbEntity
   8
LEVEL002
 370
30
 100
AcDbLine
   6
CONTINUOUS
  62
7
  10
 1043.0238701179
  20
 1032.5184371811
  30
0.0
  11
 1061.0238701179
  21
 1032.5184371811
  31
0.0
   0
LINE
   5
31E
 100
AcDbEntity
   8
LEVEL002
 370
30
 100
AcDbLine
   6
CONTINUOUS
  62
7
  10
 1043.0238701179
  20
 1072.5184371811
  30
0.0
  11
 1043.0238701179
  21
 1032.5184371811
  31
0.0
   0
LINE
   5
31F
 100
AcDbEntity
   8
LEVEL002
 370
30
 100
AcDbLine
   6
CONTINUOUS
  62
7
  10
 1015.0238701179
  20
 1069.5184371811
  30
0.0
  11
 1043.0238701179
  21
 1069.5184371811
  31
0.0
   0
LINE
   5
320
 100
AcDbEntity
   8
LEVEL002
 370
30
 100
AcDbLine
   6
CONTINUOUS
  62
7
  10
 1015.0238701179
  20
 1035.5184371811
  30
0.0
  11
 1043.0238701179
  21
 1035.5184371811
  31
0.0
   0
LINE
   5
321
 100
AcDbEntity
   8
LEVEL002
 370
30
 100
AcDbLine
   6
CONTINUOUS
  62
7
  10
 1043.0238701179
  20
 1037.5184371811
  30
0.0
  11
 1061.0238701179
  21
 1037.5184371811
  31
0.0
   0
LINE
   5
322
 100
AcDbEntity
   8
LEVEL002
 370
30
 100
AcDbLine
   6
CONTINUOUS
  62
7
  10
 1043.0238701179
  20
 1042.5184371811
  30
0.0
  11
 1061.0238701179
  21
 1042.5184371811
  31
0.0
   0
LINE
   5
323
 100
AcDbEntity
   8
LEVEL002
 370
30
 100
AcDbLine
   6
CONTINUOUS
  62
7
  10
 1043.0238701179
  20
 1047.5184371811
  30
0.0
  11
 1061.0238701179
  21
 1047.5184371811
  31
0.0
   0
LINE
   5
324
 100
AcDbEntity
   8
LEVEL002
 370
30
 100
AcDbLine
   6
CONTINUOUS
  62
7
  10
 1043.0238701179
  20
 1067.5184371811
  30
0.0
  11
 1061.0238701179
  21
 1067.5184371811
  31
0.0
   0
LINE
   5
325
 100
AcDbEntity
   8
LEVEL002
 370
30
 100
AcDbLine
   6
CONTINUOUS
  62
7
  10
 1043.0238701179
  20
 1062.5184371811
  30
0.0
  11
 1061.0238701179
  21
 1062.5184371811
  31
0.0
   0
LINE
   5
326
 100
AcDbEntity
   8
LEVEL002
 370
30
 100
AcDbLine
   6
CONTINUOUS
  62
7
  10
 1043.0238701179
  20
 1057.5184371811
  30
0.0
  11
 1061.0238701179
  21
 1057.5184371811
  31
0.0
   0
CIRCLE
   5
327
 100
AcDbEntity
   8
LEVEL002
 370
30
 100
AcDbCircle
   6
CONTINUOUS
  62
7
  10
 1018.0238701179
  20
 1192.5184371811
  30
0.0
  40
 15.500000000000
   0
CIRCLE
   5
328
 100
AcDbEntity
   8
LEVEL002
 370
30
 100
AcDbCircle
   6
CONTINUOUS
  62
7
  10
 1018.0238701179
  20
 1192.5184371811
  30
0.0
  40
 9.5000000000000
   0
LINE
   5
329
 100
AcDbEntity
   8
LEVEL002
 370
15
 100
AcDbLine
   6
HIDDEN
  62
2
  10
 883.02387011794
  20
 1164.5184371811
  30
0.0
  11
 883.02387011794
  21
 1146.5184371811
  31
0.0
   0
LINE
   5
32A
 100
AcDbEntity
   8
LEVEL002
 370
15
 100
AcDbLine
   6
HIDDEN
  62
2
  10
 888.02387011794
  20
 1164.5184371811
  30
0.0
  11
 888.02387011794
  21
 1146.5184371811
  31
0.0
   0
LINE
   5
32B
 100
AcDbEntity
   8
LEVEL002
 370
15
 100
AcDbLine
   6
HIDDEN
  62
2
  10
 893.02387011794
  20
 1164.5184371811
  30
0.0
  11
 893.02387011794
  21
 1146.5184371811
  31
0.0
   0
LINE
   5
32C
 100
AcDbEntity
   8
LEVEL002
 370
15
 100
AcDbLine
   6
HIDDEN
  62
2
  10
 873.02387011794
  20
 1164.5184371811
  30
0.0
  11
 873.02387011794
  21
 1146.5184371811
  31
0.0
   0
LINE
   5
32D
 100
AcDbEntity
   8
LEVEL002
 370
15
 100
AcDbLine
   6
HIDDEN
  62
2
  10
 868.02387011794
  20
 1164.5184371811
  30
0.0
  11
 868.02387011794
  21
 1146.5184371811
  31
0.0
   0
LINE
   5
32E
 100
AcDbEntity
   8
LEVEL002
 370
15
 100
AcDbLine
   6
HIDDEN
  62
2
  10
 863.02387011794
  20
 1164.5184371811
  30
0.0
  11
 863.02387011794
  21
 1146.5184371811
  31
0.0
   0
LINE
   5
32F
 100
AcDbEntity
   8
LEVEL002
 370
15
 100
AcDbLine
   6
HIDDEN
  62
2
  10
 895.02387011794
  20
 1192.5184371811
  30
0.0
  11
 895.02387011794
  21
 1164.5184371811
  31
0.0
   0
LINE
   5
330
 100
AcDbEntity
   8
LEVEL002
 370
15
 100
AcDbLine
   6
HIDDEN
  62
2
  10
 861.02387011794
  20
 1192.5184371811
  30
0.0
  11
 861.02387011794
  21
 1164.5184371811
  31
0.0
   0
LINE
   5
331
 100
AcDbEntity
   8
LEVEL002
 370
15
 100
AcDbLine
   6
HIDDEN
  62
2
  10
 895.02387011794
  20
 1164.5184371811
  30
0.0
  11
 898.02387011794
  21
 1164.5184371811
  31
0.0
   0
LINE
   5
332
 100
AcDbEntity
   8
LEVEL002
 370
15
 100
AcDbLine
   6
HIDDEN
  62
2
  10
 898.02387011794
  20
 1164.5184371811
  30
0.0
  11
 898.02387011794
  21
 1146.5184371811
  31
0.0
   0
LINE
   5
333
 100
AcDbEntity
   8
LEVEL002
 370
15
 100
AcDbLine
   6
HIDDEN
  62
2
  10
 861.02387011794
  20
 1164.5184371811
  30
0.0
  11
 858.02387011794
  21
 1164.5184371811
  31
0.0
   0
LINE
   5
334
 100
AcDbEntity
   8
LEVEL002
 370
15
 100
AcDbLine
   6
HIDDEN
  62
2
  10
 858.02387011794
  20
 1164.5184371811
  30
0.0
  11
 858.02387011794
  21
 1146.5184371811
  31
0.0
   0
LINE
   5
335
 100
AcDbEntity
   8
LEVEL002
 370
15
 100
AcDbLine
   6
HIDDEN
  62
2
  10
 858.02387011794
  20
 1146.5184371811
  30
0.0
  11
 898.02387011794
  21
 1146.5184371811
  31
0.0
   0
LINE
   5
336
 100
AcDbEntity
   8
LEVEL002
 370
15
 100
AcDbLine
   6
HIDDEN
  62
2
  10
 895.02387011794
  20
 1164.5184371811
  30
0.0
  11
 861.02387011794
  21
 1164.5184371811
  31
0.0
   0
LINE
   5
337
 100
AcDbEntity
   8
LEVEL002
 370
15
 100
AcDbLine
   6
HIDDEN
  62
2
  10
 895.02387011794
  20
 1146.5184371811
  30
0.0
  11
 861.02387011794
  21
 1146.5184371811
  31
0.0
   0
LINE
   5
338
 100
AcDbEntity
   8
LEVEL002
 370
30
 100
AcDbLine
   6
HIDDEN
  62
7
  10
 1001.0238701179
  20
 1742.5184371811
  30
0.0
  11
 1001.0238701179
  21
 1772.5184371811
  31
0.0
   0
LINE
   5
339
 100
AcDbEntity
   8
LEVEL002
 370
15
 100
AcDbLine
   6
HIDDEN
  62
2
  10
 1035.0238701179
  20
 1742.5184371811
  30
0.0
  11
 1035.0238701179
  21
 1772.5184371811
  31
0.0
   0
LINE
   5
33A
 100
AcDbEntity
   8
LEVEL002
 370
15
 100
AcDbLine
   6
HIDDEN
  62
2
  10
 861.02387011794
  20
 1742.5184371811
  30
0.0
  11
 861.02387011794
  21
 1772.5184371811
  31
0.0
   0
LINE
   5
33B
 100
AcDbEntity
   8
LEVEL002
 370
30
 100
AcDbLine
   6
HIDDEN
  62
7
  10
 895.02387011794
  20
 1742.5184371811
  30
0.0
  11
 895.02387011794
  21
 1772.5184371811
  31
0.0
   0
ARC
   5
33C
 100
AcDbEntity
   8
LEVEL002
 370
15
   6
HIDDEN
  62
2
 100
AcDbCircle
  10
 948.02387011794
  20
 1772.5184371811
  30
0.0
  40
 87.000000000000
 100
AcDbArc
  50
0.0
  51
 180.00000000000
   0
ARC
   5
33D
 100
AcDbEntity
   8
LEVEL002
 370
15
   6
HIDDEN
  62
2
 100
AcDbCircle
  10
 948.02387011794
  20
 1772.5184371811
  30
0.0
  40
 53.000000000000
 100
AcDbArc
  50
0.0
  51
 180.00000000000
   0
LINE
   5
33E
 100
AcDbEntity
   8
LEVEL002
 370
15
 100
AcDbLine
   6
HIDDEN
  62
2
  10
 895.02387011794
  20
 1192.5184371811
  30
0.0
  11
 895.26113426234
  21
 1271.3796187311
  31
0.0
   0
LINE
   5
33F
 100
AcDbEntity
   8
LEVEL002
 370
15
 100
AcDbLine
   6
HIDDEN
  62
2
  10
 861.02387011794
  20
 1272.5184371811
  30
0.0
  11
 861.02387011794
  21
 1192.5184371811
  31
0.0
   0
LINE
   5
340
 100
AcDbEntity
   8
LEVEL002
 370
15
 100
AcDbLine
   6
HIDDEN
  62
2
  10
 861.02387011794
  20
 1292.5184371811
  30
0.0
  11
 861.02387011794
  21
 1742.5184371811
  31
0.0
   0
LINE
   5
341
 100
AcDbEntity
   8
LEVEL002
 370
15
 100
AcDbLine
   6
HIDDEN
  62
2
  10
 895.02387011794
  20
 1292.5184371811
  30
0.0
  11
 895.02387011794
  21
 1742.5184371811
  31
0.0
   0
LINE
   5
342
 100
AcDbEntity
   8
LEVEL002
 370
15
 100
AcDbLine
   6
HIDDEN
  62
2
  10
 895.02387011794
  20
 1292.5184371811
  30
0.0
  11
 895.02387011794
  21
 1272.5184371811
  31
0.0
   0
LINE
   5
343
 100
AcDbEntity
   8
LEVEL002
 370
15
 100
AcDbLine
   6
HIDDEN
  62
2
  10
 861.02387011794
  20
 1292.5184371811
  30
0.0
  11
 861.02387011794
  21
 1272.5184371811
  31
0.0
   0
LINE
   5
344
 100
AcDbEntity
   8
LEVEL002
 370
15
 100
AcDbLine
   6
HIDDEN
  62
2
  10
 997.02387011794
  20
 1282.5184371811
  30
0.0
  11
 997.02387011794
  21
 1231.7740100338
  31
0.0
   0
LINE
   5
345
 100
AcDbEntity
   8
LEVEL002
 370
15
 100
AcDbLine
   6
HIDDEN
  62
2
  10
 1035.0238701179
  20
 1322.5184371811
  30
0.0
  11
 1035.0238701179
  21
 1742.5184371811
  31
0.0
   0
LINE
   5
346
 100
AcDbEntity
   8
LEVEL002
 370
15
 100
AcDbLine
   6
HIDDEN
  62
2
  10
 1001.0238701179
  20
 1322.5184371811
  30
0.0
  11
 1001.0238701179
  21
 1742.5184371811
  31
0.0
   0
LINE
   5
347
 100
AcDbEntity
   8
LEVEL002
 370
30
 100
AcDbLine
   6
CONTINUOUS
  62
7
  10
 1061.0238701179
  20
 1287.5184371811
  30
0.0
  11
 1065.0238701179
  21
 1287.5184371811
  31
0.0
   0
ARC
   5
348
 100
AcDbEntity
   8
LEVEL002
 370
30
   6
CONTINUOUS
  62
7
 100
AcDbCircle
  10
 1018.5238701178
  20
 1192.5184371811
  30
0.0
  40
 32.500000000000
 100
AcDbArc
  50
 90.881508306710
  51
 269.11849169329
   0
LINE
   5
349
 100
AcDbEntity
   8
LEVEL002
 370
30
 100
AcDbLine
   6
CONTINUOUS
  62
7
  10
 926.02387011794
  20
 1171.5184371811
  30
0.0
  11
 924.02387011794
  21
 1171.5184371811
  31
0.0
   0
LINE
   5
34A
 100
AcDbEntity
   8
LEVEL002
 370
30
 100
AcDbLine
   6
CONTINUOUS
  62
7
  10
 926.02387011794
  20
 1213.5184371811
  30
0.0
  11
 924.02387011794
  21
 1213.5184371811
  31
0.0
   0
LINE
   5
34B
 100
AcDbEntity
   8
LEVEL002
 370
30
 100
AcDbLine
   6
CONTINUOUS
  62
7
  10
 882.71469992984
  20
 1209.5184371811
  30
0.0
  11
 924.02387011794
  21
 1209.5184371811
  31
0.0
   0
LINE
   5
34C
 100
AcDbEntity
   8
LEVEL002
 370
30
 100
AcDbLine
   6
CONTINUOUS
  62
7
  10
 882.71469992984
  20
 1175.5184371811
  30
0.0
  11
 924.02387011794
  21
 1175.5184371811
  31
0.0
   0
LINE
   5
34D
 100
AcDbEntity
   8
LEVEL002
 370
30
 100
AcDbLine
   6
CONTINUOUS
  62
7
  10
 976.22437263364
  20
 1171.5184371811
  30
0.0
  11
 993.71963660824
  21
 1171.5184371811
  31
0.0
   0
LINE
   5
34E
 100
AcDbEntity
   8
LEVEL002
 370
30
 100
AcDbLine
   6
CONTINUOUS
  62
7
  10
 976.22437263364
  20
 1213.5184371811
  30
0.0
  11
 993.71963660824
  21
 1213.5184371811
  31
0.0
   0
LINE
   5
34F
 100
AcDbEntity
   8
LEVEL002
 370
15
 100
AcDbLine
   6
HIDDEN
  62
2
  10
 997.02387011794
  20
 1282.5184371811
  30
0.0
  11
 997.02387011794
  21
 1283.5184371811
  31
0.0
   0
LINE
   5
350
 100
AcDbEntity
   8
LEVEL002
 370
30
 100
AcDbLine
   6
HIDDEN
  62
7
  10
 1039.0238701179
  20
 1282.5184371811
  30
0.0
  11
 1039.0238701179
  21
 1283.5184371811
  31
0.0
   0
LINE
   5
351
 100
AcDbEntity
   8
LEVEL002
 370
15
 100
AcDbLine
   6
HIDDEN
  62
2
  10
 997.02387011794
  20
 1283.5184371811
  30
0.0
  11
 1039.0238701179
  21
 1283.5184371811
  31
0.0
   0
LINE
   5
352
 100
AcDbEntity
   8
LEVEL002
 370
15
 100
AcDbLine
   6
HIDDEN
  62
2
  10
 1001.0238701179
  20
 1322.5184371811
  30
0.0
  11
 1001.0238701179
  21
 1283.5184371811
  31
0.0
   0
LINE
   5
353
 100
AcDbEntity
   8
LEVEL002
 370
15
 100
AcDbLine
   6
HIDDEN
  62
2
  10
 1035.0238701179
  20
 1322.5184371811
  30
0.0
  11
 1035.0238701179
  21
 1283.5184371811
  31
0.0
   0
LINE
   5
354
 100
AcDbEntity
   8
LEVEL002
 370
15
 100
AcDbLine
   6
HIDDEN
  62
2
  10
 1039.0238701179
  20
 1237.5184371811
  30
0.0
  11
 1039.0238701179
  21
 1225.0184371811
  31
0.0
   0
LINE
   5
355
 100
AcDbEntity
   8
LEVEL002
 370
15
 100
AcDbLine
   6
HIDDEN
  62
2
  10
 997.02387011794
  20
 1231.7740100338
  30
0.0
  11
 997.02387011794
  21
 1216.8905523950
  31
0.0
   0
LINE
   5
356
 100
AcDbEntity
   8
LEVEL002
 370
30
 100
AcDbLine
   6
CONTINUOUS
  62
7
  10
 924.02387011794
  20
 1213.5184371811
  30
0.0
  11
 924.02387011794
  21
 1171.5184371811
  31
0.0
   0
LINE
   5
357
 100
AcDbEntity
   8
LEVEL002
 370
30
 100
AcDbLine
   6
CONTINUOUS
  62
7
  10
 1018.0238701179
  20
 1160.0184371811
  30
0.0
  11
 1061.0238701179
  21
 1160.0184371811
  31
0.0
   0
LINE
   5
358
 100
AcDbEntity
   8
LEVEL002
 370
30
 100
AcDbLine
   6
CONTINUOUS
  62
7
  10
 1018.0238701179
  20
 1225.0184371811
  30
0.0
  11
 1061.0238701179
  21
 1225.0184371811
  31
0.0
   0
LINE
   5
359
 100
AcDbEntity
   8
LEVEL002
 370
30
 100
AcDbLine
   6
CONTINUOUS
  62
7
  10
 1061.0238701179
  20
 1281.5184371811
  30
0.0
  11
 1039.0238701179
  21
 1281.5184371811
  31
0.0
   0
LINE
   5
35A
 100
AcDbEntity
   8
LEVEL002
 370
30
 100
AcDbLine
   6
CONTINUOUS
  62
7
  10
 1061.0238701179
  20
 1263.5184371811
  30
0.0
  11
 1039.0238701179
  21
 1263.5184371811
  31
0.0
   0
LINE
   5
35B
 100
AcDbEntity
   8
LEVEL002
 370
30
 100
AcDbLine
   6
CONTINUOUS
  62
7
  10
 1039.0238701179
  20
 1281.5184371811
  30
0.0
  11
 1039.0238701179
  21
 1263.5184371811
  31
0.0
   0
CIRCLE
   5
35C
 100
AcDbEntity
   8
LEVEL002
 370
30
 100
AcDbCircle
   6
CONTINUOUS
  62
7
  10
 996.02387011794
  20
 1192.5184371811
  30
0.0
  40
 6.0000000000000
   0
CIRCLE
   5
35D
 100
AcDbEntity
   8
LEVEL002
 370
30
 100
AcDbCircle
   6
CONTINUOUS
  62
7
  10
 1041.0238701179
  20
 1192.5184371811
  30
0.0
  40
 6.0000000000000
   0
LINE
   5
35E
 100
AcDbEntity
   8
LEVEL002
 370
15
 100
AcDbLine
   6
DASHDOT
  62
8
  10
 878.02387011794
  20
 1772.5184371811
  30
0.0
  11
 878.02387011794
  21
 1109.2589827177
  31
0.0
   0
LINE
   5
35F
 100
AcDbEntity
   8
LEVEL002
 370
15
 100
AcDbLine
   6
DASHDOT
  62
8
  10
 1018.0238701179
  20
 1772.5184371811
  30
0.0
  11
 1018.0238701179
  21
 1109.2589827177
  31
0.0
   0
LINE
   5
360
 100
AcDbEntity
   8
LEVEL002
 370
15
 100
AcDbLine
   6
DASHDOT
  62
8
  10
 435.02387011794
  20
 1192.5184371811
  30
0.0
  11
 1098.9262011757
  21
 1192.5184371811
  31
0.0
   0
LINE
   5
361
 100
AcDbEntity
   8
LEVEL002
 370
15
 100
AcDbLine
   6
DASHDOT
  62
8
  10
 435.02387011794
  20
 1052.5184371811
  30
0.0
  11
 1098.9262011757
  21
 1052.5184371811
  31
0.0
   0
ARC
   5
362
 100
AcDbEntity
   8
LEVEL002
 370
15
   6
DASHDOT
  62
8
 100
AcDbCircle
  10
 435.02387011794
  20
 1122.5184371811
  30
0.0
  40
 70.000000000000
 100
AcDbArc
  50
 90.000000000000
  51
 270.00000000000
   0
ARC
   5
363
 100
AcDbEntity
   8
LEVEL002
 370
15
   6
DASHDOT
  62
8
 100
AcDbCircle
  10
 948.02387011794
  20
 1772.5184371811
  30
0.0
  40
 70.000000000000
 100
AcDbArc
  50
0.0
  51
 180.00000000000
   0
DIMENSION
   5
364
 100
AcDbEntity
   8
LEVEL001
 370
15
   6
CONTINUOUS
  62
8
 100
AcDbDimension
   2
*D15
  10
 1065.0238701179
  20
 1376.5582623923
  30
0.0
  11
 715.02387011794
  21
 1376.5582623923
  31
0.0
  70
0
   3
GMM005
 100
AcDbAlignedDimension
  13
 365.02387011794
  23
 1155.4855693698
  33
0.0
  14
 1065.0238701179
  24
 1376.5582623923
  34
0.0
 100
AcDbRotatedDimension
   0
DIMENSION
   5
365
 100
AcDbEntity
   8
LEVEL001
 370
15
   6
CONTINUOUS
  62
8
 100
AcDbDimension
   2
*D16
  10
 266.95383346824
  20
 1192.5184371811
  30
0.0
  11
 266.95383346824
  21
 1122.5184371811
  31
0.0
  70
0
   3
GMM005
 100
AcDbAlignedDimension
  13
 425.02387011794
  23
 1052.5184371811
  33
0.0
  14
 425.02387011794
  24
 1192.5184371811
  34
0.0
  50
 90.000000000000
 100
AcDbRotatedDimension
   0
DIMENSION
   5
366
 100
AcDbEntity
   8
LEVEL001
 370
15
   6
CONTINUOUS
  62
8
 100
AcDbDimension
   2
*D17
  10
 882.71469992984
  20
 1209.5184371811
  30
0.0
  11
 441.10941226249
  21
 1629.4328950366
  31
0.0
  70
2
   1
\A1;90\U+00B0
   3
GMM010
 100
AcDb2LineAngularDimension
  13
 861.02387011794
  23
 1292.5184371811
  33
0.0
  14
 861.02387011794
  24
 1742.5184371811
  34
0.0
  15
 465.02387011794
  25
 1209.5184371811
  35
0.0
  16
 267.17514881191
  26
 1209.5243756683
  36
0.0
   0
DIMENSION
   5
367
 100
AcDbEntity
   8
LEVEL001
 370
15
   6
CONTINUOUS
  62
8
 100
AcDbDimension
   2
*D18
  10
 435.02387011794
  20
 1122.5184371811
  30
0.0
  11
 340.16183971582
  21
 1021.2956737180
  31
0.0
  70
132
   3
GMM011
 100
AcDbRadialDimension
  15
 387.15720614088
  25
 1071.4421953489
  35
0.0
  40
 69.449536334644
   0
LINE
   5
368
 100
AcDbEntity
   8
LEVEL002
 370
30
 100
AcDbLine
   6
CONTINUOUS
  62
7
  10
 1061.0238701179
  20
 1017.5184371811
  30
0.0
  11
 1065.0238701179
  21
 1017.5184371811
  31
0.0
   0
LINE
   5
369
 100
AcDbEntity
   8
LEVEL002
 370
30
 100
AcDbLine
   6
CONTINUOUS
  62
7
  10
 1061.0238701179
  20
 1287.5184371811
  30
0.0
  11
 1061.0238701179
  21
 1017.5184371811
  31
0.0
   0
LINE
   5
36A
 100
AcDbEntity
   8
LEVEL002
 370
40
 100
AcDbLine
   6
CONTINUOUS
  62
3
  10
 1065.0238701179
  20
 915.20645677925
  30
0.0
  11
 1065.0238701179
  21
 1849.7030242851
  31
0.0
   0
DIMENSION
   5
36B
 100
AcDbEntity
   8
LEVEL001
 370
15
   6
CONTINUOUS
  62
8
 100
AcDbDimension
   2
*D19
  10
 1472.0175772118
  20
 2362.2858953431
  30
0.0
  11
 1472.0175772118
  21
 2012.2858953431
  31
0.0
  70
0
   3
GMM005
 100
AcDbAlignedDimension
  13
 1392.6910592291
  23
 1662.2858953431
  33
0.0
  14
 1502.6910592291
  24
 2362.2858953431
  34
0.0
  50
 90.000000000000
 100
AcDbRotatedDimension
   0
LINE
   5
36C
 100
AcDbEntity
   8
LEVEL002
 370
40
 100
AcDbLine
   6
CONTINUOUS
  62
3
  10
 1170.0320151099
  20
 2362.2858953431
  30
0.0
  11
 1559.4575085619
  21
 2362.2858953431
  31
0.0
   0
MTEXT
   5
36E
 100
AcDbEntity
   8
LEVEL001
 370
15
  62
8
 100
AcDbMText
  10
 157.99999999950
  20
 2800.0000000000
  30
0.0
  40
 30.000000000000
  41
0.0
  71
4
  72
1
   1
\W0.500000;\T1.000000; \W1.000000;\T1.000000;　ＦＳＲＴ７００／ＦＳＲＴ７００Ｍ
   7
GMM002
  44
 0.79999984000003
   0
MTEXT
   5
370
 100
AcDbEntity
   8
LEVEL001
 370
15
  62
8
 100
AcDbMText
  10
 1602.9999999995
  20
 2800.0000000000
  30
0.0
  40
 30.000000000000
  41
0.0
  71
4
  72
1
   1
\W0.500000;\T1.000000; \W1.000000;\T1.000000;　ＦＳＲＴ５５０／ＦＳＲＴ５５０Ｍ
   7
GMM002
  44
 0.79999984000003
   0
LINE
   5
371
 100
AcDbEntity
   8
LEVEL002
 370
30
 100
AcDbLine
   6
CONTINUOUS
  62
7
  10
 2747.6910592291
  20
 1204.5184371811
  30
0.0
  11
 2747.6910592291
  21
 1287.5184371811
  31
0.0
   0
LINE
   5
372
 100
AcDbEntity
   8
LEVEL002
 370
30
 100
AcDbLine
   6
CONTINUOUS
  62
7
  10
 2847.6910592291
  20
 1204.5184371811
  30
0.0
  11
 2847.6910592291
  21
 1287.5184371811
  31
0.0
   0
CIRCLE
   5
373
 100
AcDbEntity
   8
LEVEL002
 370
30
 100
AcDbCircle
   6
CONTINUOUS
  62
7
  10
 2827.6910592291
  20
 1272.5184371811
  30
0.0
  40
 6.0000000000000
   0
CIRCLE
   5
374
 100
AcDbEntity
   8
LEVEL002
 370
30
 100
AcDbCircle
   6
CONTINUOUS
  62
7
  10
 2797.6910592291
  20
 1272.5184371811
  30
0.0
  40
 10.000000000000
   0
ARC
   5
375
 100
AcDbEntity
   8
LEVEL002
 370
30
   6
CONTINUOUS
  62
7
 100
AcDbCircle
  10
 2797.6910592291
  20
 1052.5184371811
  30
0.0
  40
 17.000000000000
 100
AcDbArc
  50
 180.00000000000
  51
0.0
   0
ARC
   5
376
 100
AcDbEntity
   8
LEVEL002
 370
30
   6
CONTINUOUS
  62
7
 100
AcDbCircle
  10
 2797.6910592291
  20
 1052.5184371811
  30
0.0
  40
 19.000000000000
 100
AcDbArc
  50
 153.47464798344
  51
 26.525352016535
   0
ARC
   5
377
 100
AcDbEntity
   8
LEVEL002
 370
30
   6
CONTINUOUS
  62
7
 100
AcDbCircle
  10
 2797.6910592291
  20
 1192.5184371811
  30
0.0
  40
 17.000000000000
 100
AcDbArc
  50
0.0
  51
 180.00000000000
   0
ARC
   5
378
 100
AcDbEntity
   8
LEVEL002
 370
30
   6
CONTINUOUS
  62
7
 100
AcDbCircle
  10
 2797.6910592291
  20
 1192.5184371811
  30
0.0
  40
 21.000000000000
 100
AcDbArc
  50
 324.04943238037
  51
 215.95056761967
   0
LINE
   5
379
 100
AcDbEntity
   8
LEVEL002
 370
30
 100
AcDbLine
   6
CONTINUOUS
  62
7
  10
 2780.6910592291
  20
 1187.5184371811
  30
0.0
  11
 2780.6910592291
  21
 1192.5184371811
  31
0.0
   0
LINE
   5
37A
 100
AcDbEntity
   8
LEVEL002
 370
30
 100
AcDbLine
   6
CONTINUOUS
  62
7
  10
 2814.6910592291
  20
 1187.5184371811
  30
0.0
  11
 2814.6910592291
  21
 1192.5184371811
  31
0.0
   0
LINE
   5
37B
 100
AcDbEntity
   8
LEVEL002
 370
30
 100
AcDbLine
   6
CONTINUOUS
  62
7
  10
 2780.6910592291
  20
 1052.5184371811
  30
0.0
  11
 2780.6910592291
  21
 1187.5184371811
  31
0.0
   0
LINE
   5
37C
 100
AcDbEntity
   8
LEVEL002
 370
30
 100
AcDbLine
   6
CONTINUOUS
  62
7
  10
 2814.6910592291
  20
 1052.5184371811
  30
0.0
  11
 2814.6910592291
  21
 1187.5184371811
  31
0.0
   0
LINE
   5
37D
 100
AcDbEntity
   8
LEVEL002
 370
30
 100
AcDbLine
   6
CONTINUOUS
  62
7
  10
 2747.6910592291
  20
 1204.5184371811
  30
0.0
  11
 2747.6910592291
  21
 1287.5184371811
  31
0.0
   0
LINE
   5
37E
 100
AcDbEntity
   8
LEVEL002
 370
30
 100
AcDbLine
   6
CONTINUOUS
  62
7
  10
 2762.6910592291
  20
 1165.0184371811
  30
0.0
  11
 2780.6910592291
  21
 1165.0184371811
  31
0.0
   0
LINE
   5
37F
 100
AcDbEntity
   8
LEVEL002
 370
30
 100
AcDbLine
   6
CONTINUOUS
  62
7
  10
 2757.6910592291
  20
 1162.5184371811
  30
0.0
  11
 2762.6910592291
  21
 1162.5184371811
  31
0.0
   0
LINE
   5
380
 100
AcDbEntity
   8
LEVEL002
 370
30
 100
AcDbLine
   6
CONTINUOUS
  62
7
  10
 2762.6910592291
  20
 1204.5184371811
  30
0.0
  11
 2762.6910592291
  21
 1162.5184371811
  31
0.0
   0
LINE
   5
381
 100
AcDbEntity
   8
LEVEL002
 370
30
 100
AcDbLine
   6
CONTINUOUS
  62
7
  10
 2757.6910592291
  20
 1204.5184371811
  30
0.0
  11
 2757.6910592291
  21
 1162.5184371811
  31
0.0
   0
LINE
   5
382
 100
AcDbEntity
   8
LEVEL002
 370
30
 100
AcDbLine
   6
CONTINUOUS
  62
7
  10
 2757.6910592291
  20
 1222.5184371811
  30
0.0
  11
 2762.6910592291
  21
 1222.5184371811
  31
0.0
   0
LINE
   5
383
 100
AcDbEntity
   8
LEVEL002
 370
30
 100
AcDbLine
   6
CONTINUOUS
  62
7
  10
 2762.6910592291
  20
 1220.0184371811
  30
0.0
  11
 2832.6910592291
  21
 1220.0184371811
  31
0.0
   0
LINE
   5
384
 100
AcDbEntity
   8
LEVEL002
 370
30
 100
AcDbLine
   6
CONTINUOUS
  62
7
  10
 2832.6910592291
  20
 1222.5184371811
  30
0.0
  11
 2837.6910592291
  21
 1222.5184371811
  31
0.0
   0
LINE
   5
385
 100
AcDbEntity
   8
LEVEL002
 370
30
 100
AcDbLine
   6
CONTINUOUS
  62
7
  10
 2814.6910592291
  20
 1165.0184371811
  30
0.0
  11
 2832.6910592291
  21
 1165.0184371811
  31
0.0
   0
LINE
   5
386
 100
AcDbEntity
   8
LEVEL002
 370
30
 100
AcDbLine
   6
CONTINUOUS
  62
7
  10
 2832.6910592291
  20
 1162.5184371811
  30
0.0
  11
 2837.6910592291
  21
 1162.5184371811
  31
0.0
   0
LINE
   5
387
 100
AcDbEntity
   8
LEVEL002
 370
30
 100
AcDbLine
   6
CONTINUOUS
  62
7
  10
 2837.6910592291
  20
 1204.5184371811
  30
0.0
  11
 2837.6910592291
  21
 1162.5184371811
  31
0.0
   0
LINE
   5
388
 100
AcDbEntity
   8
LEVEL002
 370
30
 100
AcDbLine
   6
CONTINUOUS
  62
7
  10
 2832.6910592291
  20
 1204.5184371811
  30
0.0
  11
 2832.6910592291
  21
 1162.5184371811
  31
0.0
   0
LINE
   5
389
 100
AcDbEntity
   8
LEVEL002
 370
30
 100
AcDbLine
   6
CONTINUOUS
  62
7
  10
 2832.6910592291
  20
 1204.5184371811
  30
0.0
  11
 2832.6910592291
  21
 1222.5184371811
  31
0.0
   0
LINE
   5
38A
 100
AcDbEntity
   8
LEVEL002
 370
30
 100
AcDbLine
   6
CONTINUOUS
  62
7
  10
 2837.6910592291
  20
 1204.5184371811
  30
0.0
  11
 2837.6910592291
  21
 1222.5184371811
  31
0.0
   0
LINE
   5
38B
 100
AcDbEntity
   8
LEVEL002
 370
30
 100
AcDbLine
   6
CONTINUOUS
  62
7
  10
 2762.6910592291
  20
 1204.5184371811
  30
0.0
  11
 2762.6910592291
  21
 1222.5184371811
  31
0.0
   0
LINE
   5
38C
 100
AcDbEntity
   8
LEVEL002
 370
30
 100
AcDbLine
   6
CONTINUOUS
  62
7
  10
 2757.6910592291
  20
 1204.5184371811
  30
0.0
  11
 2757.6910592291
  21
 1222.5184371811
  31
0.0
   0
CIRCLE
   5
38D
 100
AcDbEntity
   8
LEVEL002
 370
30
 100
AcDbCircle
   6
CONTINUOUS
  62
7
  10
 2767.6910592291
  20
 1272.5184371811
  30
0.0
  40
 6.0000000000000
   0
LINE
   5
38E
 100
AcDbEntity
   8
LEVEL002
 370
30
 100
AcDbLine
   6
CONTINUOUS
  62
7
  10
 2747.6910592291
  20
 1287.5184371811
  30
0.0
  11
 2847.6910592291
  21
 1287.5184371811
  31
0.0
   0
ARC
   5
38F
 100
AcDbEntity
   8
LEVEL002
 370
30
   6
CONTINUOUS
  62
7
 100
AcDbCircle
  10
 2797.6910592291
  20
 2281.2858953431
  30
0.0
  40
 21.000000000000
 100
AcDbArc
  50
0.0
  51
 180.00000000000
   0
LINE
   5
390
 100
AcDbEntity
   8
LEVEL002
 370
30
 100
AcDbLine
   6
CONTINUOUS
  62
7
  10
 2787.6910592291
  20
 2333.2858953431
  30
0.0
  11
 2807.6910592291
  21
 2333.2858953431
  31
0.0
   0
LINE
   5
391
 100
AcDbEntity
   8
LEVEL002
 370
30
 100
AcDbLine
   6
CONTINUOUS
  62
7
  10
 2762.6910592291
  20
 2283.7858953431
  30
0.0
  11
 2776.6910592291
  21
 2283.7858953431
  31
0.0
   0
LINE
   5
392
 100
AcDbEntity
   8
LEVEL002
 370
30
 100
AcDbLine
   6
CONTINUOUS
  62
7
  10
 2757.6910592291
  20
 2281.2858953431
  30
0.0
  11
 2762.6910592291
  21
 2281.2858953431
  31
0.0
   0
LINE
   5
393
 100
AcDbEntity
   8
LEVEL002
 370
30
 100
AcDbLine
   6
CONTINUOUS
  62
7
  10
 2762.6910592291
  20
 2289.2858953431
  30
0.0
  11
 2762.6910592291
  21
 2281.2858953431
  31
0.0
   0
LINE
   5
394
 100
AcDbEntity
   8
LEVEL002
 370
30
 100
AcDbLine
   6
CONTINUOUS
  62
7
  10
 2757.6910592291
  20
 2289.2858953431
  30
0.0
  11
 2757.6910592291
  21
 2281.2858953431
  31
0.0
   0
LINE
   5
395
 100
AcDbEntity
   8
LEVEL002
 370
30
 100
AcDbLine
   6
CONTINUOUS
  62
7
  10
 2818.6910592291
  20
 2283.7858953431
  30
0.0
  11
 2832.6910592291
  21
 2283.7858953431
  31
0.0
   0
LINE
   5
396
 100
AcDbEntity
   8
LEVEL002
 370
30
 100
AcDbLine
   6
CONTINUOUS
  62
7
  10
 2832.6910592291
  20
 2281.2858953431
  30
0.0
  11
 2837.6910592291
  21
 2281.2858953431
  31
0.0
   0
LINE
   5
397
 100
AcDbEntity
   8
LEVEL002
 370
30
 100
AcDbLine
   6
CONTINUOUS
  62
7
  10
 2837.6910592291
  20
 2289.2858953431
  30
0.0
  11
 2837.6910592291
  21
 2281.2858953431
  31
0.0
   0
LINE
   5
398
 100
AcDbEntity
   8
LEVEL002
 370
30
 100
AcDbLine
   6
CONTINUOUS
  62
7
  10
 2832.6910592291
  20
 2289.2858953431
  30
0.0
  11
 2832.6910592291
  21
 2281.2858953431
  31
0.0
   0
LINE
   5
399
 100
AcDbEntity
   8
LEVEL002
 370
30
 100
AcDbLine
   6
CONTINUOUS
  62
7
  10
 2807.6910592291
  20
 2342.7858953431
  30
0.0
  11
 2832.6910592291
  21
 2342.7858953431
  31
0.0
   0
LINE
   5
39A
 100
AcDbEntity
   8
LEVEL002
 370
30
 100
AcDbLine
   6
CONTINUOUS
  62
7
  10
 2837.6910592291
  20
 2289.2858953431
  30
0.0
  11
 2837.6910592291
  21
 2345.2858953431
  31
0.0
   0
LINE
   5
39B
 100
AcDbEntity
   8
LEVEL002
 370
30
 100
AcDbLine
   6
CONTINUOUS
  62
7
  10
 2832.6910592291
  20
 2289.2858953431
  30
0.0
  11
 2832.6910592291
  21
 2345.2858953431
  31
0.0
   0
LINE
   5
39C
 100
AcDbEntity
   8
LEVEL002
 370
30
 100
AcDbLine
   6
CONTINUOUS
  62
7
  10
 2950.2935601267
  20
 2362.2858953431
  30
0.0
  11
 2814.6910592291
  21
 2362.2858953431
  31
0.0
   0
LINE
   5
39D
 100
AcDbEntity
   8
LEVEL002
 370
30
 100
AcDbLine
   6
CONTINUOUS
  62
7
  10
 2747.6910592291
  20
 2358.2858953431
  30
0.0
  11
 2747.6910592291
  21
 2362.2858953431
  31
0.0
   0
LINE
   5
39E
 100
AcDbEntity
   8
LEVEL002
 370
30
 100
AcDbLine
   6
CONTINUOUS
  62
7
  10
 2847.6910592291
  20
 2358.2858953431
  30
0.0
  11
 2847.6910592291
  21
 2362.2858953431
  31
0.0
   0
LINE
   5
39F
 100
AcDbEntity
   8
LEVEL002
 370
30
 100
AcDbLine
   6
CONTINUOUS
  62
7
  10
 2818.6910592291
  20
 2281.2858953431
  30
0.0
  11
 2818.6910592291
  21
 2223.2858953431
  31
0.0
   0
LINE
   5
3A0
 100
AcDbEntity
   8
LEVEL002
 370
30
 100
AcDbLine
   6
CONTINUOUS
  62
7
  10
 2776.6910592291
  20
 2281.2858953431
  30
0.0
  11
 2776.6910592291
  21
 2223.2858953431
  31
0.0
   0
LINE
   5
3A1
 100
AcDbEntity
   8
LEVEL002
 370
30
 100
AcDbLine
   6
CONTINUOUS
  62
7
  10
 2787.6910592291
  20
 2333.2858953431
  30
0.0
  11
 2787.6910592291
  21
 2358.2858953431
  31
0.0
   0
LINE
   5
3A2
 100
AcDbEntity
   8
LEVEL002
 370
30
 100
AcDbLine
   6
CONTINUOUS
  62
7
  10
 2807.6910592291
  20
 2333.2858953431
  30
0.0
  11
 2807.6910592291
  21
 2358.2858953431
  31
0.0
   0
LINE
   5
3A3
 100
AcDbEntity
   8
LEVEL002
 370
30
 100
AcDbLine
   6
CONTINUOUS
  62
7
  10
 2747.6910592291
  20
 2358.2858953431
  30
0.0
  11
 2847.6910592291
  21
 2358.2858953431
  31
0.0
   0
LINE
   5
3A4
 100
AcDbEntity
   8
LEVEL002
 370
30
 100
AcDbLine
   6
CONTINUOUS
  62
7
  10
 2776.6910592291
  20
 2223.2858953431
  30
0.0
  11
 2776.6910592291
  21
 2221.2858953431
  31
0.0
   0
LINE
   5
3A5
 100
AcDbEntity
   8
LEVEL002
 370
30
 100
AcDbLine
   6
CONTINUOUS
  62
7
  10
 2814.6910592291
  20
 2221.2858953431
  30
0.0
  11
 2776.6910592291
  21
 2221.2858953431
  31
0.0
   0
LINE
   5
3A6
 100
AcDbEntity
   8
LEVEL002
 370
30
 100
AcDbLine
   6
CONTINUOUS
  62
7
  10
 2814.6910592291
  20
 2221.2858953431
  30
0.0
  11
 2818.6910592291
  21
 2221.2858953431
  31
0.0
   0
LINE
   5
3A7
 100
AcDbEntity
   8
LEVEL002
 370
30
 100
AcDbLine
   6
CONTINUOUS
  62
7
  10
 2818.6910592291
  20
 2223.2858953431
  30
0.0
  11
 2818.6910592291
  21
 2221.2858953431
  31
0.0
   0
LINE
   5
3A8
 100
AcDbEntity
   8
LEVEL002
 370
30
 100
AcDbLine
   6
CONTINUOUS
  62
7
  10
 2762.6910592291
  20
 2342.7858953431
  30
0.0
  11
 2787.6910592291
  21
 2342.7858953431
  31
0.0
   0
LINE
   5
3A9
 100
AcDbEntity
   8
LEVEL002
 370
30
 100
AcDbLine
   6
CONTINUOUS
  62
7
  10
 2757.6910592291
  20
 2289.2858953431
  30
0.0
  11
 2757.6910592291
  21
 2345.2858953431
  31
0.0
   0
LINE
   5
3AA
 100
AcDbEntity
   8
LEVEL002
 370
30
 100
AcDbLine
   6
CONTINUOUS
  62
7
  10
 2762.6910592291
  20
 2289.2858953431
  30
0.0
  11
 2762.6910592291
  21
 2345.2858953431
  31
0.0
   0
LINE
   5
3AB
 100
AcDbEntity
   8
LEVEL002
 370
30
 100
AcDbLine
   6
CONTINUOUS
  62
7
  10
 2757.6910592291
  20
 2345.2858953431
  30
0.0
  11
 2757.6910592291
  21
 2358.2858953431
  31
0.0
   0
LINE
   5
3AC
 100
AcDbEntity
   8
LEVEL002
 370
30
 100
AcDbLine
   6
CONTINUOUS
  62
7
  10
 2762.6910592291
  20
 2345.2858953431
  30
0.0
  11
 2762.6910592291
  21
 2358.2858953431
  31
0.0
   0
LINE
   5
3AD
 100
AcDbEntity
   8
LEVEL002
 370
30
 100
AcDbLine
   6
CONTINUOUS
  62
7
  10
 2832.6910592291
  20
 2345.2858953431
  30
0.0
  11
 2832.6910592291
  21
 2358.2858953431
  31
0.0
   0
LINE
   5
3AE
 100
AcDbEntity
   8
LEVEL002
 370
30
 100
AcDbLine
   6
CONTINUOUS
  62
7
  10
 2837.6910592291
  20
 2345.2858953431
  30
0.0
  11
 2837.6910592291
  21
 2358.2858953431
  31
0.0
   0
LINE
   5
3AF
 100
AcDbEntity
   8
LEVEL002
 370
15
 100
AcDbLine
   6
DASHDOT
  62
8
  10
 2838.2046895592
  20
 1052.5184371811
  30
0.0
  11
 2758.2046895592
  21
 1052.5184371811
  31
0.0
   0
LINE
   5
3B0
 100
AcDbEntity
   8
LEVEL002
 370
15
 100
AcDbLine
   6
DASHDOT
  62
8
  10
 2838.2046895592
  20
 1192.5184371811
  30
0.0
  11
 2758.2046895592
  21
 1192.5184371811
  31
0.0
   0
LEADER
   5
3B1
 100
AcDbEntity
   8
LEVEL001
 370
15
   6
CONTINUOUS
  62
8
 100
AcDbLeader
   3
GMM001
  73
0
  74
1
  75
0
  40
 30.000000000000
  41
 555.00000000000
  76
2
  10
 2793.4525701699
  20
 2061.8735400525
  30
0.0
  10
 2730.2472396126
  20
 2147.2789454579
  30
0.0
  77
8
 340
3B2
 213
0.0
 223
-10.000000000000
 233
0.0
   0
MTEXT
   5
3B2
 102
{ACAD_REACTORS
 330
3B1
 102
}
 100
AcDbEntity
   8
LEVEL001
 370
15
  62
8
 100
AcDbMText
  10
 2175.2472396126
  20
 2157.2789454579
  30
0.0
  40
 30.000000000000
  41
0.0
  71
7
  72
1
   1
\A1;芯材：ステンレスパイプ (%%c２７.２×１.５ｔ)\P表面材：軟質塩ビ被膜（抗菌材入り）外径%%c３４
   7
GMM002
   0
CIRCLE
   5
3B3
 100
AcDbEntity
   8
LEVEL002
 370
30
 100
AcDbCircle
   6
CONTINUOUS
  62
7
  10
 2767.6910592291
  20
 1072.5184371811
  30
0.0
  40
 6.0000000000000
   0
CIRCLE
   5
3B4
 100
AcDbEntity
   8
LEVEL002
 370
30
 100
AcDbCircle
   6
CONTINUOUS
  62
7
  10
 2827.6910592291
  20
 1072.5184371811
  30
0.0
  40
 6.0000000000000
   0
LINE
   5
3B5
 100
AcDbEntity
   8
LEVEL002
 370
30
 100
AcDbLine
   6
CONTINUOUS
  62
7
  10
 2747.6910592291
  20
 1204.5184371811
  30
0.0
  11
 2747.6910592291
  21
 1071.3013169188
  31
0.0
   0
ARC
   5
3B6
 100
AcDbEntity
   8
LEVEL002
 370
30
   6
CONTINUOUS
  62
7
 100
AcDbCircle
  10
 2757.6910592291
  20
 1071.3013169188
  30
0.0
  40
 10.000000000000
 100
AcDbArc
  50
 179.99999999999
  51
 219.99999999999
   0
POINT
   5
3B7
 100
AcDbEntity
   8
LEVEL002
 100
AcDbPoint
  62
7
  10
 2747.6910592291
  20
 1067.6616145761
  30
0.0
   0
LINE
   5
3B8
 100
AcDbEntity
   8
LEVEL001
 370
30
 100
AcDbLine
   6
CONTINUOUS
  62
7
  10
 2784.5105996598
  20
 1023.7817949901
  30
0.0
  11
 2750.0306147979
  21
 1064.8734408219
  31
0.0
   0
LINE
   5
3B9
 100
AcDbEntity
   8
LEVEL001
 370
30
 100
AcDbLine
   6
CONTINUOUS
  62
7
  10
 2810.8715187984
  20
 1023.7817949901
  30
0.0
  11
 2845.3515036603
  21
 1064.8734408219
  31
0.0
   0
ARC
   5
3BA
 100
AcDbEntity
   8
LEVEL001
 370
30
   6
CONTINUOUS
  62
7
 100
AcDbCircle
  10
 2837.6910592291
  20
 1071.3013169188
  30
0.0
  40
 10.000000000000
 100
AcDbArc
  50
 320.00000000000
  51
0.0
   0
POINT
   5
3BB
 100
AcDbEntity
   8
LEVEL001
 100
AcDbPoint
  62
7
  10
 2847.6910592291
  20
 1067.6616145761
  30
0.0
   0
LINE
   5
3BC
 100
AcDbEntity
   8
LEVEL002
 370
30
 100
AcDbLine
   6
CONTINUOUS
  62
7
  10
 2847.6910592291
  20
 1204.5184371811
  30
0.0
  11
 2847.6910592291
  21
 1071.3013169188
  31
0.0
   0
ARC
   5
3BD
 100
AcDbEntity
   8
LEVEL001
 370
30
   6
CONTINUOUS
  62
7
 100
AcDbCircle
  10
 2797.6910592291
  20
 1034.5184371811
  30
0.0
  40
 17.000000000000
 100
AcDbArc
  50
 219.16584164831
  51
 320.83415832101
   0
LINE
   5
3BE
 100
AcDbEntity
   8
LEVEL002
 370
30
 100
AcDbLine
   6
CONTINUOUS
  62
7
  10
 2780.6910592291
  20
 2221.2858953431
  30
0.0
  11
 2780.6910592291
  21
 2014.2858953431
  31
0.0
   0
LINE
   5
3BF
 100
AcDbEntity
   8
LEVEL001
 370
15
 100
AcDbLine
   6
DASHDOT
  62
8
  10
 2767.6910592291
  20
 1059.9060075887
  30
0.0
  11
 2767.6910592291
  21
 1085.1308667736
  31
0.0
   0
LINE
   5
3C0
 100
AcDbEntity
   8
LEVEL001
 370
15
 100
AcDbLine
   6
DASHDOT
  62
8
  10
 2756.9260440310
  20
 1072.5184371811
  30
0.0
  11
 2778.4560744273
  21
 1072.5184371811
  31
0.0
   0
LINE
   5
3C1
 100
AcDbEntity
   8
LEVEL001
 370
15
 100
AcDbLine
   6
DASHDOT
  62
8
  10
 2827.6910592291
  20
 1059.9060075887
  30
0.0
  11
 2827.6910592291
  21
 1085.1308667736
  31
0.0
   0
LINE
   5
3C2
 100
AcDbEntity
   8
LEVEL001
 370
15
 100
AcDbLine
   6
DASHDOT
  62
8
  10
 2816.9260440310
  20
 1072.5184371811
  30
0.0
  11
 2838.4560744273
  21
 1072.5184371811
  31
0.0
   0
LINE
   5
3C3
 100
AcDbEntity
   8
LEVEL001
 370
15
 100
AcDbLine
   6
DASHDOT
  62
8
  10
 2827.6910592291
  20
 1259.9060075887
  30
0.0
  11
 2827.6910592291
  21
 1285.1308667736
  31
0.0
   0
LINE
   5
3C4
 100
AcDbEntity
   8
LEVEL001
 370
15
 100
AcDbLine
   6
DASHDOT
  62
8
  10
 2816.9260440310
  20
 1272.5184371811
  30
0.0
  11
 2838.4560744273
  21
 1272.5184371811
  31
0.0
   0
LINE
   5
3C5
 100
AcDbEntity
   8
LEVEL001
 370
15
 100
AcDbLine
   6
DASHDOT
  62
8
  10
 2767.6910592291
  20
 1259.9060075887
  30
0.0
  11
 2767.6910592291
  21
 1285.1308667736
  31
0.0
   0
LINE
   5
3C6
 100
AcDbEntity
   8
LEVEL001
 370
15
 100
AcDbLine
   6
DASHDOT
  62
8
  10
 2756.9260440310
  20
 1272.5184371811
  30
0.0
  11
 2778.4560744273
  21
 1272.5184371811
  31
0.0
   0
DIMENSION
   5
3C7
 100
AcDbEntity
   8
LEVEL001
 370
15
   6
CONTINUOUS
  62
8
 100
AcDbDimension
   2
*D21
  10
 2927.6910592291
  20
 1072.5184371811
  30
0.0
  11
 2927.6910592291
  21
 1045.0184371811
  31
0.0
  70
0
   3
GMM003
 100
AcDbAlignedDimension
  13
 2797.6910592291
  23
 1017.5184371811
  33
0.0
  14
 2838.4560744273
  24
 1072.5184371811
  34
0.0
  50
 90.000000000000
 100
AcDbRotatedDimension
   0
DIMENSION
   5
3C8
 100
AcDbEntity
   8
LEVEL001
 370
15
   6
CONTINUOUS
  62
8
 100
AcDbDimension
   2
*D22
  10
 2927.6910592291
  20
 1272.5184371811
  30
0.0
  11
 2927.6910592291
  21
 1172.5184371811
  31
0.0
  70
0
   3
GMM003
 100
AcDbAlignedDimension
  13
 2838.4560744273
  23
 1072.5184371811
  33
0.0
  14
 2838.4560744273
  24
 1272.5184371811
  34
0.0
  50
 90.000000000000
 100
AcDbRotatedDimension
   0
DIMENSION
   5
3C9
 100
AcDbEntity
   8
LEVEL001
 370
15
   6
CONTINUOUS
  62
8
 100
AcDbDimension
   2
*D23
  10
 2927.6910592291
  20
 1287.5184371811
  30
0.0
  11
 2927.6910592291
  21
 1293.2749371590
  31
0.0
  70
128
   3
GMM004
 100
AcDbAlignedDimension
  13
 2838.4560744273
  23
 1272.5184371811
  33
0.0
  14
 2847.6910592291
  24
 1287.5184371811
  34
0.0
  50
 90.000000000000
 100
AcDbRotatedDimension
   0
LINE
   5
3CA
 100
AcDbEntity
   8
LEVEL002
 370
15
 100
AcDbLine
   6
DASHDOT
  62
8
  10
 2797.6910592291
  20
 999.27036049991
  30
0.0
  11
 2797.6910592291
  21
 1298.6448837646
  31
0.0
   0
DIMENSION
   5
3CB
 100
AcDbEntity
   8
LEVEL001
 370
15
   6
CONTINUOUS
  62
8
 100
AcDbDimension
   2
*D24
  10
 2697.6910592291
  20
 1192.5184371811
  30
0.0
  11
 2697.6910592291
  21
 1122.5184371811
  31
0.0
  70
0
   3
GMM005
 100
AcDbAlignedDimension
  13
 2747.1774288990
  23
 1052.5184371811
  33
0.0
  14
 2747.1774288990
  24
 1192.5184371811
  34
0.0
  50
 90.000000000000
 100
AcDbRotatedDimension
   0
DIMENSION
   5
3CC
 100
AcDbEntity
   8
LEVEL001
 370
15
   6
CONTINUOUS
  62
8
 100
AcDbDimension
   2
*D25
  10
 2647.6910592291
  20
 1287.5184371811
  30
0.0
  11
 2647.6910592291
  21
 1152.5184371811
  31
0.0
  70
0
   3
GMM006
 100
AcDbAlignedDimension
  13
 2797.6910592291
  23
 1017.5184371811
  33
0.0
  14
 2747.6910592291
  24
 1287.5184371811
  34
0.0
  50
 90.000000000000
 100
AcDbRotatedDimension
   0
DIMENSION
   5
3CD
 100
AcDbEntity
   8
LEVEL001
 370
15
   6
CONTINUOUS
  62
8
 100
AcDbDimension
   2
*D26
  10
 2767.6910592291
  20
 1357.2668008762
  30
0.0
  11
 2739.8093392255
  21
 1357.2668008762
  31
0.0
  70
128
   3
GMM007
 100
AcDbAlignedDimension
  13
 2747.6910592291
  23
 1287.5184371811
  33
0.0
  14
 2767.6910592291
  24
 1285.1308667736
  34
0.0
 100
AcDbRotatedDimension
   0
DIMENSION
   5
3CE
 100
AcDbEntity
   8
LEVEL001
 370
15
   6
CONTINUOUS
  62
8
 100
AcDbDimension
   2
*D27
  10
 2827.6910592291
  20
 1357.2668008762
  30
0.0
  11
 2797.6910592291
  21
 1357.2668008762
  31
0.0
  70
0
   3
GMM003
 100
AcDbAlignedDimension
  13
 2767.6910592291
  23
 1285.1308667736
  33
0.0
  14
 2827.6910592291
  24
 1285.1308667736
  34
0.0
 100
AcDbRotatedDimension
   0
DIMENSION
   5
3CF
 100
AcDbEntity
   8
LEVEL001
 370
15
   6
CONTINUOUS
  62
8
 100
AcDbDimension
   2
*D28
  10
 2847.6910592291
  20
 1357.2668008762
  30
0.0
  11
 2855.2631912469
  21
 1357.2668008762
  31
0.0
  70
128
   3
GMM008
 100
AcDbAlignedDimension
  13
 2827.6910592291
  23
 1285.1308667736
  33
0.0
  14
 2847.6910592291
  24
 1287.5184371811
  34
0.0
 100
AcDbRotatedDimension
   0
DIMENSION
   5
3D0
 100
AcDbEntity
   8
LEVEL001
 370
15
   6
CONTINUOUS
  62
8
 100
AcDbDimension
   2
*D29
  10
 2847.6910592291
  20
 888.40333787087
  30
0.0
  11
 2797.6910592291
  21
 888.40333787087
  31
0.0
  70
0
   3
GMM005
 100
AcDbAlignedDimension
  13
 2747.6910592291
  23
 1064.8734408219
  33
0.0
  14
 2847.6910592291
  24
 1067.6616145761
  34
0.0
 100
AcDbRotatedDimension
   0
DIMENSION
   5
3D1
 100
AcDbEntity
   8
LEVEL001
 370
15
   6
CONTINUOUS
  62
8
 100
AcDbDimension
   2
*D30
  10
 2767.6910592291
  20
 967.51843718113
  30
0.0
  11
 2738.5787264617
  21
 967.51843718113
  31
0.0
  70
128
   3
GMM009
 100
AcDbAlignedDimension
  13
 2747.6910592291
  23
 1067.6616145761
  33
0.0
  14
 2767.6910592291
  24
 1059.9060075887
  34
0.0
 100
AcDbRotatedDimension
   0
DIMENSION
   5
3D2
 100
AcDbEntity
   8
LEVEL001
 370
15
   6
CONTINUOUS
  62
8
 100
AcDbDimension
   2
*D31
  10
 2827.6910592291
  20
 967.51843718113
  30
0.0
  11
 2797.6910592291
  21
 967.51843718113
  31
0.0
  70
0
   3
GMM003
 100
AcDbAlignedDimension
  13
 2767.6910592291
  23
 1059.9060075887
  33
0.0
  14
 2827.6910592291
  24
 1059.9060075887
  34
0.0
 100
AcDbRotatedDimension
   0
DIMENSION
   5
3D3
 100
AcDbEntity
   8
LEVEL001
 370
15
   6
CONTINUOUS
  62
8
 100
AcDbDimension
   2
*D32
  10
 2847.6910592291
  20
 967.51843718113
  30
0.0
  11
 2837.6910592291
  21
 967.51843718113
  31
0.0
  70
0
   3
GMM006
 100
AcDbAlignedDimension
  13
 2827.6910592291
  23
 1059.9060075887
  33
0.0
  14
 2847.6910592291
  24
 1067.6616145761
  34
0.0
 100
AcDbRotatedDimension
   0
LINE
   5
3D4
 100
AcDbEntity
   8
LEVEL002
 370
15
 100
AcDbLine
   6
HIDDEN
  62
2
  10
 2484.0238701179
  20
 1282.5184371811
  30
0.0
  11
 2484.0238701179
  21
 1237.5184371811
  31
0.0
   0
LINE
   5
3D5
 100
AcDbEntity
   8
LEVEL002
 370
30
 100
AcDbLine
   6
CONTINUOUS
  62
7
  10
 2371.0238701179
  20
 1171.5184371811
  30
0.0
  11
 2421.2243726336
  21
 1171.5184371811
  31
0.0
   0
LINE
   5
3D6
 100
AcDbEntity
   8
LEVEL002
 370
30
 100
AcDbLine
   6
CONTINUOUS
  62
7
  10
 2371.0238701179
  20
 1213.5184371811
  30
0.0
  11
 2421.2243726336
  21
 1213.5184371811
  31
0.0
   0
LINE
   5
3D7
 100
AcDbEntity
   8
LEVEL002
 370
30
 100
AcDbLine
   6
CONTINUOUS
  62
7
  10
 2380.0238701179
  20
 1069.5184371811
  30
0.0
  11
 2460.0238701179
  21
 1069.5184371811
  31
0.0
   0
LINE
   5
3D8
 100
AcDbEntity
   8
LEVEL002
 370
30
 100
AcDbLine
   6
CONTINUOUS
  62
7
  10
 2380.0238701179
  20
 1035.5184371811
  30
0.0
  11
 2460.0238701179
  21
 1035.5184371811
  31
0.0
   0
LINE
   5
3D9
 100
AcDbEntity
   8
LEVEL002
 370
30
 100
AcDbLine
   6
CONTINUOUS
  62
7
  10
 2488.0238701179
  20
 1072.5184371811
  30
0.0
  11
 2506.0238701179
  21
 1072.5184371811
  31
0.0
   0
LINE
   5
3DA
 100
AcDbEntity
   8
LEVEL002
 370
30
 100
AcDbLine
   6
CONTINUOUS
  62
7
  10
 2488.0238701179
  20
 1032.5184371811
  30
0.0
  11
 2506.0238701179
  21
 1032.5184371811
  31
0.0
   0
LINE
   5
3DB
 100
AcDbEntity
   8
LEVEL002
 370
30
 100
AcDbLine
   6
CONTINUOUS
  62
7
  10
 2488.0238701179
  20
 1072.5184371811
  30
0.0
  11
 2488.0238701179
  21
 1032.5184371811
  31
0.0
   0
LINE
   5
3DC
 100
AcDbEntity
   8
LEVEL002
 370
30
 100
AcDbLine
   6
CONTINUOUS
  62
7
  10
 2460.0238701179
  20
 1069.5184371811
  30
0.0
  11
 2488.0238701179
  21
 1069.5184371811
  31
0.0
   0
LINE
   5
3DD
 100
AcDbEntity
   8
LEVEL002
 370
30
 100
AcDbLine
   6
CONTINUOUS
  62
7
  10
 2460.0238701179
  20
 1035.5184371811
  30
0.0
  11
 2488.0238701179
  21
 1035.5184371811
  31
0.0
   0
LINE
   5
3DE
 100
AcDbEntity
   8
LEVEL002
 370
30
 100
AcDbLine
   6
CONTINUOUS
  62
7
  10
 2488.0238701179
  20
 1037.5184371811
  30
0.0
  11
 2506.0238701179
  21
 1037.5184371811
  31
0.0
   0
LINE
   5
3DF
 100
AcDbEntity
   8
LEVEL002
 370
30
 100
AcDbLine
   6
CONTINUOUS
  62
7
  10
 2488.0238701179
  20
 1042.5184371811
  30
0.0
  11
 2506.0238701179
  21
 1042.5184371811
  31
0.0
   0
LINE
   5
3E0
 100
AcDbEntity
   8
LEVEL002
 370
30
 100
AcDbLine
   6
CONTINUOUS
  62
7
  10
 2488.0238701179
  20
 1047.5184371811
  30
0.0
  11
 2506.0238701179
  21
 1047.5184371811
  31
0.0
   0
LINE
   5
3E1
 100
AcDbEntity
   8
LEVEL002
 370
30
 100
AcDbLine
   6
CONTINUOUS
  62
7
  10
 2488.0238701179
  20
 1067.5184371811
  30
0.0
  11
 2506.0238701179
  21
 1067.5184371811
  31
0.0
   0
LINE
   5
3E2
 100
AcDbEntity
   8
LEVEL002
 370
30
 100
AcDbLine
   6
CONTINUOUS
  62
7
  10
 2488.0238701179
  20
 1062.5184371811
  30
0.0
  11
 2506.0238701179
  21
 1062.5184371811
  31
0.0
   0
LINE
   5
3E3
 100
AcDbEntity
   8
LEVEL002
 370
30
 100
AcDbLine
   6
CONTINUOUS
  62
7
  10
 2488.0238701179
  20
 1057.5184371811
  30
0.0
  11
 2506.0238701179
  21
 1057.5184371811
  31
0.0
   0
CIRCLE
   5
3E4
 100
AcDbEntity
   8
LEVEL002
 370
30
 100
AcDbCircle
   6
CONTINUOUS
  62
7
  10
 2463.0238701179
  20
 1192.5184371811
  30
0.0
  40
 15.500000000000
   0
CIRCLE
   5
3E5
 100
AcDbEntity
   8
LEVEL002
 370
30
 100
AcDbCircle
   6
CONTINUOUS
  62
7
  10
 2463.0238701179
  20
 1192.5184371811
  30
0.0
  40
 9.5000000000000
   0
LINE
   5
3E6
 100
AcDbEntity
   8
LEVEL002
 370
15
 100
AcDbLine
   6
HIDDEN
  62
2
  10
 2328.0238701179
  20
 1164.5184371811
  30
0.0
  11
 2328.0238701179
  21
 1146.5184371811
  31
0.0
   0
LINE
   5
3E7
 100
AcDbEntity
   8
LEVEL002
 370
15
 100
AcDbLine
   6
HIDDEN
  62
2
  10
 2333.0238701179
  20
 1164.5184371811
  30
0.0
  11
 2333.0238701179
  21
 1146.5184371811
  31
0.0
   0
LINE
   5
3E8
 100
AcDbEntity
   8
LEVEL002
 370
15
 100
AcDbLine
   6
HIDDEN
  62
2
  10
 2338.0238701179
  20
 1164.5184371811
  30
0.0
  11
 2338.0238701179
  21
 1146.5184371811
  31
0.0
   0
LINE
   5
3E9
 100
AcDbEntity
   8
LEVEL002
 370
15
 100
AcDbLine
   6
HIDDEN
  62
2
  10
 2318.0238701179
  20
 1164.5184371811
  30
0.0
  11
 2318.0238701179
  21
 1146.5184371811
  31
0.0
   0
LINE
   5
3EA
 100
AcDbEntity
   8
LEVEL002
 370
15
 100
AcDbLine
   6
HIDDEN
  62
2
  10
 2313.0238701179
  20
 1164.5184371811
  30
0.0
  11
 2313.0238701179
  21
 1146.5184371811
  31
0.0
   0
LINE
   5
3EB
 100
AcDbEntity
   8
LEVEL002
 370
15
 100
AcDbLine
   6
HIDDEN
  62
2
  10
 2308.0238701179
  20
 1164.5184371811
  30
0.0
  11
 2308.0238701179
  21
 1146.5184371811
  31
0.0
   0
LINE
   5
3EC
 100
AcDbEntity
   8
LEVEL002
 370
15
 100
AcDbLine
   6
HIDDEN
  62
2
  10
 2340.0238701179
  20
 1192.5184371811
  30
0.0
  11
 2340.0238701179
  21
 1164.5184371811
  31
0.0
   0
LINE
   5
3ED
 100
AcDbEntity
   8
LEVEL002
 370
15
 100
AcDbLine
   6
HIDDEN
  62
2
  10
 2306.0238701179
  20
 1192.5184371811
  30
0.0
  11
 2306.0238701179
  21
 1164.5184371811
  31
0.0
   0
LINE
   5
3EE
 100
AcDbEntity
   8
LEVEL002
 370
15
 100
AcDbLine
   6
HIDDEN
  62
2
  10
 2340.0238701179
  20
 1164.5184371811
  30
0.0
  11
 2343.0238701179
  21
 1164.5184371811
  31
0.0
   0
LINE
   5
3EF
 100
AcDbEntity
   8
LEVEL002
 370
15
 100
AcDbLine
   6
HIDDEN
  62
2
  10
 2343.0238701179
  20
 1164.5184371811
  30
0.0
  11
 2343.0238701179
  21
 1146.5184371811
  31
0.0
   0
LINE
   5
3F0
 100
AcDbEntity
   8
LEVEL002
 370
15
 100
AcDbLine
   6
HIDDEN
  62
2
  10
 2306.0238701179
  20
 1164.5184371811
  30
0.0
  11
 2303.0238701179
  21
 1164.5184371811
  31
0.0
   0
LINE
   5
3F1
 100
AcDbEntity
   8
LEVEL002
 370
15
 100
AcDbLine
   6
HIDDEN
  62
2
  10
 2303.0238701179
  20
 1164.5184371811
  30
0.0
  11
 2303.0238701179
  21
 1146.5184371811
  31
0.0
   0
LINE
   5
3F2
 100
AcDbEntity
   8
LEVEL002
 370
15
 100
AcDbLine
   6
HIDDEN
  62
2
  10
 2303.0238701179
  20
 1146.5184371811
  30
0.0
  11
 2343.0238701179
  21
 1146.5184371811
  31
0.0
   0
LINE
   5
3F3
 100
AcDbEntity
   8
LEVEL002
 370
15
 100
AcDbLine
   6
HIDDEN
  62
2
  10
 2340.0238701179
  20
 1164.5184371811
  30
0.0
  11
 2306.0238701179
  21
 1164.5184371811
  31
0.0
   0
LINE
   5
3F4
 100
AcDbEntity
   8
LEVEL002
 370
15
 100
AcDbLine
   6
HIDDEN
  62
2
  10
 2340.0238701179
  20
 1146.5184371811
  30
0.0
  11
 2306.0238701179
  21
 1146.5184371811
  31
0.0
   0
LINE
   5
3F5
 100
AcDbEntity
   8
LEVEL002
 370
15
 100
AcDbLine
   6
HIDDEN
  62
2
  10
 2340.0238701179
  20
 1192.5184371811
  30
0.0
  11
 2340.2611342623
  21
 1271.3796187311
  31
0.0
   0
LINE
   5
3F6
 100
AcDbEntity
   8
LEVEL002
 370
15
 100
AcDbLine
   6
HIDDEN
  62
2
  10
 2306.0238701179
  20
 1272.5184371811
  30
0.0
  11
 2306.0238701179
  21
 1192.5184371811
  31
0.0
   0
LINE
   5
3F7
 100
AcDbEntity
   8
LEVEL002
 370
15
 100
AcDbLine
   6
HIDDEN
  62
2
  10
 2340.0238701179
  20
 1292.5184371811
  30
0.0
  11
 2340.0238701179
  21
 1272.5184371811
  31
0.0
   0
LINE
   5
3F8
 100
AcDbEntity
   8
LEVEL002
 370
15
 100
AcDbLine
   6
HIDDEN
  62
2
  10
 2306.0238701179
  20
 1292.5184371811
  30
0.0
  11
 2306.0238701179
  21
 1272.5184371811
  31
0.0
   0
LINE
   5
3F9
 100
AcDbEntity
   8
LEVEL002
 370
15
 100
AcDbLine
   6
HIDDEN
  62
2
  10
 2442.0238701179
  20
 1282.5184371811
  30
0.0
  11
 2442.0238701179
  21
 1231.7740100338
  31
0.0
   0
LINE
   5
3FA
 100
AcDbEntity
   8
LEVEL002
 370
30
 100
AcDbLine
   6
CONTINUOUS
  62
7
  10
 2506.0238701179
  20
 1287.5184371811
  30
0.0
  11
 2510.0238701179
  21
 1287.5184371811
  31
0.0
   0
ARC
   5
3FB
 100
AcDbEntity
   8
LEVEL002
 370
30
   6
CONTINUOUS
  62
7
 100
AcDbCircle
  10
 2463.5238701178
  20
 1192.5184371811
  30
0.0
  40
 32.500000000000
 100
AcDbArc
  50
 90.881508306710
  51
 269.11849169329
   0
LINE
   5
3FC
 100
AcDbEntity
   8
LEVEL002
 370
30
 100
AcDbLine
   6
CONTINUOUS
  62
7
  10
 2371.0238701179
  20
 1171.5184371811
  30
0.0
  11
 2369.0238701179
  21
 1171.5184371811
  31
0.0
   0
LINE
   5
3FD
 100
AcDbEntity
   8
LEVEL002
 370
30
 100
AcDbLine
   6
CONTINUOUS
  62
7
  10
 2371.0238701179
  20
 1213.5184371811
  30
0.0
  11
 2369.0238701179
  21
 1213.5184371811
  31
0.0
   0
LINE
   5
3FE
 100
AcDbEntity
   8
LEVEL002
 370
30
 100
AcDbLine
   6
CONTINUOUS
  62
7
  10
 2327.7146999298
  20
 1209.5184371811
  30
0.0
  11
 2369.0238701179
  21
 1209.5184371811
  31
0.0
   0
LINE
   5
3FF
 100
AcDbEntity
   8
LEVEL002
 370
30
 100
AcDbLine
   6
CONTINUOUS
  62
7
  10
 2327.7146999298
  20
 1175.5184371811
  30
0.0
  11
 2369.0238701179
  21
 1175.5184371811
  31
0.0
   0
LINE
   5
400
 100
AcDbEntity
   8
LEVEL002
 370
30
 100
AcDbLine
   6
CONTINUOUS
  62
7
  10
 2421.2243726336
  20
 1171.5184371811
  30
0.0
  11
 2438.7196366082
  21
 1171.5184371811
  31
0.0
   0
LINE
   5
401
 100
AcDbEntity
   8
LEVEL002
 370
30
 100
AcDbLine
   6
CONTINUOUS
  62
7
  10
 2421.2243726336
  20
 1213.5184371811
  30
0.0
  11
 2438.7196366082
  21
 1213.5184371811
  31
0.0
   0
LINE
   5
402
 100
AcDbEntity
   8
LEVEL002
 370
15
 100
AcDbLine
   6
HIDDEN
  62
2
  10
 2442.0238701179
  20
 1282.5184371811
  30
0.0
  11
 2442.0238701179
  21
 1283.5184371811
  31
0.0
   0
LINE
   5
403
 100
AcDbEntity
   8
LEVEL002
 370
30
 100
AcDbLine
   6
HIDDEN
  62
7
  10
 2484.0238701179
  20
 1282.5184371811
  30
0.0
  11
 2484.0238701179
  21
 1283.5184371811
  31
0.0
   0
LINE
   5
404
 100
AcDbEntity
   8
LEVEL002
 370
15
 100
AcDbLine
   6
HIDDEN
  62
2
  10
 2442.0238701179
  20
 1283.5184371811
  30
0.0
  11
 2484.0238701179
  21
 1283.5184371811
  31
0.0
   0
LINE
   5
405
 100
AcDbEntity
   8
LEVEL002
 370
15
 100
AcDbLine
   6
HIDDEN
  62
2
  10
 2446.0238701179
  20
 1322.5184371811
  30
0.0
  11
 2446.0238701179
  21
 1283.5184371811
  31
0.0
   0
LINE
   5
406
 100
AcDbEntity
   8
LEVEL002
 370
15
 100
AcDbLine
   6
HIDDEN
  62
2
  10
 2480.0238701179
  20
 1322.5184371811
  30
0.0
  11
 2480.0238701179
  21
 1283.5184371811
  31
0.0
   0
LINE
   5
407
 100
AcDbEntity
   8
LEVEL002
 370
15
 100
AcDbLine
   6
HIDDEN
  62
2
  10
 2484.0238701179
  20
 1237.5184371811
  30
0.0
  11
 2484.0238701179
  21
 1225.0184371811
  31
0.0
   0
LINE
   5
408
 100
AcDbEntity
   8
LEVEL002
 370
15
 100
AcDbLine
   6
HIDDEN
  62
2
  10
 2442.0238701179
  20
 1231.7740100338
  30
0.0
  11
 2442.0238701179
  21
 1216.8905523950
  31
0.0
   0
LINE
   5
409
 100
AcDbEntity
   8
LEVEL002
 370
30
 100
AcDbLine
   6
CONTINUOUS
  62
7
  10
 2369.0238701179
  20
 1213.5184371811
  30
0.0
  11
 2369.0238701179
  21
 1171.5184371811
  31
0.0
   0
LINE
   5
40A
 100
AcDbEntity
   8
LEVEL002
 370
30
 100
AcDbLine
   6
CONTINUOUS
  62
7
  10
 2463.0238701179
  20
 1160.0184371811
  30
0.0
  11
 2506.0238701179
  21
 1160.0184371811
  31
0.0
   0
LINE
   5
40B
 100
AcDbEntity
   8
LEVEL002
 370
30
 100
AcDbLine
   6
CONTINUOUS
  62
7
  10
 2463.0238701179
  20
 1225.0184371811
  30
0.0
  11
 2506.0238701179
  21
 1225.0184371811
  31
0.0
   0
LINE
   5
40C
 100
AcDbEntity
   8
LEVEL002
 370
30
 100
AcDbLine
   6
CONTINUOUS
  62
7
  10
 2506.0238701179
  20
 1281.5184371811
  30
0.0
  11
 2484.0238701179
  21
 1281.5184371811
  31
0.0
   0
LINE
   5
40D
 100
AcDbEntity
   8
LEVEL002
 370
30
 100
AcDbLine
   6
CONTINUOUS
  62
7
  10
 2506.0238701179
  20
 1263.5184371811
  30
0.0
  11
 2484.0238701179
  21
 1263.5184371811
  31
0.0
   0
LINE
   5
40E
 100
AcDbEntity
   8
LEVEL002
 370
30
 100
AcDbLine
   6
CONTINUOUS
  62
7
  10
 2484.0238701179
  20
 1281.5184371811
  30
0.0
  11
 2484.0238701179
  21
 1263.5184371811
  31
0.0
   0
CIRCLE
   5
40F
 100
AcDbEntity
   8
LEVEL002
 370
30
 100
AcDbCircle
   6
CONTINUOUS
  62
7
  10
 2441.0238701179
  20
 1192.5184371811
  30
0.0
  40
 6.0000000000000
   0
CIRCLE
   5
410
 100
AcDbEntity
   8
LEVEL002
 370
30
 100
AcDbCircle
   6
CONTINUOUS
  62
7
  10
 2486.0238701179
  20
 1192.5184371811
  30
0.0
  40
 6.0000000000000
   0
LINE
   5
411
 100
AcDbEntity
   8
LEVEL002
 370
30
 100
AcDbLine
   6
CONTINUOUS
  62
7
  10
 2506.0238701179
  20
 1017.5184371811
  30
0.0
  11
 2510.0238701179
  21
 1017.5184371811
  31
0.0
   0
LINE
   5
412
 100
AcDbEntity
   8
LEVEL002
 370
30
 100
AcDbLine
   6
CONTINUOUS
  62
7
  10
 2506.0238701179
  20
 1287.5184371811
  30
0.0
  11
 2506.0238701179
  21
 1017.5184371811
  31
0.0
   0
LINE
   5
413
 100
AcDbEntity
   8
LEVEL002
 370
40
 100
AcDbLine
   6
CONTINUOUS
  62
3
  10
 2510.0238701179
  20
 915.20645677925
  30
0.0
  11
 2510.0238701179
  21
 1849.7030242851
  31
0.0
   0
LINE
   5
414
 100
AcDbEntity
   8
LEVEL002
 370
40
 100
AcDbLine
   6
CONTINUOUS
  62
3
  10
 2615.0320151099
  20
 2362.2858953431
  30
0.0
  11
 3004.4575085619
  21
 2362.2858953431
  31
0.0
   0
ARC
   5
415
 100
AcDbEntity
   8
LEVEL002
 370
30
   6
CONTINUOUS
  62
7
 100
AcDbCircle
  10
 2030.0238701179
  20
 1122.5184371811
  30
0.0
  40
 53.000000000000
 100
AcDbArc
  50
 90.000000000000
  51
 270.00000000000
   0
ARC
   5
416
 100
AcDbEntity
   8
LEVEL002
 370
30
   6
CONTINUOUS
  62
7
 100
AcDbCircle
  10
 2030.0238701179
  20
 1122.5184371811
  30
0.0
  40
 87.000000000000
 100
AcDbArc
  50
 90.000000000000
  51
 270.00000000000
   0
ARC
   5
417
 100
AcDbEntity
   8
LEVEL002
 370
15
   6
DASHDOT
  62
8
 100
AcDbCircle
  10
 2030.0238701179
  20
 1122.5184371811
  30
0.0
  40
 70.000000000000
 100
AcDbArc
  50
 90.000000000000
  51
 270.00000000000
   0
DIMENSION
   5
418
 100
AcDbEntity
   8
LEVEL001
 370
15
   6
CONTINUOUS
  62
8
 100
AcDbDimension
   2
*D33
  10
 2030.0238701179
  20
 1122.5184371811
  30
0.0
  11
 1935.1618397158
  21
 1021.2956737180
  31
0.0
  70
132
   3
GMM011
 100
AcDbRadialDimension
  15
 1982.1572061409
  25
 1071.4421953489
  35
0.0
  40
 69.449536334644
   0
DIMENSION
   5
419
 100
AcDbEntity
   8
LEVEL001
 370
15
   6
CONTINUOUS
  62
8
 100
AcDbDimension
   2
*D34
  10
 1861.9538334682
  20
 1192.5184371811
  30
0.0
  11
 1861.9538334682
  21
 1122.5184371811
  31
0.0
  70
0
   3
GMM005
 100
AcDbAlignedDimension
  13
 2020.0238701179
  23
 1052.5184371811
  33
0.0
  14
 2020.0238701179
  24
 1192.5184371811
  34
0.0
  50
 90.000000000000
 100
AcDbRotatedDimension
   0
DIMENSION
   5
41A
 100
AcDbEntity
   8
LEVEL001
 370
15
   6
CONTINUOUS
  62
8
 100
AcDbDimension
   2
*D35
  10
 2510.0238701179
  20
 1376.5582623923
  30
0.0
  11
 2235.0238701179
  21
 1376.5582623923
  31
0.0
  70
0
   3
GMM005
 100
AcDbAlignedDimension
  13
 1960.0238701179
  23
 1155.4855693698
  33
0.0
  14
 2510.0238701179
  24
 1376.5582623923
  34
0.0
 100
AcDbRotatedDimension
   0
LINE
   5
41B
 100
AcDbEntity
   8
LEVEL002
 370
30
 100
AcDbLine
   6
CONTINUOUS
  62
7
  10
 2030.0238701179
  20
 1209.5184371811
  30
0.0
  11
 2327.7146999298
  21
 1209.5184371811
  31
0.0
   0
LINE
   5
41C
 100
AcDbEntity
   8
LEVEL002
 370
30
 100
AcDbLine
   6
CONTINUOUS
  62
7
  10
 2030.0238701179
  20
 1175.5184371811
  30
0.0
  11
 2327.7146999298
  21
 1175.5184371811
  31
0.0
   0
LINE
   5
41D
 100
AcDbEntity
   8
LEVEL002
 370
15
 100
AcDbLine
   6
DASHDOT
  62
8
  10
 2030.0238701179
  20
 1052.5184371811
  30
0.0
  11
 2543.9262011757
  21
 1052.5184371811
  31
0.0
   0
LINE
   5
41E
 100
AcDbEntity
   8
LEVEL002
 370
30
 100
AcDbLine
   6
CONTINUOUS
  62
7
  10
 2030.0238701179
  20
 1069.5184371811
  30
0.0
  11
 2380.0238701179
  21
 1069.5184371811
  31
0.0
   0
LINE
   5
41F
 100
AcDbEntity
   8
LEVEL002
 370
30
 100
AcDbLine
   6
CONTINUOUS
  62
7
  10
 2030.0238701179
  20
 1035.5184371811
  30
0.0
  11
 2380.0238701179
  21
 1035.5184371811
  31
0.0
   0
DIMENSION
   5
420
 100
AcDbEntity
   8
LEVEL001
 370
15
   6
CONTINUOUS
  62
8
 100
AcDbDimension
   2
*D36
  10
 2306.0238701179
  20
 1742.5184371811
  30
0.0
  11
 1991.7889281954
  21
 1523.7533791036
  31
0.0
  70
2
   1
\A1;90\U+00B0
   3
GMM012
 100
AcDb2LineAngularDimension
  13
 2030.0238701179
  23
 1209.5184371811
  33
0.0
  14
 2327.7146999298
  24
 1209.5184371811
  34
0.0
  15
 2306.0238701179
  25
 1292.5184371811
  35
0.0
  16
 1861.6285535018
  26
 1209.5228811343
  36
0.0
   0
LINE
   5
421
 100
AcDbEntity
   8
LEVEL002
 370
15
 100
AcDbLine
   6
DASHDOT
  62
8
  10
 2030.0238701179
  20
 1192.5184371811
  30
0.0
  11
 2543.9262011757
  21
 1192.5184371811
  31
0.0
   0
ARC
   5
422
 100
AcDbEntity
   8
LEVEL002
 370
15
   6
HIDDEN
  62
2
 100
AcDbCircle
  10
 2393.0238701179
  20
 1626.5184371811
  30
0.0
  40
 87.000000000000
 100
AcDbArc
  50
0.0
  51
 180.00000000000
   0
ARC
   5
423
 100
AcDbEntity
   8
LEVEL002
 370
15
   6
HIDDEN
  62
2
 100
AcDbCircle
  10
 2393.0238701179
  20
 1626.5184371811
  30
0.0
  40
 53.000000000000
 100
AcDbArc
  50
0.0
  51
 180.00000000000
   0
ARC
   5
424
 100
AcDbEntity
   8
LEVEL002
 370
15
   6
DASHDOT
  62
8
 100
AcDbCircle
  10
 2393.0238701179
  20
 1626.5184371811
  30
0.0
  40
 70.000000000000
 100
AcDbArc
  50
0.0
  51
 180.00000000000
   0
LINE
   5
425
 100
AcDbEntity
   8
LEVEL002
 370
15
 100
AcDbLine
   6
HIDDEN
  62
2
  10
 2306.0238701179
  20
 1292.5184371811
  30
0.0
  11
 2306.0238701179
  21
 1626.5184371811
  31
0.0
   0
LINE
   5
426
 100
AcDbEntity
   8
LEVEL002
 370
15
 100
AcDbLine
   6
DASHDOT
  62
8
  10
 2323.0238701179
  20
 1626.5184371811
  30
0.0
  11
 2323.0238701179
  21
 1109.2589827177
  31
0.0
   0
LINE
   5
427
 100
AcDbEntity
   8
LEVEL002
 370
15
 100
AcDbLine
   6
HIDDEN
  62
2
  10
 2340.0238701179
  20
 1292.5184371811
  30
0.0
  11
 2340.0238701179
  21
 1626.5184371811
  31
0.0
   0
LINE
   5
428
 100
AcDbEntity
   8
LEVEL002
 370
15
 100
AcDbLine
   6
HIDDEN
  62
2
  10
 2446.0238701179
  20
 1322.5184371811
  30
0.0
  11
 2446.0238701179
  21
 1626.5184371811
  31
0.0
   0
LINE
   5
429
 100
AcDbEntity
   8
LEVEL002
 370
15
 100
AcDbLine
   6
DASHDOT
  62
8
  10
 2463.0238701179
  20
 1626.5184371811
  30
0.0
  11
 2463.0238701179
  21
 1109.2589827177
  31
0.0
   0
LINE
   5
42A
 100
AcDbEntity
   8
LEVEL002
 370
15
 100
AcDbLine
   6
HIDDEN
  62
2
  10
 2480.0238701179
  20
 1322.5184371811
  30
0.0
  11
 2480.0238701179
  21
 1626.5184371811
  31
0.0
   0
DIMENSION
   5
42B
 100
AcDbEntity
   8
LEVEL001
 370
15
   6
CONTINUOUS
  62
8
 100
AcDbDimension
   2
*D37
  10
 2780.6910592291
  20
 1917.3333645149
  30
0.0
  11
 2740.1607157021
  21
 1917.3333645149
  31
0.0
  70
128
   3
GMM002
 100
AcDbAlignedDimension
  13
 2814.6910592291
  23
 1917.3333645149
  33
0.0
  14
 2780.6910592291
  24
 1917.3333645149
  34
0.0
  50
 180.00000000000
 100
AcDbRotatedDimension
   0
ARC
   5
42C
 100
AcDbEntity
   8
LEVEL002
 370
30
   6
CONTINUOUS
  62
7
 100
AcDbCircle
  10
 2797.6910592291
  20
 1812.2858953431
  30
0.0
  40
 17.000000000000
 100
AcDbArc
  50
 180.00000000000
  51
0.0
   0
LINE
   5
42D
 100
AcDbEntity
   8
LEVEL002
 370
15
 100
AcDbLine
   6
DASHDOT
  62
8
  10
 2837.6910592291
  20
 1812.2858953431
  30
0.0
  11
 2757.6910592291
  21
 1812.2858953431
  31
0.0
   0
DIMENSION
   5
42E
 100
AcDbEntity
   8
LEVEL001
 370
15
   6
CONTINUOUS
  62
8
 100
AcDbDimension
   2
*D38
  10
 2917.0175772118
  20
 2362.2858953431
  30
0.0
  11
 2917.0175772118
  21
 2087.2858953431
  31
0.0
  70
0
   3
GMM005
 100
AcDbAlignedDimension
  13
 2837.6910592291
  23
 1812.2858953431
  33
0.0
  14
 2947.6910592291
  24
 2362.2858953431
  34
0.0
  50
 90.000000000000
 100
AcDbRotatedDimension
   0
LINE
   5
42F
 100
AcDbEntity
   8
LEVEL002
 370
30
 100
AcDbLine
   6
CONTINUOUS
  62
7
  10
 2780.6910592291
  20
 2014.2858953431
  30
0.0
  11
 2780.6910592291
  21
 1812.2858953431
  31
0.0
   0
LINE
   5
430
 100
AcDbEntity
   8
LEVEL002
 370
30
 100
AcDbLine
   6
CONTINUOUS
  62
7
  10
 2814.6910592291
  20
 2221.2858953431
  30
0.0
  11
 2814.6910592291
  21
 1812.2858953431
  31
0.0
   0
LINE
   5
431
 100
AcDbEntity
   8
LEVEL002
 370
15
 100
AcDbLine
   6
DASHDOT
  62
8
  10
 2797.6910592291
  20
 2415.6654000462
  30
0.0
  11
 2797.6910592291
  21
 1777.5316256956
  31
0.0
   0
MTEXT
   5
433
 100
AcDbEntity
   8
LEVEL002
 370
15
  62
8
 100
AcDbMText
  10
 3794.9999999995
  20
 200.83333333345
  30
0.0
  40
 25.000000000000
  41
0.0
  71
5
  72
1
   1
\T1.000000;ＦＳＲＴ－１
   7
GMM002
  44
 0.79999984000003
   0
ENDSEC
  0
SECTION
  2
OBJECTS
  0
DICTIONARY
  5
C
100
AcDbDictionary
  3
ACAD_GROUP
350
D
  3
ACAD_MLINESTYLE
350
1B
  3
DWGPROPS
350
1C
  0
DICTIONARY
  5
D
102
{ACAD_REACTORS
330
C
102
}
100
AcDbDictionary
  0
DICTIONARY
  5
1B
102
{ACAD_REACTORS
330
C
102
}
100
AcDbDictionary
  3
STANDARD
350
1D
  0
MLINESTYLE
  5
1D
102
{ACAD_REACTORS
330
1B
102
}
100
AcDbMlineStyle
  2
STANDARD
 70
     0
  3

 62
   256
 51
90.0
 52
90.0
 71
     2
 49
0.5
 62
   256
  6
BYLAYER
 49
-0.5
 62
   256
  6
BYLAYER
   0
XRECORD
   5
1C
 102
{ACAD_REACTORS
 330
C
 102
}
 330
C
 100
AcDbXrecord
 280
1
   1
DWGPROPS COOKIE
   2
 
   3
 
   4
 
   6
 
   7
00000000.DRW
   8
 
   9

 300
 = 
 301
 = 
 302
 = 
 303
 = 
 304
 = 
 305
 = 
 306
 = 
 307
 = 
 308
 = 
 309
 = 
  40
0.0
  41
 2460200.5000000
  42
 2460200.5000000
   1

  90
10
   0
ENDSEC
   0
EOF
