   0
SECTION
   2
HEADER
   9
$ACADVER
   1
AC1015
   9
$DWGCODEPAGE
   3
ANSI_932
   9
$LIMMIN
  10
0.0
  20
0.0
   9
$LIMMAX
  10
 840.00000000000
  20
 594.00000000000
   9
$EXTMIN
  10
0.0
  20
0.0
  30
0.0
   9
$EXTMAX
  10
 840.00000000000
  20
 594.00000000000
  30
0.0
   9
$LTSCALE
  40
 16.800000000000
   9
$HANDSEED
   5
50C
   0
ENDSEC
   0
SECTION
   2
TABLES
  0
TABLE
  2
VPORT
  5
8
100
AcDbSymbolTable
 70
     1
  0
VPORT
  5
50B
100
AcDbSymbolTableRecord
100
AcDbViewportTableRecord
  2
*ACTIVE
 70
     0
 10
0.0
 20
0.0
 11
1.0
 21
1.0
  12
 420.00000000000
  22
 297.00000000000
 13
0.0
 23
0.0
 14
1.0
 24
1.0
 15
0.0
 25
0.0
 16
0.0
 26
0.0
 36
1.0
 17
0.0
 27
0.0
 37
0.0
  40
 840.00000000000
  41
 1.4787878787879
 42
50.0
 43
0.0
 44
0.0
 50
0.0
 51
0.0
 71
     0
 72
   100
 73
     1
 74
     1
 75
     0
 76
     0
 77
     0
 78
     0
  0
ENDTAB
  0
TABLE
  2
LTYPE
  5
5
100
AcDbSymbolTable
 70
    25
  0
LTYPE
  5
12
100
AcDbSymbolTableRecord
100
AcDbLinetypeTableRecord
  2
BYBLOCK
 70
     0
  3

 72
    65
 73
     0
 40
0.0
  0
LTYPE
  5
13
100
AcDbSymbolTableRecord
100
AcDbLinetypeTableRecord
  2
BYLAYER
 70
     0
  3

 72
    65
 73
     0
 40
0.0
  0
LTYPE
  5
14
100
AcDbSymbolTableRecord
100
AcDbLinetypeTableRecord
  2
CONTINUOUS
 70
     0
  3
Solid line
 72
    65
 73
     0
 40
0.0
  0
LTYPE
  5
20
100
AcDbSymbolTableRecord
100
AcDbLinetypeTableRecord
  2
BORDER
 70
     0
  3
__ __ . __ __ . __ __ . __ __ . __ __ . __ __ .
 72
    65
 73
     6
 40
1.75
 49
0.5
 74
     0
 49
-0.25
 74
     0
 49
0.5
 74
     0
 49
-0.25
 74
     0
 49
0.0
 74
     0
 49
-0.25
 74
     0
  0
LTYPE
  5
21
100
AcDbSymbolTableRecord
100
AcDbLinetypeTableRecord
  2
BORDER2
 70
     0
  3
__.__.__.__.__.__.__.__.__.__.__.__.__.__.__.__
 72
    65
 73
     6
 40
0.875
 49
0.25
 74
     0
 49
-0.125
 74
     0
 49
0.25
 74
     0
 49
-0.125
 74
     0
 49
0.0
 74
     0
 49
-0.125
 74
     0
  0
LTYPE
  5
22
100
AcDbSymbolTableRecord
100
AcDbLinetypeTableRecord
  2
BORDERX2
 70
     0
  3
____  ____  .  ____  ____  .  ____  ____  .  __
 72
    65
 73
     6
 40
3.5
 49
1.0
 74
     0
 49
-0.5
 74
     0
 49
1.0
 74
     0
 49
-0.5
 74
     0
 49
0.0
 74
     0
 49
-0.5
 74
     0
  0
LTYPE
  5
23
100
AcDbSymbolTableRecord
100
AcDbLinetypeTableRecord
  2
CENTER
 70
     0
  3
____ _ ____ _ ____ _ ____ _ ____ _ ____ _ ____ 
 72
    65
 73
     4
 40
2.0
 49
1.25
 74
     0
 49
-0.25
 74
     0
 49
0.25
 74
     0
 49
-0.25
 74
     0
  0
LTYPE
  5
24
100
AcDbSymbolTableRecord
100
AcDbLinetypeTableRecord
  2
CENTER2
 70
     0
  3
___ _ ___ _ ___ _ ___ _ ___ _ ___ _ ___ _ ___ _
 72
    65
 73
     4
 40
1.125
 49
0.75
 74
     0
 49
-0.125
 74
     0
 49
0.125
 74
     0
 49
-0.125
 74
     0
  0
LTYPE
  5
25
100
AcDbSymbolTableRecord
100
AcDbLinetypeTableRecord
  2
CENTERX2
 70
     0
  3
________  __  ________  __  ________  __  _____
 72
    65
 73
     4
 40
4.0
 49
2.5
 74
     0
 49
-0.5
 74
     0
 49
0.5
 74
     0
 49
-0.5
 74
     0
  0
LTYPE
  5
26
100
AcDbSymbolTableRecord
100
AcDbLinetypeTableRecord
  2
DASHDOT
 70
     0
  3
__ . __ . __ . __ . __ . __ . __ . __ . __ . __
 72
    65
 73
     4
 40
1.0
 49
0.5
 74
     0
 49
-0.25
 74
     0
 49
0.0
 74
     0
 49
-0.25
 74
     0
  0
LTYPE
  5
27
100
AcDbSymbolTableRecord
100
AcDbLinetypeTableRecord
  2
DASHDOT2
 70
     0
  3
_._._._._._._._._._._._._._._._._._._._._._._._
 72
    65
 73
     4
 40
0.5
 49
0.25
 74
     0
 49
-0.125
 74
     0
 49
0.0
 74
     0
 49
-0.125
 74
     0
  0
LTYPE
  5
28
100
AcDbSymbolTableRecord
100
AcDbLinetypeTableRecord
  2
DASHDOTX2
 70
     0
  3
____  .  ____  .  ____  .  ____  .  ____  .  __
 72
    65
 73
     4
 40
2.0
 49
1.0
 74
     0
 49
-0.5
 74
     0
 49
0.0
 74
     0
 49
-0.5
 74
     0
  0
LTYPE
  5
29
100
AcDbSymbolTableRecord
100
AcDbLinetypeTableRecord
  2
DASHED
 70
     0
  3
__ __ __ __ __ __ __ __ __ __ __ __ __ __ __ __
 72
    65
 73
     2
 40
0.75
 49
0.5
 74
     0
 49
-0.25
 74
     0
  0
LTYPE
  5
2A
100
AcDbSymbolTableRecord
100
AcDbLinetypeTableRecord
  2
DASHED2
 70
     0
  3
_ _ _ _ _ _ _ _ _ _ _ _ _ _ _ _ _ _ _ _ _ _ _ _
 72
    65
 73
     2
 40
0.375
 49
0.25
 74
     0
 49
-0.125
 74
     0
  0
LTYPE
  5
2B
100
AcDbSymbolTableRecord
100
AcDbLinetypeTableRecord
  2
DASHEDX2
 70
     0
  3
____  ____  ____  ____  ____  ____  ____  ____ 
 72
    65
 73
     2
 40
1.5
 49
1.0
 74
     0
 49
-0.5
 74
     0
  0
LTYPE
  5
2C
100
AcDbSymbolTableRecord
100
AcDbLinetypeTableRecord
  2
DIVIDE
 70
     0
  3
____ . . ____ . . ____ . . ____ . . ____ . . __
 72
    65
 73
     6
 40
1.25
 49
0.5
 74
     0
 49
-0.25
 74
     0
 49
0.0
 74
     0
 49
-0.25
 74
     0
 49
0.0
 74
     0
 49
-0.25
 74
     0
  0
LTYPE
  5
2D
100
AcDbSymbolTableRecord
100
AcDbLinetypeTableRecord
  2
DIVIDE2
 70
     0
  3
__..__..__..__..__..__..__..__..__..__..__..__.
 72
    65
 73
     6
 40
0.625
 49
0.25
 74
     0
 49
-0.125
 74
     0
 49
0.0
 74
     0
 49
-0.125
 74
     0
 49
0.0
 74
     0
 49
-0.125
 74
     0
  0
LTYPE
  5
2E
100
AcDbSymbolTableRecord
100
AcDbLinetypeTableRecord
  2
DIVIDEX2
 70
     0
  3
________  .  .  ________  .  .  ________  .  . 
 72
    65
 73
     6
 40
2.5
 49
1.0
 74
     0
 49
-0.5
 74
     0
 49
0.0
 74
     0
 49
-0.5
 74
     0
 49
0.0
 74
     0
 49
-0.5
 74
     0
  0
LTYPE
  5
2F
100
AcDbSymbolTableRecord
100
AcDbLinetypeTableRecord
  2
DOT
 70
     0
  3
. . . . . . . . . . . . . . . . . . . . . . . .
 72
    65
 73
     2
 40
0.25
 49
0.0
 74
     0
 49
-0.25
 74
     0
  0
LTYPE
  5
30
100
AcDbSymbolTableRecord
100
AcDbLinetypeTableRecord
  2
DOT2
 70
     0
  3
...............................................
 72
    65
 73
     2
 40
0.125
 49
0.0
 74
     0
 49
-0.125
 74
     0
  0
LTYPE
  5
31
100
AcDbSymbolTableRecord
100
AcDbLinetypeTableRecord
  2
DOTX2
 70
     0
  3
.  .  .  .  .  .  .  .  .  .  .  .  .  .  .  . 
 72
    65
 73
     2
 40
0.5
 49
0.0
 74
     0
 49
-0.5
 74
     0
  0
LTYPE
  5
32
100
AcDbSymbolTableRecord
100
AcDbLinetypeTableRecord
  2
HIDDEN
 70
     0
  3
__ __ __ __ __ __ __ __ __ __ __ __ __ __ __ __
 72
    65
 73
     2
 40
0.375
 49
0.25
 74
     0
 49
-0.125
 74
     0
  0
LTYPE
  5
33
100
AcDbSymbolTableRecord
100
AcDbLinetypeTableRecord
  2
HIDDEN2
 70
     0
  3
_ _ _ _ _ _ _ _ _ _ _ _ _ _ _ _ _ _ _ _ _ _ _ _
 72
    65
 73
     2
 40
0.1875
 49
0.125
 74
     0
 49
-0.0625
 74
     0
  0
LTYPE
  5
34
100
AcDbSymbolTableRecord
100
AcDbLinetypeTableRecord
  2
HIDDENX2
 70
     0
  3
____ ____ ____ ____ ____ ____ ____ ____ ____ __
 72
    65
 73
     2
 40
0.75
 49
0.5
 74
     0
 49
-0.25
 74
     0
  0
LTYPE
  5
35
100
AcDbSymbolTableRecord
100
AcDbLinetypeTableRecord
  2
PHANTOM
 70
     0
  3
______  __  __  ______  __  __  ______  __  __ 
 72
    65
 73
     6
 40
2.5
 49
1.25
 74
     0
 49
-0.25
 74
     0
 49
0.25
 74
     0
 49
-0.25
 74
     0
 49
0.25
 74
     0
 49
-0.25
 74
     0
  0
LTYPE
  5
36
100
AcDbSymbolTableRecord
100
AcDbLinetypeTableRecord
  2
PHANTOM2
 70
     0
  3
___ _ _ ___ _ _ ___ _ _ ___ _ _ ___ _ _ ___ _ _
 72
    65
 73
     6
 40
1.25
 49
0.625
 74
     0
 49
-0.125
 74
     0
 49
0.125
 74
     0
 49
-0.125
 74
     0
 49
0.125
 74
     0
 49
-0.125
 74
     0
  0
LTYPE
  5
37
100
AcDbSymbolTableRecord
100
AcDbLinetypeTableRecord
  2
PHANTOMX2
 70
     0
  3
____________    ____    ____    ____________   
 72
    65
 73
     6
 40
5.0
 49
2.5
 74
     0
 49
-0.5
 74
     0
 49
0.5
 74
     0
 49
-0.5
 74
     0
 49
0.5
 74
     0
 49
-0.5
 74
     0
  0
ENDTAB
   0
TABLE
   2
LAYER
   5
2
 100
AcDbSymbolTable
  70
3
   0
LAYER
   5
E
 100
AcDbSymbolTableRecord
 100
AcDbLayerTableRecord
   2
0
  70
0
  62
7
   6
CONTINUOUS
 390
30
   0
LAYER
   5
39
 100
AcDbSymbolTableRecord
 100
AcDbLayerTableRecord
   2
LEVEL001
  70
0
  62
7
   6
CONTINUOUS
 390
30
   0
LAYER
   5
3A
 100
AcDbSymbolTableRecord
 100
AcDbLayerTableRecord
   2
LEVEL002
  70
0
  62
7
   6
CONTINUOUS
 390
30
   0
ENDTAB
  0
TABLE
  2
STYLE
  5
3
100
AcDbSymbolTable
  70
6
  0
STYLE
  5
F
100
AcDbSymbolTableRecord
100
AcDbTextStyleTableRecord
  2
STANDARD
 70
     0
 40
0.0
 41
1.0
 50
0.0
 71
     0
 42
0.2
  3
TXT
  4
BIGFONT
  0
STYLE
  5
38
100
AcDbSymbolTableRecord
100
AcDbTextStyleTableRecord
  2
STANDARD1
 70
     4
 40
0.0
 41
1.0
 50
0.0
 71
     0
 42
0.2
  3
TXT
  4
BIGFONT
   0
STYLE
   5
3B
 100
AcDbSymbolTableRecord
 100
AcDbTextStyleTableRecord
   2
GMM001
  70
0
  40
0.0
  41
 0.80000000000000
  50
0.0
  71
     0
  42
1.0
   3
txt.shx
   4
bigfont.shx
   0
STYLE
   5
3C
 100
AcDbSymbolTableRecord
 100
AcDbTextStyleTableRecord
   2
GMM002
  70
0
  40
0.0
  41
 1.0000000000000
  50
0.0
  71
     0
  42
1.0
   3
txt.shx
   4
bigfont.shx
   0
STYLE
   5
3D
 100
AcDbSymbolTableRecord
 100
AcDbTextStyleTableRecord
   2
GMM003
  70
0
  40
0.0
  41
 1.0714285714286
  50
0.0
  71
     0
  42
1.0
   3
txt.shx
   4
bigfont.shx
   0
STYLE
   5
3E
 100
AcDbSymbolTableRecord
 100
AcDbTextStyleTableRecord
   2
GMM004
  70
0
  40
0.0
  41
 0.88888888888889
  50
0.0
  71
     0
  42
1.0
   3
txt.shx
   4
bigfont.shx
   0
ENDTAB
  0
TABLE
  2
VIEW
  5
6
100
AcDbSymbolTable
 70
     0
  0
ENDTAB
  0
TABLE
  2
UCS
  5
7
100
AcDbSymbolTable
 70
     0
  0
ENDTAB
  0
TABLE
  2
APPID
  5
9
100
AcDbSymbolTable
 70
     1
  0
APPID
  5
10
100
AcDbSymbolTableRecord
100
AcDbRegAppTableRecord
  2
ACAD
 70
     0
  0
ENDTAB
   0
TABLE
   2
DIMSTYLE
   5
A
 100
AcDbSymbolTable
  70
3
 100
AcDbDimStyleTable
  0
DIMSTYLE
105
1D
100
AcDbSymbolTableRecord
100
AcDbDimStyleTableRecord
  2
STANDARD
 70
     0
  3

  4

  5

  6

  7

 40
1.0
 41
0.18
 42
0.0625
 43
0.38
 44
0.18
 45
0.0
 46
0.0
 47
0.0
 48
0.0
140
0.18
141
0.09
142
0.0
143
25.4
144
1.0
145
0.0
146
1.0
147
0.09
 71
     0
 72
     0
 73
     1
 74
     1
 75
     0
 76
     0
 77
     0
 78
     0
170
     0
171
     2
172
     0
173
     0
174
     0
175
     0
176
     0
177
     0
178
     0
270
     2
271
     4
272
     4
273
     2
274
     2
340
F
275
     0
280
     0
281
     0
282
     0
283
     1
284
     0
285
     0
286
     0
287
     3
288
     0
   0
DIMSTYLE
 105
3F
 100
AcDbSymbolTableRecord
 100
AcDbDimStyleTableRecord
   2
GMM001
  70
0
   3

   4

   5

   6

   7

  40
 1.0000000000000
  41
 4.0000000000000
  42
 2.0000000000000
  43
 16.000000000000
  44
 2.0000000000000
  45
0.0
  46
0.0
  47
0.0
  48
0.0
 140
 5.0000000000000
 141
 2.0000000000000
 142
0.0
 143
 0.39400000000000E-1
 144
 1.0000000000000
 145
0.0
 146
 1.0000000000000
 147
 2.0000000000000
  71
0
  72
0
  73
0
  74
0
  75
0
  76
0
  77
3
  78
8
 170
0
 171
2
 172
1
 173
1
 174
0
 175
0
 176
8
 177
8
 178
8
 270
2
 271
6
 272
0
 273
2
 274
2
 340
3C
 275
0
 280
0
 281
0
 282
0
 283
1
 284
0
 285
0
 286
0
 287
3
 288
0
   0
ENDTAB
  0
TABLE
  2
BLOCK_RECORD
  5
1
100
AcDbSymbolTable
 70
     0
  0
BLOCK_RECORD
  5
18
100
AcDbSymbolTableRecord
100
AcDbBlockTableRecord
  2
*MODEL_SPACE
  0
BLOCK_RECORD
  5
15
100
AcDbSymbolTableRecord
100
AcDbBlockTableRecord
  2
*PAPER_SPACE
   0
BLOCK_RECORD
   5
40
 100
AcDbSymbolTableRecord
 100
AcDbBlockTableRecord
   2
*D1
   0
BLOCK_RECORD
   5
41
 100
AcDbSymbolTableRecord
 100
AcDbBlockTableRecord
   2
*D2
   0
BLOCK_RECORD
   5
42
 100
AcDbSymbolTableRecord
 100
AcDbBlockTableRecord
   2
*D3
   0
BLOCK_RECORD
   5
43
 100
AcDbSymbolTableRecord
 100
AcDbBlockTableRecord
   2
*D4
   0
BLOCK_RECORD
   5
44
 100
AcDbSymbolTableRecord
 100
AcDbBlockTableRecord
   2
*D5
   0
BLOCK_RECORD
   5
45
 100
AcDbSymbolTableRecord
 100
AcDbBlockTableRecord
   2
*D6
   0
BLOCK_RECORD
   5
46
 100
AcDbSymbolTableRecord
 100
AcDbBlockTableRecord
   2
*D7
   0
BLOCK_RECORD
   5
47
 100
AcDbSymbolTableRecord
 100
AcDbBlockTableRecord
   2
*D8
   0
BLOCK_RECORD
   5
48
 100
AcDbSymbolTableRecord
 100
AcDbBlockTableRecord
   2
*D9
   0
BLOCK_RECORD
   5
49
 100
AcDbSymbolTableRecord
 100
AcDbBlockTableRecord
   2
*D10
   0
BLOCK_RECORD
   5
4A
 100
AcDbSymbolTableRecord
 100
AcDbBlockTableRecord
   2
*D11
   0
BLOCK_RECORD
   5
4B
 100
AcDbSymbolTableRecord
 100
AcDbBlockTableRecord
   2
*D12
   0
BLOCK_RECORD
   5
4C
 100
AcDbSymbolTableRecord
 100
AcDbBlockTableRecord
   2
*D13
   0
BLOCK_RECORD
   5
4D
 100
AcDbSymbolTableRecord
 100
AcDbBlockTableRecord
   2
*D14
   0
BLOCK_RECORD
   5
4E
 100
AcDbSymbolTableRecord
 100
AcDbBlockTableRecord
   2
*D15
   0
BLOCK_RECORD
   5
4F
 100
AcDbSymbolTableRecord
 100
AcDbBlockTableRecord
   2
*D16
   0
BLOCK_RECORD
   5
50
 100
AcDbSymbolTableRecord
 100
AcDbBlockTableRecord
   2
*D17
   0
BLOCK_RECORD
   5
51
 100
AcDbSymbolTableRecord
 100
AcDbBlockTableRecord
   2
*D18
   0
BLOCK_RECORD
   5
52
 100
AcDbSymbolTableRecord
 100
AcDbBlockTableRecord
   2
*D19
   0
BLOCK_RECORD
   5
53
 100
AcDbSymbolTableRecord
 100
AcDbBlockTableRecord
   2
*D20
   0
BLOCK_RECORD
   5
54
 100
AcDbSymbolTableRecord
 100
AcDbBlockTableRecord
   2
*D21
   0
BLOCK_RECORD
   5
55
 100
AcDbSymbolTableRecord
 100
AcDbBlockTableRecord
   2
*D22
   0
BLOCK_RECORD
   5
56
 100
AcDbSymbolTableRecord
 100
AcDbBlockTableRecord
   2
*D23
   0
BLOCK_RECORD
   5
57
 100
AcDbSymbolTableRecord
 100
AcDbBlockTableRecord
   2
*D24
   0
BLOCK_RECORD
   5
58
 100
AcDbSymbolTableRecord
 100
AcDbBlockTableRecord
   2
*D25
   0
BLOCK_RECORD
   5
59
 100
AcDbSymbolTableRecord
 100
AcDbBlockTableRecord
   2
*D26
   0
BLOCK_RECORD
   5
5A
 100
AcDbSymbolTableRecord
 100
AcDbBlockTableRecord
   2
*D27
   0
BLOCK_RECORD
   5
5B
 100
AcDbSymbolTableRecord
 100
AcDbBlockTableRecord
   2
*D28
   0
BLOCK_RECORD
   5
5C
 100
AcDbSymbolTableRecord
 100
AcDbBlockTableRecord
   2
*D29
   0
BLOCK_RECORD
   5
5D
 100
AcDbSymbolTableRecord
 100
AcDbBlockTableRecord
   2
*D30
   0
BLOCK_RECORD
   5
5E
 100
AcDbSymbolTableRecord
 100
AcDbBlockTableRecord
   2
*D31
   0
BLOCK_RECORD
   5
5F
 100
AcDbSymbolTableRecord
 100
AcDbBlockTableRecord
   2
*D32
   0
BLOCK_RECORD
   5
60
 100
AcDbSymbolTableRecord
 100
AcDbBlockTableRecord
   2
_ARCHTICK
   0
BLOCK_RECORD
   5
61
 100
AcDbSymbolTableRecord
 100
AcDbBlockTableRecord
   2
_BOXBLANK
   0
BLOCK_RECORD
   5
62
 100
AcDbSymbolTableRecord
 100
AcDbBlockTableRecord
   2
_BOXFILLED
   0
BLOCK_RECORD
   5
63
 100
AcDbSymbolTableRecord
 100
AcDbBlockTableRecord
   2
_CLOSED
   0
BLOCK_RECORD
   5
64
 100
AcDbSymbolTableRecord
 100
AcDbBlockTableRecord
   2
_CLOSEDBLANK
   0
BLOCK_RECORD
   5
65
 100
AcDbSymbolTableRecord
 100
AcDbBlockTableRecord
   2
_DATUMBLANK
   0
BLOCK_RECORD
   5
66
 100
AcDbSymbolTableRecord
 100
AcDbBlockTableRecord
   2
_DATUMFILLED
   0
BLOCK_RECORD
   5
67
 100
AcDbSymbolTableRecord
 100
AcDbBlockTableRecord
   2
_DOT
   0
BLOCK_RECORD
   5
68
 100
AcDbSymbolTableRecord
 100
AcDbBlockTableRecord
   2
_DOTBLANK
   0
BLOCK_RECORD
   5
69
 100
AcDbSymbolTableRecord
 100
AcDbBlockTableRecord
   2
_DOTSMALL
   0
BLOCK_RECORD
   5
6A
 100
AcDbSymbolTableRecord
 100
AcDbBlockTableRecord
   2
_INTEGRAL
   0
BLOCK_RECORD
   5
6B
 100
AcDbSymbolTableRecord
 100
AcDbBlockTableRecord
   2
_NONE
   0
BLOCK_RECORD
   5
6C
 100
AcDbSymbolTableRecord
 100
AcDbBlockTableRecord
   2
_OBLIQUE
   0
BLOCK_RECORD
   5
6D
 100
AcDbSymbolTableRecord
 100
AcDbBlockTableRecord
   2
_OPEN
   0
BLOCK_RECORD
   5
6E
 100
AcDbSymbolTableRecord
 100
AcDbBlockTableRecord
   2
_OPEN30
   0
BLOCK_RECORD
   5
6F
 100
AcDbSymbolTableRecord
 100
AcDbBlockTableRecord
   2
_OPEN90
   0
BLOCK_RECORD
   5
70
 100
AcDbSymbolTableRecord
 100
AcDbBlockTableRecord
   2
_ORIGIN
   0
ENDTAB
   0
ENDSEC
  0
SECTION
  2
BLOCKS
  0
BLOCK
  5
19
100
AcDbEntity
  8
0
100
AcDbBlockBegin
  2
*MODEL_SPACE
 70
     0
 10
0.0
 20
0.0
 30
0.0
  3
*MODEL_SPACE
  1

  0
ENDBLK
  5
1A
100
AcDbEntity
  8
0
100
AcDbBlockEnd
  0
BLOCK
  5
16
100
AcDbEntity
 67
     1
  8
0
100
AcDbBlockBegin
  2
*PAPER_SPACE
 70
     0
 10
0.0
 20
0.0
 30
0.0
  3
*PAPER_SPACE
  1

  0
ENDBLK
  5
17
100
AcDbEntity
 67
     1
  8
0
100
AcDbBlockEnd
   0
BLOCK
   5
71
 100
AcDbEntity
   8
0
 100
AcDbBlockBegin
   2
_ARCHTICK
  70
0
  10
0.0
  20
0.0
  30
0.0
   3
_ARCHTICK
   0
POLYLINE
   5
72
 100
AcDbEntity
   8
0
 370
-2
   6
BYBLOCK
  62
0
 100
AcDb2dPolyline
  66
1
  10
0.0
  20
0.0
  30
0.0
  70
1
  40
 0.15000000000000
  41
 0.15000000000000
   0
VERTEX
   5
73
 100
AcDbEntity
   8
0
   6
BYBLOCK
  62
0
 100
AcDbVertex
 100
AcDb2dVertex
  10
-0.50000000000000
  20
-0.50000000000000
  30
0.0
  40
 0.15000000000000
  41
 0.15000000000000
   0
VERTEX
   5
74
 100
AcDbEntity
   8
0
   6
BYBLOCK
  62
0
 100
AcDbVertex
 100
AcDb2dVertex
  10
 0.50000000000000
  20
 0.50000000000000
  30
0.0
  40
 0.15000000000000
  41
 0.15000000000000
   0
SEQEND
   5
75
 100
AcDbEntity
   8
0
   6
BYBLOCK
  62
0
   0
ENDBLK
   5
76
 100
AcDbEntity
   8
0
 100
AcDbBlockEnd
   0
BLOCK
   5
77
 100
AcDbEntity
   8
0
 100
AcDbBlockBegin
   2
_OBLIQUE
  70
0
  10
0.0
  20
0.0
  30
0.0
   3
_OBLIQUE
   0
LINE
   5
78
 100
AcDbEntity
   8
0
 370
-2
 100
AcDbLine
   6
BYBLOCK
  62
0
  10
-0.50000000000000
  20
-0.50000000000000
  30
0.0
  11
 0.50000000000000
  21
 0.50000000000000
  31
0.0
   0
ENDBLK
   5
79
 100
AcDbEntity
   8
0
 100
AcDbBlockEnd
   0
BLOCK
   5
7A
 100
AcDbEntity
   8
0
 100
AcDbBlockBegin
   2
_BOXBLANK
  70
0
  10
0.0
  20
0.0
  30
0.0
   3
_BOXBLANK
   0
LINE
   5
7B
 100
AcDbEntity
   8
0
 370
-2
 100
AcDbLine
   6
BYBLOCK
  62
0
  10
-0.50000000000000
  20
-0.50000000000000
  30
0.0
  11
 0.50000000000000
  21
-0.50000000000000
  31
0.0
   0
LINE
   5
7C
 100
AcDbEntity
   8
0
 370
-2
 100
AcDbLine
   6
BYBLOCK
  62
0
  10
 0.50000000000000
  20
-0.50000000000000
  30
0.0
  11
 0.50000000000000
  21
 0.50000000000000
  31
0.0
   0
LINE
   5
7D
 100
AcDbEntity
   8
0
 370
-2
 100
AcDbLine
   6
BYBLOCK
  62
0
  10
 0.50000000000000
  20
 0.50000000000000
  30
0.0
  11
-0.50000000000000
  21
 0.50000000000000
  31
0.0
   0
LINE
   5
7E
 100
AcDbEntity
   8
0
 370
-2
 100
AcDbLine
   6
BYBLOCK
  62
0
  10
-0.50000000000000
  20
 0.50000000000000
  30
0.0
  11
-0.50000000000000
  21
-0.50000000000000
  31
0.0
   0
LINE
   5
7F
 100
AcDbEntity
   8
0
 370
-2
 100
AcDbLine
   6
BYBLOCK
  62
0
  10
-0.50000000000000
  20
0.0
  30
0.0
  11
-1.0000000000000
  21
0.0
  31
0.0
   0
ENDBLK
   5
80
 100
AcDbEntity
   8
0
 100
AcDbBlockEnd
   0
BLOCK
   5
81
 100
AcDbEntity
   8
0
 100
AcDbBlockBegin
   2
_BOXFILLED
  70
0
  10
0.0
  20
0.0
  30
0.0
   3
_BOXFILLED
   0
SOLID
   5
82
 100
AcDbEntity
   8
0
 100
AcDbTrace
   6
BYBLOCK
  62
0
  10
-0.50000000000000
  20
 0.50000000000000
  30
0.0
  11
 0.50000000000000
  21
 0.50000000000000
  31
0.0
  12
-0.50000000000000
  22
-0.50000000000000
  32
0.0
  13
 0.50000000000000
  23
-0.50000000000000
  33
0.0
   0
LINE
   5
83
 100
AcDbEntity
   8
0
 370
-2
 100
AcDbLine
   6
BYBLOCK
  62
0
  10
-0.50000000000000
  20
0.0
  30
0.0
  11
-1.0000000000000
  21
0.0
  31
0.0
   0
ENDBLK
   5
84
 100
AcDbEntity
   8
0
 100
AcDbBlockEnd
   0
BLOCK
   5
85
 100
AcDbEntity
   8
0
 100
AcDbBlockBegin
   2
_CLOSED
  70
0
  10
0.0
  20
0.0
  30
0.0
   3
_CLOSED
   0
LINE
   5
86
 100
AcDbEntity
   8
0
 370
-2
 100
AcDbLine
   6
BYBLOCK
  62
0
  10
-1.0000000000000
  20
 0.16666666666667
  30
0.0
  11
0.0
  21
0.0
  31
0.0
   0
LINE
   5
87
 100
AcDbEntity
   8
0
 370
-2
 100
AcDbLine
   6
BYBLOCK
  62
0
  10
0.0
  20
0.0
  30
0.0
  11
-1.0000000000000
  21
-0.16666666666667
  31
0.0
   0
LINE
   5
88
 100
AcDbEntity
   8
0
 370
-2
 100
AcDbLine
   6
BYBLOCK
  62
0
  10
-1.0000000000000
  20
 0.16666666666667
  30
0.0
  11
-1.0000000000000
  21
-0.16666666666667
  31
0.0
   0
LINE
   5
89
 100
AcDbEntity
   8
0
 370
-2
 100
AcDbLine
   6
BYBLOCK
  62
0
  10
0.0
  20
0.0
  30
0.0
  11
-1.0000000000000
  21
0.0
  31
0.0
   0
ENDBLK
   5
8A
 100
AcDbEntity
   8
0
 100
AcDbBlockEnd
   0
BLOCK
   5
8B
 100
AcDbEntity
   8
0
 100
AcDbBlockBegin
   2
_OPEN
  70
0
  10
0.0
  20
0.0
  30
0.0
   3
_OPEN
   0
LINE
   5
8C
 100
AcDbEntity
   8
0
 370
-2
 100
AcDbLine
   6
BYBLOCK
  62
0
  10
-1.0000000000000
  20
 0.16666666666667
  30
0.0
  11
0.0
  21
0.0
  31
0.0
   0
LINE
   5
8D
 100
AcDbEntity
   8
0
 370
-2
 100
AcDbLine
   6
BYBLOCK
  62
0
  10
0.0
  20
0.0
  30
0.0
  11
-1.0000000000000
  21
-0.16666666666667
  31
0.0
   0
LINE
   5
8E
 100
AcDbEntity
   8
0
 370
-2
 100
AcDbLine
   6
BYBLOCK
  62
0
  10
0.0
  20
0.0
  30
0.0
  11
-1.0000000000000
  21
0.0
  31
0.0
   0
ENDBLK
   5
8F
 100
AcDbEntity
   8
0
 100
AcDbBlockEnd
   0
BLOCK
   5
90
 100
AcDbEntity
   8
0
 100
AcDbBlockBegin
   2
_OPEN30
  70
0
  10
0.0
  20
0.0
  30
0.0
   3
_OPEN30
   0
LINE
   5
91
 100
AcDbEntity
   8
0
 370
-2
 100
AcDbLine
   6
BYBLOCK
  62
0
  10
-1.0000000000000
  20
 0.26794919243110
  30
0.0
  11
0.0
  21
0.0
  31
0.0
   0
LINE
   5
92
 100
AcDbEntity
   8
0
 370
-2
 100
AcDbLine
   6
BYBLOCK
  62
0
  10
0.0
  20
0.0
  30
0.0
  11
-1.0000000000000
  21
-0.26794919243110
  31
0.0
   0
LINE
   5
93
 100
AcDbEntity
   8
0
 370
-2
 100
AcDbLine
   6
BYBLOCK
  62
0
  10
0.0
  20
0.0
  30
0.0
  11
-1.0000000000000
  21
0.0
  31
0.0
   0
ENDBLK
   5
94
 100
AcDbEntity
   8
0
 100
AcDbBlockEnd
   0
BLOCK
   5
95
 100
AcDbEntity
   8
0
 100
AcDbBlockBegin
   2
_OPEN90
  70
0
  10
0.0
  20
0.0
  30
0.0
   3
_OPEN90
   0
LINE
   5
96
 100
AcDbEntity
   8
0
 370
-2
 100
AcDbLine
   6
BYBLOCK
  62
0
  10
-0.50000000000000
  20
 0.50000000000000
  30
0.0
  11
0.0
  21
0.0
  31
0.0
   0
LINE
   5
97
 100
AcDbEntity
   8
0
 370
-2
 100
AcDbLine
   6
BYBLOCK
  62
0
  10
0.0
  20
0.0
  30
0.0
  11
-0.50000000000000
  21
-0.50000000000000
  31
0.0
   0
LINE
   5
98
 100
AcDbEntity
   8
0
 370
-2
 100
AcDbLine
   6
BYBLOCK
  62
0
  10
0.0
  20
0.0
  30
0.0
  11
-1.0000000000000
  21
0.0
  31
0.0
   0
ENDBLK
   5
99
 100
AcDbEntity
   8
0
 100
AcDbBlockEnd
   0
BLOCK
   5
9A
 100
AcDbEntity
   8
0
 100
AcDbBlockBegin
   2
_CLOSEDBLANK
  70
0
  10
0.0
  20
0.0
  30
0.0
   3
_CLOSEDBLANK
   0
LINE
   5
9B
 100
AcDbEntity
   8
0
 370
-2
 100
AcDbLine
   6
BYBLOCK
  62
0
  10
-1.0000000000000
  20
 0.16666666666667
  30
0.0
  11
0.0
  21
0.0
  31
0.0
   0
LINE
   5
9C
 100
AcDbEntity
   8
0
 370
-2
 100
AcDbLine
   6
BYBLOCK
  62
0
  10
0.0
  20
0.0
  30
0.0
  11
-1.0000000000000
  21
-0.16666666666667
  31
0.0
   0
LINE
   5
9D
 100
AcDbEntity
   8
0
 370
-2
 100
AcDbLine
   6
BYBLOCK
  62
0
  10
-1.0000000000000
  20
 0.16666666666667
  30
0.0
  11
-1.0000000000000
  21
-0.16666666666667
  31
0.0
   0
ENDBLK
   5
9E
 100
AcDbEntity
   8
0
 100
AcDbBlockEnd
   0
BLOCK
   5
9F
 100
AcDbEntity
   8
0
 100
AcDbBlockBegin
   2
_DOT
  70
0
  10
0.0
  20
0.0
  30
0.0
   3
_DOT
   0
POLYLINE
   5
A0
 100
AcDbEntity
   8
0
 370
-2
   6
BYBLOCK
  62
0
 100
AcDb2dPolyline
  66
1
  10
0.0
  20
0.0
  30
0.0
  70
1
  40
 0.50000000000000
  41
 0.50000000000000
   0
VERTEX
   5
A1
 100
AcDbEntity
   8
0
   6
BYBLOCK
  62
0
 100
AcDbVertex
 100
AcDb2dVertex
  10
-0.25000000000000
  20
0.0
  30
0.0
  42
 1.0000000000000
  40
 0.50000000000000
  41
 0.50000000000000
   0
VERTEX
   5
A2
 100
AcDbEntity
   8
0
   6
BYBLOCK
  62
0
 100
AcDbVertex
 100
AcDb2dVertex
  10
 0.25000000000000
  20
0.0
  30
0.0
  42
 1.0000000000000
  40
 0.50000000000000
  41
 0.50000000000000
   0
SEQEND
   5
A3
 100
AcDbEntity
   8
0
   6
BYBLOCK
  62
0
   0
LINE
   5
A4
 100
AcDbEntity
   8
0
 370
-2
 100
AcDbLine
   6
BYBLOCK
  62
0
  10
-0.50000000000000
  20
0.0
  30
0.0
  11
-1.0000000000000
  21
0.0
  31
0.0
   0
ENDBLK
   5
A5
 100
AcDbEntity
   8
0
 100
AcDbBlockEnd
   0
BLOCK
   5
A6
 100
AcDbEntity
   8
0
 100
AcDbBlockBegin
   2
_DOTSMALL
  70
0
  10
0.0
  20
0.0
  30
0.0
   3
_DOTSMALL
   0
POLYLINE
   5
A7
 100
AcDbEntity
   8
0
 370
-2
   6
BYBLOCK
  62
0
 100
AcDb2dPolyline
  66
1
  10
0.0
  20
0.0
  30
0.0
  70
1
  40
 0.50000000000000
  41
 0.50000000000000
   0
VERTEX
   5
A8
 100
AcDbEntity
   8
0
   6
BYBLOCK
  62
0
 100
AcDbVertex
 100
AcDb2dVertex
  10
-0.62500000000000E-1
  20
0.0
  30
0.0
  42
 1.0000000000000
  40
 0.50000000000000
  41
 0.50000000000000
   0
VERTEX
   5
A9
 100
AcDbEntity
   8
0
   6
BYBLOCK
  62
0
 100
AcDbVertex
 100
AcDb2dVertex
  10
 0.62500000000000E-1
  20
0.0
  30
0.0
  42
 1.0000000000000
  40
 0.50000000000000
  41
 0.50000000000000
   0
SEQEND
   5
AA
 100
AcDbEntity
   8
0
   6
BYBLOCK
  62
0
   0
ENDBLK
   5
AB
 100
AcDbEntity
   8
0
 100
AcDbBlockEnd
   0
BLOCK
   5
AC
 100
AcDbEntity
   8
0
 100
AcDbBlockBegin
   2
_DATUMBLANK
  70
0
  10
0.0
  20
0.0
  30
0.0
   3
_DATUMBLANK
   0
LINE
   5
AD
 100
AcDbEntity
   8
0
 370
-2
 100
AcDbLine
   6
BYBLOCK
  62
0
  10
0.0
  20
 0.57735027000000
  30
0.0
  11
-1.0000000000000
  21
0.0
  31
0.0
   0
LINE
   5
AE
 100
AcDbEntity
   8
0
 370
-2
 100
AcDbLine
   6
BYBLOCK
  62
0
  10
-1.0000000000000
  20
0.0
  30
0.0
  11
0.0
  21
-0.57735027000000
  31
0.0
   0
LINE
   5
AF
 100
AcDbEntity
   8
0
 370
-2
 100
AcDbLine
   6
BYBLOCK
  62
0
  10
0.0
  20
-0.57735027000000
  30
0.0
  11
0.0
  21
 0.57735027000000
  31
0.0
   0
ENDBLK
   5
B0
 100
AcDbEntity
   8
0
 100
AcDbBlockEnd
   0
BLOCK
   5
B1
 100
AcDbEntity
   8
0
 100
AcDbBlockBegin
   2
_DATUMFILLED
  70
0
  10
0.0
  20
0.0
  30
0.0
   3
_DATUMFILLED
   0
SOLID
   5
B2
 100
AcDbEntity
   8
0
 100
AcDbTrace
   6
BYBLOCK
  62
0
  10
0.0
  20
 0.57735027000000
  30
0.0
  11
-1.0000000000000
  21
0.0
  31
0.0
  12
0.0
  22
-0.57735027000000
  32
0.0
  13
0.0
  23
-0.57735027000000
  33
0.0
   0
ENDBLK
   5
B3
 100
AcDbEntity
   8
0
 100
AcDbBlockEnd
   0
BLOCK
   5
B4
 100
AcDbEntity
   8
0
 100
AcDbBlockBegin
   2
_ORIGIN
  70
0
  10
0.0
  20
0.0
  30
0.0
   3
_ORIGIN
   0
CIRCLE
   5
B5
 100
AcDbEntity
   8
0
 370
-2
 100
AcDbCircle
   6
BYBLOCK
  62
0
  10
0.0
  20
0.0
  30
0.0
  40
 0.50000000000000
   0
LINE
   5
B6
 100
AcDbEntity
   8
0
 370
-2
 100
AcDbLine
   6
BYBLOCK
  62
0
  10
0.0
  20
0.0
  30
0.0
  11
-1.0000000000000
  21
0.0
  31
0.0
   0
ENDBLK
   5
B7
 100
AcDbEntity
   8
0
 100
AcDbBlockEnd
   0
BLOCK
   5
B8
 100
AcDbEntity
   8
0
 100
AcDbBlockBegin
   2
_NONE
  70
0
  10
0.0
  20
0.0
  30
0.0
   3
_NONE
   0
CIRCLE
   5
B9
 100
AcDbEntity
   8
0
 370
-2
 100
AcDbCircle
   6
BYBLOCK
  62
0
  10
0.0
  20
0.0
  30
0.0
  40
 0.25000000000000
   0
ENDBLK
   5
BA
 100
AcDbEntity
   8
0
 100
AcDbBlockEnd
   0
BLOCK
   5
BB
 100
AcDbEntity
   8
0
 100
AcDbBlockBegin
   2
_DOTBLANK
  70
0
  10
0.0
  20
0.0
  30
0.0
   3
_DOTBLANK
   0
CIRCLE
   5
BC
 100
AcDbEntity
   8
0
 370
-2
 100
AcDbCircle
   6
BYBLOCK
  62
0
  10
0.0
  20
0.0
  30
0.0
  40
 0.50000000000000
   0
LINE
   5
BD
 100
AcDbEntity
   8
0
 370
-2
 100
AcDbLine
   6
BYBLOCK
  62
0
  10
-0.50000000000000
  20
0.0
  30
0.0
  11
-1.0000000000000
  21
0.0
  31
0.0
   0
ENDBLK
   5
BE
 100
AcDbEntity
   8
0
 100
AcDbBlockEnd
   0
BLOCK
   5
BF
 100
AcDbEntity
   8
0
 100
AcDbBlockBegin
   2
_INTEGRAL
  70
0
  10
0.0
  20
0.0
  30
0.0
   3
_INTEGRAL
   0
ARC
   5
C0
 100
AcDbEntity
   8
0
 370
-2
   6
BYBLOCK
  62
0
 100
AcDbCircle
  10
 0.44488800000000
  20
-0.91335000000000E-1
  30
0.0
  40
 0.45416700000000
 100
AcDbArc
  50
 102.00000000000
  51
 168.00000000000
   0
ARC
   5
C1
 100
AcDbEntity
   8
0
 370
-2
   6
BYBLOCK
  62
0
 100
AcDbCircle
  10
-0.44488800000000
  20
 0.91335000000000E-1
  30
0.0
  40
 0.45416700000000
 100
AcDbArc
  50
 282.00000000000
  51
 348.00000000000
   0
ENDBLK
   5
C2
 100
AcDbEntity
   8
0
 100
AcDbBlockEnd
   0
BLOCK
   5
C3
 100
AcDbEntity
   8
0
 100
AcDbBlockBegin
   2
*D1
  70
65
  10
0.0
  20
0.0
  30
0.0
   3
*D1
   0
LINE
   5
C4
 100
AcDbEntity
   8
LEVEL001
 370
15
 100
AcDbLine
   6
CONTINUOUS
  62
8
  10
 52.642548023213
  20
 485.49130773826
  30
0.0
  11
 52.642548023213
  21
 500.35027155405
  31
0.0
   0
LINE
   5
C5
 100
AcDbEntity
   8
LEVEL001
 370
15
 100
AcDbLine
   6
CONTINUOUS
  62
8
  10
 90.642548023212
  20
 486.49130773826
  30
0.0
  11
 90.642548023212
  21
 500.35027155405
  31
0.0
   0
LINE
   5
C6
 100
AcDbEntity
   8
LEVEL001
 370
15
 100
AcDbLine
   6
CONTINUOUS
  62
8
  10
 52.642548023213
  20
 498.35027155405
  30
0.0
  11
 71.642548023212
  21
 498.35027155405
  31
0.0
   0
LINE
   5
C7
 100
AcDbEntity
   8
LEVEL001
 370
15
 100
AcDbLine
   6
CONTINUOUS
  62
8
  10
 90.642548023212
  20
 498.35027155405
  30
0.0
  11
 71.642548023212
  21
 498.35027155405
  31
0.0
   0
SOLID
   5
C8
 100
AcDbEntity
   8
LEVEL001
 100
AcDbTrace
   6
CONTINUOUS
  62
8
  10
 52.642548023213
  20
 498.35027155405
  30
0.0
  11
 56.642548023213
  21
 497.64496363122
  31
0.0
  12
 56.642548023213
  22
 499.05557947689
  32
0.0
  13
 56.642548023213
  23
 499.05557947689
  33
0.0
   0
SOLID
   5
C9
 100
AcDbEntity
   8
LEVEL001
 100
AcDbTrace
   6
CONTINUOUS
  62
8
  10
 90.642548023212
  20
 498.35027155405
  30
0.0
  11
 86.642548023212
  21
 499.05557947689
  31
0.0
  12
 86.642548023212
  22
 497.64496363122
  32
0.0
  13
 86.642548023212
  23
 497.64496363122
  33
0.0
   0
MTEXT
   5
CA
 100
AcDbEntity
   8
LEVEL001
 370
15
  62
8
 100
AcDbMText
  10
 71.642548023212
  20
 500.35027155405
  30
0.0
  40
 5.0000000000000
  41
0.0
  71
8
  72
1
   1
\A1;38
   7
GMM002
   0
ENDBLK
   5
CB
 100
AcDbEntity
   8
0
 100
AcDbBlockEnd
   0
BLOCK
   5
CC
 100
AcDbEntity
   8
0
 100
AcDbBlockBegin
   2
*D2
  70
65
  10
0.0
  20
0.0
  30
0.0
   3
*D2
   0
LINE
   5
CD
 100
AcDbEntity
   8
LEVEL001
 370
15
 100
AcDbLine
   6
CONTINUOUS
  62
8
  10
 52.642548023213
  20
 463.49130773826
  30
0.0
  11
 52.642548023213
  21
 411.31737681721
  31
0.0
   0
LINE
   5
CE
 100
AcDbEntity
   8
LEVEL001
 370
15
 100
AcDbLine
   6
CONTINUOUS
  62
8
  10
 105.64254802321
  20
 430.49130773826
  30
0.0
  11
 105.64254802321
  21
 411.31737681721
  31
0.0
   0
LINE
   5
CF
 100
AcDbEntity
   8
LEVEL001
 370
15
 100
AcDbLine
   6
CONTINUOUS
  62
8
  10
 52.642548023213
  20
 413.31737681721
  30
0.0
  11
 79.142548023212
  21
 413.31737681721
  31
0.0
   0
LINE
   5
D0
 100
AcDbEntity
   8
LEVEL001
 370
15
 100
AcDbLine
   6
CONTINUOUS
  62
8
  10
 105.64254802321
  20
 413.31737681721
  30
0.0
  11
 79.142548023212
  21
 413.31737681721
  31
0.0
   0
SOLID
   5
D1
 100
AcDbEntity
   8
LEVEL001
 100
AcDbTrace
   6
CONTINUOUS
  62
8
  10
 52.642548023213
  20
 413.31737681721
  30
0.0
  11
 56.642548023213
  21
 412.61206889438
  31
0.0
  12
 56.642548023213
  22
 414.02268474004
  32
0.0
  13
 56.642548023213
  23
 414.02268474004
  33
0.0
   0
SOLID
   5
D2
 100
AcDbEntity
   8
LEVEL001
 100
AcDbTrace
   6
CONTINUOUS
  62
8
  10
 105.64254802321
  20
 413.31737681721
  30
0.0
  11
 101.64254802321
  21
 414.02268474004
  31
0.0
  12
 101.64254802321
  22
 412.61206889438
  32
0.0
  13
 101.64254802321
  23
 412.61206889438
  33
0.0
   0
MTEXT
   5
D3
 100
AcDbEntity
   8
LEVEL001
 370
15
  62
8
 100
AcDbMText
  10
 79.142548023212
  20
 415.31737681721
  30
0.0
  40
 5.0000000000000
  41
0.0
  71
8
  72
1
   1
\A1;53
   7
GMM002
   0
ENDBLK
   5
D4
 100
AcDbEntity
   8
0
 100
AcDbBlockEnd
   0
BLOCK
   5
D5
 100
AcDbEntity
   8
0
 100
AcDbBlockBegin
   2
*D3
  70
65
  10
0.0
  20
0.0
  30
0.0
   3
*D3
   0
LINE
   5
D6
 100
AcDbEntity
   8
LEVEL001
 370
15
 100
AcDbLine
   6
CONTINUOUS
  62
8
  10
 106.64254802321
  20
 431.49130773826
  30
0.0
  11
 119.03759325345
  21
 431.49130773826
  31
0.0
   0
LINE
   5
D7
 100
AcDbEntity
   8
LEVEL001
 370
15
 100
AcDbLine
   6
CONTINUOUS
  62
8
  10
 107.64254802321
  20
 469.49130773826
  30
0.0
  11
 119.03759325345
  21
 469.49130773826
  31
0.0
   0
LINE
   5
D8
 100
AcDbEntity
   8
LEVEL001
 370
15
 100
AcDbLine
   6
CONTINUOUS
  62
8
  10
 117.03759325345
  20
 431.49130773826
  30
0.0
  11
 117.03759325345
  21
 450.49130773826
  31
0.0
   0
LINE
   5
D9
 100
AcDbEntity
   8
LEVEL001
 370
15
 100
AcDbLine
   6
CONTINUOUS
  62
8
  10
 117.03759325345
  20
 469.49130773826
  30
0.0
  11
 117.03759325345
  21
 450.49130773826
  31
0.0
   0
SOLID
   5
DA
 100
AcDbEntity
   8
LEVEL001
 100
AcDbTrace
   6
CONTINUOUS
  62
8
  10
 117.03759325345
  20
 431.49130773826
  30
0.0
  11
 117.74290117629
  21
 435.49130773826
  31
0.0
  12
 116.33228533062
  22
 435.49130773826
  32
0.0
  13
 116.33228533062
  23
 435.49130773826
  33
0.0
   0
SOLID
   5
DB
 100
AcDbEntity
   8
LEVEL001
 100
AcDbTrace
   6
CONTINUOUS
  62
8
  10
 117.03759325345
  20
 469.49130773826
  30
0.0
  11
 116.33228533062
  21
 465.49130773826
  31
0.0
  12
 117.74290117629
  22
 465.49130773826
  32
0.0
  13
 117.74290117629
  23
 465.49130773826
  33
0.0
   0
MTEXT
   5
DC
 100
AcDbEntity
   8
LEVEL001
 370
15
  62
8
 100
AcDbMText
  10
 115.03759325345
  20
 450.49130773826
  30
0.0
  40
 5.0000000000000
  41
0.0
  71
8
  72
1
   1
\A1;38
   7
GMM002
  11
0.0
  21
 1.0000000000000
  31
0.0
   0
ENDBLK
   5
DD
 100
AcDbEntity
   8
0
 100
AcDbBlockEnd
   0
BLOCK
   5
DE
 100
AcDbEntity
   8
0
 100
AcDbBlockBegin
   2
*D4
  70
65
  10
0.0
  20
0.0
  30
0.0
   3
*D4
   0
LINE
   5
DF
 100
AcDbEntity
   8
LEVEL001
 370
15
 100
AcDbLine
   6
CONTINUOUS
  62
8
  10
 119.03759325345
  20
 431.49130773826
  30
0.0
  11
 130.10996167450
  21
 431.49130773826
  31
0.0
   0
LINE
   5
E0
 100
AcDbEntity
   8
LEVEL001
 370
15
 100
AcDbLine
   6
CONTINUOUS
  62
8
  10
 92.642548023212
  20
 484.49130773826
  30
0.0
  11
 130.10996167450
  21
 484.49130773826
  31
0.0
   0
LINE
   5
E1
 100
AcDbEntity
   8
LEVEL001
 370
15
 100
AcDbLine
   6
CONTINUOUS
  62
8
  10
 128.10996167450
  20
 431.49130773826
  30
0.0
  11
 128.10996167450
  21
 457.99130773826
  31
0.0
   0
LINE
   5
E2
 100
AcDbEntity
   8
LEVEL001
 370
15
 100
AcDbLine
   6
CONTINUOUS
  62
8
  10
 128.10996167450
  20
 484.49130773826
  30
0.0
  11
 128.10996167450
  21
 457.99130773826
  31
0.0
   0
SOLID
   5
E3
 100
AcDbEntity
   8
LEVEL001
 100
AcDbTrace
   6
CONTINUOUS
  62
8
  10
 128.10996167450
  20
 431.49130773826
  30
0.0
  11
 128.81526959734
  21
 435.49130773826
  31
0.0
  12
 127.40465375167
  22
 435.49130773826
  32
0.0
  13
 127.40465375167
  23
 435.49130773826
  33
0.0
   0
SOLID
   5
E4
 100
AcDbEntity
   8
LEVEL001
 100
AcDbTrace
   6
CONTINUOUS
  62
8
  10
 128.10996167450
  20
 484.49130773826
  30
0.0
  11
 127.40465375167
  21
 480.49130773826
  31
0.0
  12
 128.81526959734
  22
 480.49130773826
  32
0.0
  13
 128.81526959734
  23
 480.49130773826
  33
0.0
   0
MTEXT
   5
E5
 100
AcDbEntity
   8
LEVEL001
 370
15
  62
8
 100
AcDbMText
  10
 126.10996167450
  20
 457.99130773826
  30
0.0
  40
 5.0000000000000
  41
0.0
  71
8
  72
1
   1
\A1;53
   7
GMM002
  11
0.0
  21
 1.0000000000000
  31
0.0
   0
ENDBLK
   5
E6
 100
AcDbEntity
   8
0
 100
AcDbBlockEnd
   0
BLOCK
   5
E7
 100
AcDbEntity
   8
0
 100
AcDbBlockBegin
   2
*D5
  70
65
  10
0.0
  20
0.0
  30
0.0
   3
*D5
   0
LINE
   5
E8
 100
AcDbEntity
   8
LEVEL001
 370
15
 100
AcDbLine
   6
CONTINUOUS
  62
8
  10
 185.48520417409
  20
 485.49130773826
  30
0.0
  11
 185.48520417409
  21
 500.35027155405
  31
0.0
   0
LINE
   5
E9
 100
AcDbEntity
   8
LEVEL001
 370
15
 100
AcDbLine
   6
CONTINUOUS
  62
8
  10
 223.48520417409
  20
 486.49130773826
  30
0.0
  11
 223.48520417409
  21
 500.35027155405
  31
0.0
   0
LINE
   5
EA
 100
AcDbEntity
   8
LEVEL001
 370
15
 100
AcDbLine
   6
CONTINUOUS
  62
8
  10
 185.48520417409
  20
 498.35027155405
  30
0.0
  11
 204.48520417409
  21
 498.35027155405
  31
0.0
   0
LINE
   5
EB
 100
AcDbEntity
   8
LEVEL001
 370
15
 100
AcDbLine
   6
CONTINUOUS
  62
8
  10
 223.48520417409
  20
 498.35027155405
  30
0.0
  11
 204.48520417409
  21
 498.35027155405
  31
0.0
   0
SOLID
   5
EC
 100
AcDbEntity
   8
LEVEL001
 100
AcDbTrace
   6
CONTINUOUS
  62
8
  10
 185.48520417409
  20
 498.35027155405
  30
0.0
  11
 189.48520417409
  21
 497.64496363122
  31
0.0
  12
 189.48520417409
  22
 499.05557947689
  32
0.0
  13
 189.48520417409
  23
 499.05557947689
  33
0.0
   0
SOLID
   5
ED
 100
AcDbEntity
   8
LEVEL001
 100
AcDbTrace
   6
CONTINUOUS
  62
8
  10
 223.48520417409
  20
 498.35027155405
  30
0.0
  11
 219.48520417409
  21
 499.05557947689
  31
0.0
  12
 219.48520417409
  22
 497.64496363122
  32
0.0
  13
 219.48520417409
  23
 497.64496363122
  33
0.0
   0
MTEXT
   5
EE
 100
AcDbEntity
   8
LEVEL001
 370
15
  62
8
 100
AcDbMText
  10
 204.48520417409
  20
 500.35027155405
  30
0.0
  40
 5.0000000000000
  41
0.0
  71
8
  72
1
   1
\A1;38
   7
GMM002
   0
ENDBLK
   5
EF
 100
AcDbEntity
   8
0
 100
AcDbBlockEnd
   0
BLOCK
   5
F0
 100
AcDbEntity
   8
0
 100
AcDbBlockBegin
   2
*D6
  70
65
  10
0.0
  20
0.0
  30
0.0
   3
*D6
   0
LINE
   5
F1
 100
AcDbEntity
   8
LEVEL001
 370
15
 100
AcDbLine
   6
CONTINUOUS
  62
8
  10
 239.48520417409
  20
 431.49130773826
  30
0.0
  11
 251.38024940432
  21
 431.49130773826
  31
0.0
   0
LINE
   5
F2
 100
AcDbEntity
   8
LEVEL001
 370
15
 100
AcDbLine
   6
CONTINUOUS
  62
8
  10
 240.98520417409
  20
 469.49130773826
  30
0.0
  11
 251.38024940432
  21
 469.49130773826
  31
0.0
   0
LINE
   5
F3
 100
AcDbEntity
   8
LEVEL001
 370
15
 100
AcDbLine
   6
CONTINUOUS
  62
8
  10
 249.38024940432
  20
 431.49130773826
  30
0.0
  11
 249.38024940432
  21
 450.49130773826
  31
0.0
   0
LINE
   5
F4
 100
AcDbEntity
   8
LEVEL001
 370
15
 100
AcDbLine
   6
CONTINUOUS
  62
8
  10
 249.38024940432
  20
 469.49130773826
  30
0.0
  11
 249.38024940432
  21
 450.49130773826
  31
0.0
   0
SOLID
   5
F5
 100
AcDbEntity
   8
LEVEL001
 100
AcDbTrace
   6
CONTINUOUS
  62
8
  10
 249.38024940432
  20
 431.49130773826
  30
0.0
  11
 250.08555732716
  21
 435.49130773826
  31
0.0
  12
 248.67494148149
  22
 435.49130773826
  32
0.0
  13
 248.67494148149
  23
 435.49130773826
  33
0.0
   0
SOLID
   5
F6
 100
AcDbEntity
   8
LEVEL001
 100
AcDbTrace
   6
CONTINUOUS
  62
8
  10
 249.38024940432
  20
 469.49130773826
  30
0.0
  11
 248.67494148149
  21
 465.49130773826
  31
0.0
  12
 250.08555732716
  22
 465.49130773826
  32
0.0
  13
 250.08555732716
  23
 465.49130773826
  33
0.0
   0
MTEXT
   5
F7
 100
AcDbEntity
   8
LEVEL001
 370
15
  62
8
 100
AcDbMText
  10
 247.38024940432
  20
 450.49130773826
  30
0.0
  40
 5.0000000000000
  41
0.0
  71
8
  72
1
   1
\A1;38
   7
GMM002
  11
0.0
  21
 1.0000000000000
  31
0.0
   0
ENDBLK
   5
F8
 100
AcDbEntity
   8
0
 100
AcDbBlockEnd
   0
BLOCK
   5
F9
 100
AcDbEntity
   8
0
 100
AcDbBlockBegin
   2
*D7
  70
65
  10
0.0
  20
0.0
  30
0.0
   3
*D7
   0
LINE
   5
FA
 100
AcDbEntity
   8
LEVEL001
 370
15
 100
AcDbLine
   6
CONTINUOUS
  62
8
  10
 251.38024940432
  20
 431.49130773826
  30
0.0
  11
 262.95261782538
  21
 431.49130773826
  31
0.0
   0
LINE
   5
FB
 100
AcDbEntity
   8
LEVEL001
 370
15
 100
AcDbLine
   6
CONTINUOUS
  62
8
  10
 225.48520417409
  20
 484.49130773826
  30
0.0
  11
 262.95261782538
  21
 484.49130773826
  31
0.0
   0
LINE
   5
FC
 100
AcDbEntity
   8
LEVEL001
 370
15
 100
AcDbLine
   6
CONTINUOUS
  62
8
  10
 260.95261782538
  20
 431.49130773826
  30
0.0
  11
 260.95261782538
  21
 457.99130773826
  31
0.0
   0
LINE
   5
FD
 100
AcDbEntity
   8
LEVEL001
 370
15
 100
AcDbLine
   6
CONTINUOUS
  62
8
  10
 260.95261782538
  20
 484.49130773826
  30
0.0
  11
 260.95261782538
  21
 457.99130773826
  31
0.0
   0
SOLID
   5
FE
 100
AcDbEntity
   8
LEVEL001
 100
AcDbTrace
   6
CONTINUOUS
  62
8
  10
 260.95261782538
  20
 431.49130773826
  30
0.0
  11
 261.65792574821
  21
 435.49130773826
  31
0.0
  12
 260.24730990254
  22
 435.49130773826
  32
0.0
  13
 260.24730990254
  23
 435.49130773826
  33
0.0
   0
SOLID
   5
FF
 100
AcDbEntity
   8
LEVEL001
 100
AcDbTrace
   6
CONTINUOUS
  62
8
  10
 260.95261782538
  20
 484.49130773826
  30
0.0
  11
 260.24730990254
  21
 480.49130773826
  31
0.0
  12
 261.65792574821
  22
 480.49130773826
  32
0.0
  13
 261.65792574821
  23
 480.49130773826
  33
0.0
   0
MTEXT
   5
100
 100
AcDbEntity
   8
LEVEL001
 370
15
  62
8
 100
AcDbMText
  10
 258.95261782538
  20
 457.99130773826
  30
0.0
  40
 5.0000000000000
  41
0.0
  71
8
  72
1
   1
\A1;53
   7
GMM002
  11
0.0
  21
 1.0000000000000
  31
0.0
   0
ENDBLK
   5
101
 100
AcDbEntity
   8
0
 100
AcDbBlockEnd
   0
BLOCK
   5
102
 100
AcDbEntity
   8
0
 100
AcDbBlockBegin
   2
*D8
  70
65
  10
0.0
  20
0.0
  30
0.0
   3
*D8
   0
LINE
   5
103
 100
AcDbEntity
   8
LEVEL001
 370
15
 100
AcDbLine
   6
CONTINUOUS
  62
8
  10
 185.48520417409
  20
 463.49130773826
  30
0.0
  11
 185.48520417409
  21
 411.31737681721
  31
0.0
   0
LINE
   5
104
 100
AcDbEntity
   8
LEVEL001
 370
15
 100
AcDbLine
   6
CONTINUOUS
  62
8
  10
 238.48520417409
  20
 431.49130773826
  30
0.0
  11
 238.48520417409
  21
 411.31737681721
  31
0.0
   0
LINE
   5
105
 100
AcDbEntity
   8
LEVEL001
 370
15
 100
AcDbLine
   6
CONTINUOUS
  62
8
  10
 185.48520417409
  20
 413.31737681721
  30
0.0
  11
 211.98520417409
  21
 413.31737681721
  31
0.0
   0
LINE
   5
106
 100
AcDbEntity
   8
LEVEL001
 370
15
 100
AcDbLine
   6
CONTINUOUS
  62
8
  10
 238.48520417409
  20
 413.31737681721
  30
0.0
  11
 211.98520417409
  21
 413.31737681721
  31
0.0
   0
SOLID
   5
107
 100
AcDbEntity
   8
LEVEL001
 100
AcDbTrace
   6
CONTINUOUS
  62
8
  10
 185.48520417409
  20
 413.31737681721
  30
0.0
  11
 189.48520417409
  21
 412.61206889438
  31
0.0
  12
 189.48520417409
  22
 414.02268474004
  32
0.0
  13
 189.48520417409
  23
 414.02268474004
  33
0.0
   0
SOLID
   5
108
 100
AcDbEntity
   8
LEVEL001
 100
AcDbTrace
   6
CONTINUOUS
  62
8
  10
 238.48520417409
  20
 413.31737681721
  30
0.0
  11
 234.48520417409
  21
 414.02268474004
  31
0.0
  12
 234.48520417409
  22
 412.61206889438
  32
0.0
  13
 234.48520417409
  23
 412.61206889438
  33
0.0
   0
MTEXT
   5
109
 100
AcDbEntity
   8
LEVEL001
 370
15
  62
8
 100
AcDbMText
  10
 211.98520417409
  20
 415.31737681721
  30
0.0
  40
 5.0000000000000
  41
0.0
  71
8
  72
1
   1
\A1;53
   7
GMM002
   0
ENDBLK
   5
10A
 100
AcDbEntity
   8
0
 100
AcDbBlockEnd
   0
BLOCK
   5
10B
 100
AcDbEntity
   8
0
 100
AcDbBlockBegin
   2
*D9
  70
65
  10
0.0
  20
0.0
  30
0.0
   3
*D9
   0
LINE
   5
10C
 100
AcDbEntity
   8
LEVEL001
 370
15
 100
AcDbLine
   6
CONTINUOUS
  62
8
  10
 341.64254802321
  20
 485.49130773826
  30
0.0
  11
 341.64254802321
  21
 500.35027155405
  31
0.0
   0
LINE
   5
10D
 100
AcDbEntity
   8
LEVEL001
 370
15
 100
AcDbLine
   6
CONTINUOUS
  62
8
  10
 379.64254802321
  20
 486.49130773826
  30
0.0
  11
 379.64254802321
  21
 500.35027155405
  31
0.0
   0
LINE
   5
10E
 100
AcDbEntity
   8
LEVEL001
 370
15
 100
AcDbLine
   6
CONTINUOUS
  62
8
  10
 341.64254802321
  20
 498.35027155405
  30
0.0
  11
 360.64254802321
  21
 498.35027155405
  31
0.0
   0
LINE
   5
10F
 100
AcDbEntity
   8
LEVEL001
 370
15
 100
AcDbLine
   6
CONTINUOUS
  62
8
  10
 379.64254802321
  20
 498.35027155405
  30
0.0
  11
 360.64254802321
  21
 498.35027155405
  31
0.0
   0
SOLID
   5
110
 100
AcDbEntity
   8
LEVEL001
 100
AcDbTrace
   6
CONTINUOUS
  62
8
  10
 341.64254802321
  20
 498.35027155405
  30
0.0
  11
 345.64254802321
  21
 497.64496363122
  31
0.0
  12
 345.64254802321
  22
 499.05557947689
  32
0.0
  13
 345.64254802321
  23
 499.05557947689
  33
0.0
   0
SOLID
   5
111
 100
AcDbEntity
   8
LEVEL001
 100
AcDbTrace
   6
CONTINUOUS
  62
8
  10
 379.64254802321
  20
 498.35027155405
  30
0.0
  11
 375.64254802321
  21
 499.05557947689
  31
0.0
  12
 375.64254802321
  22
 497.64496363122
  32
0.0
  13
 375.64254802321
  23
 497.64496363122
  33
0.0
   0
MTEXT
   5
112
 100
AcDbEntity
   8
LEVEL001
 370
15
  62
8
 100
AcDbMText
  10
 360.64254802321
  20
 500.35027155405
  30
0.0
  40
 5.0000000000000
  41
0.0
  71
8
  72
1
   1
\A1;38
   7
GMM002
   0
ENDBLK
   5
113
 100
AcDbEntity
   8
0
 100
AcDbBlockEnd
   0
BLOCK
   5
114
 100
AcDbEntity
   8
0
 100
AcDbBlockBegin
   2
*D10
  70
65
  10
0.0
  20
0.0
  30
0.0
   3
*D10
   0
LINE
   5
115
 100
AcDbEntity
   8
LEVEL001
 370
15
 100
AcDbLine
   6
CONTINUOUS
  62
8
  10
 341.64254802321
  20
 463.49130773826
  30
0.0
  11
 341.64254802321
  21
 411.31737681721
  31
0.0
   0
LINE
   5
116
 100
AcDbEntity
   8
LEVEL001
 370
15
 100
AcDbLine
   6
CONTINUOUS
  62
8
  10
 394.64254802321
  20
 430.49130773826
  30
0.0
  11
 394.64254802321
  21
 411.31737681721
  31
0.0
   0
LINE
   5
117
 100
AcDbEntity
   8
LEVEL001
 370
15
 100
AcDbLine
   6
CONTINUOUS
  62
8
  10
 341.64254802321
  20
 413.31737681721
  30
0.0
  11
 368.14254802321
  21
 413.31737681721
  31
0.0
   0
LINE
   5
118
 100
AcDbEntity
   8
LEVEL001
 370
15
 100
AcDbLine
   6
CONTINUOUS
  62
8
  10
 394.64254802321
  20
 413.31737681721
  30
0.0
  11
 368.14254802321
  21
 413.31737681721
  31
0.0
   0
SOLID
   5
119
 100
AcDbEntity
   8
LEVEL001
 100
AcDbTrace
   6
CONTINUOUS
  62
8
  10
 341.64254802321
  20
 413.31737681721
  30
0.0
  11
 345.64254802321
  21
 412.61206889438
  31
0.0
  12
 345.64254802321
  22
 414.02268474004
  32
0.0
  13
 345.64254802321
  23
 414.02268474004
  33
0.0
   0
SOLID
   5
11A
 100
AcDbEntity
   8
LEVEL001
 100
AcDbTrace
   6
CONTINUOUS
  62
8
  10
 394.64254802321
  20
 413.31737681721
  30
0.0
  11
 390.64254802321
  21
 414.02268474004
  31
0.0
  12
 390.64254802321
  22
 412.61206889438
  32
0.0
  13
 390.64254802321
  23
 412.61206889438
  33
0.0
   0
MTEXT
   5
11B
 100
AcDbEntity
   8
LEVEL001
 370
15
  62
8
 100
AcDbMText
  10
 368.14254802321
  20
 415.31737681721
  30
0.0
  40
 5.0000000000000
  41
0.0
  71
8
  72
1
   1
\A1;53
   7
GMM002
   0
ENDBLK
   5
11C
 100
AcDbEntity
   8
0
 100
AcDbBlockEnd
   0
BLOCK
   5
11D
 100
AcDbEntity
   8
0
 100
AcDbBlockBegin
   2
*D11
  70
65
  10
0.0
  20
0.0
  30
0.0
   3
*D11
   0
LINE
   5
11E
 100
AcDbEntity
   8
LEVEL001
 370
15
 100
AcDbLine
   6
CONTINUOUS
  62
8
  10
 395.64254802321
  20
 431.49130773826
  30
0.0
  11
 408.03759325345
  21
 431.49130773826
  31
0.0
   0
LINE
   5
11F
 100
AcDbEntity
   8
LEVEL001
 370
15
 100
AcDbLine
   6
CONTINUOUS
  62
8
  10
 396.64254802321
  20
 469.49130773826
  30
0.0
  11
 408.03759325345
  21
 469.49130773826
  31
0.0
   0
LINE
   5
120
 100
AcDbEntity
   8
LEVEL001
 370
15
 100
AcDbLine
   6
CONTINUOUS
  62
8
  10
 406.03759325345
  20
 431.49130773826
  30
0.0
  11
 406.03759325345
  21
 450.49130773826
  31
0.0
   0
LINE
   5
121
 100
AcDbEntity
   8
LEVEL001
 370
15
 100
AcDbLine
   6
CONTINUOUS
  62
8
  10
 406.03759325345
  20
 469.49130773826
  30
0.0
  11
 406.03759325345
  21
 450.49130773826
  31
0.0
   0
SOLID
   5
122
 100
AcDbEntity
   8
LEVEL001
 100
AcDbTrace
   6
CONTINUOUS
  62
8
  10
 406.03759325345
  20
 431.49130773826
  30
0.0
  11
 406.74290117629
  21
 435.49130773826
  31
0.0
  12
 405.33228533062
  22
 435.49130773826
  32
0.0
  13
 405.33228533062
  23
 435.49130773826
  33
0.0
   0
SOLID
   5
123
 100
AcDbEntity
   8
LEVEL001
 100
AcDbTrace
   6
CONTINUOUS
  62
8
  10
 406.03759325345
  20
 469.49130773826
  30
0.0
  11
 405.33228533062
  21
 465.49130773826
  31
0.0
  12
 406.74290117629
  22
 465.49130773826
  32
0.0
  13
 406.74290117629
  23
 465.49130773826
  33
0.0
   0
MTEXT
   5
124
 100
AcDbEntity
   8
LEVEL001
 370
15
  62
8
 100
AcDbMText
  10
 404.03759325345
  20
 450.49130773826
  30
0.0
  40
 5.0000000000000
  41
0.0
  71
8
  72
1
   1
\A1;38
   7
GMM002
  11
0.0
  21
 1.0000000000000
  31
0.0
   0
ENDBLK
   5
125
 100
AcDbEntity
   8
0
 100
AcDbBlockEnd
   0
BLOCK
   5
126
 100
AcDbEntity
   8
0
 100
AcDbBlockBegin
   2
*D12
  70
65
  10
0.0
  20
0.0
  30
0.0
   3
*D12
   0
LINE
   5
127
 100
AcDbEntity
   8
LEVEL001
 370
15
 100
AcDbLine
   6
CONTINUOUS
  62
8
  10
 408.03759325345
  20
 431.49130773826
  30
0.0
  11
 419.10996167450
  21
 431.49130773826
  31
0.0
   0
LINE
   5
128
 100
AcDbEntity
   8
LEVEL001
 370
15
 100
AcDbLine
   6
CONTINUOUS
  62
8
  10
 381.64254802321
  20
 484.49130773826
  30
0.0
  11
 419.10996167450
  21
 484.49130773826
  31
0.0
   0
LINE
   5
129
 100
AcDbEntity
   8
LEVEL001
 370
15
 100
AcDbLine
   6
CONTINUOUS
  62
8
  10
 417.10996167450
  20
 431.49130773826
  30
0.0
  11
 417.10996167450
  21
 457.99130773826
  31
0.0
   0
LINE
   5
12A
 100
AcDbEntity
   8
LEVEL001
 370
15
 100
AcDbLine
   6
CONTINUOUS
  62
8
  10
 417.10996167450
  20
 484.49130773826
  30
0.0
  11
 417.10996167450
  21
 457.99130773826
  31
0.0
   0
SOLID
   5
12B
 100
AcDbEntity
   8
LEVEL001
 100
AcDbTrace
   6
CONTINUOUS
  62
8
  10
 417.10996167450
  20
 431.49130773826
  30
0.0
  11
 417.81526959734
  21
 435.49130773826
  31
0.0
  12
 416.40465375167
  22
 435.49130773826
  32
0.0
  13
 416.40465375167
  23
 435.49130773826
  33
0.0
   0
SOLID
   5
12C
 100
AcDbEntity
   8
LEVEL001
 100
AcDbTrace
   6
CONTINUOUS
  62
8
  10
 417.10996167450
  20
 484.49130773826
  30
0.0
  11
 416.40465375167
  21
 480.49130773826
  31
0.0
  12
 417.81526959734
  22
 480.49130773826
  32
0.0
  13
 417.81526959734
  23
 480.49130773826
  33
0.0
   0
MTEXT
   5
12D
 100
AcDbEntity
   8
LEVEL001
 370
15
  62
8
 100
AcDbMText
  10
 415.10996167450
  20
 457.99130773826
  30
0.0
  40
 5.0000000000000
  41
0.0
  71
8
  72
1
   1
\A1;53
   7
GMM002
  11
0.0
  21
 1.0000000000000
  31
0.0
   0
ENDBLK
   5
12E
 100
AcDbEntity
   8
0
 100
AcDbBlockEnd
   0
BLOCK
   5
12F
 100
AcDbEntity
   8
0
 100
AcDbBlockBegin
   2
*D13
  70
65
  10
0.0
  20
0.0
  30
0.0
   3
*D13
   0
LINE
   5
130
 100
AcDbEntity
   8
LEVEL001
 370
15
 100
AcDbLine
   6
CONTINUOUS
  62
8
  10
 474.48520417409
  20
 485.49130773826
  30
0.0
  11
 474.48520417409
  21
 500.35027155405
  31
0.0
   0
LINE
   5
131
 100
AcDbEntity
   8
LEVEL001
 370
15
 100
AcDbLine
   6
CONTINUOUS
  62
8
  10
 512.48520417409
  20
 486.49130773826
  30
0.0
  11
 512.48520417409
  21
 500.35027155405
  31
0.0
   0
LINE
   5
132
 100
AcDbEntity
   8
LEVEL001
 370
15
 100
AcDbLine
   6
CONTINUOUS
  62
8
  10
 474.48520417409
  20
 498.35027155405
  30
0.0
  11
 493.48520417409
  21
 498.35027155405
  31
0.0
   0
LINE
   5
133
 100
AcDbEntity
   8
LEVEL001
 370
15
 100
AcDbLine
   6
CONTINUOUS
  62
8
  10
 512.48520417409
  20
 498.35027155405
  30
0.0
  11
 493.48520417409
  21
 498.35027155405
  31
0.0
   0
SOLID
   5
134
 100
AcDbEntity
   8
LEVEL001
 100
AcDbTrace
   6
CONTINUOUS
  62
8
  10
 474.48520417409
  20
 498.35027155405
  30
0.0
  11
 478.48520417409
  21
 497.64496363122
  31
0.0
  12
 478.48520417409
  22
 499.05557947689
  32
0.0
  13
 478.48520417409
  23
 499.05557947689
  33
0.0
   0
SOLID
   5
135
 100
AcDbEntity
   8
LEVEL001
 100
AcDbTrace
   6
CONTINUOUS
  62
8
  10
 512.48520417409
  20
 498.35027155405
  30
0.0
  11
 508.48520417409
  21
 499.05557947689
  31
0.0
  12
 508.48520417409
  22
 497.64496363122
  32
0.0
  13
 508.48520417409
  23
 497.64496363122
  33
0.0
   0
MTEXT
   5
136
 100
AcDbEntity
   8
LEVEL001
 370
15
  62
8
 100
AcDbMText
  10
 493.48520417409
  20
 500.35027155405
  30
0.0
  40
 5.0000000000000
  41
0.0
  71
8
  72
1
   1
\A1;38
   7
GMM002
   0
ENDBLK
   5
137
 100
AcDbEntity
   8
0
 100
AcDbBlockEnd
   0
BLOCK
   5
138
 100
AcDbEntity
   8
0
 100
AcDbBlockBegin
   2
*D14
  70
65
  10
0.0
  20
0.0
  30
0.0
   3
*D14
   0
LINE
   5
139
 100
AcDbEntity
   8
LEVEL001
 370
15
 100
AcDbLine
   6
CONTINUOUS
  62
8
  10
 528.48520417409
  20
 431.49130773826
  30
0.0
  11
 540.38024940432
  21
 431.49130773826
  31
0.0
   0
LINE
   5
13A
 100
AcDbEntity
   8
LEVEL001
 370
15
 100
AcDbLine
   6
CONTINUOUS
  62
8
  10
 529.98520417409
  20
 469.49130773826
  30
0.0
  11
 540.38024940432
  21
 469.49130773826
  31
0.0
   0
LINE
   5
13B
 100
AcDbEntity
   8
LEVEL001
 370
15
 100
AcDbLine
   6
CONTINUOUS
  62
8
  10
 538.38024940432
  20
 431.49130773826
  30
0.0
  11
 538.38024940432
  21
 450.49130773826
  31
0.0
   0
LINE
   5
13C
 100
AcDbEntity
   8
LEVEL001
 370
15
 100
AcDbLine
   6
CONTINUOUS
  62
8
  10
 538.38024940432
  20
 469.49130773826
  30
0.0
  11
 538.38024940432
  21
 450.49130773826
  31
0.0
   0
SOLID
   5
13D
 100
AcDbEntity
   8
LEVEL001
 100
AcDbTrace
   6
CONTINUOUS
  62
8
  10
 538.38024940432
  20
 431.49130773826
  30
0.0
  11
 539.08555732716
  21
 435.49130773826
  31
0.0
  12
 537.67494148149
  22
 435.49130773826
  32
0.0
  13
 537.67494148149
  23
 435.49130773826
  33
0.0
   0
SOLID
   5
13E
 100
AcDbEntity
   8
LEVEL001
 100
AcDbTrace
   6
CONTINUOUS
  62
8
  10
 538.38024940432
  20
 469.49130773826
  30
0.0
  11
 537.67494148149
  21
 465.49130773826
  31
0.0
  12
 539.08555732716
  22
 465.49130773826
  32
0.0
  13
 539.08555732716
  23
 465.49130773826
  33
0.0
   0
MTEXT
   5
13F
 100
AcDbEntity
   8
LEVEL001
 370
15
  62
8
 100
AcDbMText
  10
 536.38024940432
  20
 450.49130773826
  30
0.0
  40
 5.0000000000000
  41
0.0
  71
8
  72
1
   1
\A1;38
   7
GMM002
  11
0.0
  21
 1.0000000000000
  31
0.0
   0
ENDBLK
   5
140
 100
AcDbEntity
   8
0
 100
AcDbBlockEnd
   0
BLOCK
   5
141
 100
AcDbEntity
   8
0
 100
AcDbBlockBegin
   2
*D15
  70
65
  10
0.0
  20
0.0
  30
0.0
   3
*D15
   0
LINE
   5
142
 100
AcDbEntity
   8
LEVEL001
 370
15
 100
AcDbLine
   6
CONTINUOUS
  62
8
  10
 540.38024940432
  20
 431.49130773826
  30
0.0
  11
 551.95261782538
  21
 431.49130773826
  31
0.0
   0
LINE
   5
143
 100
AcDbEntity
   8
LEVEL001
 370
15
 100
AcDbLine
   6
CONTINUOUS
  62
8
  10
 514.48520417409
  20
 484.49130773826
  30
0.0
  11
 551.95261782538
  21
 484.49130773826
  31
0.0
   0
LINE
   5
144
 100
AcDbEntity
   8
LEVEL001
 370
15
 100
AcDbLine
   6
CONTINUOUS
  62
8
  10
 549.95261782538
  20
 431.49130773826
  30
0.0
  11
 549.95261782538
  21
 457.99130773826
  31
0.0
   0
LINE
   5
145
 100
AcDbEntity
   8
LEVEL001
 370
15
 100
AcDbLine
   6
CONTINUOUS
  62
8
  10
 549.95261782538
  20
 484.49130773826
  30
0.0
  11
 549.95261782538
  21
 457.99130773826
  31
0.0
   0
SOLID
   5
146
 100
AcDbEntity
   8
LEVEL001
 100
AcDbTrace
   6
CONTINUOUS
  62
8
  10
 549.95261782538
  20
 431.49130773826
  30
0.0
  11
 550.65792574821
  21
 435.49130773826
  31
0.0
  12
 549.24730990254
  22
 435.49130773826
  32
0.0
  13
 549.24730990254
  23
 435.49130773826
  33
0.0
   0
SOLID
   5
147
 100
AcDbEntity
   8
LEVEL001
 100
AcDbTrace
   6
CONTINUOUS
  62
8
  10
 549.95261782538
  20
 484.49130773826
  30
0.0
  11
 549.24730990254
  21
 480.49130773826
  31
0.0
  12
 550.65792574821
  22
 480.49130773826
  32
0.0
  13
 550.65792574821
  23
 480.49130773826
  33
0.0
   0
MTEXT
   5
148
 100
AcDbEntity
   8
LEVEL001
 370
15
  62
8
 100
AcDbMText
  10
 547.95261782538
  20
 457.99130773826
  30
0.0
  40
 5.0000000000000
  41
0.0
  71
8
  72
1
   1
\A1;53
   7
GMM002
  11
0.0
  21
 1.0000000000000
  31
0.0
   0
ENDBLK
   5
149
 100
AcDbEntity
   8
0
 100
AcDbBlockEnd
   0
BLOCK
   5
14A
 100
AcDbEntity
   8
0
 100
AcDbBlockBegin
   2
*D16
  70
65
  10
0.0
  20
0.0
  30
0.0
   3
*D16
   0
LINE
   5
14B
 100
AcDbEntity
   8
LEVEL001
 370
15
 100
AcDbLine
   6
CONTINUOUS
  62
8
  10
 474.48520417409
  20
 463.49130773826
  30
0.0
  11
 474.48520417409
  21
 411.31737681721
  31
0.0
   0
LINE
   5
14C
 100
AcDbEntity
   8
LEVEL001
 370
15
 100
AcDbLine
   6
CONTINUOUS
  62
8
  10
 527.48520417409
  20
 431.49130773826
  30
0.0
  11
 527.48520417409
  21
 411.31737681721
  31
0.0
   0
LINE
   5
14D
 100
AcDbEntity
   8
LEVEL001
 370
15
 100
AcDbLine
   6
CONTINUOUS
  62
8
  10
 474.48520417409
  20
 413.31737681721
  30
0.0
  11
 500.98520417409
  21
 413.31737681721
  31
0.0
   0
LINE
   5
14E
 100
AcDbEntity
   8
LEVEL001
 370
15
 100
AcDbLine
   6
CONTINUOUS
  62
8
  10
 527.48520417409
  20
 413.31737681721
  30
0.0
  11
 500.98520417409
  21
 413.31737681721
  31
0.0
   0
SOLID
   5
14F
 100
AcDbEntity
   8
LEVEL001
 100
AcDbTrace
   6
CONTINUOUS
  62
8
  10
 474.48520417409
  20
 413.31737681721
  30
0.0
  11
 478.48520417409
  21
 412.61206889438
  31
0.0
  12
 478.48520417409
  22
 414.02268474004
  32
0.0
  13
 478.48520417409
  23
 414.02268474004
  33
0.0
   0
SOLID
   5
150
 100
AcDbEntity
   8
LEVEL001
 100
AcDbTrace
   6
CONTINUOUS
  62
8
  10
 527.48520417409
  20
 413.31737681721
  30
0.0
  11
 523.48520417409
  21
 414.02268474004
  31
0.0
  12
 523.48520417409
  22
 412.61206889438
  32
0.0
  13
 523.48520417409
  23
 412.61206889438
  33
0.0
   0
MTEXT
   5
151
 100
AcDbEntity
   8
LEVEL001
 370
15
  62
8
 100
AcDbMText
  10
 500.98520417409
  20
 420.31737681721
  30
0.0
  40
 5.0000000000000
  41
0.0
  71
8
  72
1
   1
\A1;53
   7
GMM002
  44
 0.79999984000003
   0
ENDBLK
   5
152
 100
AcDbEntity
   8
0
 100
AcDbBlockEnd
   0
BLOCK
   5
153
 100
AcDbEntity
   8
0
 100
AcDbBlockBegin
   2
*D17
  70
65
  10
0.0
  20
0.0
  30
0.0
   3
*D17
   0
LINE
   5
154
 100
AcDbEntity
   8
LEVEL001
 370
15
 100
AcDbLine
   6
CONTINUOUS
  62
8
  10
 52.642548023213
  20
 285.78564005610
  30
0.0
  11
 52.642548023213
  21
 296.14520303435
  31
0.0
   0
LINE
   5
155
 100
AcDbEntity
   8
LEVEL001
 370
15
 100
AcDbLine
   6
CONTINUOUS
  62
8
  10
 72.642548023213
  20
 285.78564005610
  30
0.0
  11
 72.642548023213
  21
 296.14520303435
  31
0.0
   0
LINE
   5
156
 100
AcDbEntity
   8
LEVEL001
 370
15
 100
AcDbLine
   6
CONTINUOUS
  62
8
  10
 52.642548023213
  20
 294.14520303435
  30
0.0
  11
 62.642548023213
  21
 294.14520303435
  31
0.0
   0
LINE
   5
157
 100
AcDbEntity
   8
LEVEL001
 370
15
 100
AcDbLine
   6
CONTINUOUS
  62
8
  10
 72.642548023213
  20
 294.14520303435
  30
0.0
  11
 62.642548023213
  21
 294.14520303435
  31
0.0
   0
SOLID
   5
158
 100
AcDbEntity
   8
LEVEL001
 100
AcDbTrace
   6
CONTINUOUS
  62
8
  10
 52.642548023213
  20
 294.14520303435
  30
0.0
  11
 56.642548023213
  21
 293.43989511152
  31
0.0
  12
 56.642548023213
  22
 294.85051095719
  32
0.0
  13
 56.642548023213
  23
 294.85051095719
  33
0.0
   0
SOLID
   5
159
 100
AcDbEntity
   8
LEVEL001
 100
AcDbTrace
   6
CONTINUOUS
  62
8
  10
 72.642548023213
  20
 294.14520303435
  30
0.0
  11
 68.642548023213
  21
 294.85051095719
  31
0.0
  12
 68.642548023213
  22
 293.43989511152
  32
0.0
  13
 68.642548023213
  23
 293.43989511152
  33
0.0
   0
MTEXT
   5
15A
 100
AcDbEntity
   8
LEVEL001
 370
15
  62
8
 100
AcDbMText
  10
 62.642548023213
  20
 296.14520303435
  30
0.0
  40
 5.0000000000000
  41
0.0
  71
8
  72
1
   1
\A1;20
   7
GMM002
   0
ENDBLK
   5
15B
 100
AcDbEntity
   8
0
 100
AcDbBlockEnd
   0
BLOCK
   5
15C
 100
AcDbEntity
   8
0
 100
AcDbBlockBegin
   2
*D18
  70
65
  10
0.0
  20
0.0
  30
0.0
   3
*D18
   0
LINE
   5
15D
 100
AcDbEntity
   8
LEVEL001
 370
15
 100
AcDbLine
   6
CONTINUOUS
  62
8
  10
 93.642548023213
  20
 244.78564005610
  30
0.0
  11
 108.45023303089
  21
 244.78564005610
  31
0.0
   0
LINE
   5
15E
 100
AcDbEntity
   8
LEVEL001
 370
15
 100
AcDbLine
   6
CONTINUOUS
  62
8
  10
 93.642548023213
  20
 264.78564005610
  30
0.0
  11
 108.45023303089
  21
 264.78564005610
  31
0.0
   0
LINE
   5
15F
 100
AcDbEntity
   8
LEVEL001
 370
15
 100
AcDbLine
   6
CONTINUOUS
  62
8
  10
 106.45023303089
  20
 244.78564005610
  30
0.0
  11
 106.45023303089
  21
 254.78564005610
  31
0.0
   0
LINE
   5
160
 100
AcDbEntity
   8
LEVEL001
 370
15
 100
AcDbLine
   6
CONTINUOUS
  62
8
  10
 106.45023303089
  20
 264.78564005610
  30
0.0
  11
 106.45023303089
  21
 254.78564005610
  31
0.0
   0
SOLID
   5
161
 100
AcDbEntity
   8
LEVEL001
 100
AcDbTrace
   6
CONTINUOUS
  62
8
  10
 106.45023303089
  20
 244.78564005610
  30
0.0
  11
 107.15554095373
  21
 248.78564005610
  31
0.0
  12
 105.74492510806
  22
 248.78564005610
  32
0.0
  13
 105.74492510806
  23
 248.78564005610
  33
0.0
   0
SOLID
   5
162
 100
AcDbEntity
   8
LEVEL001
 100
AcDbTrace
   6
CONTINUOUS
  62
8
  10
 106.45023303089
  20
 264.78564005610
  30
0.0
  11
 105.74492510806
  21
 260.78564005610
  31
0.0
  12
 107.15554095373
  22
 260.78564005610
  32
0.0
  13
 107.15554095373
  23
 260.78564005610
  33
0.0
   0
MTEXT
   5
163
 100
AcDbEntity
   8
LEVEL001
 370
15
  62
8
 100
AcDbMText
  10
 104.45023303089
  20
 254.78564005610
  30
0.0
  40
 5.0000000000000
  41
0.0
  71
8
  72
1
   1
\A1;20
   7
GMM002
  11
0.0
  21
 1.0000000000000
  31
0.0
   0
ENDBLK
   5
164
 100
AcDbEntity
   8
0
 100
AcDbBlockEnd
   0
BLOCK
   5
165
 100
AcDbEntity
   8
0
 100
AcDbBlockBegin
   2
*D19
  70
65
  10
0.0
  20
0.0
  30
0.0
   3
*D19
   0
LINE
   5
166
 100
AcDbEntity
   8
LEVEL001
 370
15
 100
AcDbLine
   6
CONTINUOUS
  62
8
  10
 108.45023303089
  20
 244.78564005610
  30
0.0
  11
 125.30806435619
  21
 244.78564005610
  31
0.0
   0
LINE
   5
167
 100
AcDbEntity
   8
LEVEL001
 370
15
 100
AcDbLine
   6
CONTINUOUS
  62
8
  10
 73.642548023213
  20
 284.78564005610
  30
0.0
  11
 125.30806435619
  21
 284.78564005610
  31
0.0
   0
LINE
   5
168
 100
AcDbEntity
   8
LEVEL001
 370
15
 100
AcDbLine
   6
CONTINUOUS
  62
8
  10
 123.30806435619
  20
 244.78564005610
  30
0.0
  11
 123.30806435619
  21
 264.78564005610
  31
0.0
   0
LINE
   5
169
 100
AcDbEntity
   8
LEVEL001
 370
15
 100
AcDbLine
   6
CONTINUOUS
  62
8
  10
 123.30806435619
  20
 284.78564005610
  30
0.0
  11
 123.30806435619
  21
 264.78564005610
  31
0.0
   0
SOLID
   5
16A
 100
AcDbEntity
   8
LEVEL001
 100
AcDbTrace
   6
CONTINUOUS
  62
8
  10
 123.30806435619
  20
 244.78564005610
  30
0.0
  11
 124.01337227903
  21
 248.78564005610
  31
0.0
  12
 122.60275643336
  22
 248.78564005610
  32
0.0
  13
 122.60275643336
  23
 248.78564005610
  33
0.0
   0
SOLID
   5
16B
 100
AcDbEntity
   8
LEVEL001
 100
AcDbTrace
   6
CONTINUOUS
  62
8
  10
 123.30806435619
  20
 284.78564005610
  30
0.0
  11
 122.60275643336
  21
 280.78564005610
  31
0.0
  12
 124.01337227903
  22
 280.78564005610
  32
0.0
  13
 124.01337227903
  23
 280.78564005610
  33
0.0
   0
MTEXT
   5
16C
 100
AcDbEntity
   8
LEVEL001
 370
15
  62
8
 100
AcDbMText
  10
 121.30806435619
  20
 264.78564005610
  30
0.0
  40
 5.0000000000000
  41
0.0
  71
8
  72
1
   1
\A1;40
   7
GMM002
  11
0.0
  21
 1.0000000000000
  31
0.0
   0
ENDBLK
   5
16D
 100
AcDbEntity
   8
0
 100
AcDbBlockEnd
   0
BLOCK
   5
16E
 100
AcDbEntity
   8
0
 100
AcDbBlockBegin
   2
*D20
  70
65
  10
0.0
  20
0.0
  30
0.0
   3
*D20
   0
LINE
   5
16F
 100
AcDbEntity
   8
LEVEL001
 370
15
 100
AcDbLine
   6
CONTINUOUS
  62
8
  10
 52.642548023213
  20
 249.78564005610
  30
0.0
  11
 52.642548023213
  21
 228.00062472110
  31
0.0
   0
LINE
   5
170
 100
AcDbEntity
   8
LEVEL001
 370
15
 100
AcDbLine
   6
CONTINUOUS
  62
8
  10
 92.642548023213
  20
 243.78564005610
  30
0.0
  11
 92.642548023213
  21
 228.00062472110
  31
0.0
   0
LINE
   5
171
 100
AcDbEntity
   8
LEVEL001
 370
15
 100
AcDbLine
   6
CONTINUOUS
  62
8
  10
 52.642548023213
  20
 230.00062472110
  30
0.0
  11
 72.642548023213
  21
 230.00062472110
  31
0.0
   0
LINE
   5
172
 100
AcDbEntity
   8
LEVEL001
 370
15
 100
AcDbLine
   6
CONTINUOUS
  62
8
  10
 92.642548023213
  20
 230.00062472110
  30
0.0
  11
 72.642548023213
  21
 230.00062472110
  31
0.0
   0
SOLID
   5
173
 100
AcDbEntity
   8
LEVEL001
 100
AcDbTrace
   6
CONTINUOUS
  62
8
  10
 52.642548023213
  20
 230.00062472110
  30
0.0
  11
 56.642548023213
  21
 229.29531679827
  31
0.0
  12
 56.642548023213
  22
 230.70593264393
  32
0.0
  13
 56.642548023213
  23
 230.70593264393
  33
0.0
   0
SOLID
   5
174
 100
AcDbEntity
   8
LEVEL001
 100
AcDbTrace
   6
CONTINUOUS
  62
8
  10
 92.642548023213
  20
 230.00062472110
  30
0.0
  11
 88.642548023213
  21
 230.70593264393
  31
0.0
  12
 88.642548023213
  22
 229.29531679827
  32
0.0
  13
 88.642548023213
  23
 229.29531679827
  33
0.0
   0
MTEXT
   5
175
 100
AcDbEntity
   8
LEVEL001
 370
15
  62
8
 100
AcDbMText
  10
 72.642548023213
  20
 232.00062472110
  30
0.0
  40
 5.0000000000000
  41
0.0
  71
8
  72
1
   1
\A1;40
   7
GMM002
   0
ENDBLK
   5
176
 100
AcDbEntity
   8
0
 100
AcDbBlockEnd
   0
BLOCK
   5
177
 100
AcDbEntity
   8
0
 100
AcDbBlockBegin
   2
*D21
  70
65
  10
0.0
  20
0.0
  30
0.0
   3
*D21
   0
LINE
   5
178
 100
AcDbEntity
   8
LEVEL001
 370
15
 100
AcDbLine
   6
CONTINUOUS
  62
8
  10
 185.48520417409
  20
 285.78564005610
  30
0.0
  11
 185.48520417409
  21
 296.14520303435
  31
0.0
   0
LINE
   5
179
 100
AcDbEntity
   8
LEVEL001
 370
15
 100
AcDbLine
   6
CONTINUOUS
  62
8
  10
 205.48520417409
  20
 285.78564005610
  30
0.0
  11
 205.48520417409
  21
 296.14520303435
  31
0.0
   0
LINE
   5
17A
 100
AcDbEntity
   8
LEVEL001
 370
15
 100
AcDbLine
   6
CONTINUOUS
  62
8
  10
 185.48520417409
  20
 294.14520303435
  30
0.0
  11
 195.48520417409
  21
 294.14520303435
  31
0.0
   0
LINE
   5
17B
 100
AcDbEntity
   8
LEVEL001
 370
15
 100
AcDbLine
   6
CONTINUOUS
  62
8
  10
 205.48520417409
  20
 294.14520303435
  30
0.0
  11
 195.48520417409
  21
 294.14520303435
  31
0.0
   0
SOLID
   5
17C
 100
AcDbEntity
   8
LEVEL001
 100
AcDbTrace
   6
CONTINUOUS
  62
8
  10
 185.48520417409
  20
 294.14520303435
  30
0.0
  11
 189.48520417409
  21
 293.43989511152
  31
0.0
  12
 189.48520417409
  22
 294.85051095719
  32
0.0
  13
 189.48520417409
  23
 294.85051095719
  33
0.0
   0
SOLID
   5
17D
 100
AcDbEntity
   8
LEVEL001
 100
AcDbTrace
   6
CONTINUOUS
  62
8
  10
 205.48520417409
  20
 294.14520303435
  30
0.0
  11
 201.48520417409
  21
 294.85051095719
  31
0.0
  12
 201.48520417409
  22
 293.43989511152
  32
0.0
  13
 201.48520417409
  23
 293.43989511152
  33
0.0
   0
MTEXT
   5
17E
 100
AcDbEntity
   8
LEVEL001
 370
15
  62
8
 100
AcDbMText
  10
 195.48520417409
  20
 296.14520303435
  30
0.0
  40
 5.0000000000000
  41
0.0
  71
8
  72
1
   1
\A1;20
   7
GMM002
   0
ENDBLK
   5
17F
 100
AcDbEntity
   8
0
 100
AcDbBlockEnd
   0
BLOCK
   5
180
 100
AcDbEntity
   8
0
 100
AcDbBlockBegin
   2
*D22
  70
65
  10
0.0
  20
0.0
  30
0.0
   3
*D22
   0
LINE
   5
181
 100
AcDbEntity
   8
LEVEL001
 370
15
 100
AcDbLine
   6
CONTINUOUS
  62
8
  10
 226.48520417409
  20
 244.78564005610
  30
0.0
  11
 241.29288918177
  21
 244.78564005610
  31
0.0
   0
LINE
   5
182
 100
AcDbEntity
   8
LEVEL001
 370
15
 100
AcDbLine
   6
CONTINUOUS
  62
8
  10
 226.48520417409
  20
 264.78564005610
  30
0.0
  11
 241.29288918177
  21
 264.78564005610
  31
0.0
   0
LINE
   5
183
 100
AcDbEntity
   8
LEVEL001
 370
15
 100
AcDbLine
   6
CONTINUOUS
  62
8
  10
 239.29288918177
  20
 244.78564005610
  30
0.0
  11
 239.29288918177
  21
 254.78564005610
  31
0.0
   0
LINE
   5
184
 100
AcDbEntity
   8
LEVEL001
 370
15
 100
AcDbLine
   6
CONTINUOUS
  62
8
  10
 239.29288918177
  20
 264.78564005610
  30
0.0
  11
 239.29288918177
  21
 254.78564005610
  31
0.0
   0
SOLID
   5
185
 100
AcDbEntity
   8
LEVEL001
 100
AcDbTrace
   6
CONTINUOUS
  62
8
  10
 239.29288918177
  20
 244.78564005610
  30
0.0
  11
 239.99819710460
  21
 248.78564005610
  31
0.0
  12
 238.58758125893
  22
 248.78564005610
  32
0.0
  13
 238.58758125893
  23
 248.78564005610
  33
0.0
   0
SOLID
   5
186
 100
AcDbEntity
   8
LEVEL001
 100
AcDbTrace
   6
CONTINUOUS
  62
8
  10
 239.29288918177
  20
 264.78564005610
  30
0.0
  11
 238.58758125893
  21
 260.78564005610
  31
0.0
  12
 239.99819710460
  22
 260.78564005610
  32
0.0
  13
 239.99819710460
  23
 260.78564005610
  33
0.0
   0
MTEXT
   5
187
 100
AcDbEntity
   8
LEVEL001
 370
15
  62
8
 100
AcDbMText
  10
 237.29288918177
  20
 254.78564005610
  30
0.0
  40
 5.0000000000000
  41
0.0
  71
8
  72
1
   1
\A1;20
   7
GMM002
  11
0.0
  21
 1.0000000000000
  31
0.0
   0
ENDBLK
   5
188
 100
AcDbEntity
   8
0
 100
AcDbBlockEnd
   0
BLOCK
   5
189
 100
AcDbEntity
   8
0
 100
AcDbBlockBegin
   2
*D23
  70
65
  10
0.0
  20
0.0
  30
0.0
   3
*D23
   0
LINE
   5
18A
 100
AcDbEntity
   8
LEVEL001
 370
15
 100
AcDbLine
   6
CONTINUOUS
  62
8
  10
 241.29288918177
  20
 244.78564005610
  30
0.0
  11
 258.15072050707
  21
 244.78564005610
  31
0.0
   0
LINE
   5
18B
 100
AcDbEntity
   8
LEVEL001
 370
15
 100
AcDbLine
   6
CONTINUOUS
  62
8
  10
 206.48520417409
  20
 284.78564005610
  30
0.0
  11
 258.15072050707
  21
 284.78564005610
  31
0.0
   0
LINE
   5
18C
 100
AcDbEntity
   8
LEVEL001
 370
15
 100
AcDbLine
   6
CONTINUOUS
  62
8
  10
 256.15072050707
  20
 244.78564005610
  30
0.0
  11
 256.15072050707
  21
 264.78564005610
  31
0.0
   0
LINE
   5
18D
 100
AcDbEntity
   8
LEVEL001
 370
15
 100
AcDbLine
   6
CONTINUOUS
  62
8
  10
 256.15072050707
  20
 284.78564005610
  30
0.0
  11
 256.15072050707
  21
 264.78564005610
  31
0.0
   0
SOLID
   5
18E
 100
AcDbEntity
   8
LEVEL001
 100
AcDbTrace
   6
CONTINUOUS
  62
8
  10
 256.15072050707
  20
 244.78564005610
  30
0.0
  11
 256.85602842990
  21
 248.78564005610
  31
0.0
  12
 255.44541258423
  22
 248.78564005610
  32
0.0
  13
 255.44541258423
  23
 248.78564005610
  33
0.0
   0
SOLID
   5
18F
 100
AcDbEntity
   8
LEVEL001
 100
AcDbTrace
   6
CONTINUOUS
  62
8
  10
 256.15072050707
  20
 284.78564005610
  30
0.0
  11
 255.44541258423
  21
 280.78564005610
  31
0.0
  12
 256.85602842990
  22
 280.78564005610
  32
0.0
  13
 256.85602842990
  23
 280.78564005610
  33
0.0
   0
MTEXT
   5
190
 100
AcDbEntity
   8
LEVEL001
 370
15
  62
8
 100
AcDbMText
  10
 254.15072050707
  20
 264.78564005610
  30
0.0
  40
 5.0000000000000
  41
0.0
  71
8
  72
1
   1
\A1;40
   7
GMM002
  11
0.0
  21
 1.0000000000000
  31
0.0
   0
ENDBLK
   5
191
 100
AcDbEntity
   8
0
 100
AcDbBlockEnd
   0
BLOCK
   5
192
 100
AcDbEntity
   8
0
 100
AcDbBlockBegin
   2
*D24
  70
65
  10
0.0
  20
0.0
  30
0.0
   3
*D24
   0
LINE
   5
193
 100
AcDbEntity
   8
LEVEL001
 370
15
 100
AcDbLine
   6
CONTINUOUS
  62
8
  10
 185.48520417409
  20
 249.78564005610
  30
0.0
  11
 185.48520417409
  21
 228.00062472110
  31
0.0
   0
LINE
   5
194
 100
AcDbEntity
   8
LEVEL001
 370
15
 100
AcDbLine
   6
CONTINUOUS
  62
8
  10
 225.48520417409
  20
 243.78564005610
  30
0.0
  11
 225.48520417409
  21
 228.00062472110
  31
0.0
   0
LINE
   5
195
 100
AcDbEntity
   8
LEVEL001
 370
15
 100
AcDbLine
   6
CONTINUOUS
  62
8
  10
 185.48520417409
  20
 230.00062472110
  30
0.0
  11
 205.48520417409
  21
 230.00062472110
  31
0.0
   0
LINE
   5
196
 100
AcDbEntity
   8
LEVEL001
 370
15
 100
AcDbLine
   6
CONTINUOUS
  62
8
  10
 225.48520417409
  20
 230.00062472110
  30
0.0
  11
 205.48520417409
  21
 230.00062472110
  31
0.0
   0
SOLID
   5
197
 100
AcDbEntity
   8
LEVEL001
 100
AcDbTrace
   6
CONTINUOUS
  62
8
  10
 185.48520417409
  20
 230.00062472110
  30
0.0
  11
 189.48520417409
  21
 229.29531679827
  31
0.0
  12
 189.48520417409
  22
 230.70593264393
  32
0.0
  13
 189.48520417409
  23
 230.70593264393
  33
0.0
   0
SOLID
   5
198
 100
AcDbEntity
   8
LEVEL001
 100
AcDbTrace
   6
CONTINUOUS
  62
8
  10
 225.48520417409
  20
 230.00062472110
  30
0.0
  11
 221.48520417409
  21
 230.70593264393
  31
0.0
  12
 221.48520417409
  22
 229.29531679827
  32
0.0
  13
 221.48520417409
  23
 229.29531679827
  33
0.0
   0
MTEXT
   5
199
 100
AcDbEntity
   8
LEVEL001
 370
15
  62
8
 100
AcDbMText
  10
 205.48520417409
  20
 232.00062472110
  30
0.0
  40
 5.0000000000000
  41
0.0
  71
8
  72
1
   1
\A1;40
   7
GMM002
   0
ENDBLK
   5
19A
 100
AcDbEntity
   8
0
 100
AcDbBlockEnd
   0
BLOCK
   5
19B
 100
AcDbEntity
   8
0
 100
AcDbBlockBegin
   2
*D25
  70
65
  10
0.0
  20
0.0
  30
0.0
   3
*D25
   0
LINE
   5
19C
 100
AcDbEntity
   8
LEVEL001
 370
15
 100
AcDbLine
   6
CONTINUOUS
  62
8
  10
 341.64254802321
  20
 285.78564005610
  30
0.0
  11
 341.64254802321
  21
 296.14520303435
  31
0.0
   0
LINE
   5
19D
 100
AcDbEntity
   8
LEVEL001
 370
15
 100
AcDbLine
   6
CONTINUOUS
  62
8
  10
 359.64254802321
  20
 285.78564005610
  30
0.0
  11
 359.64254802321
  21
 296.14520303435
  31
0.0
   0
LINE
   5
19E
 100
AcDbEntity
   8
LEVEL001
 370
15
 100
AcDbLine
   6
CONTINUOUS
  62
8
  10
 341.64254802321
  20
 294.14520303435
  30
0.0
  11
 350.64254802321
  21
 294.14520303435
  31
0.0
   0
LINE
   5
19F
 100
AcDbEntity
   8
LEVEL001
 370
15
 100
AcDbLine
   6
CONTINUOUS
  62
8
  10
 359.64254802321
  20
 294.14520303435
  30
0.0
  11
 350.64254802321
  21
 294.14520303435
  31
0.0
   0
SOLID
   5
1A0
 100
AcDbEntity
   8
LEVEL001
 100
AcDbTrace
   6
CONTINUOUS
  62
8
  10
 341.64254802321
  20
 294.14520303435
  30
0.0
  11
 345.64254802321
  21
 293.43989511152
  31
0.0
  12
 345.64254802321
  22
 294.85051095719
  32
0.0
  13
 345.64254802321
  23
 294.85051095719
  33
0.0
   0
SOLID
   5
1A1
 100
AcDbEntity
   8
LEVEL001
 100
AcDbTrace
   6
CONTINUOUS
  62
8
  10
 359.64254802321
  20
 294.14520303435
  30
0.0
  11
 355.64254802321
  21
 294.85051095719
  31
0.0
  12
 355.64254802321
  22
 293.43989511152
  32
0.0
  13
 355.64254802321
  23
 293.43989511152
  33
0.0
   0
MTEXT
   5
1A2
 100
AcDbEntity
   8
LEVEL001
 370
15
  62
8
 100
AcDbMText
  10
 350.64254802321
  20
 296.14520303435
  30
0.0
  40
 5.0000000000000
  41
0.0
  71
8
  72
1
   1
\A1;18
   7
GMM002
   0
ENDBLK
   5
1A3
 100
AcDbEntity
   8
0
 100
AcDbBlockEnd
   0
BLOCK
   5
1A4
 100
AcDbEntity
   8
0
 100
AcDbBlockBegin
   2
*D26
  70
65
  10
0.0
  20
0.0
  30
0.0
   3
*D26
   0
LINE
   5
1A5
 100
AcDbEntity
   8
LEVEL001
 370
15
 100
AcDbLine
   6
CONTINUOUS
  62
8
  10
 341.64254802321
  20
 246.78564005610
  30
0.0
  11
 341.64254802321
  21
 220.23337795626
  31
0.0
   0
LINE
   5
1A6
 100
AcDbEntity
   8
LEVEL001
 370
15
 100
AcDbLine
   6
CONTINUOUS
  62
8
  10
 392.64254802321
  20
 232.78564005610
  30
0.0
  11
 392.64254802321
  21
 220.23337795626
  31
0.0
   0
LINE
   5
1A7
 100
AcDbEntity
   8
LEVEL001
 370
15
 100
AcDbLine
   6
CONTINUOUS
  62
8
  10
 341.64254802321
  20
 222.23337795626
  30
0.0
  11
 367.14254802321
  21
 222.23337795626
  31
0.0
   0
LINE
   5
1A8
 100
AcDbEntity
   8
LEVEL001
 370
15
 100
AcDbLine
   6
CONTINUOUS
  62
8
  10
 392.64254802321
  20
 222.23337795626
  30
0.0
  11
 367.14254802321
  21
 222.23337795626
  31
0.0
   0
SOLID
   5
1A9
 100
AcDbEntity
   8
LEVEL001
 100
AcDbTrace
   6
CONTINUOUS
  62
8
  10
 341.64254802321
  20
 222.23337795626
  30
0.0
  11
 345.64254802321
  21
 221.52807003343
  31
0.0
  12
 345.64254802321
  22
 222.93868587910
  32
0.0
  13
 345.64254802321
  23
 222.93868587910
  33
0.0
   0
SOLID
   5
1AA
 100
AcDbEntity
   8
LEVEL001
 100
AcDbTrace
   6
CONTINUOUS
  62
8
  10
 392.64254802321
  20
 222.23337795626
  30
0.0
  11
 388.64254802321
  21
 222.93868587910
  31
0.0
  12
 388.64254802321
  22
 221.52807003343
  32
0.0
  13
 388.64254802321
  23
 221.52807003343
  33
0.0
   0
MTEXT
   5
1AB
 100
AcDbEntity
   8
LEVEL001
 370
15
  62
8
 100
AcDbMText
  10
 367.14254802321
  20
 224.23337795626
  30
0.0
  40
 5.0000000000000
  41
0.0
  71
8
  72
1
   1
\A1;51
   7
GMM002
   0
ENDBLK
   5
1AC
 100
AcDbEntity
   8
0
 100
AcDbBlockEnd
   0
BLOCK
   5
1AD
 100
AcDbEntity
   8
0
 100
AcDbBlockBegin
   2
*D27
  70
65
  10
0.0
  20
0.0
  30
0.0
   3
*D27
   0
LINE
   5
1AE
 100
AcDbEntity
   8
LEVEL001
 370
15
 100
AcDbLine
   6
CONTINUOUS
  62
8
  10
 393.64254802321
  20
 233.78564005610
  30
0.0
  11
 404.23291933166
  21
 233.78564005610
  31
0.0
   0
LINE
   5
1AF
 100
AcDbEntity
   8
LEVEL001
 370
15
 100
AcDbLine
   6
CONTINUOUS
  62
8
  10
 393.64254802321
  20
 251.78564005610
  30
0.0
  11
 404.23291933166
  21
 251.78564005610
  31
0.0
   0
LINE
   5
1B0
 100
AcDbEntity
   8
LEVEL001
 370
15
 100
AcDbLine
   6
CONTINUOUS
  62
8
  10
 402.23291933166
  20
 233.78564005610
  30
0.0
  11
 402.23291933166
  21
 242.78564005610
  31
0.0
   0
LINE
   5
1B1
 100
AcDbEntity
   8
LEVEL001
 370
15
 100
AcDbLine
   6
CONTINUOUS
  62
8
  10
 402.23291933166
  20
 251.78564005610
  30
0.0
  11
 402.23291933166
  21
 242.78564005610
  31
0.0
   0
SOLID
   5
1B2
 100
AcDbEntity
   8
LEVEL001
 100
AcDbTrace
   6
CONTINUOUS
  62
8
  10
 402.23291933166
  20
 233.78564005610
  30
0.0
  11
 402.93822725449
  21
 237.78564005610
  31
0.0
  12
 401.52761140883
  22
 237.78564005610
  32
0.0
  13
 401.52761140883
  23
 237.78564005610
  33
0.0
   0
SOLID
   5
1B3
 100
AcDbEntity
   8
LEVEL001
 100
AcDbTrace
   6
CONTINUOUS
  62
8
  10
 402.23291933166
  20
 251.78564005610
  30
0.0
  11
 401.52761140883
  21
 247.78564005610
  31
0.0
  12
 402.93822725449
  22
 247.78564005610
  32
0.0
  13
 402.93822725449
  23
 247.78564005610
  33
0.0
   0
MTEXT
   5
1B4
 100
AcDbEntity
   8
LEVEL001
 370
15
  62
8
 100
AcDbMText
  10
 400.23291933166
  20
 242.78564005610
  30
0.0
  40
 5.0000000000000
  41
0.0
  71
8
  72
1
   1
\A1;18
   7
GMM002
  11
0.0
  21
 1.0000000000000
  31
0.0
   0
ENDBLK
   5
1B5
 100
AcDbEntity
   8
0
 100
AcDbBlockEnd
   0
BLOCK
   5
1B6
 100
AcDbEntity
   8
0
 100
AcDbBlockBegin
   2
*D28
  70
65
  10
0.0
  20
0.0
  30
0.0
   3
*D28
   0
LINE
   5
1B7
 100
AcDbEntity
   8
LEVEL001
 370
15
 100
AcDbLine
   6
CONTINUOUS
  62
8
  10
 404.23291933166
  20
 233.78564005610
  30
0.0
  11
 414.94135306660
  21
 233.78564005610
  31
0.0
   0
LINE
   5
1B8
 100
AcDbEntity
   8
LEVEL001
 370
15
 100
AcDbLine
   6
CONTINUOUS
  62
8
  10
 360.64254802321
  20
 284.78564005610
  30
0.0
  11
 414.94135306660
  21
 284.78564005610
  31
0.0
   0
LINE
   5
1B9
 100
AcDbEntity
   8
LEVEL001
 370
15
 100
AcDbLine
   6
CONTINUOUS
  62
8
  10
 412.94135306660
  20
 233.78564005610
  30
0.0
  11
 412.94135306660
  21
 259.28564005610
  31
0.0
   0
LINE
   5
1BA
 100
AcDbEntity
   8
LEVEL001
 370
15
 100
AcDbLine
   6
CONTINUOUS
  62
8
  10
 412.94135306660
  20
 284.78564005610
  30
0.0
  11
 412.94135306660
  21
 259.28564005610
  31
0.0
   0
SOLID
   5
1BB
 100
AcDbEntity
   8
LEVEL001
 100
AcDbTrace
   6
CONTINUOUS
  62
8
  10
 412.94135306660
  20
 233.78564005610
  30
0.0
  11
 413.64666098943
  21
 237.78564005610
  31
0.0
  12
 412.23604514377
  22
 237.78564005610
  32
0.0
  13
 412.23604514377
  23
 237.78564005610
  33
0.0
   0
SOLID
   5
1BC
 100
AcDbEntity
   8
LEVEL001
 100
AcDbTrace
   6
CONTINUOUS
  62
8
  10
 412.94135306660
  20
 284.78564005610
  30
0.0
  11
 412.23604514377
  21
 280.78564005610
  31
0.0
  12
 413.64666098943
  22
 280.78564005610
  32
0.0
  13
 413.64666098943
  23
 280.78564005610
  33
0.0
   0
MTEXT
   5
1BD
 100
AcDbEntity
   8
LEVEL001
 370
15
  62
8
 100
AcDbMText
  10
 410.94135306660
  20
 259.28564005610
  30
0.0
  40
 5.0000000000000
  41
0.0
  71
8
  72
1
   1
\A1;51
   7
GMM002
  11
0.0
  21
 1.0000000000000
  31
0.0
   0
ENDBLK
   5
1BE
 100
AcDbEntity
   8
0
 100
AcDbBlockEnd
   0
BLOCK
   5
1BF
 100
AcDbEntity
   8
0
 100
AcDbBlockBegin
   2
*D29
  70
65
  10
0.0
  20
0.0
  30
0.0
   3
*D29
   0
LINE
   5
1C0
 100
AcDbEntity
   8
LEVEL001
 370
15
 100
AcDbLine
   6
CONTINUOUS
  62
8
  10
 526.48520417409
  20
 233.78564005610
  30
0.0
  11
 537.07557548253
  21
 233.78564005610
  31
0.0
   0
LINE
   5
1C1
 100
AcDbEntity
   8
LEVEL001
 370
15
 100
AcDbLine
   6
CONTINUOUS
  62
8
  10
 526.48520417409
  20
 251.78564005610
  30
0.0
  11
 537.07557548253
  21
 251.78564005610
  31
0.0
   0
LINE
   5
1C2
 100
AcDbEntity
   8
LEVEL001
 370
15
 100
AcDbLine
   6
CONTINUOUS
  62
8
  10
 535.07557548253
  20
 233.78564005610
  30
0.0
  11
 535.07557548253
  21
 242.78564005610
  31
0.0
   0
LINE
   5
1C3
 100
AcDbEntity
   8
LEVEL001
 370
15
 100
AcDbLine
   6
CONTINUOUS
  62
8
  10
 535.07557548253
  20
 251.78564005610
  30
0.0
  11
 535.07557548253
  21
 242.78564005610
  31
0.0
   0
SOLID
   5
1C4
 100
AcDbEntity
   8
LEVEL001
 100
AcDbTrace
   6
CONTINUOUS
  62
8
  10
 535.07557548253
  20
 233.78564005610
  30
0.0
  11
 535.78088340537
  21
 237.78564005610
  31
0.0
  12
 534.37026755970
  22
 237.78564005610
  32
0.0
  13
 534.37026755970
  23
 237.78564005610
  33
0.0
   0
SOLID
   5
1C5
 100
AcDbEntity
   8
LEVEL001
 100
AcDbTrace
   6
CONTINUOUS
  62
8
  10
 535.07557548253
  20
 251.78564005610
  30
0.0
  11
 534.37026755970
  21
 247.78564005610
  31
0.0
  12
 535.78088340537
  22
 247.78564005610
  32
0.0
  13
 535.78088340537
  23
 247.78564005610
  33
0.0
   0
MTEXT
   5
1C6
 100
AcDbEntity
   8
LEVEL001
 370
15
  62
8
 100
AcDbMText
  10
 533.07557548253
  20
 242.78564005610
  30
0.0
  40
 5.0000000000000
  41
0.0
  71
8
  72
1
   1
\A1;18
   7
GMM002
  11
0.0
  21
 1.0000000000000
  31
0.0
   0
ENDBLK
   5
1C7
 100
AcDbEntity
   8
0
 100
AcDbBlockEnd
   0
BLOCK
   5
1C8
 100
AcDbEntity
   8
0
 100
AcDbBlockBegin
   2
*D30
  70
65
  10
0.0
  20
0.0
  30
0.0
   3
*D30
   0
LINE
   5
1C9
 100
AcDbEntity
   8
LEVEL001
 370
15
 100
AcDbLine
   6
CONTINUOUS
  62
8
  10
 537.07557548253
  20
 233.78564005610
  30
0.0
  11
 547.78400921747
  21
 233.78564005610
  31
0.0
   0
LINE
   5
1CA
 100
AcDbEntity
   8
LEVEL001
 370
15
 100
AcDbLine
   6
CONTINUOUS
  62
8
  10
 493.48520417409
  20
 284.78564005610
  30
0.0
  11
 547.78400921747
  21
 284.78564005610
  31
0.0
   0
LINE
   5
1CB
 100
AcDbEntity
   8
LEVEL001
 370
15
 100
AcDbLine
   6
CONTINUOUS
  62
8
  10
 545.78400921747
  20
 233.78564005610
  30
0.0
  11
 545.78400921747
  21
 259.28564005610
  31
0.0
   0
LINE
   5
1CC
 100
AcDbEntity
   8
LEVEL001
 370
15
 100
AcDbLine
   6
CONTINUOUS
  62
8
  10
 545.78400921747
  20
 284.78564005610
  30
0.0
  11
 545.78400921747
  21
 259.28564005610
  31
0.0
   0
SOLID
   5
1CD
 100
AcDbEntity
   8
LEVEL001
 100
AcDbTrace
   6
CONTINUOUS
  62
8
  10
 545.78400921747
  20
 233.78564005610
  30
0.0
  11
 546.48931714031
  21
 237.78564005610
  31
0.0
  12
 545.07870129464
  22
 237.78564005610
  32
0.0
  13
 545.07870129464
  23
 237.78564005610
  33
0.0
   0
SOLID
   5
1CE
 100
AcDbEntity
   8
LEVEL001
 100
AcDbTrace
   6
CONTINUOUS
  62
8
  10
 545.78400921747
  20
 284.78564005610
  30
0.0
  11
 545.07870129464
  21
 280.78564005610
  31
0.0
  12
 546.48931714031
  22
 280.78564005610
  32
0.0
  13
 546.48931714031
  23
 280.78564005610
  33
0.0
   0
MTEXT
   5
1CF
 100
AcDbEntity
   8
LEVEL001
 370
15
  62
8
 100
AcDbMText
  10
 543.78400921747
  20
 259.28564005610
  30
0.0
  40
 5.0000000000000
  41
0.0
  71
8
  72
1
   1
\A1;51
   7
GMM002
  11
0.0
  21
 1.0000000000000
  31
0.0
   0
ENDBLK
   5
1D0
 100
AcDbEntity
   8
0
 100
AcDbBlockEnd
   0
BLOCK
   5
1D1
 100
AcDbEntity
   8
0
 100
AcDbBlockBegin
   2
*D31
  70
65
  10
0.0
  20
0.0
  30
0.0
   3
*D31
   0
LINE
   5
1D2
 100
AcDbEntity
   8
LEVEL001
 370
15
 100
AcDbLine
   6
CONTINUOUS
  62
8
  10
 474.48520417409
  20
 246.78564005610
  30
0.0
  11
 474.48520417409
  21
 220.23337795626
  31
0.0
   0
LINE
   5
1D3
 100
AcDbEntity
   8
LEVEL001
 370
15
 100
AcDbLine
   6
CONTINUOUS
  62
8
  10
 525.48520417409
  20
 232.78564005610
  30
0.0
  11
 525.48520417409
  21
 220.23337795626
  31
0.0
   0
LINE
   5
1D4
 100
AcDbEntity
   8
LEVEL001
 370
15
 100
AcDbLine
   6
CONTINUOUS
  62
8
  10
 474.48520417409
  20
 222.23337795626
  30
0.0
  11
 499.98520417409
  21
 222.23337795626
  31
0.0
   0
LINE
   5
1D5
 100
AcDbEntity
   8
LEVEL001
 370
15
 100
AcDbLine
   6
CONTINUOUS
  62
8
  10
 525.48520417409
  20
 222.23337795626
  30
0.0
  11
 499.98520417409
  21
 222.23337795626
  31
0.0
   0
SOLID
   5
1D6
 100
AcDbEntity
   8
LEVEL001
 100
AcDbTrace
   6
CONTINUOUS
  62
8
  10
 474.48520417409
  20
 222.23337795626
  30
0.0
  11
 478.48520417409
  21
 221.52807003343
  31
0.0
  12
 478.48520417409
  22
 222.93868587910
  32
0.0
  13
 478.48520417409
  23
 222.93868587910
  33
0.0
   0
SOLID
   5
1D7
 100
AcDbEntity
   8
LEVEL001
 100
AcDbTrace
   6
CONTINUOUS
  62
8
  10
 525.48520417409
  20
 222.23337795626
  30
0.0
  11
 521.48520417409
  21
 222.93868587910
  31
0.0
  12
 521.48520417409
  22
 221.52807003343
  32
0.0
  13
 521.48520417409
  23
 221.52807003343
  33
0.0
   0
MTEXT
   5
1D8
 100
AcDbEntity
   8
LEVEL001
 370
15
  62
8
 100
AcDbMText
  10
 499.98520417409
  20
 229.23337795626
  30
0.0
  40
 5.0000000000000
  41
0.0
  71
8
  72
1
   1
\A1;51
   7
GMM002
  44
 0.79999984000003
   0
ENDBLK
   5
1D9
 100
AcDbEntity
   8
0
 100
AcDbBlockEnd
   0
BLOCK
   5
1DA
 100
AcDbEntity
   8
0
 100
AcDbBlockBegin
   2
*D32
  70
65
  10
0.0
  20
0.0
  30
0.0
   3
*D32
   0
LINE
   5
1DB
 100
AcDbEntity
   8
LEVEL001
 370
15
 100
AcDbLine
   6
CONTINUOUS
  62
8
  10
 474.48520417409
  20
 285.78564005610
  30
0.0
  11
 474.48520417409
  21
 296.14520303435
  31
0.0
   0
LINE
   5
1DC
 100
AcDbEntity
   8
LEVEL001
 370
15
 100
AcDbLine
   6
CONTINUOUS
  62
8
  10
 492.48520417409
  20
 285.78564005610
  30
0.0
  11
 492.48520417409
  21
 296.14520303435
  31
0.0
   0
LINE
   5
1DD
 100
AcDbEntity
   8
LEVEL001
 370
15
 100
AcDbLine
   6
CONTINUOUS
  62
8
  10
 474.48520417409
  20
 294.14520303435
  30
0.0
  11
 483.48520417409
  21
 294.14520303435
  31
0.0
   0
LINE
   5
1DE
 100
AcDbEntity
   8
LEVEL001
 370
15
 100
AcDbLine
   6
CONTINUOUS
  62
8
  10
 492.48520417409
  20
 294.14520303435
  30
0.0
  11
 483.48520417409
  21
 294.14520303435
  31
0.0
   0
SOLID
   5
1DF
 100
AcDbEntity
   8
LEVEL001
 100
AcDbTrace
   6
CONTINUOUS
  62
8
  10
 474.48520417409
  20
 294.14520303435
  30
0.0
  11
 478.48520417409
  21
 293.43989511152
  31
0.0
  12
 478.48520417409
  22
 294.85051095719
  32
0.0
  13
 478.48520417409
  23
 294.85051095719
  33
0.0
   0
SOLID
   5
1E0
 100
AcDbEntity
   8
LEVEL001
 100
AcDbTrace
   6
CONTINUOUS
  62
8
  10
 492.48520417409
  20
 294.14520303435
  30
0.0
  11
 488.48520417409
  21
 294.85051095719
  31
0.0
  12
 488.48520417409
  22
 293.43989511152
  32
0.0
  13
 488.48520417409
  23
 293.43989511152
  33
0.0
   0
MTEXT
   5
1E1
 100
AcDbEntity
   8
LEVEL001
 370
15
  62
8
 100
AcDbMText
  10
 483.48520417409
  20
 296.14520303435
  30
0.0
  40
 5.0000000000000
  41
0.0
  71
8
  72
1
   1
\A1;18
   7
GMM002
   0
ENDBLK
   5
1E2
 100
AcDbEntity
   8
0
 100
AcDbBlockEnd
   0
ENDSEC
   0
SECTION
   2
ENTITIES
   0
MTEXT
   5
1E4
 100
AcDbEntity
   8
LEVEL002
 370
15
  62
8
 100
AcDbMText
  10
-566.25712691644
  20
 239.77099110637
  30
0.0
  40
 8.0000000000000
  41
0.0
  71
5
  72
1
   1
\T1.000000;ＧＮ１Ｃ
   7
GMM001
  44
 0.79999984000003
   0
ARC
   5
1E5
 100
AcDbEntity
   8
LEVEL002
 370
50
   6
HIDDEN
  62
4
 100
AcDbCircle
  10
-402.92764110947
  20
 176.55180552301
  30
0.0
  40
 3.0000000000000
 100
AcDbArc
  50
 89.999999999996
  51
 180.00000000000
   0
LINE
   5
1E6
 100
AcDbEntity
   8
LEVEL002
 370
50
 100
AcDbLine
   6
HIDDEN
  62
4
  10
-401.42764110947
  20
 155.05180552302
  30
0.0
  11
-401.42764110947
  21
 173.05180552302
  31
0.0
   0
ARC
   5
1E7
 100
AcDbEntity
   8
LEVEL002
 370
50
   6
HIDDEN
  62
4
 100
AcDbCircle
  10
-399.42764110947
  20
 173.05180552302
  30
0.0
  40
 2.0000000000000
 100
AcDbArc
  50
 90.000000000000
  51
 180.00000000000
   0
LINE
   5
1E8
 100
AcDbEntity
   8
LEVEL002
 370
50
 100
AcDbLine
   6
HIDDEN
  62
4
  10
-405.92764110947
  20
 176.55180552301
  30
0.0
  11
-405.92764110947
  21
 155.05180552302
  31
0.0
   0
LINE
   5
1E9
 100
AcDbEntity
   8
LEVEL002
 370
50
 100
AcDbLine
   6
HIDDEN
  62
4
  10
-399.42764110947
  20
 175.05180552301
  30
0.0
  11
-381.42764110947
  21
 175.05180552301
  31
0.0
   0
LINE
   5
1EA
 100
AcDbEntity
   8
LEVEL002
 370
50
 100
AcDbLine
   6
HIDDEN
  62
4
  10
-381.42764110947
  20
 179.55180552301
  30
0.0
  11
-402.92764110947
  21
 179.55180552301
  31
0.0
   0
ARC
   5
1EB
 100
AcDbEntity
   8
LEVEL002
 370
25
   6
CONTINUOUS
  62
1
 100
AcDbCircle
  10
-398.92764110947
  20
 172.55180552302
  30
0.0
  40
 2.0000000000000
 100
AcDbArc
  50
 90.000000000013
  51
 180.00000000000
   0
ARC
   5
1EC
 100
AcDbEntity
   8
LEVEL002
 370
25
   6
CONTINUOUS
  62
1
 100
AcDbCircle
  10
-403.42764110947
  20
 177.05180552301
  30
0.0
  40
 3.0000000000000
 100
AcDbArc
  50
 89.999999999996
  51
 180.00000000000
   0
LINE
   5
1ED
 100
AcDbEntity
   8
LEVEL002
 370
25
 100
AcDbLine
   6
CONTINUOUS
  62
1
  10
-406.42764110947
  20
 177.05180552301
  30
0.0
  11
-406.42764110947
  21
 155.05180552302
  31
0.0
   0
LINE
   5
1EE
 100
AcDbEntity
   8
LEVEL002
 370
25
 100
AcDbLine
   6
CONTINUOUS
  62
1
  10
-406.42764110947
  20
 155.05180552302
  30
0.0
  11
-400.92764110947
  21
 155.05180552302
  31
0.0
   0
LINE
   5
1EF
 100
AcDbEntity
   8
LEVEL002
 370
25
 100
AcDbLine
   6
CONTINUOUS
  62
1
  10
-381.42764110947
  20
 174.55180552301
  30
0.0
  11
-381.42764110947
  21
 180.05180552301
  31
0.0
   0
LINE
   5
1F0
 100
AcDbEntity
   8
LEVEL002
 370
25
 100
AcDbLine
   6
CONTINUOUS
  62
1
  10
-381.42764110947
  20
 180.05180552301
  30
0.0
  11
-403.42764110947
  21
 180.05180552301
  31
0.0
   0
LINE
   5
1F1
 100
AcDbEntity
   8
LEVEL002
 370
25
 100
AcDbLine
   6
CONTINUOUS
  62
1
  10
-398.92764110947
  20
 174.55180552301
  30
0.0
  11
-381.42764110947
  21
 174.55180552301
  31
0.0
   0
LINE
   5
1F2
 100
AcDbEntity
   8
LEVEL002
 370
25
 100
AcDbLine
   6
CONTINUOUS
  62
1
  10
-400.92764110947
  20
 155.05180552302
  30
0.0
  11
-400.92764110947
  21
 172.55180552302
  31
0.0
   0
MTEXT
   5
1F4
 100
AcDbEntity
   8
LEVEL002
 370
15
  62
8
 100
AcDbMText
  10
-354.00535492535
  20
 85.479437101965
  30
0.0
  40
 1.5000000000000
  41
0.0
  71
5
  72
1
   1
\W0.800000;\T1.000000;フロアー金具\W0.400000;\T1.000000;(\W0.800000;\T1.000000;コーナー部材\W0.400000;\T1.000000;)
   7
GMM001
  44
 0.79999984000003
   0
LINE
   5
1F5
 100
AcDbEntity
   8
LEVEL002
 370
25
 100
AcDbLine
   6
CONTINUOUS
  62
1
  10
-405.92764110947
  20
 131.22450289144
  30
0.0
  11
-405.92764110947
  21
 138.22450289144
  31
0.0
   0
LINE
   5
1F6
 100
AcDbEntity
   8
LEVEL002
 370
25
 100
AcDbLine
   6
CONTINUOUS
  62
1
  10
-405.92764110947
  20
 138.22450289144
  30
0.0
  11
-401.42764110947
  21
 138.22450289144
  31
0.0
   0
LINE
   5
1F7
 100
AcDbEntity
   8
LEVEL002
 370
25
 100
AcDbLine
   6
CONTINUOUS
  62
1
  10
-401.42764110947
  20
 138.22450289144
  30
0.0
  11
-401.42764110947
  21
 131.22450289144
  31
0.0
   0
LINE
   5
1F8
 100
AcDbEntity
   8
LEVEL002
 370
25
 100
AcDbLine
   6
CONTINUOUS
  62
1
  10
-406.42764110947
  20
 138.22450289144
  30
0.0
  11
-406.42764110947
  21
 131.22450289144
  31
0.0
   0
LINE
   5
1F9
 100
AcDbEntity
   8
LEVEL002
 370
25
 100
AcDbLine
   6
CONTINUOUS
  62
1
  10
-406.42764110947
  20
 131.22450289144
  30
0.0
  11
-381.42764110947
  21
 131.22450289144
  31
0.0
   0
LINE
   5
1FA
 100
AcDbEntity
   8
LEVEL002
 370
25
 100
AcDbLine
   6
CONTINUOUS
  62
1
  10
-381.42764110947
  20
 131.22450289144
  30
0.0
  11
-381.42764110947
  21
 138.72450289144
  31
0.0
   0
LINE
   5
1FB
 100
AcDbEntity
   8
LEVEL002
 370
25
 100
AcDbLine
   6
CONTINUOUS
  62
1
  10
-381.42764110947
  20
 138.72450289144
  30
0.0
  11
-405.92764110947
  21
 138.72450289144
  31
0.0
   0
ARC
   5
1FC
 100
AcDbEntity
   8
LEVEL002
 370
25
   6
CONTINUOUS
  62
1
 100
AcDbCircle
  10
-405.92764110947
  20
 138.22450289144
  30
0.0
  40
 0.50000000000000
 100
AcDbArc
  50
 90.000000000000
  51
 179.99999999990
   0
LINE
   5
1FD
 100
AcDbEntity
   8
LEVEL002
 370
25
 100
AcDbLine
   6
CONTINUOUS
  62
1
  10
-400.92764110947
  20
 138.22450289144
  30
0.0
  11
-400.92764110947
  21
 131.22450289144
  31
0.0
   0
ARC
   5
1FE
 100
AcDbEntity
   8
LEVEL002
 370
25
   6
CONTINUOUS
  62
1
 100
AcDbCircle
  10
-401.42764110947
  20
 138.22450289144
  30
0.0
  40
 0.50000000000000
 100
AcDbArc
  50
0.0
  51
 90.000000000000
   0
LINE
   5
1FF
 100
AcDbEntity
   8
LEVEL002
 370
25
 100
AcDbLine
   6
CONTINUOUS
  62
1
  10
-355.08289783733
  20
 179.55180552301
  30
0.0
  11
-362.08289783733
  21
 179.55180552301
  31
0.0
   0
LINE
   5
200
 100
AcDbEntity
   8
LEVEL002
 370
25
 100
AcDbLine
   6
CONTINUOUS
  62
1
  10
-362.08289783733
  20
 179.55180552301
  30
0.0
  11
-362.08289783733
  21
 175.05180552301
  31
0.0
   0
LINE
   5
201
 100
AcDbEntity
   8
LEVEL002
 370
25
 100
AcDbLine
   6
CONTINUOUS
  62
1
  10
-362.08289783733
  20
 175.05180552301
  30
0.0
  11
-355.08289783733
  21
 175.05180552301
  31
0.0
   0
ARC
   5
202
 100
AcDbEntity
   8
LEVEL002
 370
25
   6
CONTINUOUS
  62
1
 100
AcDbCircle
  10
-362.08289783732
  20
 175.05180552301
  30
0.0
  40
 0.50000000000000
 100
AcDbArc
  50
 180.00000000000
  51
 269.99999999988
   0
LINE
   5
203
 100
AcDbEntity
   8
LEVEL002
 370
25
 100
AcDbLine
   6
CONTINUOUS
  62
1
  10
-355.08289783733
  20
 174.55180552301
  30
0.0
  11
-362.08289783733
  21
 174.55180552301
  31
0.0
   0
LINE
   5
204
 100
AcDbEntity
   8
LEVEL002
 370
25
 100
AcDbLine
   6
CONTINUOUS
  62
1
  10
-362.58289783733
  20
 179.55180552301
  30
0.0
  11
-362.58289783733
  21
 155.05180552302
  31
0.0
   0
LINE
   5
205
 100
AcDbEntity
   8
LEVEL002
 370
25
 100
AcDbLine
   6
CONTINUOUS
  62
1
  10
-362.58289783733
  20
 155.05180552302
  30
0.0
  11
-355.08289783733
  21
 155.05180552302
  31
0.0
   0
LINE
   5
206
 100
AcDbEntity
   8
LEVEL002
 370
25
 100
AcDbLine
   6
CONTINUOUS
  62
1
  10
-355.08289783733
  20
 155.05180552302
  30
0.0
  11
-355.08289783733
  21
 180.05180552301
  31
0.0
   0
LINE
   5
207
 100
AcDbEntity
   8
LEVEL002
 370
25
 100
AcDbLine
   6
CONTINUOUS
  62
1
  10
-355.08289783733
  20
 180.05180552301
  30
0.0
  11
-362.08289783733
  21
 180.05180552301
  31
0.0
   0
ARC
   5
208
 100
AcDbEntity
   8
LEVEL002
 370
25
   6
CONTINUOUS
  62
1
 100
AcDbCircle
  10
-362.08289783733
  20
 179.55180552301
  30
0.0
  40
 0.50000000000000
 100
AcDbArc
  50
 90.000000000000
  51
 180.00000000005
   0
MTEXT
   5
20A
 100
AcDbEntity
   8
LEVEL002
 370
15
  62
8
 100
AcDbMText
  10
-354.00535492535
  20
 76.229437101965
  30
0.0
  40
 2.0000000000000
  41
0.0
  71
5
  72
1
   1
\W0.800000;\T1.000000;ＳＵＳ３０４\W0.400000;\T1.000000;(\W0.800000;\T1.000000;ＨＬ\W0.400000;\T1.000000;)
   7
GMM001
  44
 0.79999984000003
   0
MTEXT
   5
20C
 100
AcDbEntity
   8
LEVEL002
 370
15
  62
8
 100
AcDbMText
  10
-354.00535492535
  20
 80.979437101965
  30
0.0
  40
 2.0000000000000
  41
0.0
  71
5
  72
1
   1
\T1.000000;ＳＣＭ１ＭＣ
   7
GMM001
  44
 0.79999984000003
   0
LINE
   5
20D
 100
AcDbEntity
   8
LEVEL002
 370
30
 100
AcDbLine
   6
CONTINUOUS
  62
7
  10
-427.88035492526
  20
 73.729437101965
  30
0.0
  11
-340.13035492526
  21
 73.729437101965
  31
0.0
   0
LINE
   5
20E
 100
AcDbEntity
   8
LEVEL002
 370
30
 100
AcDbLine
   6
CONTINUOUS
  62
7
  10
-340.13035492526
  20
 73.729437101965
  30
0.0
  11
-340.13035492526
  21
 212.22943710196
  31
0.0
   0
LINE
   5
20F
 100
AcDbEntity
   8
LEVEL002
 370
30
 100
AcDbLine
   6
CONTINUOUS
  62
7
  10
-340.13035492526
  20
 212.22943710196
  30
0.0
  11
-427.88035492526
  21
 212.22943710196
  31
0.0
   0
LINE
   5
210
 100
AcDbEntity
   8
LEVEL002
 370
30
 100
AcDbLine
   6
CONTINUOUS
  62
7
  10
-427.88035492526
  20
 212.22943710196
  30
0.0
  11
-427.88035492526
  21
 73.729437101965
  31
0.0
   0
LINE
   5
211
 100
AcDbEntity
   8
LEVEL002
 370
30
 100
AcDbLine
   6
CONTINUOUS
  62
7
  10
-427.88035492526
  20
 87.729437101965
  30
0.0
  11
-340.13035492526
  21
 87.729437101965
  31
0.0
   0
LINE
   5
212
 100
AcDbEntity
   8
LEVEL002
 370
30
 100
AcDbLine
   6
CONTINUOUS
  62
7
  10
-415.38035492526
  20
 87.729437101965
  30
0.0
  11
-415.38035492526
  21
 73.729437101965
  31
0.0
   0
LINE
   5
213
 100
AcDbEntity
   8
LEVEL002
 370
30
 100
AcDbLine
   6
CONTINUOUS
  62
7
  10
-399.13035492526
  20
 87.729437101965
  30
0.0
  11
-399.13035492526
  21
 73.729437101965
  31
0.0
   0
LINE
   5
214
 100
AcDbEntity
   8
LEVEL002
 370
30
 100
AcDbLine
   6
CONTINUOUS
  62
7
  10
-427.88035492526
  20
 84.929437101965
  30
0.0
  11
-399.13035492526
  21
 84.929437101965
  31
0.0
   0
LINE
   5
215
 100
AcDbEntity
   8
LEVEL002
 370
30
 100
AcDbLine
   6
CONTINUOUS
  62
7
  10
-427.88035492526
  20
 82.129437101965
  30
0.0
  11
-399.13035492526
  21
 82.129437101965
  31
0.0
   0
LINE
   5
216
 100
AcDbEntity
   8
LEVEL002
 370
30
 100
AcDbLine
   6
CONTINUOUS
  62
7
  10
-427.88035492526
  20
 79.329437101965
  30
0.0
  11
-399.13035492526
  21
 79.329437101965
  31
0.0
   0
LINE
   5
217
 100
AcDbEntity
   8
LEVEL002
 370
30
 100
AcDbLine
   6
CONTINUOUS
  62
7
  10
-427.88035492526
  20
 76.529437101965
  30
0.0
  11
-399.13035492526
  21
 76.529437101965
  31
0.0
   0
LINE
   5
218
 100
AcDbEntity
   8
LEVEL002
 370
30
 100
AcDbLine
   6
CONTINUOUS
  62
7
  10
-424.88035492526
  20
 84.929437101965
  30
0.0
  11
-424.88035492526
  21
 73.729437101965
  31
0.0
   0
LINE
   5
219
 100
AcDbEntity
   8
LEVEL002
 370
30
 100
AcDbLine
   6
CONTINUOUS
  62
7
  10
-427.88035492526
  20
 82.129437101965
  30
0.0
  11
-426.38035492526
  21
 84.929437101965
  31
0.0
   0
LINE
   5
21A
 100
AcDbEntity
   8
LEVEL002
 370
30
 100
AcDbLine
   6
CONTINUOUS
  62
7
  10
-426.38035492526
  20
 84.929437101965
  30
0.0
  11
-424.88035492526
  21
 82.129437101965
  31
0.0
   0
LINE
   5
21B
 100
AcDbEntity
   8
LEVEL002
 370
30
 100
AcDbLine
   6
CONTINUOUS
  62
7
  10
-424.88035492526
  20
 79.329437101965
  30
0.0
  11
-426.38035492526
  21
 82.129437101965
  31
0.0
   0
LINE
   5
21C
 100
AcDbEntity
   8
LEVEL002
 370
30
 100
AcDbLine
   6
CONTINUOUS
  62
7
  10
-426.38035492526
  20
 82.129437101965
  30
0.0
  11
-427.88035492526
  21
 79.329437101965
  31
0.0
   0
LINE
   5
21D
 100
AcDbEntity
   8
LEVEL002
 370
30
 100
AcDbLine
   6
CONTINUOUS
  62
7
  10
-427.88035492526
  20
 76.529437101965
  30
0.0
  11
-426.38035492526
  21
 79.329437101965
  31
0.0
   0
LINE
   5
21E
 100
AcDbEntity
   8
LEVEL002
 370
30
 100
AcDbLine
   6
CONTINUOUS
  62
7
  10
-426.38035492526
  20
 79.329437101965
  30
0.0
  11
-424.88035492526
  21
 76.529437101965
  31
0.0
   0
LINE
   5
21F
 100
AcDbEntity
   8
LEVEL002
 370
30
 100
AcDbLine
   6
CONTINUOUS
  62
7
  10
-424.88035492526
  20
 73.729437101965
  30
0.0
  11
-426.38035492526
  21
 76.529437101965
  31
0.0
   0
LINE
   5
220
 100
AcDbEntity
   8
LEVEL002
 370
30
 100
AcDbLine
   6
CONTINUOUS
  62
7
  10
-426.38035492526
  20
 76.529437101965
  30
0.0
  11
-427.88035492526
  21
 73.729437101965
  31
0.0
   0
LINE
   5
221
 100
AcDbEntity
   8
LEVEL002
 370
30
 100
AcDbLine
   6
CONTINUOUS
  62
7
  10
-367.88035492526
  20
 87.729437101965
  30
0.0
  11
-367.88035492526
  21
 73.729437101965
  31
0.0
   0
LINE
   5
222
 100
AcDbEntity
   8
LEVEL002
 370
30
 100
AcDbLine
   6
CONTINUOUS
  62
7
  10
-399.13035492526
  20
 80.729437101965
  30
0.0
  11
-367.88035492526
  21
 80.729437101965
  31
0.0
   0
LINE
   5
223
 100
AcDbEntity
   8
LEVEL002
 370
30
 100
AcDbLine
   6
CONTINUOUS
  62
7
  10
-367.88035492526
  20
 83.229437101965
  30
0.0
  11
-340.13035492526
  21
 83.229437101965
  31
0.0
   0
LINE
   5
224
 100
AcDbEntity
   8
LEVEL002
 370
30
 100
AcDbLine
   6
CONTINUOUS
  62
7
  10
-340.13035492526
  20
 78.479437101965
  30
0.0
  11
-399.13035492526
  21
 78.479437101965
  31
0.0
   0
LINE
   5
225
 100
AcDbEntity
   8
LEVEL002
 370
30
 100
AcDbLine
   6
CONTINUOUS
  62
7
  10
-398.38035492526
  20
 74.229437101965
  30
0.0
  11
-394.88035492526
  21
 77.729437101965
  31
0.0
   0
LINE
   5
226
 100
AcDbEntity
   8
LEVEL002
 370
30
 100
AcDbLine
   6
CONTINUOUS
  62
7
  10
-395.13035492526
  20
 74.229437101965
  30
0.0
  11
-391.63035492526
  21
 77.729437101965
  31
0.0
   0
MTEXT
   5
228
 100
AcDbEntity
   8
LEVEL002
 370
30
  62
7
 100
AcDbMText
  10
-409.13035492526
  20
 86.329437101965
  30
0.0
  40
 1.5000000000000
  41
0.0
  71
5
  72
1
   1
\T1.000000;年
   7
GMM001
  44
 0.79999984000003
   0
MTEXT
   5
22A
 100
AcDbEntity
   8
LEVEL002
 370
30
  62
7
 100
AcDbMText
  10
-404.63035492526
  20
 86.329437101965
  30
0.0
  40
 1.5000000000000
  41
0.0
  71
5
  72
1
   1
\T1.000000;月
   7
GMM001
  44
 0.79999984000003
   0
MTEXT
   5
22C
 100
AcDbEntity
   8
LEVEL002
 370
30
  62
7
 100
AcDbMText
  10
-400.00535492526
  20
 86.329437101965
  30
0.0
  40
 1.5000000000000
  41
0.0
  71
5
  72
1
   1
\T1.000000;日
   7
GMM001
  44
 0.79999984000003
   0
MTEXT
   5
22E
 100
AcDbEntity
   8
LEVEL002
 370
30
  62
7
 100
AcDbMText
  10
-366.63035492526
  20
 86.729437101965
  30
0.0
  40
 1.5000000000000
  41
0.0
  71
5
  72
1
   1
\T1.000000;品
   7
GMM001
  44
 0.79999984000003
   0
MTEXT
   5
230
 100
AcDbEntity
   8
LEVEL002
 370
30
  62
7
 100
AcDbMText
  10
-363.63035492526
  20
 86.729437101965
  30
0.0
  40
 1.5000000000000
  41
0.0
  71
5
  72
1
   1
\T1.000000;名
   7
GMM001
  44
 0.79999984000003
   0
MTEXT
   5
232
 100
AcDbEntity
   8
LEVEL002
 370
30
  62
7
 100
AcDbMText
  10
-421.63035492587
  20
 86.329437101905
  30
0.0
  40
 1.5000000000000
  41
0.0
  71
5
  72
1
   1
\T1.000000;設計年月日
   7
GMM001
  44
 0.79999984000003
   0
LINE
   5
233
 100
AcDbEntity
   8
LEVEL002
 370
30
 100
AcDbLine
   6
CONTINUOUS
  62
7
  10
-390.63035492526
  20
 80.729437101965
  30
0.0
  11
-390.63035492526
  21
 73.729437101965
  31
0.0
   0
LINE
   5
234
 100
AcDbEntity
   8
LEVEL002
 370
30
 100
AcDbLine
   6
CONTINUOUS
  62
7
  10
-384.94285492526
  20
 73.729437101965
  30
0.0
  11
-384.94285492526
  21
 80.729437101965
  31
0.0
   0
LINE
   5
235
 100
AcDbEntity
   8
LEVEL002
 370
30
 100
AcDbLine
   6
CONTINUOUS
  62
7
  10
-379.25535492526
  20
 80.729437101965
  30
0.0
  11
-379.25535492526
  21
 73.729437101965
  31
0.0
   0
LINE
   5
236
 100
AcDbEntity
   8
LEVEL002
 370
30
 100
AcDbLine
   6
CONTINUOUS
  62
7
  10
-373.56785492526
  20
 73.729437101965
  30
0.0
  11
-373.56785492526
  21
 80.729437101965
  31
0.0
   0
MTEXT
   5
238
 100
AcDbEntity
   8
LEVEL002
 370
30
  62
7
 100
AcDbMText
  10
-394.88035492392
  20
 79.604437103253
  30
0.0
  40
 1.5000000000000
  41
0.0
  71
5
  72
1
   1
\T1.000000;縮尺
   7
GMM001
  44
 0.79999984000003
   0
MTEXT
   5
23A
 100
AcDbEntity
   8
LEVEL002
 370
30
  62
7
 100
AcDbMText
  10
-363.63035492526
  20
 82.229437101965
  30
0.0
  40
 1.5000000000000
  41
0.0
  71
5
  72
1
   1
\T1.000000;式
   7
GMM001
  44
 0.79999984000003
   0
MTEXT
   5
23C
 100
AcDbEntity
   8
LEVEL002
 370
30
  62
7
 100
AcDbMText
  10
-366.63035492526
  20
 82.229437101965
  30
0.0
  40
 1.5000000000000
  41
0.0
  71
5
  72
1
   1
\T1.000000;型
   7
GMM001
  44
 0.79999984000003
   0
MTEXT
   5
23E
 100
AcDbEntity
   8
LEVEL002
 370
30
  62
7
 100
AcDbMText
  10
-363.63035492526
  20
 77.479437101965
  30
0.0
  40
 1.5000000000000
  41
0.0
  71
5
  72
1
   1
\T1.000000;質
   7
GMM001
  44
 0.79999984000003
   0
MTEXT
   5
240
 100
AcDbEntity
   8
LEVEL002
 370
30
  62
7
 100
AcDbMText
  10
-366.63035492526
  20
 77.479437101965
  30
0.0
  40
 1.5000000000000
  41
0.0
  71
5
  72
1
   1
\T1.000000;材
   7
GMM001
  44
 0.79999984000003
   0
MTEXT
   5
242
 100
AcDbEntity
   8
LEVEL002
 370
15
  62
8
 100
AcDbMText
  10
-346.79236150421
  20
 90.570445873895
  30
0.0
  40
 2.5000000000000
  41
0.0
  71
5
  72
1
   1
\T1.000000;持出用
   7
GMM001
  44
 0.79999984000003
   0
MTEXT
   5
244
 100
AcDbEntity
   8
LEVEL002
 370
15
  62
8
 100
AcDbMText
  10
-370.72410492519
  20
 79.604437101966
  30
0.0
  40
 1.4000000000000
  41
0.0
  71
5
  72
1
   1
\T1.000000;製　図
   7
GMM001
  44
 0.79999984000003
   0
MTEXT
   5
246
 100
AcDbEntity
   8
LEVEL002
 370
15
  62
8
 100
AcDbMText
  10
-376.41160492519
  20
 79.604437101966
  30
0.0
  40
 1.4000000000000
  41
0.0
  71
5
  72
1
   1
\T1.000000;検　図
   7
GMM001
  44
 0.79999984000003
   0
MTEXT
   5
248
 100
AcDbEntity
   8
LEVEL002
 370
15
  62
8
 100
AcDbMText
  10
-382.09910492519
  20
 79.604437101966
  30
0.0
  40
 1.4000000000000
  41
0.0
  71
5
  72
1
   1
\T1.000000;担　当
   7
GMM001
  44
 0.79999984000003
   0
LINE
   5
249
 100
AcDbEntity
   8
LEVEL002
 370
30
 100
AcDbLine
   6
CONTINUOUS
  62
7
  10
-386.28838124105
  20
 84.406893242316
  30
0.0
  11
-388.20838124105
  21
 84.406893242316
  31
0.0
   0
LINE
   5
24A
 100
AcDbEntity
   8
LEVEL002
 370
30
 100
AcDbLine
   6
CONTINUOUS
  62
7
  10
-388.20838124105
  20
 84.406893242316
  30
0.0
  11
-388.20838124105
  21
 81.526893242316
  31
0.0
   0
LINE
   5
24B
 100
AcDbEntity
   8
LEVEL002
 370
30
 100
AcDbLine
   6
CONTINUOUS
  62
7
  10
-388.20838124105
  20
 81.526893242316
  30
0.0
  11
-387.24838124105
  21
 81.526893242316
  31
0.0
   0
LINE
   5
24C
 100
AcDbEntity
   8
LEVEL002
 370
30
 100
AcDbLine
   6
CONTINUOUS
  62
7
  10
-387.24838124105
  20
 81.526893242316
  30
0.0
  11
-387.24838124105
  21
 82.006893242316
  31
0.0
   0
LINE
   5
24D
 100
AcDbEntity
   8
LEVEL002
 370
30
 100
AcDbLine
   6
CONTINUOUS
  62
7
  10
-387.24838124105
  20
 82.006893242316
  30
0.0
  11
-386.28838124105
  21
 82.006893242316
  31
0.0
   0
ARC
   5
24E
 100
AcDbEntity
   8
LEVEL002
 370
30
   6
CONTINUOUS
  62
7
 100
AcDbCircle
  10
-386.28838124105
  20
 83.206893242316
  30
0.0
  40
 1.2000000000000
 100
AcDbArc
  50
 270.00000000000
  51
 90.000000000000
   0
ARC
   5
24F
 100
AcDbEntity
   8
LEVEL002
 370
30
   6
CONTINUOUS
  62
7
 100
AcDbCircle
  10
-386.28838124105
  20
 83.206893242316
  30
0.0
  40
 0.24000000000000
 100
AcDbArc
  50
 270.00000000000
  51
 90.000000000000
   0
LINE
   5
250
 100
AcDbEntity
   8
LEVEL002
 370
30
 100
AcDbLine
   6
CONTINUOUS
  62
7
  10
-386.28838124105
  20
 83.446893242316
  30
0.0
  11
-387.24838124105
  21
 83.446893242316
  31
0.0
   0
LINE
   5
251
 100
AcDbEntity
   8
LEVEL002
 370
30
 100
AcDbLine
   6
CONTINUOUS
  62
7
  10
-387.24838124105
  20
 83.446893242316
  30
0.0
  11
-387.24838124105
  21
 82.966893242316
  31
0.0
   0
LINE
   5
252
 100
AcDbEntity
   8
LEVEL002
 370
30
 100
AcDbLine
   6
CONTINUOUS
  62
7
  10
-385.80838124105
  20
 81.526893242316
  30
0.0
  11
-383.88838124105
  21
 84.406893242316
  31
0.0
   0
LINE
   5
253
 100
AcDbEntity
   8
LEVEL002
 370
30
 100
AcDbLine
   6
CONTINUOUS
  62
7
  10
-383.88838124105
  20
 84.406893242316
  30
0.0
  11
-381.48838124105
  21
 84.406893242316
  31
0.0
   0
LINE
   5
254
 100
AcDbEntity
   8
LEVEL002
 370
30
 100
AcDbLine
   6
CONTINUOUS
  62
7
  10
-381.48838124105
  20
 84.406893242316
  30
0.0
  11
-381.48838124105
  21
 82.486893242316
  31
0.0
   0
LINE
   5
255
 100
AcDbEntity
   8
LEVEL002
 370
30
 100
AcDbLine
   6
CONTINUOUS
  62
7
  10
-381.48838124105
  20
 82.486893242316
  30
0.0
  11
-380.04838124105
  21
 82.486893242316
  31
0.0
   0
LINE
   5
256
 100
AcDbEntity
   8
LEVEL002
 370
30
 100
AcDbLine
   6
CONTINUOUS
  62
7
  10
-380.04838124105
  20
 82.486893242316
  30
0.0
  11
-380.04838124105
  21
 83.446893242316
  31
0.0
   0
LINE
   5
257
 100
AcDbEntity
   8
LEVEL002
 370
30
 100
AcDbLine
   6
CONTINUOUS
  62
7
  10
-380.04838124105
  20
 83.446893242316
  30
0.0
  11
-381.00838124105
  21
 83.446893242316
  31
0.0
   0
LINE
   5
258
 100
AcDbEntity
   8
LEVEL002
 370
30
 100
AcDbLine
   6
CONTINUOUS
  62
7
  10
-381.00838124105
  20
 83.446893242316
  30
0.0
  11
-381.00838124105
  21
 84.406893242316
  31
0.0
   0
LINE
   5
259
 100
AcDbEntity
   8
LEVEL002
 370
30
 100
AcDbLine
   6
CONTINUOUS
  62
7
  10
-381.00838124105
  20
 84.406893242316
  30
0.0
  11
-375.24838124105
  21
 84.406893242316
  31
0.0
   0
LINE
   5
25A
 100
AcDbEntity
   8
LEVEL002
 370
30
 100
AcDbLine
   6
CONTINUOUS
  62
7
  10
-375.24838124105
  20
 84.406893242316
  30
0.0
  11
-375.24838124105
  21
 83.446893242316
  31
0.0
   0
LINE
   5
25B
 100
AcDbEntity
   8
LEVEL002
 370
30
 100
AcDbLine
   6
CONTINUOUS
  62
7
  10
-375.24838124105
  20
 83.446893242316
  30
0.0
  11
-377.16838124105
  21
 83.446893242316
  31
0.0
   0
LINE
   5
25C
 100
AcDbEntity
   8
LEVEL002
 370
30
 100
AcDbLine
   6
CONTINUOUS
  62
7
  10
-377.16838124105
  20
 83.446893242316
  30
0.0
  11
-377.16838124105
  21
 83.206893242316
  31
0.0
   0
LINE
   5
25D
 100
AcDbEntity
   8
LEVEL002
 370
30
 100
AcDbLine
   6
CONTINUOUS
  62
7
  10
-377.16838124105
  20
 83.206893242316
  30
0.0
  11
-375.48838124105
  21
 83.206893242316
  31
0.0
   0
LINE
   5
25E
 100
AcDbEntity
   8
LEVEL002
 370
30
 100
AcDbLine
   6
CONTINUOUS
  62
7
  10
-375.48838124105
  20
 83.206893242316
  30
0.0
  11
-375.48838124105
  21
 82.726893242316
  31
0.0
   0
LINE
   5
25F
 100
AcDbEntity
   8
LEVEL002
 370
30
 100
AcDbLine
   6
CONTINUOUS
  62
7
  10
-375.48838124105
  20
 82.726893242316
  30
0.0
  11
-377.16838124105
  21
 82.726893242316
  31
0.0
   0
LINE
   5
260
 100
AcDbEntity
   8
LEVEL002
 370
30
 100
AcDbLine
   6
CONTINUOUS
  62
7
  10
-377.16838124105
  20
 82.726893242316
  30
0.0
  11
-377.16838124105
  21
 82.486893242316
  31
0.0
   0
LINE
   5
261
 100
AcDbEntity
   8
LEVEL002
 370
30
 100
AcDbLine
   6
CONTINUOUS
  62
7
  10
-377.16838124105
  20
 82.486893242316
  30
0.0
  11
-375.24838124105
  21
 82.486893242316
  31
0.0
   0
LINE
   5
262
 100
AcDbEntity
   8
LEVEL002
 370
30
 100
AcDbLine
   6
CONTINUOUS
  62
7
  10
-375.24838124105
  20
 82.486893242316
  30
0.0
  11
-375.24838124105
  21
 81.526893242316
  31
0.0
   0
LINE
   5
263
 100
AcDbEntity
   8
LEVEL002
 370
30
 100
AcDbLine
   6
CONTINUOUS
  62
7
  10
-375.24838124105
  20
 81.526893242316
  30
0.0
  11
-378.12838124105
  21
 81.526893242316
  31
0.0
   0
LINE
   5
264
 100
AcDbEntity
   8
LEVEL002
 370
30
 100
AcDbLine
   6
CONTINUOUS
  62
7
  10
-378.12838124105
  20
 81.526893242316
  30
0.0
  11
-378.12838124105
  21
 83.446893242316
  31
0.0
   0
LINE
   5
265
 100
AcDbEntity
   8
LEVEL002
 370
30
 100
AcDbLine
   6
CONTINUOUS
  62
7
  10
-378.12838124105
  20
 83.446893242316
  30
0.0
  11
-379.08838124105
  21
 83.446893242316
  31
0.0
   0
LINE
   5
266
 100
AcDbEntity
   8
LEVEL002
 370
30
 100
AcDbLine
   6
CONTINUOUS
  62
7
  10
-379.08838124105
  20
 83.446893242316
  30
0.0
  11
-379.08838124105
  21
 81.526893242316
  31
0.0
   0
LINE
   5
267
 100
AcDbEntity
   8
LEVEL002
 370
30
 100
AcDbLine
   6
CONTINUOUS
  62
7
  10
-379.08838124105
  20
 81.526893242316
  30
0.0
  11
-382.44838124105
  21
 81.526893242316
  31
0.0
   0
LINE
   5
268
 100
AcDbEntity
   8
LEVEL002
 370
30
 100
AcDbLine
   6
CONTINUOUS
  62
7
  10
-382.44838124105
  20
 81.526893242316
  30
0.0
  11
-382.44838124105
  21
 84.406893242316
  31
0.0
   0
LINE
   5
269
 100
AcDbEntity
   8
LEVEL002
 370
30
 100
AcDbLine
   6
CONTINUOUS
  62
7
  10
-382.44838124105
  20
 84.406893242316
  30
0.0
  11
-384.36838124105
  21
 81.526893242316
  31
0.0
   0
LINE
   5
26A
 100
AcDbEntity
   8
LEVEL002
 370
30
 100
AcDbLine
   6
CONTINUOUS
  62
7
  10
-384.36838124105
  20
 81.526893242316
  30
0.0
  11
-385.80838124105
  21
 81.526893242316
  31
0.0
   0
LINE
   5
26B
 100
AcDbEntity
   8
LEVEL002
 370
30
 100
AcDbLine
   6
CONTINUOUS
  62
7
  10
-382.76838124105
  20
 83.350005038241
  30
0.0
  11
-383.98378910500
  21
 81.526893242316
  31
0.0
   0
LINE
   5
26C
 100
AcDbEntity
   8
LEVEL002
 370
30
 100
AcDbLine
   6
CONTINUOUS
  62
7
  10
-383.98378910500
  20
 81.526893242316
  30
0.0
  11
-382.76838124105
  21
 81.526893242316
  31
0.0
   0
LINE
   5
26D
 100
AcDbEntity
   8
LEVEL002
 370
30
 100
AcDbLine
   6
CONTINUOUS
  62
7
  10
-382.76838124105
  20
 81.526893242316
  30
0.0
  11
-382.76838124105
  21
 83.350005038241
  31
0.0
   0
ARC
   5
26E
 100
AcDbEntity
   8
LEVEL002
 370
30
   6
CONTINUOUS
  62
7
 100
AcDbCircle
  10
-373.80838124105
  20
 82.966893242316
  30
0.0
  40
 1.4400000000000
 100
AcDbArc
  50
 90.000000000000
  51
 270.00000000000
   0
ARC
   5
26F
 100
AcDbEntity
   8
LEVEL002
 370
30
   6
CONTINUOUS
  62
7
 100
AcDbCircle
  10
-373.80838124105
  20
 82.966893242316
  30
0.0
  40
 0.48000000000000
 100
AcDbArc
  50
 90.000000000000
  51
 270.00000000000
   0
LINE
   5
270
 100
AcDbEntity
   8
LEVEL002
 370
30
 100
AcDbLine
   6
CONTINUOUS
  62
7
  10
-373.80838124105
  20
 84.406893242316
  30
0.0
  11
-372.36838124105
  21
 84.406893242316
  31
0.0
   0
LINE
   5
271
 100
AcDbEntity
   8
LEVEL002
 370
30
 100
AcDbLine
   6
CONTINUOUS
  62
7
  10
-372.36838124105
  20
 84.406893242316
  30
0.0
  11
-372.36838124105
  21
 83.446893242316
  31
0.0
   0
LINE
   5
272
 100
AcDbEntity
   8
LEVEL002
 370
30
 100
AcDbLine
   6
CONTINUOUS
  62
7
  10
-372.36838124105
  20
 83.446893242316
  30
0.0
  11
-373.80838124105
  21
 83.446893242316
  31
0.0
   0
LINE
   5
273
 100
AcDbEntity
   8
LEVEL002
 370
30
 100
AcDbLine
   6
CONTINUOUS
  62
7
  10
-388.20838124105
  20
 84.406893242316
  30
0.0
  11
-388.20838124105
  21
 81.526893242316
  31
0.0
   0
LINE
   5
274
 100
AcDbEntity
   8
LEVEL002
 370
30
 100
AcDbLine
   6
CONTINUOUS
  62
7
  10
-388.20838124105
  20
 81.526893242316
  30
0.0
  11
-387.24838124105
  21
 81.526893242316
  31
0.0
   0
LINE
   5
275
 100
AcDbEntity
   8
LEVEL002
 370
30
 100
AcDbLine
   6
CONTINUOUS
  62
7
  10
-387.24838124105
  20
 81.526893242316
  30
0.0
  11
-387.24838124105
  21
 82.006893242316
  31
0.0
   0
LINE
   5
276
 100
AcDbEntity
   8
LEVEL002
 370
30
 100
AcDbLine
   6
CONTINUOUS
  62
7
  10
-387.24838124105
  20
 82.006893242316
  30
0.0
  11
-386.28838124105
  21
 82.006893242316
  31
0.0
   0
ARC
   5
277
 100
AcDbEntity
   8
LEVEL002
 370
30
   6
CONTINUOUS
  62
7
 100
AcDbCircle
  10
-386.28838124105
  20
 83.206893242316
  30
0.0
  40
 1.2000000000000
 100
AcDbArc
  50
 270.00000000000
  51
 90.000000000000
   0
LINE
   5
278
 100
AcDbEntity
   8
LEVEL002
 370
30
 100
AcDbLine
   6
CONTINUOUS
  62
7
  10
-386.28838124105
  20
 84.406893242316
  30
0.0
  11
-388.20838124105
  21
 84.406893242316
  31
0.0
   0
LINE
   5
279
 100
AcDbEntity
   8
LEVEL002
 370
30
 100
AcDbLine
   6
CONTINUOUS
  62
7
  10
-387.24838124105
  20
 83.446893242316
  30
0.0
  11
-387.24838124105
  21
 82.966893242316
  31
0.0
   0
LINE
   5
27A
 100
AcDbEntity
   8
LEVEL002
 370
30
 100
AcDbLine
   6
CONTINUOUS
  62
7
  10
-387.24838124105
  20
 82.966893242316
  30
0.0
  11
-386.28838124105
  21
 82.966893242316
  31
0.0
   0
ARC
   5
27B
 100
AcDbEntity
   8
LEVEL002
 370
30
   6
CONTINUOUS
  62
7
 100
AcDbCircle
  10
-386.28838124105
  20
 83.206893242316
  30
0.0
  40
 0.24000000000000
 100
AcDbArc
  50
 270.00000000000
  51
 90.000000000000
   0
LINE
   5
27C
 100
AcDbEntity
   8
LEVEL002
 370
30
 100
AcDbLine
   6
CONTINUOUS
  62
7
  10
-386.28838124105
  20
 83.446893242316
  30
0.0
  11
-387.24838124105
  21
 83.446893242316
  31
0.0
   0
LINE
   5
27D
 100
AcDbEntity
   8
LEVEL002
 370
30
 100
AcDbLine
   6
CONTINUOUS
  62
7
  10
-383.88838124105
  20
 84.406893242316
  30
0.0
  11
-385.80838124105
  21
 81.526893242316
  31
0.0
   0
LINE
   5
27E
 100
AcDbEntity
   8
LEVEL002
 370
30
 100
AcDbLine
   6
CONTINUOUS
  62
7
  10
-385.80838124105
  20
 81.526893242316
  30
0.0
  11
-384.36838124105
  21
 81.526893242316
  31
0.0
   0
LINE
   5
27F
 100
AcDbEntity
   8
LEVEL002
 370
30
 100
AcDbLine
   6
CONTINUOUS
  62
7
  10
-384.36838124105
  20
 81.526893242316
  30
0.0
  11
-382.44838124105
  21
 84.406893242316
  31
0.0
   0
LINE
   5
280
 100
AcDbEntity
   8
LEVEL002
 370
30
 100
AcDbLine
   6
CONTINUOUS
  62
7
  10
-382.44838124105
  20
 84.406893242316
  30
0.0
  11
-383.88838124105
  21
 84.406893242316
  31
0.0
   0
LINE
   5
281
 100
AcDbEntity
   8
LEVEL002
 370
30
 100
AcDbLine
   6
CONTINUOUS
  62
7
  10
-382.76838124105
  20
 81.526893242316
  30
0.0
  11
-382.76838124105
  21
 83.350005038241
  31
0.0
   0
LINE
   5
282
 100
AcDbEntity
   8
LEVEL002
 370
30
 100
AcDbLine
   6
CONTINUOUS
  62
7
  10
-382.76838124105
  20
 83.350005038241
  30
0.0
  11
-383.98378910500
  21
 81.526893242316
  31
0.0
   0
LINE
   5
283
 100
AcDbEntity
   8
LEVEL002
 370
30
 100
AcDbLine
   6
CONTINUOUS
  62
7
  10
-383.98378910500
  20
 81.526893242316
  30
0.0
  11
-382.76838124105
  21
 81.526893242316
  31
0.0
   0
LINE
   5
284
 100
AcDbEntity
   8
LEVEL002
 370
30
 100
AcDbLine
   6
CONTINUOUS
  62
7
  10
-382.44838124105
  20
 81.526893242316
  30
0.0
  11
-379.08838124105
  21
 81.526893242316
  31
0.0
   0
LINE
   5
285
 100
AcDbEntity
   8
LEVEL002
 370
30
 100
AcDbLine
   6
CONTINUOUS
  62
7
  10
-379.08838124105
  20
 81.526893242316
  30
0.0
  11
-379.08838124105
  21
 83.446893242316
  31
0.0
   0
LINE
   5
286
 100
AcDbEntity
   8
LEVEL002
 370
30
 100
AcDbLine
   6
CONTINUOUS
  62
7
  10
-379.08838124105
  20
 83.446893242316
  30
0.0
  11
-378.12838124105
  21
 83.446893242316
  31
0.0
   0
LINE
   5
287
 100
AcDbEntity
   8
LEVEL002
 370
30
 100
AcDbLine
   6
CONTINUOUS
  62
7
  10
-378.12838124105
  20
 83.446893242316
  30
0.0
  11
-378.12838124105
  21
 81.526893242316
  31
0.0
   0
LINE
   5
288
 100
AcDbEntity
   8
LEVEL002
 370
30
 100
AcDbLine
   6
CONTINUOUS
  62
7
  10
-378.12838124105
  20
 81.526893242316
  30
0.0
  11
-375.24838124105
  21
 81.526893242316
  31
0.0
   0
LINE
   5
289
 100
AcDbEntity
   8
LEVEL002
 370
30
 100
AcDbLine
   6
CONTINUOUS
  62
7
  10
-375.24838124105
  20
 81.526893242316
  30
0.0
  11
-375.24838124105
  21
 82.486893242316
  31
0.0
   0
LINE
   5
28A
 100
AcDbEntity
   8
LEVEL002
 370
30
 100
AcDbLine
   6
CONTINUOUS
  62
7
  10
-375.24838124105
  20
 82.486893242316
  30
0.0
  11
-377.16838124105
  21
 82.486893242316
  31
0.0
   0
LINE
   5
28B
 100
AcDbEntity
   8
LEVEL002
 370
30
 100
AcDbLine
   6
CONTINUOUS
  62
7
  10
-377.16838124105
  20
 82.486893242316
  30
0.0
  11
-377.16838124105
  21
 82.726893242316
  31
0.0
   0
LINE
   5
28C
 100
AcDbEntity
   8
LEVEL002
 370
30
 100
AcDbLine
   6
CONTINUOUS
  62
7
  10
-377.16838124105
  20
 82.726893242316
  30
0.0
  11
-375.48838124105
  21
 82.726893242316
  31
0.0
   0
LINE
   5
28D
 100
AcDbEntity
   8
LEVEL002
 370
30
 100
AcDbLine
   6
CONTINUOUS
  62
7
  10
-375.48838124105
  20
 82.726893242316
  30
0.0
  11
-375.48838124105
  21
 83.206893242316
  31
0.0
   0
LINE
   5
28E
 100
AcDbEntity
   8
LEVEL002
 370
30
 100
AcDbLine
   6
CONTINUOUS
  62
7
  10
-375.48838124105
  20
 83.206893242316
  30
0.0
  11
-377.16838124105
  21
 83.206893242316
  31
0.0
   0
LINE
   5
28F
 100
AcDbEntity
   8
LEVEL002
 370
30
 100
AcDbLine
   6
CONTINUOUS
  62
7
  10
-377.16838124105
  20
 83.206893242316
  30
0.0
  11
-377.16838124105
  21
 83.446893242316
  31
0.0
   0
LINE
   5
290
 100
AcDbEntity
   8
LEVEL002
 370
30
 100
AcDbLine
   6
CONTINUOUS
  62
7
  10
-377.16838124105
  20
 83.446893242316
  30
0.0
  11
-375.24838124105
  21
 83.446893242316
  31
0.0
   0
LINE
   5
291
 100
AcDbEntity
   8
LEVEL002
 370
30
 100
AcDbLine
   6
CONTINUOUS
  62
7
  10
-375.24838124105
  20
 83.446893242316
  30
0.0
  11
-375.24838124105
  21
 84.406893242316
  31
0.0
   0
LINE
   5
292
 100
AcDbEntity
   8
LEVEL002
 370
30
 100
AcDbLine
   6
CONTINUOUS
  62
7
  10
-375.24838124105
  20
 84.406893242316
  30
0.0
  11
-381.00838124105
  21
 84.406893242316
  31
0.0
   0
LINE
   5
293
 100
AcDbEntity
   8
LEVEL002
 370
30
 100
AcDbLine
   6
CONTINUOUS
  62
7
  10
-381.00838124105
  20
 84.406893242316
  30
0.0
  11
-381.00838124105
  21
 83.446893242316
  31
0.0
   0
LINE
   5
294
 100
AcDbEntity
   8
LEVEL002
 370
30
 100
AcDbLine
   6
CONTINUOUS
  62
7
  10
-381.00838124105
  20
 83.446893242316
  30
0.0
  11
-380.04838124105
  21
 83.446893242316
  31
0.0
   0
LINE
   5
295
 100
AcDbEntity
   8
LEVEL002
 370
30
 100
AcDbLine
   6
CONTINUOUS
  62
7
  10
-380.04838124105
  20
 83.446893242316
  30
0.0
  11
-380.04838124105
  21
 82.486893242316
  31
0.0
   0
LINE
   5
296
 100
AcDbEntity
   8
LEVEL002
 370
30
 100
AcDbLine
   6
CONTINUOUS
  62
7
  10
-380.04838124105
  20
 82.486893242316
  30
0.0
  11
-381.48838124105
  21
 82.486893242316
  31
0.0
   0
LINE
   5
297
 100
AcDbEntity
   8
LEVEL002
 370
30
 100
AcDbLine
   6
CONTINUOUS
  62
7
  10
-381.48838124105
  20
 82.486893242316
  30
0.0
  11
-381.48838124105
  21
 84.406893242316
  31
0.0
   0
LINE
   5
298
 100
AcDbEntity
   8
LEVEL002
 370
30
 100
AcDbLine
   6
CONTINUOUS
  62
7
  10
-381.48838124105
  20
 84.406893242316
  30
0.0
  11
-382.44838124105
  21
 84.406893242316
  31
0.0
   0
LINE
   5
299
 100
AcDbEntity
   8
LEVEL002
 370
30
 100
AcDbLine
   6
CONTINUOUS
  62
7
  10
-382.44838124105
  20
 84.406893242316
  30
0.0
  11
-382.44838124105
  21
 81.526893242316
  31
0.0
   0
LINE
   5
29A
 100
AcDbEntity
   8
LEVEL002
 370
30
 100
AcDbLine
   6
CONTINUOUS
  62
7
  10
-373.80838124105
  20
 81.526893242316
  30
0.0
  11
-372.36838124105
  21
 81.526893242316
  31
0.0
   0
LINE
   5
29B
 100
AcDbEntity
   8
LEVEL002
 370
30
 100
AcDbLine
   6
CONTINUOUS
  62
7
  10
-372.36838124105
  20
 81.526893242316
  30
0.0
  11
-372.36838124105
  21
 82.486893242316
  31
0.0
   0
LINE
   5
29C
 100
AcDbEntity
   8
LEVEL002
 370
30
 100
AcDbLine
   6
CONTINUOUS
  62
7
  10
-372.36838124105
  20
 82.486893242316
  30
0.0
  11
-373.80838124105
  21
 82.486893242316
  31
0.0
   0
ARC
   5
29D
 100
AcDbEntity
   8
LEVEL002
 370
30
   6
CONTINUOUS
  62
7
 100
AcDbCircle
  10
-373.80838124105
  20
 82.966893242316
  30
0.0
  40
 0.48000000000000
 100
AcDbArc
  50
 90.000000000000
  51
 270.00000000000
   0
LINE
   5
29E
 100
AcDbEntity
   8
LEVEL002
 370
30
 100
AcDbLine
   6
CONTINUOUS
  62
7
  10
-373.80838124105
  20
 83.446893242316
  30
0.0
  11
-372.36838124105
  21
 83.446893242316
  31
0.0
   0
LINE
   5
29F
 100
AcDbEntity
   8
LEVEL002
 370
30
 100
AcDbLine
   6
CONTINUOUS
  62
7
  10
-372.36838124105
  20
 83.446893242316
  30
0.0
  11
-372.36838124105
  21
 84.406893242316
  31
0.0
   0
LINE
   5
2A0
 100
AcDbEntity
   8
LEVEL002
 370
30
 100
AcDbLine
   6
CONTINUOUS
  62
7
  10
-372.36838124105
  20
 84.406893242316
  30
0.0
  11
-373.80838124105
  21
 84.406893242316
  31
0.0
   0
ARC
   5
2A1
 100
AcDbEntity
   8
LEVEL002
 370
30
   6
CONTINUOUS
  62
7
 100
AcDbCircle
  10
-373.80838124105
  20
 82.966893242316
  30
0.0
  40
 1.4400000000000
 100
AcDbArc
  50
 90.000000000000
  51
 270.00000000000
   0
MTEXT
   5
2A3
 100
AcDbEntity
   8
LEVEL002
 370
30
  62
7
 100
AcDbMText
  10
-388.20838124105
  20
 84.886893242316
  30
0.0
  40
 1.2160000000000
  41
0.0
  71
7
  72
1
   1
\T1.000000;ケージーパルテック株式会社
   7
GMM001
  44
 0.79999984000003
   0
LINE
   5
2A4
 100
AcDbEntity
   8
LEVEL002
 370
30
 100
AcDbLine
   6
CONTINUOUS
  62
7
  10
-389.16838124105
  20
 82.166893242316
  30
0.0
  11
-390.36838124105
  21
 84.086893242316
  31
0.0
   0
LINE
   5
2A5
 100
AcDbEntity
   8
LEVEL002
 370
30
 100
AcDbLine
   6
CONTINUOUS
  62
7
  10
-390.36838124105
  20
 84.086893242316
  30
0.0
  11
-389.16838124105
  21
 84.086893242316
  31
0.0
   0
LINE
   5
2A6
 100
AcDbEntity
   8
LEVEL002
 370
30
 100
AcDbLine
   6
CONTINUOUS
  62
7
  10
-389.16838124105
  20
 84.086893242316
  30
0.0
  11
-389.16838124105
  21
 82.166893242316
  31
0.0
   0
LINE
   5
2A7
 100
AcDbEntity
   8
LEVEL002
 370
30
 100
AcDbLine
   6
CONTINUOUS
  62
7
  10
-390.36838124105
  20
 84.086893242316
  30
0.0
  11
-389.16838124105
  21
 82.166893242316
  31
0.0
   0
LINE
   5
2A8
 100
AcDbEntity
   8
LEVEL002
 370
30
 100
AcDbLine
   6
CONTINUOUS
  62
7
  10
-389.16838124105
  20
 82.166893242316
  30
0.0
  11
-389.16838124105
  21
 84.086893242316
  31
0.0
   0
LINE
   5
2A9
 100
AcDbEntity
   8
LEVEL002
 370
30
 100
AcDbLine
   6
CONTINUOUS
  62
7
  10
-389.16838124105
  20
 84.086893242316
  30
0.0
  11
-390.36838124105
  21
 84.086893242316
  31
0.0
   0
LINE
   5
2AA
 100
AcDbEntity
   8
LEVEL002
 370
30
 100
AcDbLine
   6
CONTINUOUS
  62
7
  10
-392.98171457438
  20
 86.646893242316
  30
0.0
  11
-394.68838124105
  21
 84.086893242316
  31
0.0
   0
LINE
   5
2AB
 100
AcDbEntity
   8
LEVEL002
 370
30
 100
AcDbLine
   6
CONTINUOUS
  62
7
  10
-394.68838124105
  20
 84.086893242316
  30
0.0
  11
-392.98171457438
  21
 81.526893242316
  31
0.0
   0
LINE
   5
2AC
 100
AcDbEntity
   8
LEVEL002
 370
30
 100
AcDbLine
   6
CONTINUOUS
  62
7
  10
-391.54171457438
  20
 81.526893242316
  30
0.0
  11
-393.24838124105
  21
 84.086893242316
  31
0.0
   0
LINE
   5
2AD
 100
AcDbEntity
   8
LEVEL002
 370
30
 100
AcDbLine
   6
CONTINUOUS
  62
7
  10
-393.24838124105
  20
 84.086893242316
  30
0.0
  11
-391.54171457438
  21
 86.646893242316
  31
0.0
   0
LINE
   5
2AE
 100
AcDbEntity
   8
LEVEL002
 370
30
 100
AcDbLine
   6
CONTINUOUS
  62
7
  10
-390.82171457438
  20
 86.646893242316
  30
0.0
  11
-392.52838124105
  21
 84.086893242316
  31
0.0
   0
LINE
   5
2AF
 100
AcDbEntity
   8
LEVEL002
 370
30
 100
AcDbLine
   6
CONTINUOUS
  62
7
  10
-392.52838124105
  20
 84.086893242316
  30
0.0
  11
-390.82171457438
  21
 81.526893242316
  31
0.0
   0
LINE
   5
2B0
 100
AcDbEntity
   8
LEVEL002
 370
30
 100
AcDbLine
   6
CONTINUOUS
  62
7
  10
-389.38171457438
  20
 81.526893242316
  30
0.0
  11
-391.08838124105
  21
 84.086893242316
  31
0.0
   0
LINE
   5
2B1
 100
AcDbEntity
   8
LEVEL002
 370
30
 100
AcDbLine
   6
CONTINUOUS
  62
7
  10
-391.08838124105
  20
 84.086893242316
  30
0.0
  11
-389.38171457438
  21
 86.646893242316
  31
0.0
   0
LINE
   5
2B2
 100
AcDbEntity
   8
LEVEL002
 370
30
 100
AcDbLine
   6
CONTINUOUS
  62
7
  10
-392.98171457438
  20
 81.526893242316
  30
0.0
  11
-394.68838124105
  21
 84.086893242316
  31
0.0
   0
LINE
   5
2B3
 100
AcDbEntity
   8
LEVEL002
 370
30
 100
AcDbLine
   6
CONTINUOUS
  62
7
  10
-394.68838124105
  20
 84.086893242316
  30
0.0
  11
-392.98171457438
  21
 86.646893242316
  31
0.0
   0
LINE
   5
2B4
 100
AcDbEntity
   8
LEVEL002
 370
30
 100
AcDbLine
   6
CONTINUOUS
  62
7
  10
-392.98171457438
  20
 86.646893242316
  30
0.0
  11
-391.54171457438
  21
 86.646893242316
  31
0.0
   0
LINE
   5
2B5
 100
AcDbEntity
   8
LEVEL002
 370
30
 100
AcDbLine
   6
CONTINUOUS
  62
7
  10
-391.54171457438
  20
 86.646893242316
  30
0.0
  11
-393.24838124105
  21
 84.086893242316
  31
0.0
   0
LINE
   5
2B6
 100
AcDbEntity
   8
LEVEL002
 370
30
 100
AcDbLine
   6
CONTINUOUS
  62
7
  10
-393.24838124105
  20
 84.086893242316
  30
0.0
  11
-391.54171457438
  21
 81.526893242316
  31
0.0
   0
LINE
   5
2B7
 100
AcDbEntity
   8
LEVEL002
 370
30
 100
AcDbLine
   6
CONTINUOUS
  62
7
  10
-391.54171457438
  20
 81.526893242316
  30
0.0
  11
-392.98171457438
  21
 81.526893242316
  31
0.0
   0
LINE
   5
2B8
 100
AcDbEntity
   8
LEVEL002
 370
30
 100
AcDbLine
   6
CONTINUOUS
  62
7
  10
-390.82171457438
  20
 81.526893242316
  30
0.0
  11
-392.52838124105
  21
 84.086893242316
  31
0.0
   0
LINE
   5
2B9
 100
AcDbEntity
   8
LEVEL002
 370
30
 100
AcDbLine
   6
CONTINUOUS
  62
7
  10
-392.52838124105
  20
 84.086893242316
  30
0.0
  11
-390.82171457438
  21
 86.646893242316
  31
0.0
   0
LINE
   5
2BA
 100
AcDbEntity
   8
LEVEL002
 370
30
 100
AcDbLine
   6
CONTINUOUS
  62
7
  10
-390.82171457438
  20
 86.646893242316
  30
0.0
  11
-389.38171457438
  21
 86.646893242316
  31
0.0
   0
LINE
   5
2BB
 100
AcDbEntity
   8
LEVEL002
 370
30
 100
AcDbLine
   6
CONTINUOUS
  62
7
  10
-389.38171457438
  20
 86.646893242316
  30
0.0
  11
-391.08838124105
  21
 84.086893242316
  31
0.0
   0
LINE
   5
2BC
 100
AcDbEntity
   8
LEVEL002
 370
30
 100
AcDbLine
   6
CONTINUOUS
  62
7
  10
-391.08838124105
  20
 84.086893242316
  30
0.0
  11
-389.38171457438
  21
 81.526893242316
  31
0.0
   0
LINE
   5
2BD
 100
AcDbEntity
   8
LEVEL002
 370
30
 100
AcDbLine
   6
CONTINUOUS
  62
7
  10
-389.38171457438
  20
 81.526893242316
  30
0.0
  11
-390.82171457438
  21
 81.526893242316
  31
0.0
   0
LINE
   5
2BE
 100
AcDbEntity
   8
LEVEL001
 370
15
 100
AcDbLine
   6
DASHDOT
  62
8
  10
-436.41963170748
  20
 68.594136068826
  30
0.0
  11
-331.41963170748
  21
 68.594136068826
  31
0.0
   0
LINE
   5
2BF
 100
AcDbEntity
   8
LEVEL001
 370
15
 100
AcDbLine
   6
DASHDOT
  62
8
  10
-331.41963170748
  20
 68.594136068826
  30
0.0
  11
-331.41963170748
  21
 217.09413606882
  31
0.0
   0
LINE
   5
2C0
 100
AcDbEntity
   8
LEVEL001
 370
15
 100
AcDbLine
   6
DASHDOT
  62
8
  10
-331.41963170748
  20
 217.09413606882
  30
0.0
  11
-436.41963170748
  21
 217.09413606882
  31
0.0
   0
LINE
   5
2C1
 100
AcDbEntity
   8
LEVEL001
 370
15
 100
AcDbLine
   6
DASHDOT
  62
8
  10
-436.41963170748
  20
 217.09413606882
  30
0.0
  11
-436.41963170748
  21
 68.594136068826
  31
0.0
   0
LINE
   5
2C2
 100
AcDbEntity
   8
LEVEL002
 370
50
 100
AcDbLine
   6
HIDDEN
  62
4
  10
-401.42764110947
  20
 138.22450289144
  30
0.0
  11
-381.42764110947
  21
 138.22450289144
  31
0.0
   0
LINE
   5
2C3
 100
AcDbEntity
   8
LEVEL002
 370
50
 100
AcDbLine
   6
HIDDEN
  62
4
  10
-362.08289783732
  20
 175.05180552301
  30
0.0
  11
-362.08289783732
  21
 155.05180552302
  31
0.0
   0
MTEXT
   5
2C5
 100
AcDbEntity
   8
LEVEL002
 370
15
  62
8
 100
AcDbMText
  10
-396.14822181015
  20
 75.173654232352
  30
0.0
  40
 1.5000000000000
  41
0.0
  71
5
  72
1
   1
\T1.000000;１
   7
GMM001
  44
 0.79999984000003
   0
MTEXT
   5
2C7
 100
AcDbEntity
   8
LEVEL002
 370
15
  62
8
 100
AcDbMText
  10
-397.54047494708
  20
 76.815907369286
  30
0.0
  40
 1.5000000000000
  41
0.0
  71
5
  72
1
   1
\T1.000000;２
   7
GMM001
  44
 0.79999984000003
   0
MTEXT
   5
2C9
 100
AcDbEntity
   8
LEVEL002
 370
15
  62
8
 100
AcDbMText
  10
-370.72410492526
  20
 76.104437101965
  30
0.0
  40
 1.7500000000000
  41
0.0
  71
5
  72
1
   1
\T1.000000;春名
   7
GMM001
  44
 0.79999984000003
   0
LINE
   5
2CA
 100
AcDbEntity
   8
LEVEL002
 370
20
 100
AcDbLine
   6
CONTINUOUS
  62
6
  10
-406.42764110947
  20
 185.05180552301
  30
0.0
  11
-381.42764110947
  21
 185.05180552301
  31
0.0
   0
LINE
   5
2CB
 100
AcDbEntity
   8
LEVEL002
 370
20
 100
AcDbLine
   6
CONTINUOUS
  62
6
  10
-406.42764110947
  20
 180.55180552301
  30
0.0
  11
-406.42764110947
  21
 185.55180552301
  31
0.0
   0
LINE
   5
2CC
 100
AcDbEntity
   8
LEVEL002
 370
20
 100
AcDbLine
   6
CONTINUOUS
  62
6
  10
-381.42764110947
  20
 180.55180552301
  30
0.0
  11
-381.42764110947
  21
 185.55180552301
  31
0.0
   0
LINE
   5
2CD
 100
AcDbEntity
   8
LEVEL002
 370
20
 100
AcDbLine
   6
CONTINUOUS
  62
6
  10
-405.42764110947
  20
 184.87547854230
  30
0.0
  11
-406.42764110947
  21
 185.05180552301
  31
0.0
   0
LINE
   5
2CE
 100
AcDbEntity
   8
LEVEL002
 370
20
 100
AcDbLine
   6
CONTINUOUS
  62
6
  10
-406.42764110947
  20
 185.05180552301
  30
0.0
  11
-405.42764110947
  21
 185.22813250372
  31
0.0
   0
LINE
   5
2CF
 100
AcDbEntity
   8
LEVEL002
 370
20
 100
AcDbLine
   6
CONTINUOUS
  62
6
  10
-405.42764110947
  20
 185.22813250372
  30
0.0
  11
-405.42764110947
  21
 184.87547854230
  31
0.0
   0
LINE
   5
2D0
 100
AcDbEntity
   8
LEVEL002
 370
20
 100
AcDbLine
   6
CONTINUOUS
  62
6
  10
-382.42764110947
  20
 185.22813250372
  30
0.0
  11
-381.42764110947
  21
 185.05180552301
  31
0.0
   0
LINE
   5
2D1
 100
AcDbEntity
   8
LEVEL002
 370
20
 100
AcDbLine
   6
CONTINUOUS
  62
6
  10
-381.42764110947
  20
 185.05180552301
  30
0.0
  11
-382.42764110947
  21
 184.87547854230
  31
0.0
   0
LINE
   5
2D2
 100
AcDbEntity
   8
LEVEL002
 370
20
 100
AcDbLine
   6
CONTINUOUS
  62
6
  10
-382.42764110947
  20
 184.87547854230
  30
0.0
  11
-382.42764110947
  21
 185.22813250372
  31
0.0
   0
MTEXT
   5
2D4
 100
AcDbEntity
   8
LEVEL002
 370
20
  62
6
 100
AcDbMText
  10
-395.42764110947
  20
 185.69466266588
  30
0.0
  40
 1.5000000000000
  41
0.0
  71
7
  72
1
   1
\T1.000000;２５
   7
GMM001
  44
 0.79999984000003
   0
LINE
   5
2D5
 100
AcDbEntity
   8
LEVEL002
 370
20
 100
AcDbLine
   6
CONTINUOUS
  62
6
  10
-411.42764110947
  20
 155.05180552302
  30
0.0
  11
-411.42764110947
  21
 180.05180552301
  31
0.0
   0
LINE
   5
2D6
 100
AcDbEntity
   8
LEVEL002
 370
20
 100
AcDbLine
   6
CONTINUOUS
  62
6
  10
-406.92764110947
  20
 155.05180552302
  30
0.0
  11
-411.92764110947
  21
 155.05180552302
  31
0.0
   0
LINE
   5
2D7
 100
AcDbEntity
   8
LEVEL002
 370
20
 100
AcDbLine
   6
CONTINUOUS
  62
6
  10
-406.92764110947
  20
 180.05180552301
  30
0.0
  11
-411.92764110947
  21
 180.05180552301
  31
0.0
   0
LINE
   5
2D8
 100
AcDbEntity
   8
LEVEL002
 370
20
 100
AcDbLine
   6
CONTINUOUS
  62
6
  10
-411.25131412876
  20
 156.05180552302
  30
0.0
  11
-411.42764110947
  21
 155.05180552302
  31
0.0
   0
LINE
   5
2D9
 100
AcDbEntity
   8
LEVEL002
 370
20
 100
AcDbLine
   6
CONTINUOUS
  62
6
  10
-411.42764110947
  20
 155.05180552302
  30
0.0
  11
-411.60396809018
  21
 156.05180552302
  31
0.0
   0
LINE
   5
2DA
 100
AcDbEntity
   8
LEVEL002
 370
20
 100
AcDbLine
   6
CONTINUOUS
  62
6
  10
-411.60396809018
  20
 156.05180552302
  30
0.0
  11
-411.25131412876
  21
 156.05180552302
  31
0.0
   0
LINE
   5
2DB
 100
AcDbEntity
   8
LEVEL002
 370
20
 100
AcDbLine
   6
CONTINUOUS
  62
6
  10
-411.60396809018
  20
 179.05180552301
  30
0.0
  11
-411.42764110947
  21
 180.05180552301
  31
0.0
   0
LINE
   5
2DC
 100
AcDbEntity
   8
LEVEL002
 370
20
 100
AcDbLine
   6
CONTINUOUS
  62
6
  10
-411.42764110947
  20
 180.05180552301
  30
0.0
  11
-411.25131412876
  21
 179.05180552301
  31
0.0
   0
LINE
   5
2DD
 100
AcDbEntity
   8
LEVEL002
 370
20
 100
AcDbLine
   6
CONTINUOUS
  62
6
  10
-411.25131412876
  20
 179.05180552301
  30
0.0
  11
-411.60396809018
  21
 179.05180552301
  31
0.0
   0
MTEXT
   5
2DF
 100
AcDbEntity
   8
LEVEL002
 370
20
  62
6
 100
AcDbMText
  10
-412.07049825233
  20
 166.05180552302
  30
0.0
  40
 1.5000000000000
  41
0.0
  71
7
  72
1
   1
\T1.000000;２５
   7
GMM001
  11
0.0
  21
 1.0000000000000
  31
0.0
  44
 0.79999984000003
   0
LINE
   5
2E0
 100
AcDbEntity
   8
LEVEL002
 370
20
 100
AcDbLine
   6
CONTINUOUS
  62
6
  10
-411.42764110947
  20
 131.22450289144
  30
0.0
  11
-411.42764110947
  21
 138.22450289144
  31
0.0
   0
LINE
   5
2E1
 100
AcDbEntity
   8
LEVEL002
 370
20
 100
AcDbLine
   6
CONTINUOUS
  62
6
  10
-406.92764110947
  20
 131.22450289144
  30
0.0
  11
-411.92764110947
  21
 131.22450289144
  31
0.0
   0
LINE
   5
2E2
 100
AcDbEntity
   8
LEVEL002
 370
20
 100
AcDbLine
   6
CONTINUOUS
  62
6
  10
-406.92764110947
  20
 138.22450289144
  30
0.0
  11
-411.92764110947
  21
 138.22450289144
  31
0.0
   0
LINE
   5
2E3
 100
AcDbEntity
   8
LEVEL002
 370
20
 100
AcDbLine
   6
CONTINUOUS
  62
6
  10
-411.25131412876
  20
 132.22450289144
  30
0.0
  11
-411.42764110947
  21
 131.22450289144
  31
0.0
   0
LINE
   5
2E4
 100
AcDbEntity
   8
LEVEL002
 370
20
 100
AcDbLine
   6
CONTINUOUS
  62
6
  10
-411.42764110947
  20
 131.22450289144
  30
0.0
  11
-411.60396809018
  21
 132.22450289144
  31
0.0
   0
LINE
   5
2E5
 100
AcDbEntity
   8
LEVEL002
 370
20
 100
AcDbLine
   6
CONTINUOUS
  62
6
  10
-411.60396809018
  20
 132.22450289144
  30
0.0
  11
-411.25131412876
  21
 132.22450289144
  31
0.0
   0
LINE
   5
2E6
 100
AcDbEntity
   8
LEVEL002
 370
20
 100
AcDbLine
   6
CONTINUOUS
  62
6
  10
-411.60396809018
  20
 137.22450289144
  30
0.0
  11
-411.42764110947
  21
 138.22450289144
  31
0.0
   0
LINE
   5
2E7
 100
AcDbEntity
   8
LEVEL002
 370
20
 100
AcDbLine
   6
CONTINUOUS
  62
6
  10
-411.42764110947
  20
 138.22450289144
  30
0.0
  11
-411.25131412876
  21
 137.22450289144
  31
0.0
   0
LINE
   5
2E8
 100
AcDbEntity
   8
LEVEL002
 370
20
 100
AcDbLine
   6
CONTINUOUS
  62
6
  10
-411.25131412876
  20
 137.22450289144
  30
0.0
  11
-411.60396809018
  21
 137.22450289144
  31
0.0
   0
MTEXT
   5
2EA
 100
AcDbEntity
   8
LEVEL002
 370
20
  62
6
 100
AcDbMText
  10
-412.07049825233
  20
 133.97450289144
  30
0.0
  40
 1.5000000000000
  41
0.0
  71
7
  72
1
   1
\T1.000000;７
   7
GMM001
  11
0.0
  21
 1.0000000000000
  31
0.0
  44
 0.79999984000003
   0
LINE
   5
2EB
 100
AcDbEntity
   8
LEVEL002
 370
20
 100
AcDbLine
   6
CONTINUOUS
  62
6
  10
-411.34088124105
  20
 123.22450289144
  30
0.0
  11
-404.67764110947
  21
 123.22450289144
  31
0.0
   0
LINE
   5
2EC
 100
AcDbEntity
   8
LEVEL002
 370
20
 100
AcDbLine
   6
CONTINUOUS
  62
6
  10
-406.42764110947
  20
 130.72450289144
  30
0.0
  11
-406.42764110947
  21
 122.72450289144
  31
0.0
   0
LINE
   5
2ED
 100
AcDbEntity
   8
LEVEL002
 370
20
 100
AcDbLine
   6
CONTINUOUS
  62
6
  10
-405.92764110947
  20
 130.72450289144
  30
0.0
  11
-405.92764110947
  21
 122.72450289144
  31
0.0
   0
LINE
   5
2EE
 100
AcDbEntity
   8
LEVEL002
 370
20
 100
AcDbLine
   6
CONTINUOUS
  62
6
  10
-407.42764110947
  20
 123.40082987215
  30
0.0
  11
-406.42764110947
  21
 123.22450289144
  31
0.0
   0
LINE
   5
2EF
 100
AcDbEntity
   8
LEVEL002
 370
20
 100
AcDbLine
   6
CONTINUOUS
  62
6
  10
-406.42764110947
  20
 123.22450289144
  30
0.0
  11
-407.42764110947
  21
 123.04817591073
  31
0.0
   0
LINE
   5
2F0
 100
AcDbEntity
   8
LEVEL002
 370
20
 100
AcDbLine
   6
CONTINUOUS
  62
6
  10
-407.42764110947
  20
 123.04817591073
  30
0.0
  11
-407.42764110947
  21
 123.40082987215
  31
0.0
   0
LINE
   5
2F1
 100
AcDbEntity
   8
LEVEL002
 370
20
 100
AcDbLine
   6
CONTINUOUS
  62
6
  10
-404.92764110947
  20
 123.04817591073
  30
0.0
  11
-405.92764110947
  21
 123.22450289144
  31
0.0
   0
LINE
   5
2F2
 100
AcDbEntity
   8
LEVEL002
 370
20
 100
AcDbLine
   6
CONTINUOUS
  62
6
  10
-405.92764110947
  20
 123.22450289144
  30
0.0
  11
-404.92764110947
  21
 123.40082987215
  31
0.0
   0
LINE
   5
2F3
 100
AcDbEntity
   8
LEVEL002
 370
20
 100
AcDbLine
   6
CONTINUOUS
  62
6
  10
-404.92764110947
  20
 123.40082987215
  30
0.0
  11
-404.92764110947
  21
 123.04817591073
  31
0.0
   0
MTEXT
   5
2F5
 100
AcDbEntity
   8
LEVEL002
 370
20
  62
6
 100
AcDbMText
  10
-411.34088124105
  20
 123.84730990898
  30
0.0
  40
 1.5000000000000
  41
0.0
  71
7
  72
1
   1
\W0.800000;\T1.000000;０\W0.400000;\T1.000000;.\W0.800000;\T1.000000;５
   7
GMM001
  44
 0.79999984000003
   0
LINE
   5
2F6
 100
AcDbEntity
   8
LEVEL002
 370
20
 100
AcDbLine
   6
CONTINUOUS
  62
6
  10
-402.67764110947
  20
 123.22450289144
  30
0.0
  11
-396.38693387263
  21
 123.22450289144
  31
0.0
   0
LINE
   5
2F7
 100
AcDbEntity
   8
LEVEL002
 370
20
 100
AcDbLine
   6
CONTINUOUS
  62
6
  10
-401.42764110947
  20
 130.72450289144
  30
0.0
  11
-401.42764110947
  21
 122.72450289144
  31
0.0
   0
LINE
   5
2F8
 100
AcDbEntity
   8
LEVEL002
 370
20
 100
AcDbLine
   6
CONTINUOUS
  62
6
  10
-400.92764110947
  20
 130.72450289144
  30
0.0
  11
-400.92764110947
  21
 122.72450289144
  31
0.0
   0
LINE
   5
2F9
 100
AcDbEntity
   8
LEVEL002
 370
20
 100
AcDbLine
   6
CONTINUOUS
  62
6
  10
-402.42764110947
  20
 123.40082987215
  30
0.0
  11
-401.42764110947
  21
 123.22450289144
  31
0.0
   0
LINE
   5
2FA
 100
AcDbEntity
   8
LEVEL002
 370
20
 100
AcDbLine
   6
CONTINUOUS
  62
6
  10
-401.42764110947
  20
 123.22450289144
  30
0.0
  11
-402.42764110947
  21
 123.04817591073
  31
0.0
   0
LINE
   5
2FB
 100
AcDbEntity
   8
LEVEL002
 370
20
 100
AcDbLine
   6
CONTINUOUS
  62
6
  10
-402.42764110947
  20
 123.04817591073
  30
0.0
  11
-402.42764110947
  21
 123.40082987215
  31
0.0
   0
LINE
   5
2FC
 100
AcDbEntity
   8
LEVEL002
 370
20
 100
AcDbLine
   6
CONTINUOUS
  62
6
  10
-399.92764110947
  20
 123.04817591073
  30
0.0
  11
-400.92764110947
  21
 123.22450289144
  31
0.0
   0
LINE
   5
2FD
 100
AcDbEntity
   8
LEVEL002
 370
20
 100
AcDbLine
   6
CONTINUOUS
  62
6
  10
-400.92764110947
  20
 123.22450289144
  30
0.0
  11
-399.92764110947
  21
 123.40082987215
  31
0.0
   0
LINE
   5
2FE
 100
AcDbEntity
   8
LEVEL002
 370
20
 100
AcDbLine
   6
CONTINUOUS
  62
6
  10
-399.92764110947
  20
 123.40082987215
  30
0.0
  11
-399.92764110947
  21
 123.04817591073
  31
0.0
   0
MTEXT
   5
300
 100
AcDbEntity
   8
LEVEL002
 370
20
  62
6
 100
AcDbMText
  10
-400.13693387263
  20
 123.84730990898
  30
0.0
  40
 1.5000000000000
  41
0.0
  71
7
  72
1
   1
\W0.800000;\T1.000000;０\W0.400000;\T1.000000;.\W0.800000;\T1.000000;５
   7
GMM001
  44
 0.79999984000003
   0
LINE
   5
301
 100
AcDbEntity
   8
LEVEL002
 370
20
 100
AcDbLine
   6
CONTINUOUS
  62
6
  10
-406.42764110947
  20
 148.11686400255
  30
0.0
  11
-400.92764110947
  21
 148.11686400255
  31
0.0
   0
LINE
   5
302
 100
AcDbEntity
   8
LEVEL002
 370
20
 100
AcDbLine
   6
CONTINUOUS
  62
6
  10
-406.42764110947
  20
 154.55180552302
  30
0.0
  11
-406.42764110947
  21
 147.61686400255
  31
0.0
   0
LINE
   5
303
 100
AcDbEntity
   8
LEVEL002
 370
20
 100
AcDbLine
   6
CONTINUOUS
  62
6
  10
-400.92764110947
  20
 154.55180552302
  30
0.0
  11
-400.92764110947
  21
 147.61686400255
  31
0.0
   0
LINE
   5
304
 100
AcDbEntity
   8
LEVEL002
 370
20
 100
AcDbLine
   6
CONTINUOUS
  62
6
  10
-405.42764110947
  20
 147.94053702184
  30
0.0
  11
-406.42764110947
  21
 148.11686400255
  31
0.0
   0
LINE
   5
305
 100
AcDbEntity
   8
LEVEL002
 370
20
 100
AcDbLine
   6
CONTINUOUS
  62
6
  10
-406.42764110947
  20
 148.11686400255
  30
0.0
  11
-405.42764110947
  21
 148.29319098326
  31
0.0
   0
LINE
   5
306
 100
AcDbEntity
   8
LEVEL002
 370
20
 100
AcDbLine
   6
CONTINUOUS
  62
6
  10
-405.42764110947
  20
 148.29319098326
  30
0.0
  11
-405.42764110947
  21
 147.94053702184
  31
0.0
   0
LINE
   5
307
 100
AcDbEntity
   8
LEVEL002
 370
20
 100
AcDbLine
   6
CONTINUOUS
  62
6
  10
-401.92764110947
  20
 148.29319098326
  30
0.0
  11
-400.92764110947
  21
 148.11686400255
  31
0.0
   0
LINE
   5
308
 100
AcDbEntity
   8
LEVEL002
 370
20
 100
AcDbLine
   6
CONTINUOUS
  62
6
  10
-400.92764110947
  20
 148.11686400255
  30
0.0
  11
-401.92764110947
  21
 147.94053702184
  31
0.0
   0
LINE
   5
309
 100
AcDbEntity
   8
LEVEL002
 370
20
 100
AcDbLine
   6
CONTINUOUS
  62
6
  10
-401.92764110947
  20
 147.94053702184
  30
0.0
  11
-401.92764110947
  21
 148.29319098326
  31
0.0
   0
MTEXT
   5
30B
 100
AcDbEntity
   8
LEVEL002
 370
20
  62
6
 100
AcDbMText
  10
-405.55264110947
  20
 148.75972114541
  30
0.0
  40
 1.5000000000000
  41
0.0
  71
7
  72
1
   1
\W0.800000;\T1.000000;５\W0.400000;\T1.000000;.\W0.800000;\T1.000000;５
   7
GMM001
  44
 0.79999984000003
   0
LINE
   5
30C
 100
AcDbEntity
   8
LEVEL002
 370
20
 100
AcDbLine
   6
CONTINUOUS
  62
6
  10
-374.07815991227
  20
 180.05180552301
  30
0.0
  11
-374.07815991227
  21
 174.55180552301
  31
0.0
   0
LINE
   5
30D
 100
AcDbEntity
   8
LEVEL002
 370
20
 100
AcDbLine
   6
CONTINUOUS
  62
6
  10
-380.92764110947
  20
 180.05180552301
  30
0.0
  11
-373.57815991227
  21
 180.05180552301
  31
0.0
   0
LINE
   5
30E
 100
AcDbEntity
   8
LEVEL002
 370
20
 100
AcDbLine
   6
CONTINUOUS
  62
6
  10
-380.92764110947
  20
 174.55180552301
  30
0.0
  11
-373.57815991227
  21
 174.55180552301
  31
0.0
   0
LINE
   5
30F
 100
AcDbEntity
   8
LEVEL002
 370
20
 100
AcDbLine
   6
CONTINUOUS
  62
6
  10
-374.25448689297
  20
 179.05180552301
  30
0.0
  11
-374.07815991227
  21
 180.05180552301
  31
0.0
   0
LINE
   5
310
 100
AcDbEntity
   8
LEVEL002
 370
20
 100
AcDbLine
   6
CONTINUOUS
  62
6
  10
-374.07815991227
  20
 180.05180552301
  30
0.0
  11
-373.90183293156
  21
 179.05180552301
  31
0.0
   0
LINE
   5
311
 100
AcDbEntity
   8
LEVEL002
 370
20
 100
AcDbLine
   6
CONTINUOUS
  62
6
  10
-373.90183293156
  20
 179.05180552301
  30
0.0
  11
-374.25448689297
  21
 179.05180552301
  31
0.0
   0
LINE
   5
312
 100
AcDbEntity
   8
LEVEL002
 370
20
 100
AcDbLine
   6
CONTINUOUS
  62
6
  10
-373.90183293156
  20
 175.55180552301
  30
0.0
  11
-374.07815991227
  21
 174.55180552301
  31
0.0
   0
LINE
   5
313
 100
AcDbEntity
   8
LEVEL002
 370
20
 100
AcDbLine
   6
CONTINUOUS
  62
6
  10
-374.07815991227
  20
 174.55180552301
  30
0.0
  11
-374.25448689297
  21
 175.55180552301
  31
0.0
   0
LINE
   5
314
 100
AcDbEntity
   8
LEVEL002
 370
20
 100
AcDbLine
   6
CONTINUOUS
  62
6
  10
-374.25448689297
  20
 175.55180552301
  30
0.0
  11
-373.90183293156
  21
 175.55180552301
  31
0.0
   0
MTEXT
   5
316
 100
AcDbEntity
   8
LEVEL002
 370
20
  62
6
 100
AcDbMText
  10
-374.72101705512
  20
 175.42680552301
  30
0.0
  40
 1.5000000000000
  41
0.0
  71
7
  72
1
   1
\W0.800000;\T1.000000;５\W0.400000;\T1.000000;.\W0.800000;\T1.000000;５
   7
GMM001
  11
0.0
  21
 1.0000000000000
  31
0.0
  44
 0.79999984000003
   0
LINE
   5
317
 100
AcDbEntity
   8
LEVEL002
 370
20
 100
AcDbLine
   6
CONTINUOUS
  62
6
  10
-411.42764110947
  20
 136.97450289144
  30
0.0
  11
-411.42764110947
  21
 144.23601604933
  31
0.0
   0
LINE
   5
318
 100
AcDbEntity
   8
LEVEL002
 370
20
 100
AcDbLine
   6
CONTINUOUS
  62
6
  10
-406.92764110947
  20
 138.72450289144
  30
0.0
  11
-411.92764110947
  21
 138.72450289144
  31
0.0
   0
LINE
   5
319
 100
AcDbEntity
   8
LEVEL002
 370
20
 100
AcDbLine
   6
CONTINUOUS
  62
6
  10
-411.60396809018
  20
 137.22450289144
  30
0.0
  11
-411.42764110947
  21
 138.22450289144
  31
0.0
   0
LINE
   5
31A
 100
AcDbEntity
   8
LEVEL002
 370
20
 100
AcDbLine
   6
CONTINUOUS
  62
6
  10
-411.42764110947
  20
 138.22450289144
  30
0.0
  11
-411.25131412876
  21
 137.22450289144
  31
0.0
   0
LINE
   5
31B
 100
AcDbEntity
   8
LEVEL002
 370
20
 100
AcDbLine
   6
CONTINUOUS
  62
6
  10
-411.25131412876
  20
 137.22450289144
  30
0.0
  11
-411.60396809018
  21
 137.22450289144
  31
0.0
   0
LINE
   5
31C
 100
AcDbEntity
   8
LEVEL002
 370
20
 100
AcDbLine
   6
CONTINUOUS
  62
6
  10
-411.25131412876
  20
 139.72450289144
  30
0.0
  11
-411.42764110947
  21
 138.72450289144
  31
0.0
   0
LINE
   5
31D
 100
AcDbEntity
   8
LEVEL002
 370
20
 100
AcDbLine
   6
CONTINUOUS
  62
6
  10
-411.42764110947
  20
 138.72450289144
  30
0.0
  11
-411.60396809018
  21
 139.72450289144
  31
0.0
   0
LINE
   5
31E
 100
AcDbEntity
   8
LEVEL002
 370
20
 100
AcDbLine
   6
CONTINUOUS
  62
6
  10
-411.60396809018
  20
 139.72450289144
  30
0.0
  11
-411.25131412876
  21
 139.72450289144
  31
0.0
   0
MTEXT
   5
320
 100
AcDbEntity
   8
LEVEL002
 370
20
  62
6
 100
AcDbMText
  10
-412.13803036386
  20
 140.48601604933
  30
0.0
  40
 1.5000000000000
  41
0.0
  71
7
  72
1
   1
\W0.800000;\T1.000000;０\W0.400000;\T1.000000;.\W0.800000;\T1.000000;５
   7
GMM001
  11
0.0
  21
 1.0000000000000
  31
0.0
  44
 0.79999984000003
   0
LINE
   5
321
 100
AcDbEntity
   8
LEVEL002
 370
20
 100
AcDbLine
   6
CONTINUOUS
  62
6
  10
-355.08289783733
  20
 185.05180552301
  30
0.0
  11
-362.08289783733
  21
 185.05180552301
  31
0.0
   0
LINE
   5
322
 100
AcDbEntity
   8
LEVEL002
 370
20
 100
AcDbLine
   6
CONTINUOUS
  62
6
  10
-355.08289783733
  20
 180.55180552301
  30
0.0
  11
-355.08289783733
  21
 185.55180552301
  31
0.0
   0
LINE
   5
323
 100
AcDbEntity
   8
LEVEL002
 370
20
 100
AcDbLine
   6
CONTINUOUS
  62
6
  10
-362.08289783733
  20
 180.05180552301
  30
0.0
  11
-362.08289783733
  21
 185.55180552301
  31
0.0
   0
LINE
   5
324
 100
AcDbEntity
   8
LEVEL002
 370
20
 100
AcDbLine
   6
CONTINUOUS
  62
6
  10
-356.08289783733
  20
 185.22813250372
  30
0.0
  11
-355.08289783733
  21
 185.05180552301
  31
0.0
   0
LINE
   5
325
 100
AcDbEntity
   8
LEVEL002
 370
20
 100
AcDbLine
   6
CONTINUOUS
  62
6
  10
-355.08289783733
  20
 185.05180552301
  30
0.0
  11
-356.08289783733
  21
 184.87547854230
  31
0.0
   0
LINE
   5
326
 100
AcDbEntity
   8
LEVEL002
 370
20
 100
AcDbLine
   6
CONTINUOUS
  62
6
  10
-356.08289783733
  20
 184.87547854230
  30
0.0
  11
-356.08289783733
  21
 185.22813250372
  31
0.0
   0
LINE
   5
327
 100
AcDbEntity
   8
LEVEL002
 370
20
 100
AcDbLine
   6
CONTINUOUS
  62
6
  10
-361.08289783733
  20
 184.87547854230
  30
0.0
  11
-362.08289783733
  21
 185.05180552301
  31
0.0
   0
LINE
   5
328
 100
AcDbEntity
   8
LEVEL002
 370
20
 100
AcDbLine
   6
CONTINUOUS
  62
6
  10
-362.08289783733
  20
 185.05180552301
  30
0.0
  11
-361.08289783733
  21
 185.22813250372
  31
0.0
   0
LINE
   5
329
 100
AcDbEntity
   8
LEVEL002
 370
20
 100
AcDbLine
   6
CONTINUOUS
  62
6
  10
-361.08289783733
  20
 185.22813250372
  30
0.0
  11
-361.08289783733
  21
 184.87547854230
  31
0.0
   0
MTEXT
   5
32B
 100
AcDbEntity
   8
LEVEL002
 370
20
  62
6
 100
AcDbMText
  10
-359.33289783733
  20
 185.69466266588
  30
0.0
  40
 1.5000000000000
  41
0.0
  71
7
  72
1
   1
\T1.000000;７
   7
GMM001
  44
 0.79999984000003
   0
LINE
   5
32C
 100
AcDbEntity
   8
LEVEL002
 370
20
 100
AcDbLine
   6
CONTINUOUS
  62
6
  10
-360.83289783733
  20
 185.05180552301
  30
0.0
  11
-367.59417071474
  21
 185.05180552301
  31
0.0
   0
LINE
   5
32D
 100
AcDbEntity
   8
LEVEL002
 370
20
 100
AcDbLine
   6
CONTINUOUS
  62
6
  10
-362.58289783733
  20
 180.05180552301
  30
0.0
  11
-362.58289783733
  21
 185.55180552301
  31
0.0
   0
LINE
   5
32E
 100
AcDbEntity
   8
LEVEL002
 370
20
 100
AcDbLine
   6
CONTINUOUS
  62
6
  10
-361.08289783733
  20
 184.87547854230
  30
0.0
  11
-362.08289783733
  21
 185.05180552301
  31
0.0
   0
LINE
   5
32F
 100
AcDbEntity
   8
LEVEL002
 370
20
 100
AcDbLine
   6
CONTINUOUS
  62
6
  10
-362.08289783733
  20
 185.05180552301
  30
0.0
  11
-361.08289783733
  21
 185.22813250372
  31
0.0
   0
LINE
   5
330
 100
AcDbEntity
   8
LEVEL002
 370
20
 100
AcDbLine
   6
CONTINUOUS
  62
6
  10
-361.08289783733
  20
 185.22813250372
  30
0.0
  11
-361.08289783733
  21
 184.87547854230
  31
0.0
   0
LINE
   5
331
 100
AcDbEntity
   8
LEVEL002
 370
20
 100
AcDbLine
   6
CONTINUOUS
  62
6
  10
-363.58289783733
  20
 185.22813250372
  30
0.0
  11
-362.58289783733
  21
 185.05180552301
  31
0.0
   0
LINE
   5
332
 100
AcDbEntity
   8
LEVEL002
 370
20
 100
AcDbLine
   6
CONTINUOUS
  62
6
  10
-362.58289783733
  20
 185.05180552301
  30
0.0
  11
-363.58289783733
  21
 184.87547854230
  31
0.0
   0
LINE
   5
333
 100
AcDbEntity
   8
LEVEL002
 370
20
 100
AcDbLine
   6
CONTINUOUS
  62
6
  10
-363.58289783733
  20
 184.87547854230
  30
0.0
  11
-363.58289783733
  21
 185.22813250372
  31
0.0
   0
MTEXT
   5
335
 100
AcDbEntity
   8
LEVEL002
 370
20
  62
6
 100
AcDbMText
  10
-367.59417071474
  20
 185.71627920722
  30
0.0
  40
 1.5000000000000
  41
0.0
  71
7
  72
1
   1
\W0.800000;\T1.000000;０\W0.400000;\T1.000000;.\W0.800000;\T1.000000;５
   7
GMM001
  44
 0.79999984000003
   0
LINE
   5
336
 100
AcDbEntity
   8
LEVEL002
 370
20
 100
AcDbLine
   6
CONTINUOUS
  62
6
  10
-415.42372644736
  20
 131.22450289144
  30
0.0
  11
-415.42372644736
  21
 138.72450289144
  31
0.0
   0
LINE
   5
337
 100
AcDbEntity
   8
LEVEL002
 370
20
 100
AcDbLine
   6
CONTINUOUS
  62
6
  10
-411.92764110947
  20
 131.22450289144
  30
0.0
  11
-415.92372644736
  21
 131.22450289144
  31
0.0
   0
LINE
   5
338
 100
AcDbEntity
   8
LEVEL002
 370
20
 100
AcDbLine
   6
CONTINUOUS
  62
6
  10
-411.92764110947
  20
 138.72450289144
  30
0.0
  11
-415.92372644736
  21
 138.72450289144
  31
0.0
   0
LINE
   5
339
 100
AcDbEntity
   8
LEVEL002
 370
20
 100
AcDbLine
   6
CONTINUOUS
  62
6
  10
-415.24739946665
  20
 132.22450289144
  30
0.0
  11
-415.42372644736
  21
 131.22450289144
  31
0.0
   0
LINE
   5
33A
 100
AcDbEntity
   8
LEVEL002
 370
20
 100
AcDbLine
   6
CONTINUOUS
  62
6
  10
-415.42372644736
  20
 131.22450289144
  30
0.0
  11
-415.60005342806
  21
 132.22450289144
  31
0.0
   0
LINE
   5
33B
 100
AcDbEntity
   8
LEVEL002
 370
20
 100
AcDbLine
   6
CONTINUOUS
  62
6
  10
-415.60005342806
  20
 132.22450289144
  30
0.0
  11
-415.24739946665
  21
 132.22450289144
  31
0.0
   0
LINE
   5
33C
 100
AcDbEntity
   8
LEVEL002
 370
20
 100
AcDbLine
   6
CONTINUOUS
  62
6
  10
-415.60005342806
  20
 137.72450289144
  30
0.0
  11
-415.42372644736
  21
 138.72450289144
  31
0.0
   0
LINE
   5
33D
 100
AcDbEntity
   8
LEVEL002
 370
20
 100
AcDbLine
   6
CONTINUOUS
  62
6
  10
-415.42372644736
  20
 138.72450289144
  30
0.0
  11
-415.24739946665
  21
 137.72450289144
  31
0.0
   0
LINE
   5
33E
 100
AcDbEntity
   8
LEVEL002
 370
20
 100
AcDbLine
   6
CONTINUOUS
  62
6
  10
-415.24739946665
  20
 137.72450289144
  30
0.0
  11
-415.60005342806
  21
 137.72450289144
  31
0.0
   0
MTEXT
   5
340
 100
AcDbEntity
   8
LEVEL002
 370
20
  62
6
 100
AcDbMText
  10
-416.06658359021
  20
 133.09950289144
  30
0.0
  40
 1.5000000000000
  41
0.0
  71
7
  72
1
   1
\W0.800000;\T1.000000;７\W0.400000;\T1.000000;.\W0.800000;\T1.000000;５
   7
GMM001
  11
0.0
  21
 1.0000000000000
  31
0.0
  44
 0.79999984000003
   0
LINE
   5
341
 100
AcDbEntity
   8
LEVEL002
 370
20
 100
AcDbLine
   6
CONTINUOUS
  62
6
  10
-406.42764110947
  20
 116.66969896776
  30
0.0
  11
-381.42764110947
  21
 116.66969896776
  31
0.0
   0
LINE
   5
342
 100
AcDbEntity
   8
LEVEL002
 370
20
 100
AcDbLine
   6
CONTINUOUS
  62
6
  10
-406.42764110947
  20
 122.72450289144
  30
0.0
  11
-406.42764110947
  21
 116.16969896776
  31
0.0
   0
LINE
   5
343
 100
AcDbEntity
   8
LEVEL002
 370
20
 100
AcDbLine
   6
CONTINUOUS
  62
6
  10
-381.42764110947
  20
 130.72450289144
  30
0.0
  11
-381.42764110947
  21
 116.16969896776
  31
0.0
   0
LINE
   5
344
 100
AcDbEntity
   8
LEVEL002
 370
20
 100
AcDbLine
   6
CONTINUOUS
  62
6
  10
-405.42764110947
  20
 116.49337198705
  30
0.0
  11
-406.42764110947
  21
 116.66969896776
  31
0.0
   0
LINE
   5
345
 100
AcDbEntity
   8
LEVEL002
 370
20
 100
AcDbLine
   6
CONTINUOUS
  62
6
  10
-406.42764110947
  20
 116.66969896776
  30
0.0
  11
-405.42764110947
  21
 116.84602594847
  31
0.0
   0
LINE
   5
346
 100
AcDbEntity
   8
LEVEL002
 370
20
 100
AcDbLine
   6
CONTINUOUS
  62
6
  10
-405.42764110947
  20
 116.84602594847
  30
0.0
  11
-405.42764110947
  21
 116.49337198705
  31
0.0
   0
LINE
   5
347
 100
AcDbEntity
   8
LEVEL002
 370
20
 100
AcDbLine
   6
CONTINUOUS
  62
6
  10
-382.42764110947
  20
 116.84602594847
  30
0.0
  11
-381.42764110947
  21
 116.66969896776
  31
0.0
   0
LINE
   5
348
 100
AcDbEntity
   8
LEVEL002
 370
20
 100
AcDbLine
   6
CONTINUOUS
  62
6
  10
-381.42764110947
  20
 116.66969896776
  30
0.0
  11
-382.42764110947
  21
 116.49337198705
  31
0.0
   0
LINE
   5
349
 100
AcDbEntity
   8
LEVEL002
 370
20
 100
AcDbLine
   6
CONTINUOUS
  62
6
  10
-382.42764110947
  20
 116.49337198705
  30
0.0
  11
-382.42764110947
  21
 116.84602594847
  31
0.0
   0
MTEXT
   5
34B
 100
AcDbEntity
   8
LEVEL002
 370
20
  62
6
 100
AcDbMText
  10
-395.42764110947
  20
 117.31255611062
  30
0.0
  40
 1.5000000000000
  41
0.0
  71
7
  72
1
   1
\T1.000000;２５
   7
GMM001
  44
 0.79999984000003
   0
LINE
   5
34C
 100
AcDbEntity
   8
LEVEL002
 370
20
 100
AcDbLine
   6
CONTINUOUS
  62
6
  10
-362.58289783733
  20
 190.98721124271
  30
0.0
  11
-355.08289783733
  21
 190.98721124271
  31
0.0
   0
LINE
   5
34D
 100
AcDbEntity
   8
LEVEL002
 370
20
 100
AcDbLine
   6
CONTINUOUS
  62
6
  10
-362.58289783733
  20
 185.55180552301
  30
0.0
  11
-362.58289783733
  21
 191.48721124271
  31
0.0
   0
LINE
   5
34E
 100
AcDbEntity
   8
LEVEL002
 370
20
 100
AcDbLine
   6
CONTINUOUS
  62
6
  10
-355.08289783733
  20
 185.55180552301
  30
0.0
  11
-355.08289783733
  21
 191.48721124271
  31
0.0
   0
LINE
   5
34F
 100
AcDbEntity
   8
LEVEL002
 370
20
 100
AcDbLine
   6
CONTINUOUS
  62
6
  10
-361.58289783733
  20
 190.81088426200
  30
0.0
  11
-362.58289783733
  21
 190.98721124271
  31
0.0
   0
LINE
   5
350
 100
AcDbEntity
   8
LEVEL002
 370
20
 100
AcDbLine
   6
CONTINUOUS
  62
6
  10
-362.58289783733
  20
 190.98721124271
  30
0.0
  11
-361.58289783733
  21
 191.16353822342
  31
0.0
   0
LINE
   5
351
 100
AcDbEntity
   8
LEVEL002
 370
20
 100
AcDbLine
   6
CONTINUOUS
  62
6
  10
-361.58289783733
  20
 191.16353822342
  30
0.0
  11
-361.58289783733
  21
 190.81088426200
  31
0.0
   0
LINE
   5
352
 100
AcDbEntity
   8
LEVEL002
 370
20
 100
AcDbLine
   6
CONTINUOUS
  62
6
  10
-356.08289783733
  20
 191.16353822342
  30
0.0
  11
-355.08289783733
  21
 190.98721124271
  31
0.0
   0
LINE
   5
353
 100
AcDbEntity
   8
LEVEL002
 370
20
 100
AcDbLine
   6
CONTINUOUS
  62
6
  10
-355.08289783733
  20
 190.98721124271
  30
0.0
  11
-356.08289783733
  21
 190.81088426200
  31
0.0
   0
LINE
   5
354
 100
AcDbEntity
   8
LEVEL002
 370
20
 100
AcDbLine
   6
CONTINUOUS
  62
6
  10
-356.08289783733
  20
 190.81088426200
  30
0.0
  11
-356.08289783733
  21
 191.16353822342
  31
0.0
   0
MTEXT
   5
356
 100
AcDbEntity
   8
LEVEL002
 370
20
  62
6
 100
AcDbMText
  10
-360.70789783733
  20
 191.63006838557
  30
0.0
  40
 1.5000000000000
  41
0.0
  71
7
  72
1
   1
\W0.800000;\T1.000000;７\W0.400000;\T1.000000;.\W0.800000;\T1.000000;５
   7
GMM001
  44
 0.79999984000003
   0
LINE
   5
357
 100
AcDbEntity
   8
LEVEL002
 370
30
 100
AcDbLine
   6
CONTINUOUS
  62
7
  10
 688.30000000000
  20
 544.15000000000
  30
0.0
  11
 673.90000000000
  21
 544.15000000000
  31
0.0
   0
LINE
   5
358
 100
AcDbEntity
   8
LEVEL002
 370
30
 100
AcDbLine
   6
CONTINUOUS
  62
7
  10
 673.90000000000
  20
 544.15000000000
  30
0.0
  11
 673.90000000000
  21
 522.55000000000
  31
0.0
   0
LINE
   5
359
 100
AcDbEntity
   8
LEVEL002
 370
30
 100
AcDbLine
   6
CONTINUOUS
  62
7
  10
 673.90000000000
  20
 522.55000000000
  30
0.0
  11
 681.10000000000
  21
 522.55000000000
  31
0.0
   0
LINE
   5
35A
 100
AcDbEntity
   8
LEVEL002
 370
30
 100
AcDbLine
   6
CONTINUOUS
  62
7
  10
 681.10000000000
  20
 522.55000000000
  30
0.0
  11
 681.10000000000
  21
 526.15000000000
  31
0.0
   0
LINE
   5
35B
 100
AcDbEntity
   8
LEVEL002
 370
30
 100
AcDbLine
   6
CONTINUOUS
  62
7
  10
 681.10000000000
  20
 526.15000000000
  30
0.0
  11
 688.30000000000
  21
 526.15000000000
  31
0.0
   0
ARC
   5
35C
 100
AcDbEntity
   8
LEVEL002
 370
30
   6
CONTINUOUS
  62
7
 100
AcDbCircle
  10
 688.30000000000
  20
 535.15000000000
  30
0.0
  40
 9.0000000000000
 100
AcDbArc
  50
 270.00000000000
  51
 90.000000000000
   0
LINE
   5
35D
 100
AcDbEntity
   8
LEVEL002
 370
30
 100
AcDbLine
   6
CONTINUOUS
  62
7
  10
 681.10000000000
  20
 533.35000000000
  30
0.0
  11
 688.30000000000
  21
 533.35000000000
  31
0.0
   0
ARC
   5
35E
 100
AcDbEntity
   8
LEVEL002
 370
30
   6
CONTINUOUS
  62
7
 100
AcDbCircle
  10
 688.30000000000
  20
 535.15000000000
  30
0.0
  40
 1.8000000000000
 100
AcDbArc
  50
 270.00000000000
  51
 90.000000000000
   0
LINE
   5
35F
 100
AcDbEntity
   8
LEVEL002
 370
30
 100
AcDbLine
   6
CONTINUOUS
  62
7
  10
 688.30000000000
  20
 536.95000000000
  30
0.0
  11
 681.10000000000
  21
 536.95000000000
  31
0.0
   0
LINE
   5
360
 100
AcDbEntity
   8
LEVEL002
 370
30
 100
AcDbLine
   6
CONTINUOUS
  62
7
  10
 681.10000000000
  20
 536.95000000000
  30
0.0
  11
 681.10000000000
  21
 533.35000000000
  31
0.0
   0
LINE
   5
361
 100
AcDbEntity
   8
LEVEL002
 370
30
 100
AcDbLine
   6
CONTINUOUS
  62
7
  10
 691.90000000000
  20
 522.55000000000
  30
0.0
  11
 706.30000000000
  21
 544.15000000000
  31
0.0
   0
LINE
   5
362
 100
AcDbEntity
   8
LEVEL002
 370
30
 100
AcDbLine
   6
CONTINUOUS
  62
7
  10
 706.30000000000
  20
 544.15000000000
  30
0.0
  11
 724.30000000000
  21
 544.15000000000
  31
0.0
   0
LINE
   5
363
 100
AcDbEntity
   8
LEVEL002
 370
30
 100
AcDbLine
   6
CONTINUOUS
  62
7
  10
 724.30000000000
  20
 544.15000000000
  30
0.0
  11
 724.30000000000
  21
 529.75000000000
  31
0.0
   0
LINE
   5
364
 100
AcDbEntity
   8
LEVEL002
 370
30
 100
AcDbLine
   6
CONTINUOUS
  62
7
  10
 724.30000000000
  20
 529.75000000000
  30
0.0
  11
 735.10000000000
  21
 529.75000000000
  31
0.0
   0
LINE
   5
365
 100
AcDbEntity
   8
LEVEL002
 370
30
 100
AcDbLine
   6
CONTINUOUS
  62
7
  10
 735.10000000000
  20
 529.75000000000
  30
0.0
  11
 735.10000000000
  21
 536.95000000000
  31
0.0
   0
LINE
   5
366
 100
AcDbEntity
   8
LEVEL002
 370
30
 100
AcDbLine
   6
CONTINUOUS
  62
7
  10
 735.10000000000
  20
 536.95000000000
  30
0.0
  11
 727.90000000000
  21
 536.95000000000
  31
0.0
   0
LINE
   5
367
 100
AcDbEntity
   8
LEVEL002
 370
30
 100
AcDbLine
   6
CONTINUOUS
  62
7
  10
 727.90000000000
  20
 536.95000000000
  30
0.0
  11
 727.90000000000
  21
 544.15000000000
  31
0.0
   0
LINE
   5
368
 100
AcDbEntity
   8
LEVEL002
 370
30
 100
AcDbLine
   6
CONTINUOUS
  62
7
  10
 727.90000000000
  20
 544.15000000000
  30
0.0
  11
 771.10000000000
  21
 544.15000000000
  31
0.0
   0
LINE
   5
369
 100
AcDbEntity
   8
LEVEL002
 370
30
 100
AcDbLine
   6
CONTINUOUS
  62
7
  10
 771.10000000000
  20
 544.15000000000
  30
0.0
  11
 771.10000000000
  21
 536.95000000000
  31
0.0
   0
LINE
   5
36A
 100
AcDbEntity
   8
LEVEL002
 370
30
 100
AcDbLine
   6
CONTINUOUS
  62
7
  10
 771.10000000000
  20
 536.95000000000
  30
0.0
  11
 756.70000000000
  21
 536.95000000000
  31
0.0
   0
LINE
   5
36B
 100
AcDbEntity
   8
LEVEL002
 370
30
 100
AcDbLine
   6
CONTINUOUS
  62
7
  10
 756.70000000000
  20
 536.95000000000
  30
0.0
  11
 756.70000000000
  21
 535.15000000000
  31
0.0
   0
LINE
   5
36C
 100
AcDbEntity
   8
LEVEL002
 370
30
 100
AcDbLine
   6
CONTINUOUS
  62
7
  10
 756.70000000000
  20
 535.15000000000
  30
0.0
  11
 769.30000000000
  21
 535.15000000000
  31
0.0
   0
LINE
   5
36D
 100
AcDbEntity
   8
LEVEL002
 370
30
 100
AcDbLine
   6
CONTINUOUS
  62
7
  10
 769.30000000000
  20
 535.15000000000
  30
0.0
  11
 769.30000000000
  21
 531.55000000000
  31
0.0
   0
LINE
   5
36E
 100
AcDbEntity
   8
LEVEL002
 370
30
 100
AcDbLine
   6
CONTINUOUS
  62
7
  10
 769.30000000000
  20
 531.55000000000
  30
0.0
  11
 756.70000000000
  21
 531.55000000000
  31
0.0
   0
LINE
   5
36F
 100
AcDbEntity
   8
LEVEL002
 370
30
 100
AcDbLine
   6
CONTINUOUS
  62
7
  10
 756.70000000000
  20
 531.55000000000
  30
0.0
  11
 756.70000000000
  21
 529.75000000000
  31
0.0
   0
LINE
   5
370
 100
AcDbEntity
   8
LEVEL002
 370
30
 100
AcDbLine
   6
CONTINUOUS
  62
7
  10
 756.70000000000
  20
 529.75000000000
  30
0.0
  11
 771.10000000000
  21
 529.75000000000
  31
0.0
   0
LINE
   5
371
 100
AcDbEntity
   8
LEVEL002
 370
30
 100
AcDbLine
   6
CONTINUOUS
  62
7
  10
 771.10000000000
  20
 529.75000000000
  30
0.0
  11
 771.10000000000
  21
 522.55000000000
  31
0.0
   0
LINE
   5
372
 100
AcDbEntity
   8
LEVEL002
 370
30
 100
AcDbLine
   6
CONTINUOUS
  62
7
  10
 771.10000000000
  20
 522.55000000000
  30
0.0
  11
 749.50000000000
  21
 522.55000000000
  31
0.0
   0
LINE
   5
373
 100
AcDbEntity
   8
LEVEL002
 370
30
 100
AcDbLine
   6
CONTINUOUS
  62
7
  10
 749.50000000000
  20
 522.55000000000
  30
0.0
  11
 749.50000000000
  21
 536.95000000000
  31
0.0
   0
LINE
   5
374
 100
AcDbEntity
   8
LEVEL002
 370
30
 100
AcDbLine
   6
CONTINUOUS
  62
7
  10
 749.50000000000
  20
 536.95000000000
  30
0.0
  11
 742.30000000000
  21
 536.95000000000
  31
0.0
   0
LINE
   5
375
 100
AcDbEntity
   8
LEVEL002
 370
30
 100
AcDbLine
   6
CONTINUOUS
  62
7
  10
 742.30000000000
  20
 536.95000000000
  30
0.0
  11
 742.30000000000
  21
 522.55000000000
  31
0.0
   0
LINE
   5
376
 100
AcDbEntity
   8
LEVEL002
 370
30
 100
AcDbLine
   6
CONTINUOUS
  62
7
  10
 742.30000000000
  20
 522.55000000000
  30
0.0
  11
 717.10000000000
  21
 522.55000000000
  31
0.0
   0
LINE
   5
377
 100
AcDbEntity
   8
LEVEL002
 370
30
 100
AcDbLine
   6
CONTINUOUS
  62
7
  10
 717.10000000000
  20
 522.55000000000
  30
0.0
  11
 717.10000000000
  21
 544.15000000000
  31
0.0
   0
LINE
   5
378
 100
AcDbEntity
   8
LEVEL002
 370
30
 100
AcDbLine
   6
CONTINUOUS
  62
7
  10
 717.10000000000
  20
 544.15000000000
  30
0.0
  11
 702.70000000000
  21
 522.55000000000
  31
0.0
   0
LINE
   5
379
 100
AcDbEntity
   8
LEVEL002
 370
30
 100
AcDbLine
   6
CONTINUOUS
  62
7
  10
 702.70000000000
  20
 522.55000000000
  30
0.0
  11
 691.90000000000
  21
 522.55000000000
  31
0.0
   0
LINE
   5
37A
 100
AcDbEntity
   8
LEVEL002
 370
30
 100
AcDbLine
   6
CONTINUOUS
  62
7
  10
 714.70000000000
  20
 536.22333846940
  30
0.0
  11
 705.58444102040
  21
 522.55000000000
  31
0.0
   0
LINE
   5
37B
 100
AcDbEntity
   8
LEVEL002
 370
30
 100
AcDbLine
   6
CONTINUOUS
  62
7
  10
 705.58444102040
  20
 522.55000000000
  30
0.0
  11
 714.70000000000
  21
 522.55000000000
  31
0.0
   0
LINE
   5
37C
 100
AcDbEntity
   8
LEVEL002
 370
30
 100
AcDbLine
   6
CONTINUOUS
  62
7
  10
 714.70000000000
  20
 522.55000000000
  30
0.0
  11
 714.70000000000
  21
 536.22333846940
  31
0.0
   0
ARC
   5
37D
 100
AcDbEntity
   8
LEVEL002
 370
30
   6
CONTINUOUS
  62
7
 100
AcDbCircle
  10
 781.90000000000
  20
 533.35000000000
  30
0.0
  40
 10.800000000000
 100
AcDbArc
  50
 90.000000000000
  51
 270.00000000000
   0
ARC
   5
37E
 100
AcDbEntity
   8
LEVEL002
 370
30
   6
CONTINUOUS
  62
7
 100
AcDbCircle
  10
 781.90000000000
  20
 533.35000000000
  30
0.0
  40
 3.6000000000000
 100
AcDbArc
  50
 90.000000000000
  51
 270.00000000000
   0
LINE
   5
37F
 100
AcDbEntity
   8
LEVEL002
 370
30
 100
AcDbLine
   6
CONTINUOUS
  62
7
  10
 781.90000000000
  20
 544.15000000000
  30
0.0
  11
 792.70000000000
  21
 544.15000000000
  31
0.0
   0
LINE
   5
380
 100
AcDbEntity
   8
LEVEL002
 370
30
 100
AcDbLine
   6
CONTINUOUS
  62
7
  10
 792.70000000000
  20
 544.15000000000
  30
0.0
  11
 792.70000000000
  21
 536.95000000000
  31
0.0
   0
LINE
   5
381
 100
AcDbEntity
   8
LEVEL002
 370
30
 100
AcDbLine
   6
CONTINUOUS
  62
7
  10
 792.70000000000
  20
 536.95000000000
  30
0.0
  11
 781.90000000000
  21
 536.95000000000
  31
0.0
   0
LINE
   5
382
 100
AcDbEntity
   8
LEVEL002
 370
30
 100
AcDbLine
   6
CONTINUOUS
  62
7
  10
 673.90000000000
  20
 544.15000000000
  30
0.0
  11
 673.90000000000
  21
 522.55000000000
  31
0.0
   0
LINE
   5
383
 100
AcDbEntity
   8
LEVEL002
 370
30
 100
AcDbLine
   6
CONTINUOUS
  62
7
  10
 673.90000000000
  20
 522.55000000000
  30
0.0
  11
 681.10000000000
  21
 522.55000000000
  31
0.0
   0
LINE
   5
384
 100
AcDbEntity
   8
LEVEL002
 370
30
 100
AcDbLine
   6
CONTINUOUS
  62
7
  10
 681.10000000000
  20
 522.55000000000
  30
0.0
  11
 681.10000000000
  21
 526.15000000000
  31
0.0
   0
LINE
   5
385
 100
AcDbEntity
   8
LEVEL002
 370
30
 100
AcDbLine
   6
CONTINUOUS
  62
7
  10
 681.10000000000
  20
 526.15000000000
  30
0.0
  11
 688.30000000000
  21
 526.15000000000
  31
0.0
   0
ARC
   5
386
 100
AcDbEntity
   8
LEVEL002
 370
30
   6
CONTINUOUS
  62
7
 100
AcDbCircle
  10
 688.30000000000
  20
 535.15000000000
  30
0.0
  40
 9.0000000000000
 100
AcDbArc
  50
 270.00000000000
  51
 90.000000000000
   0
LINE
   5
387
 100
AcDbEntity
   8
LEVEL002
 370
30
 100
AcDbLine
   6
CONTINUOUS
  62
7
  10
 688.30000000000
  20
 544.15000000000
  30
0.0
  11
 673.90000000000
  21
 544.15000000000
  31
0.0
   0
LINE
   5
388
 100
AcDbEntity
   8
LEVEL002
 370
30
 100
AcDbLine
   6
CONTINUOUS
  62
7
  10
 681.10000000000
  20
 536.95000000000
  30
0.0
  11
 681.10000000000
  21
 533.35000000000
  31
0.0
   0
LINE
   5
389
 100
AcDbEntity
   8
LEVEL002
 370
30
 100
AcDbLine
   6
CONTINUOUS
  62
7
  10
 681.10000000000
  20
 533.35000000000
  30
0.0
  11
 688.30000000000
  21
 533.35000000000
  31
0.0
   0
ARC
   5
38A
 100
AcDbEntity
   8
LEVEL002
 370
30
   6
CONTINUOUS
  62
7
 100
AcDbCircle
  10
 688.30000000000
  20
 535.15000000000
  30
0.0
  40
 1.8000000000000
 100
AcDbArc
  50
 270.00000000000
  51
 90.000000000000
   0
LINE
   5
38B
 100
AcDbEntity
   8
LEVEL002
 370
30
 100
AcDbLine
   6
CONTINUOUS
  62
7
  10
 688.30000000000
  20
 536.95000000000
  30
0.0
  11
 681.10000000000
  21
 536.95000000000
  31
0.0
   0
LINE
   5
38C
 100
AcDbEntity
   8
LEVEL002
 370
30
 100
AcDbLine
   6
CONTINUOUS
  62
7
  10
 706.30000000000
  20
 544.15000000000
  30
0.0
  11
 691.90000000000
  21
 522.55000000000
  31
0.0
   0
LINE
   5
38D
 100
AcDbEntity
   8
LEVEL002
 370
30
 100
AcDbLine
   6
CONTINUOUS
  62
7
  10
 691.90000000000
  20
 522.55000000000
  30
0.0
  11
 702.70000000000
  21
 522.55000000000
  31
0.0
   0
LINE
   5
38E
 100
AcDbEntity
   8
LEVEL002
 370
30
 100
AcDbLine
   6
CONTINUOUS
  62
7
  10
 702.70000000000
  20
 522.55000000000
  30
0.0
  11
 717.10000000000
  21
 544.15000000000
  31
0.0
   0
LINE
   5
38F
 100
AcDbEntity
   8
LEVEL002
 370
30
 100
AcDbLine
   6
CONTINUOUS
  62
7
  10
 717.10000000000
  20
 544.15000000000
  30
0.0
  11
 706.30000000000
  21
 544.15000000000
  31
0.0
   0
LINE
   5
390
 100
AcDbEntity
   8
LEVEL002
 370
30
 100
AcDbLine
   6
CONTINUOUS
  62
7
  10
 714.70000000000
  20
 522.55000000000
  30
0.0
  11
 714.70000000000
  21
 536.22333846940
  31
0.0
   0
LINE
   5
391
 100
AcDbEntity
   8
LEVEL002
 370
30
 100
AcDbLine
   6
CONTINUOUS
  62
7
  10
 714.70000000000
  20
 536.22333846940
  30
0.0
  11
 705.58444102040
  21
 522.55000000000
  31
0.0
   0
LINE
   5
392
 100
AcDbEntity
   8
LEVEL002
 370
30
 100
AcDbLine
   6
CONTINUOUS
  62
7
  10
 705.58444102040
  20
 522.55000000000
  30
0.0
  11
 714.70000000000
  21
 522.55000000000
  31
0.0
   0
LINE
   5
393
 100
AcDbEntity
   8
LEVEL002
 370
30
 100
AcDbLine
   6
CONTINUOUS
  62
7
  10
 717.10000000000
  20
 522.55000000000
  30
0.0
  11
 742.30000000000
  21
 522.55000000000
  31
0.0
   0
LINE
   5
394
 100
AcDbEntity
   8
LEVEL002
 370
30
 100
AcDbLine
   6
CONTINUOUS
  62
7
  10
 742.30000000000
  20
 522.55000000000
  30
0.0
  11
 742.30000000000
  21
 536.95000000000
  31
0.0
   0
LINE
   5
395
 100
AcDbEntity
   8
LEVEL002
 370
30
 100
AcDbLine
   6
CONTINUOUS
  62
7
  10
 742.30000000000
  20
 536.95000000000
  30
0.0
  11
 749.50000000000
  21
 536.95000000000
  31
0.0
   0
LINE
   5
396
 100
AcDbEntity
   8
LEVEL002
 370
30
 100
AcDbLine
   6
CONTINUOUS
  62
7
  10
 749.50000000000
  20
 536.95000000000
  30
0.0
  11
 749.50000000000
  21
 522.55000000000
  31
0.0
   0
LINE
   5
397
 100
AcDbEntity
   8
LEVEL002
 370
30
 100
AcDbLine
   6
CONTINUOUS
  62
7
  10
 749.50000000000
  20
 522.55000000000
  30
0.0
  11
 771.10000000000
  21
 522.55000000000
  31
0.0
   0
LINE
   5
398
 100
AcDbEntity
   8
LEVEL002
 370
30
 100
AcDbLine
   6
CONTINUOUS
  62
7
  10
 771.10000000000
  20
 522.55000000000
  30
0.0
  11
 771.10000000000
  21
 529.75000000000
  31
0.0
   0
LINE
   5
399
 100
AcDbEntity
   8
LEVEL002
 370
30
 100
AcDbLine
   6
CONTINUOUS
  62
7
  10
 771.10000000000
  20
 529.75000000000
  30
0.0
  11
 756.70000000000
  21
 529.75000000000
  31
0.0
   0
LINE
   5
39A
 100
AcDbEntity
   8
LEVEL002
 370
30
 100
AcDbLine
   6
CONTINUOUS
  62
7
  10
 756.70000000000
  20
 529.75000000000
  30
0.0
  11
 756.70000000000
  21
 531.55000000000
  31
0.0
   0
LINE
   5
39B
 100
AcDbEntity
   8
LEVEL002
 370
30
 100
AcDbLine
   6
CONTINUOUS
  62
7
  10
 756.70000000000
  20
 531.55000000000
  30
0.0
  11
 769.30000000000
  21
 531.55000000000
  31
0.0
   0
LINE
   5
39C
 100
AcDbEntity
   8
LEVEL002
 370
30
 100
AcDbLine
   6
CONTINUOUS
  62
7
  10
 769.30000000000
  20
 531.55000000000
  30
0.0
  11
 769.30000000000
  21
 535.15000000000
  31
0.0
   0
LINE
   5
39D
 100
AcDbEntity
   8
LEVEL002
 370
30
 100
AcDbLine
   6
CONTINUOUS
  62
7
  10
 769.30000000000
  20
 535.15000000000
  30
0.0
  11
 756.70000000000
  21
 535.15000000000
  31
0.0
   0
LINE
   5
39E
 100
AcDbEntity
   8
LEVEL002
 370
30
 100
AcDbLine
   6
CONTINUOUS
  62
7
  10
 756.70000000000
  20
 535.15000000000
  30
0.0
  11
 756.70000000000
  21
 536.95000000000
  31
0.0
   0
LINE
   5
39F
 100
AcDbEntity
   8
LEVEL002
 370
30
 100
AcDbLine
   6
CONTINUOUS
  62
7
  10
 756.70000000000
  20
 536.95000000000
  30
0.0
  11
 771.10000000000
  21
 536.95000000000
  31
0.0
   0
LINE
   5
3A0
 100
AcDbEntity
   8
LEVEL002
 370
30
 100
AcDbLine
   6
CONTINUOUS
  62
7
  10
 771.10000000000
  20
 536.95000000000
  30
0.0
  11
 771.10000000000
  21
 544.15000000000
  31
0.0
   0
LINE
   5
3A1
 100
AcDbEntity
   8
LEVEL002
 370
30
 100
AcDbLine
   6
CONTINUOUS
  62
7
  10
 771.10000000000
  20
 544.15000000000
  30
0.0
  11
 727.90000000000
  21
 544.15000000000
  31
0.0
   0
LINE
   5
3A2
 100
AcDbEntity
   8
LEVEL002
 370
30
 100
AcDbLine
   6
CONTINUOUS
  62
7
  10
 727.90000000000
  20
 544.15000000000
  30
0.0
  11
 727.90000000000
  21
 536.95000000000
  31
0.0
   0
LINE
   5
3A3
 100
AcDbEntity
   8
LEVEL002
 370
30
 100
AcDbLine
   6
CONTINUOUS
  62
7
  10
 727.90000000000
  20
 536.95000000000
  30
0.0
  11
 735.10000000000
  21
 536.95000000000
  31
0.0
   0
LINE
   5
3A4
 100
AcDbEntity
   8
LEVEL002
 370
30
 100
AcDbLine
   6
CONTINUOUS
  62
7
  10
 735.10000000000
  20
 536.95000000000
  30
0.0
  11
 735.10000000000
  21
 529.75000000000
  31
0.0
   0
LINE
   5
3A5
 100
AcDbEntity
   8
LEVEL002
 370
30
 100
AcDbLine
   6
CONTINUOUS
  62
7
  10
 735.10000000000
  20
 529.75000000000
  30
0.0
  11
 724.30000000000
  21
 529.75000000000
  31
0.0
   0
LINE
   5
3A6
 100
AcDbEntity
   8
LEVEL002
 370
30
 100
AcDbLine
   6
CONTINUOUS
  62
7
  10
 724.30000000000
  20
 529.75000000000
  30
0.0
  11
 724.30000000000
  21
 544.15000000000
  31
0.0
   0
LINE
   5
3A7
 100
AcDbEntity
   8
LEVEL002
 370
30
 100
AcDbLine
   6
CONTINUOUS
  62
7
  10
 724.30000000000
  20
 544.15000000000
  30
0.0
  11
 717.10000000000
  21
 544.15000000000
  31
0.0
   0
LINE
   5
3A8
 100
AcDbEntity
   8
LEVEL002
 370
30
 100
AcDbLine
   6
CONTINUOUS
  62
7
  10
 717.10000000000
  20
 544.15000000000
  30
0.0
  11
 717.10000000000
  21
 522.55000000000
  31
0.0
   0
LINE
   5
3A9
 100
AcDbEntity
   8
LEVEL002
 370
30
 100
AcDbLine
   6
CONTINUOUS
  62
7
  10
 781.90000000000
  20
 522.55000000000
  30
0.0
  11
 792.70000000000
  21
 522.55000000000
  31
0.0
   0
LINE
   5
3AA
 100
AcDbEntity
   8
LEVEL002
 370
30
 100
AcDbLine
   6
CONTINUOUS
  62
7
  10
 792.70000000000
  20
 522.55000000000
  30
0.0
  11
 792.70000000000
  21
 529.75000000000
  31
0.0
   0
LINE
   5
3AB
 100
AcDbEntity
   8
LEVEL002
 370
30
 100
AcDbLine
   6
CONTINUOUS
  62
7
  10
 792.70000000000
  20
 529.75000000000
  30
0.0
  11
 781.90000000000
  21
 529.75000000000
  31
0.0
   0
ARC
   5
3AC
 100
AcDbEntity
   8
LEVEL002
 370
30
   6
CONTINUOUS
  62
7
 100
AcDbCircle
  10
 781.90000000000
  20
 533.35000000000
  30
0.0
  40
 3.6000000000000
 100
AcDbArc
  50
 90.000000000000
  51
 270.00000000000
   0
LINE
   5
3AD
 100
AcDbEntity
   8
LEVEL002
 370
30
 100
AcDbLine
   6
CONTINUOUS
  62
7
  10
 781.90000000000
  20
 536.95000000000
  30
0.0
  11
 792.70000000000
  21
 536.95000000000
  31
0.0
   0
LINE
   5
3AE
 100
AcDbEntity
   8
LEVEL002
 370
30
 100
AcDbLine
   6
CONTINUOUS
  62
7
  10
 792.70000000000
  20
 536.95000000000
  30
0.0
  11
 792.70000000000
  21
 544.15000000000
  31
0.0
   0
LINE
   5
3AF
 100
AcDbEntity
   8
LEVEL002
 370
30
 100
AcDbLine
   6
CONTINUOUS
  62
7
  10
 792.70000000000
  20
 544.15000000000
  30
0.0
  11
 781.90000000000
  21
 544.15000000000
  31
0.0
   0
ARC
   5
3B0
 100
AcDbEntity
   8
LEVEL002
 370
30
   6
CONTINUOUS
  62
7
 100
AcDbCircle
  10
 781.90000000000
  20
 533.35000000000
  30
0.0
  40
 10.800000000000
 100
AcDbArc
  50
 90.000000000000
  51
 270.00000000000
   0
MTEXT
   5
3B2
 100
AcDbEntity
   8
LEVEL002
 370
30
  62
7
 100
AcDbMText
  10
 673.90000000000
  20
 547.75000000000
  30
0.0
  40
 7.5000000000000
  41
0.0
  71
7
  72
1
   1
\T1.000000;ケージーパルテック株式会社
   7
GMM001
  44
 0.79999984000003
   0
LINE
   5
3B3
 100
AcDbEntity
   8
LEVEL002
 370
30
 100
AcDbLine
   6
CONTINUOUS
  62
7
  10
 666.70000000000
  20
 527.35000000000
  30
0.0
  11
 657.70000000000
  21
 541.75000000000
  31
0.0
   0
LINE
   5
3B4
 100
AcDbEntity
   8
LEVEL002
 370
30
 100
AcDbLine
   6
CONTINUOUS
  62
7
  10
 657.70000000000
  20
 541.75000000000
  30
0.0
  11
 666.70000000000
  21
 541.75000000000
  31
0.0
   0
LINE
   5
3B5
 100
AcDbEntity
   8
LEVEL002
 370
30
 100
AcDbLine
   6
CONTINUOUS
  62
7
  10
 666.70000000000
  20
 541.75000000000
  30
0.0
  11
 666.70000000000
  21
 527.35000000000
  31
0.0
   0
LINE
   5
3B6
 100
AcDbEntity
   8
LEVEL002
 370
30
 100
AcDbLine
   6
CONTINUOUS
  62
7
  10
 657.70000000000
  20
 541.75000000000
  30
0.0
  11
 666.70000000000
  21
 527.35000000000
  31
0.0
   0
LINE
   5
3B7
 100
AcDbEntity
   8
LEVEL002
 370
30
 100
AcDbLine
   6
CONTINUOUS
  62
7
  10
 666.70000000000
  20
 527.35000000000
  30
0.0
  11
 666.70000000000
  21
 541.75000000000
  31
0.0
   0
LINE
   5
3B8
 100
AcDbEntity
   8
LEVEL002
 370
30
 100
AcDbLine
   6
CONTINUOUS
  62
7
  10
 666.70000000000
  20
 541.75000000000
  30
0.0
  11
 657.70000000000
  21
 541.75000000000
  31
0.0
   0
LINE
   5
3B9
 100
AcDbEntity
   8
LEVEL002
 370
30
 100
AcDbLine
   6
CONTINUOUS
  62
7
  10
 638.10000000000
  20
 560.95000000000
  30
0.0
  11
 625.30000000000
  21
 541.75000000000
  31
0.0
   0
LINE
   5
3BA
 100
AcDbEntity
   8
LEVEL002
 370
30
 100
AcDbLine
   6
CONTINUOUS
  62
7
  10
 625.30000000000
  20
 541.75000000000
  30
0.0
  11
 638.10000000000
  21
 522.55000000000
  31
0.0
   0
LINE
   5
3BB
 100
AcDbEntity
   8
LEVEL002
 370
30
 100
AcDbLine
   6
CONTINUOUS
  62
7
  10
 648.90000000000
  20
 522.55000000000
  30
0.0
  11
 636.10000000000
  21
 541.75000000000
  31
0.0
   0
LINE
   5
3BC
 100
AcDbEntity
   8
LEVEL002
 370
30
 100
AcDbLine
   6
CONTINUOUS
  62
7
  10
 636.10000000000
  20
 541.75000000000
  30
0.0
  11
 648.90000000000
  21
 560.95000000000
  31
0.0
   0
LINE
   5
3BD
 100
AcDbEntity
   8
LEVEL002
 370
30
 100
AcDbLine
   6
CONTINUOUS
  62
7
  10
 654.30000000000
  20
 560.95000000000
  30
0.0
  11
 641.50000000000
  21
 541.75000000000
  31
0.0
   0
LINE
   5
3BE
 100
AcDbEntity
   8
LEVEL002
 370
30
 100
AcDbLine
   6
CONTINUOUS
  62
7
  10
 641.50000000000
  20
 541.75000000000
  30
0.0
  11
 654.30000000000
  21
 522.55000000000
  31
0.0
   0
LINE
   5
3BF
 100
AcDbEntity
   8
LEVEL002
 370
30
 100
AcDbLine
   6
CONTINUOUS
  62
7
  10
 665.10000000000
  20
 522.55000000000
  30
0.0
  11
 652.30000000000
  21
 541.75000000000
  31
0.0
   0
LINE
   5
3C0
 100
AcDbEntity
   8
LEVEL002
 370
30
 100
AcDbLine
   6
CONTINUOUS
  62
7
  10
 652.30000000000
  20
 541.75000000000
  30
0.0
  11
 665.10000000000
  21
 560.95000000000
  31
0.0
   0
LINE
   5
3C1
 100
AcDbEntity
   8
LEVEL002
 370
30
 100
AcDbLine
   6
CONTINUOUS
  62
7
  10
 638.10000000000
  20
 522.55000000000
  30
0.0
  11
 625.30000000000
  21
 541.75000000000
  31
0.0
   0
LINE
   5
3C2
 100
AcDbEntity
   8
LEVEL002
 370
30
 100
AcDbLine
   6
CONTINUOUS
  62
7
  10
 625.30000000000
  20
 541.75000000000
  30
0.0
  11
 638.10000000000
  21
 560.95000000000
  31
0.0
   0
LINE
   5
3C3
 100
AcDbEntity
   8
LEVEL002
 370
30
 100
AcDbLine
   6
CONTINUOUS
  62
7
  10
 638.10000000000
  20
 560.95000000000
  30
0.0
  11
 648.90000000000
  21
 560.95000000000
  31
0.0
   0
LINE
   5
3C4
 100
AcDbEntity
   8
LEVEL002
 370
30
 100
AcDbLine
   6
CONTINUOUS
  62
7
  10
 648.90000000000
  20
 560.95000000000
  30
0.0
  11
 636.10000000000
  21
 541.75000000000
  31
0.0
   0
LINE
   5
3C5
 100
AcDbEntity
   8
LEVEL002
 370
30
 100
AcDbLine
   6
CONTINUOUS
  62
7
  10
 636.10000000000
  20
 541.75000000000
  30
0.0
  11
 648.90000000000
  21
 522.55000000000
  31
0.0
   0
LINE
   5
3C6
 100
AcDbEntity
   8
LEVEL002
 370
30
 100
AcDbLine
   6
CONTINUOUS
  62
7
  10
 648.90000000000
  20
 522.55000000000
  30
0.0
  11
 638.10000000000
  21
 522.55000000000
  31
0.0
   0
LINE
   5
3C7
 100
AcDbEntity
   8
LEVEL002
 370
30
 100
AcDbLine
   6
CONTINUOUS
  62
7
  10
 654.30000000000
  20
 522.55000000000
  30
0.0
  11
 641.50000000000
  21
 541.75000000000
  31
0.0
   0
LINE
   5
3C8
 100
AcDbEntity
   8
LEVEL002
 370
30
 100
AcDbLine
   6
CONTINUOUS
  62
7
  10
 641.50000000000
  20
 541.75000000000
  30
0.0
  11
 654.30000000000
  21
 560.95000000000
  31
0.0
   0
LINE
   5
3C9
 100
AcDbEntity
   8
LEVEL002
 370
30
 100
AcDbLine
   6
CONTINUOUS
  62
7
  10
 654.30000000000
  20
 560.95000000000
  30
0.0
  11
 665.10000000000
  21
 560.95000000000
  31
0.0
   0
LINE
   5
3CA
 100
AcDbEntity
   8
LEVEL002
 370
30
 100
AcDbLine
   6
CONTINUOUS
  62
7
  10
 665.10000000000
  20
 560.95000000000
  30
0.0
  11
 652.30000000000
  21
 541.75000000000
  31
0.0
   0
LINE
   5
3CB
 100
AcDbEntity
   8
LEVEL002
 370
30
 100
AcDbLine
   6
CONTINUOUS
  62
7
  10
 652.30000000000
  20
 541.75000000000
  30
0.0
  11
 665.10000000000
  21
 522.55000000000
  31
0.0
   0
LINE
   5
3CC
 100
AcDbEntity
   8
LEVEL002
 370
30
 100
AcDbLine
   6
CONTINUOUS
  62
7
  10
 665.10000000000
  20
 522.55000000000
  30
0.0
  11
 654.30000000000
  21
 522.55000000000
  31
0.0
   0
LINE
   5
3CD
 100
AcDbEntity
   8
LEVEL001
 370
30
 100
AcDbLine
   6
DOT
  62
7
  10
0.0
  20
-0.11368683772162E-12
  30
0.0
  11
 840.00000000000
  21
-0.11368683772162E-12
  31
0.0
   0
LINE
   5
3CE
 100
AcDbEntity
   8
LEVEL001
 370
30
 100
AcDbLine
   6
DOT
  62
7
  10
 840.00000000000
  20
-0.11368683772162E-12
  30
0.0
  11
 840.00000000000
  21
 594.00000000000
  31
0.0
   0
LINE
   5
3CF
 100
AcDbEntity
   8
LEVEL001
 370
30
 100
AcDbLine
   6
DOT
  62
7
  10
 840.00000000000
  20
 594.00000000000
  30
0.0
  11
0.0
  21
 594.00000000000
  31
0.0
   0
LINE
   5
3D0
 100
AcDbEntity
   8
LEVEL002
 370
40
 100
AcDbLine
   6
CONTINUOUS
  62
3
  10
 30.999999999900
  20
 550.00000000000
  30
0.0
  11
 608.99999999990
  21
 550.00000000000
  31
0.0
   0
LINE
   5
3D1
 100
AcDbEntity
   8
LEVEL002
 370
40
 100
AcDbLine
   6
CONTINUOUS
  62
3
  10
 608.99999999990
  20
 513.50000000000
  30
0.0
  11
 808.99999999990
  21
 513.50000000000
  31
0.0
   0
LINE
   5
3D2
 100
AcDbEntity
   8
LEVEL002
 370
40
 100
AcDbLine
   6
CONTINUOUS
  62
3
  10
 608.99999999990
  20
 473.50000000000
  30
0.0
  11
 808.99999999990
  21
 473.50000000000
  31
0.0
   0
LINE
   5
3D3
 100
AcDbEntity
   8
LEVEL002
 370
40
 100
AcDbLine
   6
CONTINUOUS
  62
3
  10
 608.99999999990
  20
 433.50000000000
  30
0.0
  11
 808.99999999990
  21
 433.50000000000
  31
0.0
   0
LINE
   5
3D4
 100
AcDbEntity
   8
LEVEL002
 370
40
 100
AcDbLine
   6
CONTINUOUS
  62
3
  10
 608.99999999990
  20
 144.00000000002
  30
0.0
  11
 808.99999999990
  21
 144.00000000002
  31
0.0
   0
LINE
   5
3D5
 100
AcDbEntity
   8
LEVEL002
 370
40
 100
AcDbLine
   6
CONTINUOUS
  62
3
  10
 608.99999999990
  20
 104.00000000002
  30
0.0
  11
 808.99999999990
  21
 104.00000000002
  31
0.0
   0
LINE
   5
3D6
 100
AcDbEntity
   8
LEVEL002
 370
40
 100
AcDbLine
   6
CONTINUOUS
  62
3
  10
 608.99999999990
  20
 64.000000000020
  30
0.0
  11
 808.99999999990
  21
 64.000000000020
  31
0.0
   0
LINE
   5
3D7
 100
AcDbEntity
   8
LEVEL002
 370
40
 100
AcDbLine
   6
CONTINUOUS
  62
3
  10
 708.99999999990
  20
 104.00000000002
  30
0.0
  11
 708.99999999990
  21
 24.000000000020
  31
0.0
   0
LINE
   5
3D8
 100
AcDbEntity
   8
LEVEL002
 370
40
 100
AcDbLine
   6
CONTINUOUS
  62
3
  10
 708.99999999990
  20
 77.333333333360
  30
0.0
  11
 808.99999999990
  21
 77.333333333360
  31
0.0
   0
LINE
   5
3D9
 100
AcDbEntity
   8
LEVEL002
 370
40
 100
AcDbLine
   6
CONTINUOUS
  62
3
  10
 708.99999999990
  20
 90.666666666690
  30
0.0
  11
 808.99999999990
  21
 90.666666666690
  31
0.0
   0
LINE
   5
3DA
 100
AcDbEntity
   8
LEVEL002
 370
50
 100
AcDbLine
   6
CONTINUOUS
  62
4
  10
 808.99999999990
  20
 570.00000000000
  30
0.0
  11
 30.999999999900
  21
 570.00000000000
  31
0.0
   0
LINE
   5
3DB
 100
AcDbEntity
   8
LEVEL002
 370
50
 100
AcDbLine
   6
CONTINUOUS
  62
4
  10
 608.99999999990
  20
 570.00000000000
  30
0.0
  11
 608.99999999990
  21
 24.000000000020
  31
0.0
   0
LINE
   5
3DC
 100
AcDbEntity
   8
LEVEL002
 370
50
 100
AcDbLine
   6
CONTINUOUS
  62
4
  10
 808.99999999990
  20
 24.000000000020
  30
0.0
  11
 808.99999999990
  21
 570.00000000000
  31
0.0
   0
LINE
   5
3DD
 100
AcDbEntity
   8
LEVEL002
 370
50
 100
AcDbLine
   6
CONTINUOUS
  62
4
  10
 30.999999999900
  20
 24.000000000020
  30
0.0
  11
 808.99999999990
  21
 24.000000000020
  31
0.0
   0
HATCH
   5
3DE
 100
AcDbEntity
   8
LEVEL001
  62
1
 100
AcDbHatch
  10
0.0
  20
0.0
  30
0.0
 210
0.0
 220
0.0
 230
 1.0000000000000
   2
SOLID
  70
1
  71
1
  91
7
  92
1
  93
6
  72
1
  10
 648.90000000000
  20
 560.95000000000
  11
 636.10000000000
  21
 541.75000000000
  72
1
  10
 636.10000000000
  20
 541.75000000000
  11
 648.90000000000
  21
 522.55000000000
  72
1
  10
 648.90000000000
  20
 522.55000000000
  11
 638.10000000000
  21
 522.55000000000
  72
1
  10
 638.10000000000
  20
 522.55000000000
  11
 625.30000000000
  21
 541.75000000000
  72
1
  10
 625.30000000000
  20
 541.75000000000
  11
 638.10000000000
  21
 560.95000000000
  72
1
  10
 638.10000000000
  20
 560.95000000000
  11
 648.90000000000
  21
 560.95000000000
  97
1
 330

  92
16
  93
6
  72
1
  10
 654.30000000000
  20
 560.95000000000
  11
 665.10000000000
  21
 560.95000000000
  72
1
  10
 665.10000000000
  20
 560.95000000000
  11
 652.30000000000
  21
 541.75000000000
  72
1
  10
 652.30000000000
  20
 541.75000000000
  11
 665.10000000000
  21
 522.55000000000
  72
1
  10
 665.10000000000
  20
 522.55000000000
  11
 654.30000000000
  21
 522.55000000000
  72
1
  10
 654.30000000000
  20
 522.55000000000
  11
 641.50000000000
  21
 541.75000000000
  72
1
  10
 641.50000000000
  20
 541.75000000000
  11
 654.30000000000
  21
 560.95000000000
  97
1
 330

  92
16
  93
3
  72
1
  10
 666.70000000000
  20
 541.75000000000
  11
 657.70000000000
  21
 541.75000000000
  72
1
  10
 657.70000000000
  20
 541.75000000000
  11
 666.70000000000
  21
 527.35000000000
  72
1
  10
 666.70000000000
  20
 527.35000000000
  11
 666.70000000000
  21
 541.75000000000
  97
1
 330

  92
16
  93
6
  72
1
  10
 673.90000000000
  20
 544.15000000000
  11
 688.30000000000
  21
 544.15000000000
  72
2
  10
 688.30000000000
  20
 535.15000000000
  40
 9.0000000000000
  50
 270.00000000000
  51
 90.000000000000
  73
0
  72
1
  10
 688.30000000000
  20
 526.15000000000
  11
 681.10000000000
  21
 526.15000000000
  72
1
  10
 681.10000000000
  20
 526.15000000000
  11
 681.10000000000
  21
 522.55000000000
  72
1
  10
 681.10000000000
  20
 522.55000000000
  11
 673.90000000000
  21
 522.55000000000
  72
1
  10
 673.90000000000
  20
 522.55000000000
  11
 673.90000000000
  21
 544.15000000000
  97
1
 330

  92
16
  93
4
  72
1
  10
 688.30000000000
  20
 536.95000000000
  11
 681.10000000000
  21
 536.95000000000
  72
1
  10
 681.10000000000
  20
 536.95000000000
  11
 681.10000000000
  21
 533.35000000000
  72
1
  10
 681.10000000000
  20
 533.35000000000
  11
 688.30000000000
  21
 533.35000000000
  72
2
  10
 688.30000000000
  20
 535.15000000000
  40
 1.8000000000000
  50
 270.00000000000
  51
 90.000000000000
  73
1
  97
1
 330

  92
16
  93
4
  72
1
  10
 691.90000000000
  20
 522.55000000000
  11
 706.30000000000
  21
 544.15000000000
  72
1
  10
 706.30000000000
  20
 544.15000000000
  11
 717.10000000000
  21
 544.15000000000
  72
1
  10
 717.10000000000
  20
 544.15000000000
  11
 702.70000000000
  21
 522.55000000000
  72
1
  10
 702.70000000000
  20
 522.55000000000
  11
 691.90000000000
  21
 522.55000000000
  97
1
 330

  92
16
  93
3
  72
1
  10
 714.70000000000
  20
 536.22333846940
  11
 705.58444102040
  21
 522.55000000000
  72
1
  10
 705.58444102040
  20
 522.55000000000
  11
 714.70000000000
  21
 522.55000000000
  72
1
  10
 714.70000000000
  20
 522.55000000000
  11
 714.70000000000
  21
 536.22333846940
  97
1
 330

  75
0
  76
1
  98
1
  10
0.0
  20
0.0
   0
HATCH
   5
3DF
 100
AcDbEntity
   8
LEVEL001
  62
1
 100
AcDbHatch
  10
0.0
  20
0.0
  30
0.0
 210
0.0
 220
0.0
 230
 1.0000000000000
   2
SOLID
  70
1
  71
1
  91
1
  92
1
  93
22
  72
1
  10
 717.10000000000
  20
 544.15000000000
  11
 724.30000000000
  21
 544.15000000000
  72
1
  10
 724.30000000000
  20
 544.15000000000
  11
 724.30000000000
  21
 529.75000000000
  72
1
  10
 724.30000000000
  20
 529.75000000000
  11
 735.10000000000
  21
 529.75000000000
  72
1
  10
 735.10000000000
  20
 529.75000000000
  11
 735.10000000000
  21
 536.95000000000
  72
1
  10
 735.10000000000
  20
 536.95000000000
  11
 727.90000000000
  21
 536.95000000000
  72
1
  10
 727.90000000000
  20
 536.95000000000
  11
 727.90000000000
  21
 544.15000000000
  72
1
  10
 727.90000000000
  20
 544.15000000000
  11
 771.10000000000
  21
 544.15000000000
  72
1
  10
 771.10000000000
  20
 544.15000000000
  11
 771.10000000000
  21
 536.95000000000
  72
1
  10
 771.10000000000
  20
 536.95000000000
  11
 756.70000000000
  21
 536.95000000000
  72
1
  10
 756.70000000000
  20
 536.95000000000
  11
 756.70000000000
  21
 535.15000000000
  72
1
  10
 756.70000000000
  20
 535.15000000000
  11
 769.30000000000
  21
 535.15000000000
  72
1
  10
 769.30000000000
  20
 535.15000000000
  11
 769.30000000000
  21
 531.55000000000
  72
1
  10
 769.30000000000
  20
 531.55000000000
  11
 756.70000000000
  21
 531.55000000000
  72
1
  10
 756.70000000000
  20
 531.55000000000
  11
 756.70000000000
  21
 529.75000000000
  72
1
  10
 756.70000000000
  20
 529.75000000000
  11
 771.10000000000
  21
 529.75000000000
  72
1
  10
 771.10000000000
  20
 529.75000000000
  11
 771.10000000000
  21
 522.55000000000
  72
1
  10
 771.10000000000
  20
 522.55000000000
  11
 749.50000000000
  21
 522.55000000000
  72
1
  10
 749.50000000000
  20
 522.55000000000
  11
 749.50000000000
  21
 536.95000000000
  72
1
  10
 749.50000000000
  20
 536.95000000000
  11
 742.30000000000
  21
 536.95000000000
  72
1
  10
 742.30000000000
  20
 536.95000000000
  11
 742.30000000000
  21
 522.55000000000
  72
1
  10
 742.30000000000
  20
 522.55000000000
  11
 717.10000000000
  21
 522.55000000000
  72
1
  10
 717.10000000000
  20
 522.55000000000
  11
 717.10000000000
  21
 544.15000000000
  97
1
 330

  75
0
  76
1
  98
1
  10
0.0
  20
0.0
   0
HATCH
   5
3E0
 100
AcDbEntity
   8
LEVEL001
  62
1
 100
AcDbHatch
  10
0.0
  20
0.0
  30
0.0
 210
0.0
 220
0.0
 230
 1.0000000000000
   2
SOLID
  70
1
  71
1
  91
1
  92
1
  93
8
  72
1
  10
 792.70000000000
  20
 544.15000000000
  11
 781.90000000000
  21
 544.15000000000
  72
2
  10
 781.90000000000
  20
 533.35000000000
  40
 10.800000000000
  50
 90.000000000000
  51
 270.00000000000
  73
1
  72
1
  10
 781.90000000000
  20
 522.55000000000
  11
 792.70000000000
  21
 522.55000000000
  72
1
  10
 792.70000000000
  20
 522.55000000000
  11
 792.70000000000
  21
 529.75000000000
  72
1
  10
 792.70000000000
  20
 529.75000000000
  11
 781.90000000000
  21
 529.75000000000
  72
2
  10
 781.90000000000
  20
 533.35000000000
  40
 3.6000000000000
  50
 90.000000000000
  51
 270.00000000000
  73
0
  72
1
  10
 781.90000000000
  20
 536.95000000000
  11
 792.70000000000
  21
 536.95000000000
  72
1
  10
 792.70000000000
  20
 536.95000000000
  11
 792.70000000000
  21
 544.15000000000
  97
1
 330

  75
0
  76
1
  98
1
  10
0.0
  20
0.0
   0
MTEXT
   5
3E2
 100
AcDbEntity
   8
LEVEL002
 370
15
  62
8
 100
AcDbMText
  10
 621.59999999990
  20
 56.500000000020
  30
0.0
  40
 6.0000000000000
  41
0.0
  71
5
  72
1
   1
\T1.000000;サイズ：
   7
GMM002
  44
 0.79999984000003
   0
MTEXT
   5
3E4
 100
AcDbEntity
   8
LEVEL002
 370
15
  62
8
 100
AcDbMText
  10
 618.59999999990
  20
 96.500000000020
  30
0.0
  40
 6.0000000000000
  41
0.0
  71
5
  72
1
   1
\T1.000000;縮尺：
   7
GMM002
  44
 0.79999984000003
   0
MTEXT
   5
3E6
 100
AcDbEntity
   8
LEVEL002
 370
15
  62
8
 100
AcDbMText
  10
 624.59999999990
  20
 136.50000000002
  30
0.0
  40
 6.0000000000000
  41
0.0
  71
5
  72
1
   1
\T1.000000;図面名称：
   7
GMM002
  44
 0.79999984000003
   0
MTEXT
   5
3E8
 100
AcDbEntity
   8
LEVEL002
 370
15
  62
8
 100
AcDbMText
  10
 727.59999999990
  20
 56.500000000020
  30
0.0
  40
 6.0000000000000
  41
0.0
  71
5
  72
1
   1
\T1.000000;ファイル名：
   7
GMM002
  44
 0.79999984000003
   0
MTEXT
   5
3EA
 100
AcDbEntity
   8
LEVEL002
 370
15
  62
8
 100
AcDbMText
  10
 724.59999999990
  20
 97.333333333360
  30
0.0
  40
 5.6000000000000
  41
0.0
  71
5
  72
1
   1
\T1.000000;作成日付：
   7
GMM003
  44
 0.79999984000003
   0
MTEXT
   5
3EC
 100
AcDbEntity
   8
LEVEL002
 370
15
  62
8
 100
AcDbMText
  10
 724.59999999990
  20
 84.000000000020
  30
0.0
  40
 5.6000000000000
  41
0.0
  71
5
  72
1
   1
\T1.000000;変更日付：
   7
GMM003
  44
 0.79999984000003
   0
MTEXT
   5
3EE
 100
AcDbEntity
   8
LEVEL002
 370
15
  62
8
 100
AcDbMText
  10
 658.99999999990
  20
 36.500000000020
  30
0.0
  40
 7.5000000000000
  41
0.0
  71
5
  72
1
   1
\T1.000000;Ａ３
   7
GMM002
  44
 0.79999984000003
   0
MTEXT
   5
3F0
 100
AcDbEntity
   8
LEVEL002
 370
15
  62
8
 100
AcDbMText
  10
 618.59999999990
  20
 426.00000000000
  30
0.0
  40
 6.0000000000000
  41
0.0
  71
5
  72
1
   1
\T1.000000;仕様：
   7
GMM002
  44
 0.79999984000003
   0
MTEXT
   5
3F2
 100
AcDbEntity
   8
LEVEL002
 370
15
  62
8
 100
AcDbMText
  10
 618.59999999990
  20
 466.00000000000
  30
0.0
  40
 6.0000000000000
  41
0.0
  71
5
  72
1
   1
\T1.000000;形式：
   7
GMM002
  44
 0.79999984000003
   0
MTEXT
   5
3F4
 100
AcDbEntity
   8
LEVEL002
 370
15
  62
8
 100
AcDbMText
  10
 621.59999999990
  20
 506.00000000000
  30
0.0
  40
 6.0000000000000
  41
0.0
  71
5
  72
1
   1
\T1.000000;商品名：
   7
GMM002
  44
 0.79999984000003
   0
MTEXT
   5
3F6
 100
AcDbEntity
   8
LEVEL002
 370
15
  62
8
 100
AcDbMText
  10
 693.79999999990
  20
 153.74160691802
  30
0.0
  40
 8.0000000000000
  41
0.0
  71
5
  72
1
   1
\T1.000000;　※本製品は予告無しに変更する事があります。
   7
GMM002
  44
 0.79999984000003
   0
MTEXT
   5
3F8
 100
AcDbEntity
   8
LEVEL002
 370
15
  62
8
 100
AcDbMText
  10
 644.99999999990
  20
 489.00000000000
  30
0.0
  40
 9.0000000000000
  41
0.0
  71
7
  72
1
   1
\T1.000000;　フロアー金具コーナー部材
   7
GMM004
  44
 0.79999984000003
   0
LINE
   5
3F9
 100
AcDbEntity
   8
LEVEL002
 370
50
 100
AcDbLine
   6
CONTINUOUS
  62
4
  10
 30.999999999900
  20
 570.00000000000
  30
0.0
  11
 30.999999999900
  21
 24.000000000020
  31
0.0
   0
LWPOLYLINE
   5
3FA
 100
AcDbEntity
   8
LEVEL001
 370
30
   6
CONTINUOUS
  62
7
 100
AcDbPolyline
  90
4
  70
1
  10
 41.727744310575
  20
 516.19892904953
  10
 41.727744310575
  20
 507.92904953146
  10
 79.896419009370
  20
 507.92904953146
  10
 79.896419009370
  20
 516.19892904953
   0
LINE
   5
3FB
 100
AcDbEntity
   8
LEVEL001
 370
30
 100
AcDbLine
   6
DOT
  62
7
  10
0.0
  20
 594.00000000000
  30
0.0
  11
0.0
  21
0.0
  31
0.0
   0
MTEXT
   5
3FD
 100
AcDbEntity
   8
LEVEL002
 370
15
  62
8
 100
AcDbMText
  10
 708.99999999990
  20
 453.50000000000
  30
0.0
  40
 8.0000000000000
  41
0.0
  71
2
  72
1
   1
{\T1.000000;　　　　　　　　　部材③}\P{\T1.000000;（Ｓ３５Ｃ・Ａ３５Ｃ・ＲＰ１Ｃ・ＧＮ１Ｃ）}
   7
GMM002
  44
 0.79999984000003
   0
MTEXT
   5
3FF
 100
AcDbEntity
   8
LEVEL002
 370
15
  62
8
 100
AcDbMText
  10
 658.99999999990
  20
 76.500000000020
  30
0.0
  40
 7.5000000000000
  41
0.0
  71
5
  72
1
   1
\T1.000000;Ｓ＝１：２
   7
GMM002
  44
 0.79999984000003
   0
MTEXT
   5
401
 100
AcDbEntity
   8
LEVEL002
 370
15
  62
8
 100
AcDbMText
  10
 758.99999999990
  20
 40.166666666690
  30
0.0
  40
 5.0000000000000
  41
0.0
  71
5
  72
1
   1
\T1.000000;フロアー金具コーナー部材－３
   7
GMM002
  44
 0.79999984000003
   0
MTEXT
   5
403
 100
AcDbEntity
   8
LEVEL001
 370
15
  62
8
 100
AcDbMText
  10
 31.599999999900
  20
 560.00000000000
  30
0.0
  40
 5.0000000000000
  41
0.0
  71
4
  72
1
   1
\W0.500000;\T1.000000; \W1.000000;\T1.000000;床押えコーナー
   7
GMM002
  44
 0.79999984000003
   0
MTEXT
   5
405
 100
AcDbEntity
   8
LEVEL002
 370
15
  62
8
 100
AcDbMText
  10
 80.560843373394
  20
 560.00000000000
  30
0.0
  40
 6.0000000000000
  41
0.0
  71
4
  72
1
   1
\T1.000000;Ｓ３５Ｃ（カバー式）
   7
GMM002
  44
 0.79999984000003
   0
MTEXT
   5
407
 100
AcDbEntity
   8
LEVEL002
 370
15
  62
8
 100
AcDbMText
  10
 35.999999999900
  20
 546.33333333340
  30
0.0
  40
 4.0000000000000
  41
0.0
  71
1
  72
1
   3
{\W0.500000;\T1.000000;･\W1.000000;\T1.000000;材質：ＳＵＳ３０４}\P{\W0.500000;\T1.000000;･\W1.000000;\T1.000000;仕上：ＨＬ\W0.500000;\T1.000000;､\W1.000000;\T1.000000;ＳＰＶ}\P{\W0.500000;\T1.000000;･\W1.000000;\T1.000000;サイズ：５３\W0.500000;\T1.
   3
000000;m/m\W1.000000;\T1.000000;×５３\W0.500000;\T1.000000;m/m}\P{\W0.500000;\T1.000000;･\W1.000000;\T1.000000;適応品番：Ｓ３５１２\W0.500000;\T1.000000;､\W1.000000;\T1.000000;Ｓ３５１２Ａ}\P{\W1.000000;\T1.000000;　　　　　\W0.500000;\T1.000000; \W
   1
1.000000;\T1.000000;カバー式３５\W0.500000;\T1.000000;m/m\W1.000000;\T1.000000;用}
   7
GMM002
  44
 0.79999984000003
   0
LINE
   5
408
 100
AcDbEntity
   8
LEVEL002
 370
25
 100
AcDbLine
   6
CONTINUOUS
  62
1
  10
 54.642548023213
  20
 484.49130773826
  30
0.0
  11
 54.642548023213
  21
 466.49130773826
  31
0.0
   0
LINE
   5
409
 100
AcDbEntity
   8
LEVEL002
 370
25
 100
AcDbLine
   6
CONTINUOUS
  62
1
  10
 54.642548023213
  20
 483.99130773826
  30
0.0
  11
 90.650883672647
  21
 483.99130773826
  31
0.0
   0
ARC
   5
40A
 100
AcDbEntity
   8
LEVEL002
 370
25
   6
CONTINUOUS
  62
1
 100
AcDbCircle
  10
 105.64254802321
  20
 484.49130773826
  30
0.0
  40
 15.500000000000
 100
AcDbArc
  50
 180.00000000000
  51
 268.15142835477
   0
LINE
   5
40B
 100
AcDbEntity
   8
LEVEL002
 370
25
 100
AcDbLine
   6
CONTINUOUS
  62
1
  10
 105.14254802321
  20
 469.49130773826
  30
0.0
  11
 105.14254802321
  21
 433.49130773826
  31
0.0
   0
LINE
   5
40C
 100
AcDbEntity
   8
LEVEL002
 370
25
 100
AcDbLine
   6
CONTINUOUS
  62
1
  10
 105.64254802321
  20
 433.49130773826
  30
0.0
  11
 87.642548023212
  21
 433.49130773826
  31
0.0
   0
ARC
   5
40D
 100
AcDbEntity
   8
LEVEL002
 370
25
   6
CONTINUOUS
  62
1
 100
AcDbCircle
  10
 87.642548023212
  20
 466.49130773826
  30
0.0
  40
 33.000000000000
 100
AcDbArc
  50
 180.00000000000
  51
 270.00000000000
   0
DIMENSION
   5
40E
 100
AcDbEntity
   8
LEVEL001
 370
15
   6
CONTINUOUS
  62
8
 100
AcDbDimension
   2
*D1
  10
 90.642548023212
  20
 498.35027155405
  30
0.0
  11
 71.642548023212
  21
 498.35027155405
  31
0.0
  70
0
   3
GMM001
 100
AcDbAlignedDimension
  13
 52.642548023213
  23
 483.49130773826
  33
0.0
  14
 90.642548023212
  24
 484.49130773826
  34
0.0
 100
AcDbRotatedDimension
   0
DIMENSION
   5
40F
 100
AcDbEntity
   8
LEVEL001
 370
15
   6
CONTINUOUS
  62
8
 100
AcDbDimension
   2
*D2
  10
 105.64254802321
  20
 413.31737681721
  30
0.0
  11
 79.142548023212
  21
 413.31737681721
  31
0.0
  70
0
   3
GMM001
 100
AcDbAlignedDimension
  13
 52.642548023213
  23
 465.49130773826
  33
0.0
  14
 105.64254802321
  24
 432.49130773826
  34
0.0
 100
AcDbRotatedDimension
   0
DIMENSION
   5
410
 100
AcDbEntity
   8
LEVEL001
 370
15
   6
CONTINUOUS
  62
8
 100
AcDbDimension
   2
*D3
  10
 117.03759325345
  20
 469.49130773826
  30
0.0
  11
 117.03759325345
  21
 450.49130773826
  31
0.0
  70
0
   3
GMM001
 100
AcDbAlignedDimension
  13
 104.64254802321
  23
 431.49130773826
  33
0.0
  14
 105.64254802321
  24
 469.49130773826
  34
0.0
  50
 90.000000000000
 100
AcDbRotatedDimension
   0
DIMENSION
   5
411
 100
AcDbEntity
   8
LEVEL001
 370
15
   6
CONTINUOUS
  62
8
 100
AcDbDimension
   2
*D4
  10
 128.10996167450
  20
 484.49130773826
  30
0.0
  11
 128.10996167450
  21
 457.99130773826
  31
0.0
  70
0
   3
GMM001
 100
AcDbAlignedDimension
  13
 117.03759325345
  23
 431.49130773826
  33
0.0
  14
 90.642548023212
  24
 484.49130773826
  34
0.0
  50
 90.000000000000
 100
AcDbRotatedDimension
   0
LINE
   5
412
 100
AcDbEntity
   8
LEVEL002
 370
15
 100
AcDbLine
   6
DASHDOT
  62
8
  10
 56.446650483919
  20
 437.56778589201
  30
0.0
  11
 101.43212686399
  21
 480.47536740294
  31
0.0
   0
LINE
   5
413
 100
AcDbEntity
   8
LEVEL002
 370
40
 100
AcDbLine
   6
CONTINUOUS
  62
3
  10
 30.999999999900
  20
 368.00000000001
  30
0.0
  11
 608.99999999990
  21
 368.00000000001
  31
0.0
   0
LINE
   5
414
 100
AcDbEntity
   8
LEVEL002
 370
40
 100
AcDbLine
   6
CONTINUOUS
  62
3
  10
 30.999999999900
  20
 388.00000000001
  30
0.0
  11
 608.99999999990
  21
 388.00000000001
  31
0.0
   0
LINE
   5
415
 100
AcDbEntity
   8
LEVEL002
 370
40
 100
AcDbLine
   6
CONTINUOUS
  62
3
  10
 30.999999999900
  20
 186.00000000001
  30
0.0
  11
 608.99999999990
  21
 186.00000000001
  31
0.0
   0
LINE
   5
416
 100
AcDbEntity
   8
LEVEL002
 370
40
 100
AcDbLine
   6
CONTINUOUS
  62
3
  10
 30.999999999900
  20
 206.00000000001
  30
0.0
  11
 608.99999999990
  21
 206.00000000001
  31
0.0
   0
ARC
   5
417
 100
AcDbEntity
   8
LEVEL002
 370
25
   6
CONTINUOUS
  62
1
 100
AcDbCircle
  10
 238.48520417409
  20
 484.49130773826
  30
0.0
  40
 15.500000000000
 100
AcDbArc
  50
 180.00000000000
  51
 268.15142835477
   0
LINE
   5
418
 100
AcDbEntity
   8
LEVEL002
 370
25
 100
AcDbLine
   6
CONTINUOUS
  62
1
  10
 187.48520417409
  20
 483.99130773826
  30
0.0
  11
 222.99327078926
  21
 483.99130773826
  31
0.0
   0
LINE
   5
419
 100
AcDbEntity
   8
LEVEL002
 370
25
 100
AcDbLine
   6
CONTINUOUS
  62
1
  10
 237.98520417409
  20
 469.49130773826
  30
0.0
  11
 237.98520417409
  21
 433.49130773826
  31
0.0
   0
ARC
   5
41A
 100
AcDbEntity
   8
LEVEL002
 370
25
   6
CONTINUOUS
  62
1
 100
AcDbCircle
  10
 220.48520417409
  20
 466.49130773826
  30
0.0
  40
 33.000000000000
 100
AcDbArc
  50
 180.00000000000
  51
 270.00000000000
   0
LINE
   5
41B
 100
AcDbEntity
   8
LEVEL002
 370
25
 100
AcDbLine
   6
CONTINUOUS
  62
1
  10
 187.48520417409
  20
 484.49130773826
  30
0.0
  11
 187.48520417409
  21
 466.49130773826
  31
0.0
   0
LINE
   5
41C
 100
AcDbEntity
   8
LEVEL002
 370
25
 100
AcDbLine
   6
CONTINUOUS
  62
1
  10
 238.48520417409
  20
 433.49130773826
  30
0.0
  11
 220.48520417409
  21
 433.49130773826
  31
0.0
   0
DIMENSION
   5
41D
 100
AcDbEntity
   8
LEVEL001
 370
15
   6
CONTINUOUS
  62
8
 100
AcDbDimension
   2
*D5
  10
 223.48520417409
  20
 498.35027155405
  30
0.0
  11
 204.48520417409
  21
 498.35027155405
  31
0.0
  70
0
   3
GMM001
 100
AcDbAlignedDimension
  13
 185.48520417409
  23
 483.49130773826
  33
0.0
  14
 223.48520417409
  24
 484.49130773826
  34
0.0
 100
AcDbRotatedDimension
   0
DIMENSION
   5
41E
 100
AcDbEntity
   8
LEVEL001
 370
15
   6
CONTINUOUS
  62
8
 100
AcDbDimension
   2
*D6
  10
 249.38024940432
  20
 469.49130773826
  30
0.0
  11
 249.38024940432
  21
 450.49130773826
  31
0.0
  70
0
   3
GMM001
 100
AcDbAlignedDimension
  13
 237.48520417409
  23
 431.49130773826
  33
0.0
  14
 238.98520417409
  24
 469.49130773826
  34
0.0
  50
 90.000000000000
 100
AcDbRotatedDimension
   0
DIMENSION
   5
41F
 100
AcDbEntity
   8
LEVEL001
 370
15
   6
CONTINUOUS
  62
8
 100
AcDbDimension
   2
*D7
  10
 260.95261782538
  20
 484.49130773826
  30
0.0
  11
 260.95261782538
  21
 457.99130773826
  31
0.0
  70
0
   3
GMM001
 100
AcDbAlignedDimension
  13
 249.38024940432
  23
 431.49130773826
  33
0.0
  14
 223.48520417409
  24
 484.49130773826
  34
0.0
  50
 90.000000000000
 100
AcDbRotatedDimension
   0
DIMENSION
   5
420
 100
AcDbEntity
   8
LEVEL001
 370
15
   6
CONTINUOUS
  62
8
 100
AcDbDimension
   2
*D8
  10
 238.48520417409
  20
 413.31737681721
  30
0.0
  11
 211.98520417409
  21
 413.31737681721
  31
0.0
  70
0
   3
GMM001
 100
AcDbAlignedDimension
  13
 185.48520417409
  23
 465.49130773826
  33
0.0
  14
 238.48520417409
  24
 433.49130773826
  34
0.0
 100
AcDbRotatedDimension
   0
LINE
   5
421
 100
AcDbEntity
   8
LEVEL002
 370
15
 100
AcDbLine
   6
DASHDOT
  62
8
  10
 189.28930663479
  20
 437.56778589201
  30
0.0
  11
 234.27478301487
  21
 480.47536740294
  31
0.0
   0
LWPOLYLINE
   5
422
 100
AcDbEntity
   8
LEVEL001
 370
30
   6
CONTINUOUS
  62
7
 100
AcDbPolyline
  90
4
  70
1
  10
 174.57040046145
  20
 516.19892904953
  10
 174.57040046145
  20
 507.92904953146
  10
 212.73907516024
  20
 507.92904953146
  10
 212.73907516024
  20
 516.19892904953
   0
LWPOLYLINE
   5
423
 100
AcDbEntity
   8
LEVEL001
 370
30
   6
CONTINUOUS
  62
7
 100
AcDbPolyline
  90
4
  70
1
  10
 330.72774431057
  20
 516.19892904953
  10
 330.72774431057
  20
 507.92904953146
  10
 368.89641900937
  20
 507.92904953146
  10
 368.89641900937
  20
 516.19892904953
   0
LINE
   5
424
 100
AcDbEntity
   8
LEVEL002
 370
25
 100
AcDbLine
   6
CONTINUOUS
  62
1
  10
 343.64254802321
  20
 484.49130773826
  30
0.0
  11
 343.64254802321
  21
 466.49130773826
  31
0.0
   0
LINE
   5
425
 100
AcDbEntity
   8
LEVEL002
 370
25
 100
AcDbLine
   6
CONTINUOUS
  62
1
  10
 343.64254802321
  20
 483.99130773826
  30
0.0
  11
 379.65088367265
  21
 483.99130773826
  31
0.0
   0
ARC
   5
426
 100
AcDbEntity
   8
LEVEL002
 370
25
   6
CONTINUOUS
  62
1
 100
AcDbCircle
  10
 394.64254802321
  20
 484.49130773826
  30
0.0
  40
 15.500000000000
 100
AcDbArc
  50
 180.00000000000
  51
 268.15142835477
   0
LINE
   5
427
 100
AcDbEntity
   8
LEVEL002
 370
25
 100
AcDbLine
   6
CONTINUOUS
  62
1
  10
 394.14254802321
  20
 469.49130773826
  30
0.0
  11
 394.14254802321
  21
 433.49130773826
  31
0.0
   0
LINE
   5
428
 100
AcDbEntity
   8
LEVEL002
 370
25
 100
AcDbLine
   6
CONTINUOUS
  62
1
  10
 394.64254802321
  20
 433.49130773826
  30
0.0
  11
 376.64254802321
  21
 433.49130773826
  31
0.0
   0
ARC
   5
429
 100
AcDbEntity
   8
LEVEL002
 370
25
   6
CONTINUOUS
  62
1
 100
AcDbCircle
  10
 376.64254802321
  20
 466.49130773826
  30
0.0
  40
 33.000000000000
 100
AcDbArc
  50
 180.00000000000
  51
 270.00000000000
   0
DIMENSION
   5
42A
 100
AcDbEntity
   8
LEVEL001
 370
15
   6
CONTINUOUS
  62
8
 100
AcDbDimension
   2
*D9
  10
 379.64254802321
  20
 498.35027155405
  30
0.0
  11
 360.64254802321
  21
 498.35027155405
  31
0.0
  70
0
   3
GMM001
 100
AcDbAlignedDimension
  13
 341.64254802321
  23
 483.49130773826
  33
0.0
  14
 379.64254802321
  24
 484.49130773826
  34
0.0
 100
AcDbRotatedDimension
   0
DIMENSION
   5
42B
 100
AcDbEntity
   8
LEVEL001
 370
15
   6
CONTINUOUS
  62
8
 100
AcDbDimension
   2
*D10
  10
 394.64254802321
  20
 413.31737681721
  30
0.0
  11
 368.14254802321
  21
 413.31737681721
  31
0.0
  70
0
   3
GMM001
 100
AcDbAlignedDimension
  13
 341.64254802321
  23
 465.49130773826
  33
0.0
  14
 394.64254802321
  24
 432.49130773826
  34
0.0
 100
AcDbRotatedDimension
   0
DIMENSION
   5
42C
 100
AcDbEntity
   8
LEVEL001
 370
15
   6
CONTINUOUS
  62
8
 100
AcDbDimension
   2
*D11
  10
 406.03759325345
  20
 469.49130773826
  30
0.0
  11
 406.03759325345
  21
 450.49130773826
  31
0.0
  70
0
   3
GMM001
 100
AcDbAlignedDimension
  13
 393.64254802321
  23
 431.49130773826
  33
0.0
  14
 394.64254802321
  24
 469.49130773826
  34
0.0
  50
 90.000000000000
 100
AcDbRotatedDimension
   0
DIMENSION
   5
42D
 100
AcDbEntity
   8
LEVEL001
 370
15
   6
CONTINUOUS
  62
8
 100
AcDbDimension
   2
*D12
  10
 417.10996167450
  20
 484.49130773826
  30
0.0
  11
 417.10996167450
  21
 457.99130773826
  31
0.0
  70
0
   3
GMM001
 100
AcDbAlignedDimension
  13
 406.03759325345
  23
 431.49130773826
  33
0.0
  14
 379.64254802321
  24
 484.49130773826
  34
0.0
  50
 90.000000000000
 100
AcDbRotatedDimension
   0
LINE
   5
42E
 100
AcDbEntity
   8
LEVEL002
 370
15
 100
AcDbLine
   6
DASHDOT
  62
8
  10
 345.44665048392
  20
 437.56778589201
  30
0.0
  11
 390.43212686399
  21
 480.47536740294
  31
0.0
   0
ARC
   5
42F
 100
AcDbEntity
   8
LEVEL002
 370
25
   6
CONTINUOUS
  62
1
 100
AcDbCircle
  10
 527.48520417409
  20
 484.49130773826
  30
0.0
  40
 15.500000000000
 100
AcDbArc
  50
 180.00000000000
  51
 268.15142835477
   0
LINE
   5
430
 100
AcDbEntity
   8
LEVEL002
 370
25
 100
AcDbLine
   6
CONTINUOUS
  62
1
  10
 476.48520417409
  20
 483.99130773826
  30
0.0
  11
 511.99327078926
  21
 483.99130773826
  31
0.0
   0
LINE
   5
431
 100
AcDbEntity
   8
LEVEL002
 370
25
 100
AcDbLine
   6
CONTINUOUS
  62
1
  10
 526.98520417409
  20
 469.49130773826
  30
0.0
  11
 526.98520417409
  21
 433.49130773826
  31
0.0
   0
ARC
   5
432
 100
AcDbEntity
   8
LEVEL002
 370
25
   6
CONTINUOUS
  62
1
 100
AcDbCircle
  10
 509.48520417409
  20
 466.49130773826
  30
0.0
  40
 33.000000000000
 100
AcDbArc
  50
 180.00000000000
  51
 270.00000000000
   0
LINE
   5
433
 100
AcDbEntity
   8
LEVEL002
 370
25
 100
AcDbLine
   6
CONTINUOUS
  62
1
  10
 476.48520417409
  20
 484.49130773826
  30
0.0
  11
 476.48520417409
  21
 466.49130773826
  31
0.0
   0
LINE
   5
434
 100
AcDbEntity
   8
LEVEL002
 370
25
 100
AcDbLine
   6
CONTINUOUS
  62
1
  10
 527.48520417409
  20
 433.49130773826
  30
0.0
  11
 509.48520417409
  21
 433.49130773826
  31
0.0
   0
DIMENSION
   5
435
 100
AcDbEntity
   8
LEVEL001
 370
15
   6
CONTINUOUS
  62
8
 100
AcDbDimension
   2
*D13
  10
 512.48520417409
  20
 498.35027155405
  30
0.0
  11
 493.48520417409
  21
 498.35027155405
  31
0.0
  70
0
   3
GMM001
 100
AcDbAlignedDimension
  13
 474.48520417409
  23
 483.49130773826
  33
0.0
  14
 512.48520417409
  24
 484.49130773826
  34
0.0
 100
AcDbRotatedDimension
   0
DIMENSION
   5
436
 100
AcDbEntity
   8
LEVEL001
 370
15
   6
CONTINUOUS
  62
8
 100
AcDbDimension
   2
*D14
  10
 538.38024940432
  20
 469.49130773826
  30
0.0
  11
 538.38024940432
  21
 450.49130773826
  31
0.0
  70
0
   3
GMM001
 100
AcDbAlignedDimension
  13
 526.48520417409
  23
 431.49130773826
  33
0.0
  14
 527.98520417409
  24
 469.49130773826
  34
0.0
  50
 90.000000000000
 100
AcDbRotatedDimension
   0
DIMENSION
   5
437
 100
AcDbEntity
   8
LEVEL001
 370
15
   6
CONTINUOUS
  62
8
 100
AcDbDimension
   2
*D15
  10
 549.95261782538
  20
 484.49130773826
  30
0.0
  11
 549.95261782538
  21
 457.99130773826
  31
0.0
  70
0
   3
GMM001
 100
AcDbAlignedDimension
  13
 538.38024940432
  23
 431.49130773826
  33
0.0
  14
 512.48520417409
  24
 484.49130773826
  34
0.0
  50
 90.000000000000
 100
AcDbRotatedDimension
   0
DIMENSION
   5
438
 100
AcDbEntity
   8
LEVEL001
 370
15
   6
CONTINUOUS
  62
8
 100
AcDbDimension
   2
*D16
  10
 527.48520417409
  20
 413.31737681721
  30
0.0
  11
 500.98520417409
  21
 413.31737681721
  31
0.0
  70
0
   3
GMM001
 100
AcDbAlignedDimension
  13
 474.48520417409
  23
 465.49130773826
  33
0.0
  14
 527.48520417409
  24
 433.49130773826
  34
0.0
 100
AcDbRotatedDimension
   0
LINE
   5
439
 100
AcDbEntity
   8
LEVEL002
 370
15
 100
AcDbLine
   6
DASHDOT
  62
8
  10
 478.28930663479
  20
 437.56778589201
  30
0.0
  11
 523.27478301487
  21
 480.47536740294
  31
0.0
   0
LWPOLYLINE
   5
43A
 100
AcDbEntity
   8
LEVEL001
 370
30
   6
CONTINUOUS
  62
7
 100
AcDbPolyline
  90
4
  70
1
  10
 463.57040046145
  20
 516.19892904953
  10
 463.57040046145
  20
 507.92904953146
  10
 501.73907516024
  20
 507.92904953146
  10
 501.73907516024
  20
 516.19892904953
   0
MTEXT
   5
43C
 100
AcDbEntity
   8
LEVEL001
 370
15
  62
8
 100
AcDbMText
  10
 320.59999999990
  20
 560.00000000000
  30
0.0
  40
 5.0000000000000
  41
0.0
  71
4
  72
1
   1
\W0.500000;\T1.000000; \W1.000000;\T1.000000;床押えコーナー
   7
GMM002
  44
 0.79999984000003
   0
MTEXT
   5
43E
 100
AcDbEntity
   8
LEVEL002
 370
15
  62
8
 100
AcDbMText
  10
 324.99999999990
  20
 546.33333333340
  30
0.0
  40
 4.0000000000000
  41
0.0
  71
1
  72
1
   3
{\W0.500000;\T1.000000;･\W1.000000;\T1.000000;材質：Ａ６０６３Ｓ－Ｔ５}\P{\W0.500000;\T1.000000;･\W1.000000;\T1.000000;仕上：Ｂ２シルバー\W0.500000;\T1.000000;､\W1.000000;\T1.000000;ＡＢ}\P{\W0.500000;\T1.000000;･\W1.000000;\T1.000000;サイズ：５３\W0
   3
.500000;\T1.000000;m/m\W1.000000;\T1.000000;×５３\W0.500000;\T1.000000;m/m}\P{\W0.500000;\T1.000000;･\W1.000000;\T1.000000;適応品番：Ａ３５\W0.500000;\T1.000000;､}\P{\W1.000000;\T1.000000;　　　　　\W0.500000;\T1.000000; \W1.000000;\T1.000000;カバー
   1
式３５\W0.500000;\T1.000000;m/m\W1.000000;\T1.000000;用}
   7
GMM002
  44
 0.79999984000003
   0
MTEXT
   5
440
 100
AcDbEntity
   8
LEVEL002
 370
15
  62
8
 100
AcDbMText
  10
 369.56084337339
  20
 560.00000000000
  30
0.0
  40
 6.0000000000000
  41
0.0
  71
4
  72
1
   1
\T1.000000;Ａ３５Ｃ（カバー式）
   7
GMM002
  44
 0.79999984000003
   0
LWPOLYLINE
   5
441
 100
AcDbEntity
   8
LEVEL001
 370
30
   6
CONTINUOUS
  62
7
 100
AcDbPolyline
  90
4
  70
1
  10
 41.727744310575
  20
 334.19892904954
  10
 41.727744310575
  20
 325.92904953147
  10
 79.896419009370
  20
 325.92904953147
  10
 79.896419009370
  20
 334.19892904954
   0
LWPOLYLINE
   5
442
 100
AcDbEntity
   8
LEVEL001
 370
30
   6
CONTINUOUS
  62
7
 100
AcDbPolyline
  90
4
  70
1
  10
 174.57040046145
  20
 334.19892904954
  10
 174.57040046145
  20
 325.92904953147
  10
 212.73907516024
  20
 325.92904953147
  10
 212.73907516024
  20
 334.19892904954
   0
LWPOLYLINE
   5
443
 100
AcDbEntity
   8
LEVEL001
 370
30
   6
CONTINUOUS
  62
7
 100
AcDbPolyline
  90
4
  70
1
  10
 330.72774431057
  20
 334.19892904954
  10
 330.72774431057
  20
 325.92904953147
  10
 368.89641900937
  20
 325.92904953147
  10
 368.89641900937
  20
 334.19892904954
   0
LWPOLYLINE
   5
444
 100
AcDbEntity
   8
LEVEL001
 370
30
   6
CONTINUOUS
  62
7
 100
AcDbPolyline
  90
4
  70
1
  10
 463.57040046145
  20
 334.19892904954
  10
 463.57040046145
  20
 325.92904953147
  10
 501.73907516024
  20
 325.92904953147
  10
 501.73907516024
  20
 334.19892904954
   0
MTEXT
   5
446
 100
AcDbEntity
   8
LEVEL001
 370
15
  62
8
 100
AcDbMText
  10
 31.599999999900
  20
 378.00000000001
  30
0.0
  40
 5.0000000000000
  41
0.0
  71
4
  72
1
   1
\W0.500000;\T1.000000; \W1.000000;\T1.000000;リノパンチコーナー
   7
GMM002
  44
 0.79999984000003
   0
MTEXT
   5
448
 100
AcDbEntity
   8
LEVEL002
 370
15
  62
8
 100
AcDbMText
  10
 35.999999999900
  20
 364.33333333341
  30
0.0
  40
 4.0000000000000
  41
0.0
  71
1
  72
1
   3
{\W0.500000;\T1.000000;･\W1.000000;\T1.000000;材質：Ａ６０６３Ｓ－Ｔ５}\P{\W0.500000;\T1.000000;･\W1.000000;\T1.000000;仕上：Ｂ２シルバー\W0.500000;\T1.000000;､\W1.000000;\T1.000000;ＡＢ}\P{\W0.500000;\T1.000000;･\W1.000000;\T1.000000;サイズ：４０\W0
   1
.500000;\T1.000000;m/m\W1.000000;\T1.000000;×４０\W0.500000;\T1.000000;m/m}\P{\W0.500000;\T1.000000;･\W1.000000;\T1.000000;適応品番：ＲＰ１}
   7
GMM002
  44
 0.79999984000003
   0
DIMENSION
   5
449
 100
AcDbEntity
   8
LEVEL001
 370
15
   6
CONTINUOUS
  62
8
 100
AcDbDimension
   2
*D17
  10
 72.642548023213
  20
 294.14520303435
  30
0.0
  11
 62.642548023213
  21
 294.14520303435
  31
0.0
  70
0
   3
GMM001
 100
AcDbAlignedDimension
  13
 52.642548023213
  23
 283.78564005610
  33
0.0
  14
 72.642548023213
  24
 283.78564005610
  34
0.0
 100
AcDbRotatedDimension
   0
DIMENSION
   5
44A
 100
AcDbEntity
   8
LEVEL001
 370
15
   6
CONTINUOUS
  62
8
 100
AcDbDimension
   2
*D18
  10
 106.45023303089
  20
 264.78564005610
  30
0.0
  11
 106.45023303089
  21
 254.78564005610
  31
0.0
  70
0
   3
GMM001
 100
AcDbAlignedDimension
  13
 91.642548023213
  23
 244.78564005610
  33
0.0
  14
 91.642548023213
  24
 264.78564005610
  34
0.0
  50
 90.000000000000
 100
AcDbRotatedDimension
   0
DIMENSION
   5
44B
 100
AcDbEntity
   8
LEVEL001
 370
15
   6
CONTINUOUS
  62
8
 100
AcDbDimension
   2
*D19
  10
 123.30806435619
  20
 284.78564005610
  30
0.0
  11
 123.30806435619
  21
 264.78564005610
  31
0.0
  70
0
   3
GMM001
 100
AcDbAlignedDimension
  13
 106.45023303089
  23
 244.78564005610
  33
0.0
  14
 71.642548023213
  24
 284.78564005610
  34
0.0
  50
 90.000000000000
 100
AcDbRotatedDimension
   0
DIMENSION
   5
44C
 100
AcDbEntity
   8
LEVEL001
 370
15
   6
CONTINUOUS
  62
8
 100
AcDbDimension
   2
*D20
  10
 92.642548023213
  20
 230.00062472110
  30
0.0
  11
 72.642548023213
  21
 230.00062472110
  31
0.0
  70
0
   3
GMM001
 100
AcDbAlignedDimension
  13
 52.642548023213
  23
 251.78564005610
  33
0.0
  14
 92.642548023213
  24
 245.78564005610
  34
0.0
 100
AcDbRotatedDimension
   0
DIMENSION
   5
44D
 100
AcDbEntity
   8
LEVEL001
 370
15
   6
CONTINUOUS
  62
8
 100
AcDbDimension
   2
*D21
  10
 205.48520417409
  20
 294.14520303435
  30
0.0
  11
 195.48520417409
  21
 294.14520303435
  31
0.0
  70
0
   3
GMM001
 100
AcDbAlignedDimension
  13
 185.48520417409
  23
 283.78564005610
  33
0.0
  14
 205.48520417409
  24
 283.78564005610
  34
0.0
 100
AcDbRotatedDimension
   0
DIMENSION
   5
44E
 100
AcDbEntity
   8
LEVEL001
 370
15
   6
CONTINUOUS
  62
8
 100
AcDbDimension
   2
*D22
  10
 239.29288918177
  20
 264.78564005610
  30
0.0
  11
 239.29288918177
  21
 254.78564005610
  31
0.0
  70
0
   3
GMM001
 100
AcDbAlignedDimension
  13
 224.48520417409
  23
 244.78564005610
  33
0.0
  14
 224.48520417409
  24
 264.78564005610
  34
0.0
  50
 90.000000000000
 100
AcDbRotatedDimension
   0
DIMENSION
   5
44F
 100
AcDbEntity
   8
LEVEL001
 370
15
   6
CONTINUOUS
  62
8
 100
AcDbDimension
   2
*D23
  10
 256.15072050707
  20
 284.78564005610
  30
0.0
  11
 256.15072050707
  21
 264.78564005610
  31
0.0
  70
0
   3
GMM001
 100
AcDbAlignedDimension
  13
 239.29288918177
  23
 244.78564005610
  33
0.0
  14
 204.48520417409
  24
 284.78564005610
  34
0.0
  50
 90.000000000000
 100
AcDbRotatedDimension
   0
DIMENSION
   5
450
 100
AcDbEntity
   8
LEVEL001
 370
15
   6
CONTINUOUS
  62
8
 100
AcDbDimension
   2
*D24
  10
 225.48520417409
  20
 230.00062472110
  30
0.0
  11
 205.48520417409
  21
 230.00062472110
  31
0.0
  70
0
   3
GMM001
 100
AcDbAlignedDimension
  13
 185.48520417409
  23
 251.78564005610
  33
0.0
  14
 225.48520417409
  24
 245.78564005610
  34
0.0
 100
AcDbRotatedDimension
   0
MTEXT
   5
452
 100
AcDbEntity
   8
LEVEL001
 370
15
  62
8
 100
AcDbMText
  10
 320.59999999990
  20
 378.00000000001
  30
0.0
  40
 5.0000000000000
  41
0.0
  71
4
  72
1
   1
\W0.500000;\T1.000000; \W1.000000;\T1.000000;リノグリップコーナー
   7
GMM002
  44
 0.79999984000003
   0
MTEXT
   5
454
 100
AcDbEntity
   8
LEVEL002
 370
15
  62
8
 100
AcDbMText
  10
 91.057228915563
  20
 378.00000000001
  30
0.0
  40
 6.0000000000000
  41
0.0
  71
4
  72
1
   1
\T1.000000;ＲＰ１Ｃ（カバー式）
   7
GMM002
  44
 0.79999984000003
   0
MTEXT
   5
456
 100
AcDbEntity
   8
LEVEL002
 370
15
  62
8
 100
AcDbMText
  10
 380.05722891556
  20
 378.00000000001
  30
0.0
  40
 6.0000000000000
  41
0.0
  71
4
  72
1
   1
\T1.000000;ＧＮ１Ｃ（カバー式）
   7
GMM002
  44
 0.79999984000003
   0
MTEXT
   5
458
 100
AcDbEntity
   8
LEVEL002
 370
15
  62
8
 100
AcDbMText
  10
 324.99999999990
  20
 364.33333333341
  30
0.0
  40
 4.0000000000000
  41
0.0
  71
1
  72
1
   3
{\W0.500000;\T1.000000;･\W1.000000;\T1.000000;材質：Ａ６０６３Ｓ－Ｔ５}\P{\W0.500000;\T1.000000;･\W1.000000;\T1.000000;仕上：Ｂ２シルバー\W0.500000;\T1.000000;､\W1.000000;\T1.000000;ＡＢ}\P{\W0.500000;\T1.000000;･\W1.000000;\T1.000000;サイズ：４０\W0
   1
.500000;\T1.000000;m/m\W1.000000;\T1.000000;×４０\W0.500000;\T1.000000;m/m}\P{\W0.500000;\T1.000000;･\W1.000000;\T1.000000;適応品番：ＧＮ１\W0.500000;\T1.000000;､\W1.000000;\T1.000000;ＰＬＧ１}
   7
GMM002
  44
 0.79999984000003
   0
LINE
   5
459
 100
AcDbEntity
   8
LEVEL002
 370
25
 100
AcDbLine
   6
CONTINUOUS
  62
1
  10
 515.48520417409
  20
 251.78564005610
  30
0.0
  11
 492.48520417409
  21
 251.78564005610
  31
0.0
   0
LINE
   5
45A
 100
AcDbEntity
   8
LEVEL002
 370
25
 100
AcDbLine
   6
CONTINUOUS
  62
1
  10
 492.48520417409
  20
 251.78564005610
  30
0.0
  11
 492.48520417409
  21
 274.78564005610
  31
0.0
   0
ARC
   5
45B
 100
AcDbEntity
   8
LEVEL002
 370
25
   6
CONTINUOUS
  62
1
 100
AcDbCircle
  10
 59.642548023213
  20
 251.78564005610
  30
0.0
  40
 5.0000000000000
 100
AcDbArc
  50
 180.00000000006
  51
 270.00000000000
   0
ARC
   5
45C
 100
AcDbEntity
   8
LEVEL002
 370
25
   6
CONTINUOUS
  62
1
 100
AcDbCircle
  10
 65.142548023193
  20
 257.28564005610
  30
0.0
  40
 3.5000000000000
 100
AcDbArc
  50
 180.00000000000
  51
 270.00000000025
   0
LINE
   5
45D
 100
AcDbEntity
   8
LEVEL002
 370
25
 100
AcDbLine
   6
CONTINUOUS
  62
1
  10
 53.142548023213
  20
 284.28564005610
  30
0.0
  11
 72.142548023213
  21
 284.28564005610
  31
0.0
   0
LINE
   5
45E
 100
AcDbEntity
   8
LEVEL002
 370
25
 100
AcDbLine
   6
CONTINUOUS
  62
1
  10
 54.642548023213
  20
 251.78564005610
  30
0.0
  11
 54.642548023213
  21
 284.28564005610
  31
0.0
   0
LINE
   5
45F
 100
AcDbEntity
   8
LEVEL002
 370
25
 100
AcDbLine
   6
CONTINUOUS
  62
1
  10
 61.642548023213
  20
 257.28564005610
  30
0.0
  11
 61.642548023213
  21
 284.28564005610
  31
0.0
   0
LINE
   5
460
 100
AcDbEntity
   8
LEVEL002
 370
25
 100
AcDbLine
   6
CONTINUOUS
  62
1
  10
 70.642548023213
  20
 284.28564005610
  30
0.0
  11
 70.642548023213
  21
 262.78564005610
  31
0.0
   0
LINE
   5
461
 100
AcDbEntity
   8
LEVEL002
 370
25
 100
AcDbLine
   6
CONTINUOUS
  62
1
  10
 92.142548023213
  20
 264.28564005610
  30
0.0
  11
 92.142548023213
  21
 245.28564005610
  31
0.0
   0
LINE
   5
462
 100
AcDbEntity
   8
LEVEL002
 370
25
 100
AcDbLine
   6
CONTINUOUS
  62
1
  10
 92.142548023213
  20
 246.78564005610
  30
0.0
  11
 59.642548023213
  21
 246.78564005610
  31
0.0
   0
LINE
   5
463
 100
AcDbEntity
   8
LEVEL002
 370
25
 100
AcDbLine
   6
CONTINUOUS
  62
1
  10
 92.142548023213
  20
 253.78564005610
  30
0.0
  11
 65.142548023213
  21
 253.78564005610
  31
0.0
   0
LINE
   5
464
 100
AcDbEntity
   8
LEVEL002
 370
25
 100
AcDbLine
   6
CONTINUOUS
  62
1
  10
 70.642548023213
  20
 262.78564005610
  30
0.0
  11
 92.142548023213
  21
 262.78564005610
  31
0.0
   0
ARC
   5
465
 100
AcDbEntity
   8
LEVEL002
 370
25
   6
CONTINUOUS
  62
1
 100
AcDbCircle
  10
 192.48520417409
  20
 251.78564005612
  30
0.0
  40
 5.0000000000000
 100
AcDbArc
  50
 180.00000000019
  51
 270.00000000000
   0
LINE
   5
466
 100
AcDbEntity
   8
LEVEL002
 370
25
 100
AcDbLine
   6
CONTINUOUS
  62
1
  10
 185.98520417409
  20
 284.28564005610
  30
0.0
  11
 204.98520417409
  21
 284.28564005610
  31
0.0
   0
LINE
   5
467
 100
AcDbEntity
   8
LEVEL002
 370
25
 100
AcDbLine
   6
CONTINUOUS
  62
1
  10
 187.48520417409
  20
 251.78564005610
  30
0.0
  11
 187.48520417409
  21
 284.28564005610
  31
0.0
   0
LINE
   5
468
 100
AcDbEntity
   8
LEVEL002
 370
25
 100
AcDbLine
   6
CONTINUOUS
  62
1
  10
 203.48520417409
  20
 284.28564005610
  30
0.0
  11
 203.48520417409
  21
 262.78564005610
  31
0.0
   0
LINE
   5
469
 100
AcDbEntity
   8
LEVEL002
 370
25
 100
AcDbLine
   6
CONTINUOUS
  62
1
  10
 224.98520417409
  20
 264.28564005610
  30
0.0
  11
 224.98520417409
  21
 245.28564005610
  31
0.0
   0
LINE
   5
46A
 100
AcDbEntity
   8
LEVEL002
 370
25
 100
AcDbLine
   6
CONTINUOUS
  62
1
  10
 224.98520417409
  20
 246.78564005610
  30
0.0
  11
 192.48520417409
  21
 246.78564005610
  31
0.0
   0
LINE
   5
46B
 100
AcDbEntity
   8
LEVEL002
 370
25
 100
AcDbLine
   6
CONTINUOUS
  62
1
  10
 203.48520417409
  20
 262.78564005610
  30
0.0
  11
 224.98520417409
  21
 262.78564005610
  31
0.0
   0
LINE
   5
46C
 100
AcDbEntity
   8
LEVEL002
 370
25
 100
AcDbLine
   6
CONTINUOUS
  62
1
  10
 224.98520417409
  20
 255.78564005610
  30
0.0
  11
 196.48520417409
  21
 255.78564005610
  31
0.0
   0
LINE
   5
46D
 100
AcDbEntity
   8
LEVEL002
 370
25
 100
AcDbLine
   6
CONTINUOUS
  62
1
  10
 196.48520417409
  20
 255.78564005610
  30
0.0
  11
 196.48520417409
  21
 284.28564005610
  31
0.0
   0
ARC
   5
46E
 100
AcDbEntity
   8
LEVEL002
 370
25
   6
CONTINUOUS
  62
1
 100
AcDbCircle
  10
 356.64254802321
  20
 248.78564005610
  30
0.0
  40
 12.000000000000
 100
AcDbArc
  50
 180.00000000000
  51
 270.00000000000
   0
LINE
   5
46F
 100
AcDbEntity
   8
LEVEL002
 370
25
 100
AcDbLine
   6
CONTINUOUS
  62
1
  10
 356.64254802321
  20
 236.78564005610
  30
0.0
  11
 392.64254802321
  21
 236.78564005610
  31
0.0
   0
LINE
   5
470
 100
AcDbEntity
   8
LEVEL002
 370
25
 100
AcDbLine
   6
CONTINUOUS
  62
1
  10
 358.64254802321
  20
 250.78564005610
  30
0.0
  11
 358.64254802321
  21
 283.78564005610
  31
0.0
   0
LINE
   5
471
 100
AcDbEntity
   8
LEVEL002
 370
25
 100
AcDbLine
   6
CONTINUOUS
  62
1
  10
 391.64254802321
  20
 250.78564005610
  30
0.0
  11
 358.64254802321
  21
 250.78564005610
  31
0.0
   0
LINE
   5
472
 100
AcDbEntity
   8
LEVEL002
 370
25
 100
AcDbLine
   6
CONTINUOUS
  62
1
  10
 341.64254802321
  20
 283.78564005610
  30
0.0
  11
 359.64254802321
  21
 283.78564005610
  31
0.0
   0
LINE
   5
473
 100
AcDbEntity
   8
LEVEL002
 370
25
 100
AcDbLine
   6
CONTINUOUS
  62
1
  10
 344.64254802321
  20
 283.78564005610
  30
0.0
  11
 344.64254802321
  21
 248.78564005610
  31
0.0
   0
LINE
   5
474
 100
AcDbEntity
   8
LEVEL002
 370
25
 100
AcDbLine
   6
CONTINUOUS
  62
1
  10
 391.64254802321
  20
 251.78564005610
  30
0.0
  11
 391.64254802321
  21
 233.78564005610
  31
0.0
   0
LINE
   5
475
 100
AcDbEntity
   8
LEVEL002
 370
25
 100
AcDbLine
   6
CONTINUOUS
  62
1
  10
 382.64254802321
  20
 251.78564005610
  30
0.0
  11
 359.64254802321
  21
 251.78564005610
  31
0.0
   0
LINE
   5
476
 100
AcDbEntity
   8
LEVEL002
 370
25
 100
AcDbLine
   6
CONTINUOUS
  62
1
  10
 359.64254802321
  20
 251.78564005610
  30
0.0
  11
 359.64254802321
  21
 274.78564005610
  31
0.0
   0
ARC
   5
477
 100
AcDbEntity
   8
LEVEL002
 370
25
   6
CONTINUOUS
  62
1
 100
AcDbCircle
  10
 489.48520417409
  20
 248.78564005610
  30
0.0
  40
 12.000000000000
 100
AcDbArc
  50
 180.00000000000
  51
 270.00000000001
   0
LINE
   5
478
 100
AcDbEntity
   8
LEVEL002
 370
25
 100
AcDbLine
   6
CONTINUOUS
  62
1
  10
 474.48520417409
  20
 283.78564005610
  30
0.0
  11
 492.48520417409
  21
 283.78564005610
  31
0.0
   0
LINE
   5
479
 100
AcDbEntity
   8
LEVEL002
 370
25
 100
AcDbLine
   6
CONTINUOUS
  62
1
  10
 477.48520417409
  20
 283.78564005610
  30
0.0
  11
 477.48520417409
  21
 248.78564005610
  31
0.0
   0
LINE
   5
47A
 100
AcDbEntity
   8
LEVEL002
 370
25
 100
AcDbLine
   6
CONTINUOUS
  62
1
  10
 524.48520417409
  20
 251.78564005610
  30
0.0
  11
 524.48520417409
  21
 233.78564005610
  31
0.0
   0
LINE
   5
47B
 100
AcDbEntity
   8
LEVEL002
 370
25
 100
AcDbLine
   6
CONTINUOUS
  62
1
  10
 487.48520417409
  20
 283.78564005610
  30
0.0
  11
 487.48520417409
  21
 254.28564005610
  31
0.0
   0
ARC
   5
47C
 100
AcDbEntity
   8
LEVEL002
 370
25
   6
CONTINUOUS
  62
1
 100
AcDbCircle
  10
 494.98520417411
  20
 254.28564005610
  30
0.0
  40
 7.5000000000000
 100
AcDbArc
  50
 180.00000000000
  51
 269.99999999998
   0
LINE
   5
47D
 100
AcDbEntity
   8
LEVEL002
 370
25
 100
AcDbLine
   6
CONTINUOUS
  62
1
  10
 494.98520417409
  20
 246.78564005610
  30
0.0
  11
 524.48520417409
  21
 246.78564005610
  31
0.0
   0
LINE
   5
47E
 100
AcDbEntity
   8
LEVEL002
 370
25
 100
AcDbLine
   6
CONTINUOUS
  62
1
  10
 489.48520417409
  20
 236.78564005610
  30
0.0
  11
 524.48520417409
  21
 236.78564005610
  31
0.0
   0
DIMENSION
   5
47F
 100
AcDbEntity
   8
LEVEL001
 370
15
   6
CONTINUOUS
  62
8
 100
AcDbDimension
   2
*D25
  10
 359.64254802321
  20
 294.14520303435
  30
0.0
  11
 350.64254802321
  21
 294.14520303435
  31
0.0
  70
0
   3
GMM001
 100
AcDbAlignedDimension
  13
 341.64254802321
  23
 283.78564005610
  33
0.0
  14
 359.64254802321
  24
 283.78564005610
  34
0.0
 100
AcDbRotatedDimension
   0
DIMENSION
   5
480
 100
AcDbEntity
   8
LEVEL001
 370
15
   6
CONTINUOUS
  62
8
 100
AcDbDimension
   2
*D26
  10
 392.64254802321
  20
 222.23337795626
  30
0.0
  11
 367.14254802321
  21
 222.23337795626
  31
0.0
  70
0
   3
GMM001
 100
AcDbAlignedDimension
  13
 341.64254802321
  23
 248.78564005610
  33
0.0
  14
 392.64254802321
  24
 234.78564005610
  34
0.0
 100
AcDbRotatedDimension
   0
DIMENSION
   5
481
 100
AcDbEntity
   8
LEVEL001
 370
15
   6
CONTINUOUS
  62
8
 100
AcDbDimension
   2
*D27
  10
 402.23291933166
  20
 251.78564005610
  30
0.0
  11
 402.23291933166
  21
 242.78564005610
  31
0.0
  70
0
   3
GMM001
 100
AcDbAlignedDimension
  13
 391.64254802321
  23
 233.78564005610
  33
0.0
  14
 391.64254802321
  24
 251.78564005610
  34
0.0
  50
 90.000000000000
 100
AcDbRotatedDimension
   0
DIMENSION
   5
482
 100
AcDbEntity
   8
LEVEL001
 370
15
   6
CONTINUOUS
  62
8
 100
AcDbDimension
   2
*D28
  10
 412.94135306660
  20
 284.78564005610
  30
0.0
  11
 412.94135306660
  21
 259.28564005610
  31
0.0
  70
0
   3
GMM001
 100
AcDbAlignedDimension
  13
 402.23291933166
  23
 233.78564005610
  33
0.0
  14
 358.64254802321
  24
 284.78564005610
  34
0.0
  50
 90.000000000000
 100
AcDbRotatedDimension
   0
DIMENSION
   5
483
 100
AcDbEntity
   8
LEVEL001
 370
15
   6
CONTINUOUS
  62
8
 100
AcDbDimension
   2
*D29
  10
 535.07557548253
  20
 251.78564005610
  30
0.0
  11
 535.07557548253
  21
 242.78564005610
  31
0.0
  70
0
   3
GMM001
 100
AcDbAlignedDimension
  13
 524.48520417409
  23
 233.78564005610
  33
0.0
  14
 524.48520417409
  24
 251.78564005610
  34
0.0
  50
 90.000000000000
 100
AcDbRotatedDimension
   0
DIMENSION
   5
484
 100
AcDbEntity
   8
LEVEL001
 370
15
   6
CONTINUOUS
  62
8
 100
AcDbDimension
   2
*D30
  10
 545.78400921747
  20
 284.78564005610
  30
0.0
  11
 545.78400921747
  21
 259.28564005610
  31
0.0
  70
0
   3
GMM001
 100
AcDbAlignedDimension
  13
 535.07557548253
  23
 233.78564005610
  33
0.0
  14
 491.48520417409
  24
 284.78564005610
  34
0.0
  50
 90.000000000000
 100
AcDbRotatedDimension
   0
DIMENSION
   5
485
 100
AcDbEntity
   8
LEVEL001
 370
15
   6
CONTINUOUS
  62
8
 100
AcDbDimension
   2
*D31
  10
 525.48520417409
  20
 222.23337795626
  30
0.0
  11
 499.98520417409
  21
 222.23337795626
  31
0.0
  70
0
   3
GMM001
 100
AcDbAlignedDimension
  13
 474.48520417409
  23
 248.78564005610
  33
0.0
  14
 525.48520417409
  24
 234.78564005610
  34
0.0
 100
AcDbRotatedDimension
   0
DIMENSION
   5
486
 100
AcDbEntity
   8
LEVEL001
 370
15
   6
CONTINUOUS
  62
8
 100
AcDbDimension
   2
*D32
  10
 492.48520417409
  20
 294.14520303435
  30
0.0
  11
 483.48520417409
  21
 294.14520303435
  31
0.0
  70
0
   3
GMM001
 100
AcDbAlignedDimension
  13
 474.48520417409
  23
 283.78564005610
  33
0.0
  14
 492.48520417409
  24
 283.78564005610
  34
0.0
 100
AcDbRotatedDimension
   0
LINE
   5
487
 100
AcDbEntity
   8
LEVEL002
 370
15
 100
AcDbLine
   6
DASHDOT
  62
8
  10
 341.64980983318
  20
 234.83184930063
  30
0.0
  11
 386.63528621325
  21
 277.73943081156
  31
0.0
   0
LINE
   5
488
 100
AcDbEntity
   8
LEVEL002
 370
15
 100
AcDbLine
   6
DASHDOT
  62
8
  10
 474.49246598405
  20
 234.83184930063
  30
0.0
  11
 519.47794236412
  21
 277.73943081156
  31
0.0
   0
LINE
   5
489
 100
AcDbEntity
   8
LEVEL002
 370
15
 100
AcDbLine
   6
DASHDOT
  62
8
  10
 179.69214531803
  20
 240.39182817082
  30
0.0
  11
 232.90127406363
  21
 291.14320867167
  31
0.0
   0
LINE
   5
48A
 100
AcDbEntity
   8
LEVEL002
 370
15
 100
AcDbLine
   6
DASHDOT
  62
8
  10
 43.073141532658
  20
 236.23562716074
  30
0.0
  11
 91.400598448199
  21
 282.33082195872
  31
0.0
   0
MTEXT
   5
48C
 100
AcDbEntity
   8
LEVEL002
 370
15
  62
8
 100
AcDbMText
  10
 774.43016912150
  20
 97.333333333360
  30
0.0
  40
 6.0000000000000
  41
0.0
  71
5
  72
1
   1
\T1.000000;令和０５年０３月３０日
   7
GMM002
  44
 0.79999984000003
   0
MTEXT
   5
48E
 100
AcDbEntity
   8
LEVEL002
 370
15
  62
8
 100
AcDbMText
  10
 774.43016912150
  20
 84.000000000020
  30
0.0
  40
 6.0000000000000
  41
0.0
  71
5
  72
1
   1
\T1.000000;令和　　年　　月　　日
   7
GMM002
  44
 0.79999984000003
   0
MTEXT
   5
490
 100
AcDbEntity
   8
LEVEL002
 370
15
  62
8
 100
AcDbMText
  10
 774.43016912150
  20
 70.666666666690
  30
0.0
  40
 6.0000000000000
  41
0.0
  71
5
  72
1
   1
\T1.000000;令和　　年　　月　　日
   7
GMM002
  44
 0.79999984000003
   0
MTEXT
   5
492
 100
AcDbEntity
   8
LEVEL002
 370
15
  62
8
 100
AcDbMText
  10
 60.812081659972
  20
 512.06398929050
  30
0.0
  40
 6.0000000000000
  41
0.0
  71
5
  72
1
   1
\T1.000000;出　隅
   7
GMM002
  44
 0.79999984000003
   0
MTEXT
   5
494
 100
AcDbEntity
   8
LEVEL002
 370
15
  62
8
 100
AcDbMText
  10
 193.65473781085
  20
 512.06398929050
  30
0.0
  40
 6.0000000000000
  41
0.0
  71
5
  72
1
   1
\T1.000000;入　隅
   7
GMM002
  44
 0.79999984000003
   0
MTEXT
   5
496
 100
AcDbEntity
   8
LEVEL002
 370
15
  62
8
 100
AcDbMText
  10
 60.812081659972
  20
 330.06398929050
  30
0.0
  40
 6.0000000000000
  41
0.0
  71
5
  72
1
   1
\T1.000000;出　隅
   7
GMM002
  44
 0.79999984000003
   0
MTEXT
   5
498
 100
AcDbEntity
   8
LEVEL002
 370
15
  62
8
 100
AcDbMText
  10
 193.65473781085
  20
 330.06398929050
  30
0.0
  40
 6.0000000000000
  41
0.0
  71
5
  72
1
   1
\T1.000000;入　隅
   7
GMM002
  44
 0.79999984000003
   0
MTEXT
   5
49A
 100
AcDbEntity
   8
LEVEL002
 370
15
  62
8
 100
AcDbMText
  10
 349.81208165997
  20
 512.06398929050
  30
0.0
  40
 6.0000000000000
  41
0.0
  71
5
  72
1
   1
\T1.000000;出　隅
   7
GMM002
  44
 0.79999984000003
   0
MTEXT
   5
49C
 100
AcDbEntity
   8
LEVEL002
 370
15
  62
8
 100
AcDbMText
  10
 482.65473781085
  20
 512.06398929050
  30
0.0
  40
 6.0000000000000
  41
0.0
  71
5
  72
1
   1
\T1.000000;入　隅
   7
GMM002
  44
 0.79999984000003
   0
MTEXT
   5
49E
 100
AcDbEntity
   8
LEVEL002
 370
15
  62
8
 100
AcDbMText
  10
 349.81208165997
  20
 330.06398929050
  30
0.0
  40
 6.0000000000000
  41
0.0
  71
5
  72
1
   1
\T1.000000;出　隅
   7
GMM002
  44
 0.79999984000003
   0
MTEXT
   5
4A0
 100
AcDbEntity
   8
LEVEL002
 370
15
  62
8
 100
AcDbMText
  10
 482.65473781085
  20
 330.06398929050
  30
0.0
  40
 6.0000000000000
  41
0.0
  71
5
  72
1
   1
\T1.000000;入　隅
   7
GMM002
  44
 0.79999984000003
   0
LINE
   5
4A1
 100
AcDbEntity
   8
LEVEL002
 370
30
 100
AcDbLine
   6
CONTINUOUS
  62
7
  10
 52.642548023213
  20
 483.49130773826
  30
0.0
  11
 52.642548023213
  21
 466.49130773826
  31
0.0
   0
LINE
   5
4A2
 100
AcDbEntity
   8
LEVEL002
 370
30
 100
AcDbLine
   6
CONTINUOUS
  62
7
  10
 52.642548023213
  20
 483.49130773826
  30
0.0
  11
 53.642548023213
  21
 484.49130773826
  31
0.0
   0
LINE
   5
4A3
 100
AcDbEntity
   8
LEVEL002
 370
30
 100
AcDbLine
   6
CONTINUOUS
  62
7
  10
 53.642548023213
  20
 484.49130773826
  30
0.0
  11
 90.642548023212
  21
 484.49130773826
  31
0.0
   0
ARC
   5
4A4
 100
AcDbEntity
   8
LEVEL002
 370
30
   6
CONTINUOUS
  62
7
 100
AcDbCircle
  10
 87.642548023212
  20
 466.49130773826
  30
0.0
  40
 35.000000000000
 100
AcDbArc
  50
 180.00000000000
  51
 270.00000000000
   0
LINE
   5
4A5
 100
AcDbEntity
   8
LEVEL002
 370
30
 100
AcDbLine
   6
CONTINUOUS
  62
7
  10
 105.64254802321
  20
 469.49130773826
  30
0.0
  11
 105.64254802321
  21
 432.49130773826
  31
0.0
   0
LINE
   5
4A6
 100
AcDbEntity
   8
LEVEL002
 370
30
 100
AcDbLine
   6
CONTINUOUS
  62
7
  10
 105.64254802321
  20
 432.49130773826
  30
0.0
  11
 104.64254802321
  21
 431.49130773826
  31
0.0
   0
LINE
   5
4A7
 100
AcDbEntity
   8
LEVEL002
 370
30
 100
AcDbLine
   6
CONTINUOUS
  62
7
  10
 104.64254802321
  20
 431.49130773826
  30
0.0
  11
 87.642548023212
  21
 431.49130773826
  31
0.0
   0
ARC
   5
4A8
 100
AcDbEntity
   8
LEVEL002
 370
30
   6
CONTINUOUS
  62
7
 100
AcDbCircle
  10
 105.64254802321
  20
 484.49130773826
  30
0.0
  40
 15.000000000000
 100
AcDbArc
  50
 180.00000000000
  51
 270.00000000000
   0
CIRCLE
   5
4A9
 100
AcDbEntity
   8
LEVEL002
 370
30
 100
AcDbCircle
   6
CONTINUOUS
  62
7
  10
 78.516056974454
  20
 458.61779878737
  30
0.0
  40
 2.0000000000000
   0
CIRCLE
   5
4AA
 100
AcDbEntity
   8
LEVEL002
 370
30
 100
AcDbCircle
   6
CONTINUOUS
  62
7
  10
 211.35871312533
  20
 458.61779878737
  30
0.0
  40
 2.0000000000000
   0
ARC
   5
4AB
 100
AcDbEntity
   8
LEVEL002
 370
30
   6
CONTINUOUS
  62
7
 100
AcDbCircle
  10
 238.48520417409
  20
 484.49130773826
  30
0.0
  40
 15.000000000000
 100
AcDbArc
  50
 180.00000000000
  51
 270.00000000000
   0
LINE
   5
4AC
 100
AcDbEntity
   8
LEVEL002
 370
30
 100
AcDbLine
   6
CONTINUOUS
  62
7
  10
 238.48520417409
  20
 469.49130773826
  30
0.0
  11
 238.48520417409
  21
 432.49130773826
  31
0.0
   0
LINE
   5
4AD
 100
AcDbEntity
   8
LEVEL002
 370
30
 100
AcDbLine
   6
CONTINUOUS
  62
7
  10
 238.48520417409
  20
 432.49130773826
  30
0.0
  11
 237.48520417409
  21
 431.49130773826
  31
0.0
   0
LINE
   5
4AE
 100
AcDbEntity
   8
LEVEL002
 370
30
 100
AcDbLine
   6
CONTINUOUS
  62
7
  10
 237.48520417409
  20
 431.49130773826
  30
0.0
  11
 220.48520417409
  21
 431.49130773826
  31
0.0
   0
ARC
   5
4AF
 100
AcDbEntity
   8
LEVEL002
 370
30
   6
CONTINUOUS
  62
7
 100
AcDbCircle
  10
 220.48520417409
  20
 466.49130773826
  30
0.0
  40
 35.000000000000
 100
AcDbArc
  50
 180.00000000000
  51
 270.00000000000
   0
LINE
   5
4B0
 100
AcDbEntity
   8
LEVEL002
 370
30
 100
AcDbLine
   6
CONTINUOUS
  62
7
  10
 185.48520417409
  20
 483.49130773826
  30
0.0
  11
 185.48520417409
  21
 466.49130773826
  31
0.0
   0
LINE
   5
4B1
 100
AcDbEntity
   8
LEVEL002
 370
30
 100
AcDbLine
   6
CONTINUOUS
  62
7
  10
 185.48520417409
  20
 483.49130773826
  30
0.0
  11
 186.48520417409
  21
 484.49130773826
  31
0.0
   0
LINE
   5
4B2
 100
AcDbEntity
   8
LEVEL002
 370
30
 100
AcDbLine
   6
CONTINUOUS
  62
7
  10
 186.48520417409
  20
 484.49130773826
  30
0.0
  11
 223.48520417409
  21
 484.49130773826
  31
0.0
   0
LINE
   5
4B3
 100
AcDbEntity
   8
LEVEL001
 370
30
 100
AcDbLine
   6
CONTINUOUS
  62
7
  10
 319.99999999990
  20
 570.00000000000
  30
0.0
  11
 319.99999999990
  21
 24.000000000020
  31
0.0
   0
LINE
   5
4B4
 100
AcDbEntity
   8
LEVEL002
 370
30
 100
AcDbLine
   6
CONTINUOUS
  62
7
  10
 341.64254802321
  20
 483.49130773826
  30
0.0
  11
 341.64254802321
  21
 466.49130773826
  31
0.0
   0
LINE
   5
4B5
 100
AcDbEntity
   8
LEVEL002
 370
30
 100
AcDbLine
   6
CONTINUOUS
  62
7
  10
 341.64254802321
  20
 483.49130773826
  30
0.0
  11
 342.64254802321
  21
 484.49130773826
  31
0.0
   0
LINE
   5
4B6
 100
AcDbEntity
   8
LEVEL002
 370
30
 100
AcDbLine
   6
CONTINUOUS
  62
7
  10
 342.64254802321
  20
 484.49130773826
  30
0.0
  11
 379.64254802321
  21
 484.49130773826
  31
0.0
   0
ARC
   5
4B7
 100
AcDbEntity
   8
LEVEL002
 370
30
   6
CONTINUOUS
  62
7
 100
AcDbCircle
  10
 376.64254802321
  20
 466.49130773826
  30
0.0
  40
 35.000000000000
 100
AcDbArc
  50
 180.00000000000
  51
 270.00000000000
   0
LINE
   5
4B8
 100
AcDbEntity
   8
LEVEL002
 370
30
 100
AcDbLine
   6
CONTINUOUS
  62
7
  10
 394.64254802321
  20
 469.49130773826
  30
0.0
  11
 394.64254802321
  21
 432.49130773826
  31
0.0
   0
LINE
   5
4B9
 100
AcDbEntity
   8
LEVEL002
 370
30
 100
AcDbLine
   6
CONTINUOUS
  62
7
  10
 394.64254802321
  20
 432.49130773826
  30
0.0
  11
 393.64254802321
  21
 431.49130773826
  31
0.0
   0
LINE
   5
4BA
 100
AcDbEntity
   8
LEVEL002
 370
30
 100
AcDbLine
   6
CONTINUOUS
  62
7
  10
 393.64254802321
  20
 431.49130773826
  30
0.0
  11
 376.64254802321
  21
 431.49130773826
  31
0.0
   0
ARC
   5
4BB
 100
AcDbEntity
   8
LEVEL002
 370
30
   6
CONTINUOUS
  62
7
 100
AcDbCircle
  10
 394.64254802321
  20
 484.49130773826
  30
0.0
  40
 15.000000000000
 100
AcDbArc
  50
 180.00000000000
  51
 270.00000000000
   0
CIRCLE
   5
4BC
 100
AcDbEntity
   8
LEVEL002
 370
30
 100
AcDbCircle
   6
CONTINUOUS
  62
7
  10
 367.51605697445
  20
 458.61779878737
  30
0.0
  40
 2.0000000000000
   0
CIRCLE
   5
4BD
 100
AcDbEntity
   8
LEVEL002
 370
30
 100
AcDbCircle
   6
CONTINUOUS
  62
7
  10
 500.35871312533
  20
 458.61779878737
  30
0.0
  40
 2.0000000000000
   0
ARC
   5
4BE
 100
AcDbEntity
   8
LEVEL002
 370
30
   6
CONTINUOUS
  62
7
 100
AcDbCircle
  10
 527.48520417409
  20
 484.49130773826
  30
0.0
  40
 15.000000000000
 100
AcDbArc
  50
 180.00000000000
  51
 270.00000000000
   0
LINE
   5
4BF
 100
AcDbEntity
   8
LEVEL002
 370
30
 100
AcDbLine
   6
CONTINUOUS
  62
7
  10
 527.48520417409
  20
 469.49130773826
  30
0.0
  11
 527.48520417409
  21
 432.49130773826
  31
0.0
   0
LINE
   5
4C0
 100
AcDbEntity
   8
LEVEL002
 370
30
 100
AcDbLine
   6
CONTINUOUS
  62
7
  10
 527.48520417409
  20
 432.49130773826
  30
0.0
  11
 526.48520417409
  21
 431.49130773826
  31
0.0
   0
LINE
   5
4C1
 100
AcDbEntity
   8
LEVEL002
 370
30
 100
AcDbLine
   6
CONTINUOUS
  62
7
  10
 526.48520417409
  20
 431.49130773826
  30
0.0
  11
 509.48520417409
  21
 431.49130773826
  31
0.0
   0
ARC
   5
4C2
 100
AcDbEntity
   8
LEVEL002
 370
30
   6
CONTINUOUS
  62
7
 100
AcDbCircle
  10
 509.48520417409
  20
 466.49130773826
  30
0.0
  40
 35.000000000000
 100
AcDbArc
  50
 180.00000000000
  51
 270.00000000000
   0
LINE
   5
4C3
 100
AcDbEntity
   8
LEVEL002
 370
30
 100
AcDbLine
   6
CONTINUOUS
  62
7
  10
 474.48520417409
  20
 483.49130773826
  30
0.0
  11
 474.48520417409
  21
 466.49130773826
  31
0.0
   0
LINE
   5
4C4
 100
AcDbEntity
   8
LEVEL002
 370
30
 100
AcDbLine
   6
CONTINUOUS
  62
7
  10
 474.48520417409
  20
 483.49130773826
  30
0.0
  11
 475.48520417409
  21
 484.49130773826
  31
0.0
   0
LINE
   5
4C5
 100
AcDbEntity
   8
LEVEL002
 370
30
 100
AcDbLine
   6
CONTINUOUS
  62
7
  10
 475.48520417409
  20
 484.49130773826
  30
0.0
  11
 512.48520417409
  21
 484.49130773826
  31
0.0
   0
ARC
   5
4C6
 100
AcDbEntity
   8
LEVEL002
 370
30
   6
CONTINUOUS
  62
7
 100
AcDbCircle
  10
 59.642548023213
  20
 251.78564005610
  30
0.0
  40
 7.0000000000000
 100
AcDbArc
  50
 179.99999999999
  51
 270.00000000000
   0
CIRCLE
   5
4C7
 100
AcDbEntity
   8
LEVEL002
 370
30
 100
AcDbCircle
   6
CONTINUOUS
  62
7
  10
 66.142548023213
  20
 258.28564005610
  30
0.0
  40
 2.0000000000000
   0
LINE
   5
4C8
 100
AcDbEntity
   8
LEVEL002
 370
30
 100
AcDbLine
   6
CONTINUOUS
  62
7
  10
 91.642548023213
  20
 264.78564005610
  30
0.0
  11
 92.642548023213
  21
 263.78564005610
  31
0.0
   0
LINE
   5
4C9
 100
AcDbEntity
   8
LEVEL002
 370
30
 100
AcDbLine
   6
CONTINUOUS
  62
7
  10
 92.642548023213
  20
 263.78564005610
  30
0.0
  11
 92.642548023213
  21
 245.78564005610
  31
0.0
   0
LINE
   5
4CA
 100
AcDbEntity
   8
LEVEL002
 370
30
 100
AcDbLine
   6
CONTINUOUS
  62
7
  10
 91.642548023213
  20
 244.78564005610
  30
0.0
  11
 59.642548023213
  21
 244.78564005610
  31
0.0
   0
LINE
   5
4CB
 100
AcDbEntity
   8
LEVEL002
 370
30
 100
AcDbLine
   6
CONTINUOUS
  62
7
  10
 92.642548023213
  20
 245.78564005610
  30
0.0
  11
 91.642548023213
  21
 244.78564005610
  31
0.0
   0
LINE
   5
4CC
 100
AcDbEntity
   8
LEVEL002
 370
30
 100
AcDbLine
   6
CONTINUOUS
  62
7
  10
 52.642548023213
  20
 251.78564005610
  30
0.0
  11
 52.642548023213
  21
 283.78564005610
  31
0.0
   0
LINE
   5
4CD
 100
AcDbEntity
   8
LEVEL002
 370
30
 100
AcDbLine
   6
CONTINUOUS
  62
7
  10
 52.642548023213
  20
 283.78564005610
  30
0.0
  11
 53.642548023213
  21
 284.78564005610
  31
0.0
   0
LINE
   5
4CE
 100
AcDbEntity
   8
LEVEL002
 370
30
 100
AcDbLine
   6
CONTINUOUS
  62
7
  10
 53.642548023213
  20
 284.78564005610
  30
0.0
  11
 71.642548023213
  21
 284.78564005610
  31
0.0
   0
LINE
   5
4CF
 100
AcDbEntity
   8
LEVEL002
 370
30
 100
AcDbLine
   6
CONTINUOUS
  62
7
  10
 72.642548023213
  20
 283.78564005610
  30
0.0
  11
 72.642548023213
  21
 264.78564005610
  31
0.0
   0
LINE
   5
4D0
 100
AcDbEntity
   8
LEVEL002
 370
30
 100
AcDbLine
   6
CONTINUOUS
  62
7
  10
 72.642548023213
  20
 264.78564005610
  30
0.0
  11
 91.642548023213
  21
 264.78564005610
  31
0.0
   0
LINE
   5
4D1
 100
AcDbEntity
   8
LEVEL002
 370
30
 100
AcDbLine
   6
CONTINUOUS
  62
7
  10
 71.642548023213
  20
 284.78564005610
  30
0.0
  11
 72.642548023213
  21
 283.78564005610
  31
0.0
   0
ARC
   5
4D2
 100
AcDbEntity
   8
LEVEL002
 370
30
   6
CONTINUOUS
  62
7
 100
AcDbCircle
  10
 192.48520417409
  20
 251.78564005610
  30
0.0
  40
 7.0000000000000
 100
AcDbArc
  50
 179.99999999997
  51
 270.00000000000
   0
LINE
   5
4D3
 100
AcDbEntity
   8
LEVEL002
 370
30
 100
AcDbLine
   6
CONTINUOUS
  62
7
  10
 224.48520417409
  20
 264.78564005610
  30
0.0
  11
 225.48520417409
  21
 263.78564005610
  31
0.0
   0
LINE
   5
4D4
 100
AcDbEntity
   8
LEVEL002
 370
30
 100
AcDbLine
   6
CONTINUOUS
  62
7
  10
 225.48520417409
  20
 263.78564005610
  30
0.0
  11
 225.48520417409
  21
 245.78564005610
  31
0.0
   0
LINE
   5
4D5
 100
AcDbEntity
   8
LEVEL002
 370
30
 100
AcDbLine
   6
CONTINUOUS
  62
7
  10
 224.48520417409
  20
 244.78564005610
  30
0.0
  11
 192.48520417409
  21
 244.78564005610
  31
0.0
   0
LINE
   5
4D6
 100
AcDbEntity
   8
LEVEL002
 370
30
 100
AcDbLine
   6
CONTINUOUS
  62
7
  10
 225.48520417409
  20
 245.78564005610
  30
0.0
  11
 224.48520417409
  21
 244.78564005610
  31
0.0
   0
LINE
   5
4D7
 100
AcDbEntity
   8
LEVEL002
 370
30
 100
AcDbLine
   6
CONTINUOUS
  62
7
  10
 185.48520417409
  20
 251.78564005610
  30
0.0
  11
 185.48520417409
  21
 283.78564005610
  31
0.0
   0
LINE
   5
4D8
 100
AcDbEntity
   8
LEVEL002
 370
30
 100
AcDbLine
   6
CONTINUOUS
  62
7
  10
 185.48520417409
  20
 283.78564005610
  30
0.0
  11
 186.48520417409
  21
 284.78564005610
  31
0.0
   0
LINE
   5
4D9
 100
AcDbEntity
   8
LEVEL002
 370
30
 100
AcDbLine
   6
CONTINUOUS
  62
7
  10
 186.48520417409
  20
 284.78564005610
  30
0.0
  11
 204.48520417409
  21
 284.78564005610
  31
0.0
   0
LINE
   5
4DA
 100
AcDbEntity
   8
LEVEL002
 370
30
 100
AcDbLine
   6
CONTINUOUS
  62
7
  10
 205.48520417409
  20
 283.78564005610
  30
0.0
  11
 205.48520417409
  21
 264.78564005610
  31
0.0
   0
LINE
   5
4DB
 100
AcDbEntity
   8
LEVEL002
 370
30
 100
AcDbLine
   6
CONTINUOUS
  62
7
  10
 205.48520417409
  20
 264.78564005610
  30
0.0
  11
 224.48520417409
  21
 264.78564005610
  31
0.0
   0
LINE
   5
4DC
 100
AcDbEntity
   8
LEVEL002
 370
30
 100
AcDbLine
   6
CONTINUOUS
  62
7
  10
 204.48520417409
  20
 284.78564005610
  30
0.0
  11
 205.48520417409
  21
 283.78564005610
  31
0.0
   0
CIRCLE
   5
4DD
 100
AcDbEntity
   8
LEVEL002
 370
30
 100
AcDbCircle
   6
CONTINUOUS
  62
7
  10
 209.98520417409
  20
 269.28564005610
  30
0.0
  40
 2.0000000000000
   0
LINE
   5
4DE
 100
AcDbEntity
   8
LEVEL002
 370
30
 100
AcDbLine
   6
CONTINUOUS
  62
7
  10
 391.64254802321
  20
 251.78564005610
  30
0.0
  11
 382.64254802321
  21
 251.78564005610
  31
0.0
   0
ARC
   5
4DF
 100
AcDbEntity
   8
LEVEL002
 370
30
   6
CONTINUOUS
  62
7
 100
AcDbCircle
  10
 393.85267792155
  20
 285.99576995446
  30
0.0
  40
 36.000000000000
 100
AcDbArc
  50
 198.14316888519
  51
 251.85683111481
   0
CIRCLE
   5
4E0
 100
AcDbEntity
   8
LEVEL002
 370
30
 100
AcDbCircle
   6
CONTINUOUS
  62
7
  10
 364.14254802321
  20
 256.28564005610
  30
0.0
  40
 2.0000000000000
   0
LINE
   5
4E1
 100
AcDbEntity
   8
LEVEL002
 370
30
 100
AcDbLine
   6
CONTINUOUS
  62
7
  10
 392.64254802321
  20
 250.78564005610
  30
0.0
  11
 391.64254802321
  21
 251.78564005610
  31
0.0
   0
LINE
   5
4E2
 100
AcDbEntity
   8
LEVEL002
 370
30
 100
AcDbLine
   6
CONTINUOUS
  62
7
  10
 392.64254802321
  20
 234.78564005610
  30
0.0
  11
 392.64254802321
  21
 250.78564005610
  31
0.0
   0
ARC
   5
4E3
 100
AcDbEntity
   8
LEVEL002
 370
30
   6
CONTINUOUS
  62
7
 100
AcDbCircle
  10
 356.64254802321
  20
 248.78564005610
  30
0.0
  40
 15.000000000000
 100
AcDbArc
  50
 180.00000000000
  51
 270.00000000000
   0
LINE
   5
4E4
 100
AcDbEntity
   8
LEVEL002
 370
30
 100
AcDbLine
   6
CONTINUOUS
  62
7
  10
 341.64254802321
  20
 283.78564005610
  30
0.0
  11
 341.64254802321
  21
 248.78564005610
  31
0.0
   0
LINE
   5
4E5
 100
AcDbEntity
   8
LEVEL002
 370
30
 100
AcDbLine
   6
CONTINUOUS
  62
7
  10
 342.64254802321
  20
 284.78564005610
  30
0.0
  11
 341.64254802321
  21
 283.78564005610
  31
0.0
   0
LINE
   5
4E6
 100
AcDbEntity
   8
LEVEL002
 370
30
 100
AcDbLine
   6
CONTINUOUS
  62
7
  10
 358.64254802321
  20
 284.78564005610
  30
0.0
  11
 342.64254802321
  21
 284.78564005610
  31
0.0
   0
LINE
   5
4E7
 100
AcDbEntity
   8
LEVEL002
 370
30
 100
AcDbLine
   6
CONTINUOUS
  62
7
  10
 359.64254802321
  20
 283.78564005610
  30
0.0
  11
 358.64254802321
  21
 284.78564005610
  31
0.0
   0
LINE
   5
4E8
 100
AcDbEntity
   8
LEVEL002
 370
30
 100
AcDbLine
   6
CONTINUOUS
  62
7
  10
 359.64254802321
  20
 274.78564005610
  30
0.0
  11
 359.64254802321
  21
 283.78564005610
  31
0.0
   0
LINE
   5
4E9
 100
AcDbEntity
   8
LEVEL002
 370
30
 100
AcDbLine
   6
CONTINUOUS
  62
7
  10
 391.64254802321
  20
 233.78564005610
  30
0.0
  11
 392.64254802321
  21
 234.78564005610
  31
0.0
   0
LINE
   5
4EA
 100
AcDbEntity
   8
LEVEL002
 370
30
 100
AcDbLine
   6
CONTINUOUS
  62
7
  10
 356.64254802321
  20
 233.78564005610
  30
0.0
  11
 391.64254802321
  21
 233.78564005610
  31
0.0
   0
LINE
   5
4EB
 100
AcDbEntity
   8
LEVEL002
 370
30
 100
AcDbLine
   6
CONTINUOUS
  62
7
  10
 492.48520417409
  20
 274.78564005610
  30
0.0
  11
 492.48520417409
  21
 283.78564005610
  31
0.0
   0
LINE
   5
4EC
 100
AcDbEntity
   8
LEVEL002
 370
30
 100
AcDbLine
   6
CONTINUOUS
  62
7
  10
 524.48520417409
  20
 251.78564005610
  30
0.0
  11
 515.48520417409
  21
 251.78564005610
  31
0.0
   0
LINE
   5
4ED
 100
AcDbEntity
   8
LEVEL002
 370
30
 100
AcDbLine
   6
CONTINUOUS
  62
7
  10
 491.48520417409
  20
 284.78564005610
  30
0.0
  11
 475.48520417409
  21
 284.78564005610
  31
0.0
   0
LINE
   5
4EE
 100
AcDbEntity
   8
LEVEL002
 370
30
 100
AcDbLine
   6
CONTINUOUS
  62
7
  10
 492.48520417409
  20
 283.78564005610
  30
0.0
  11
 491.48520417409
  21
 284.78564005610
  31
0.0
   0
LINE
   5
4EF
 100
AcDbEntity
   8
LEVEL002
 370
30
 100
AcDbLine
   6
CONTINUOUS
  62
7
  10
 475.48520417409
  20
 284.78564005610
  30
0.0
  11
 474.48520417409
  21
 283.78564005610
  31
0.0
   0
LINE
   5
4F0
 100
AcDbEntity
   8
LEVEL002
 370
30
 100
AcDbLine
   6
CONTINUOUS
  62
7
  10
 474.48520417409
  20
 283.78564005610
  30
0.0
  11
 474.48520417409
  21
 248.78564005610
  31
0.0
   0
ARC
   5
4F1
 100
AcDbEntity
   8
LEVEL002
 370
30
   6
CONTINUOUS
  62
7
 100
AcDbCircle
  10
 489.48520417409
  20
 248.78564005610
  30
0.0
  40
 15.000000000000
 100
AcDbArc
  50
 180.00000000000
  51
 270.00000000000
   0
LINE
   5
4F2
 100
AcDbEntity
   8
LEVEL002
 370
30
 100
AcDbLine
   6
CONTINUOUS
  62
7
  10
 525.48520417409
  20
 234.78564005610
  30
0.0
  11
 525.48520417409
  21
 250.78564005610
  31
0.0
   0
LINE
   5
4F3
 100
AcDbEntity
   8
LEVEL002
 370
30
 100
AcDbLine
   6
CONTINUOUS
  62
7
  10
 525.48520417409
  20
 250.78564005610
  30
0.0
  11
 524.48520417409
  21
 251.78564005610
  31
0.0
   0
ARC
   5
4F4
 100
AcDbEntity
   8
LEVEL002
 370
30
   6
CONTINUOUS
  62
7
 100
AcDbCircle
  10
 526.69533407245
  20
 285.99576995446
  30
0.0
  40
 36.000000000000
 100
AcDbArc
  50
 198.14316888519
  51
 251.85683111481
   0
CIRCLE
   5
4F5
 100
AcDbEntity
   8
LEVEL002
 370
30
 100
AcDbCircle
   6
CONTINUOUS
  62
7
  10
 496.98520417409
  20
 256.28564005610
  30
0.0
  40
 2.0000000000000
   0
LINE
   5
4F6
 100
AcDbEntity
   8
LEVEL002
 370
30
 100
AcDbLine
   6
CONTINUOUS
  62
7
  10
 489.48520417409
  20
 233.78564005610
  30
0.0
  11
 524.48520417409
  21
 233.78564005610
  31
0.0
   0
LINE
   5
4F7
 100
AcDbEntity
   8
LEVEL002
 370
30
 100
AcDbLine
   6
CONTINUOUS
  62
7
  10
 524.48520417409
  20
 233.78564005610
  30
0.0
  11
 525.48520417409
  21
 234.78564005610
  31
0.0
   0
ARC
   5
4F8
 100
AcDbEntity
   8
LEVEL002
 370
30
   6
CONTINUOUS
  62
7
 100
AcDbCircle
  10
 240.11984162921
  20
 299.42027751122
  30
0.0
  40
 38.000000000000
 100
AcDbArc
  50
 204.29518894536
  51
 245.70481105463
   0
CIRCLE
   5
4F9
 100
AcDbEntity
   8
LEVEL002
 370
20
 100
AcDbCircle
   6
CONTINUOUS
  62
6
  10
 209.98520417409
  20
 269.28564005610
  30
0.0
  40
 3.5000000000000
   0
CIRCLE
   5
4FA
 100
AcDbEntity
   8
LEVEL002
 370
20
 100
AcDbCircle
   6
CONTINUOUS
  62
6
  10
 66.142548023213
  20
 258.28564005610
  30
0.0
  40
 3.5000000000000
   0
CIRCLE
   5
4FB
 100
AcDbEntity
   8
LEVEL002
 370
20
 100
AcDbCircle
   6
CONTINUOUS
  62
6
  10
 364.14254802321
  20
 256.28564005610
  30
0.0
  40
 3.5000000000000
   0
CIRCLE
   5
4FC
 100
AcDbEntity
   8
LEVEL002
 370
20
 100
AcDbCircle
   6
CONTINUOUS
  62
6
  10
 496.98520417409
  20
 256.28564005610
  30
0.0
  40
 3.5000000000000
   0
CIRCLE
   5
4FD
 100
AcDbEntity
   8
LEVEL002
 370
20
 100
AcDbCircle
   6
CONTINUOUS
  62
6
  10
 500.35871312533
  20
 458.61779878737
  30
0.0
  40
 3.5000000000000
   0
CIRCLE
   5
4FE
 100
AcDbEntity
   8
LEVEL002
 370
20
 100
AcDbCircle
   6
CONTINUOUS
  62
6
  10
 367.51605697445
  20
 458.61779878737
  30
0.0
  40
 3.5000000000000
   0
CIRCLE
   5
4FF
 100
AcDbEntity
   8
LEVEL002
 370
20
 100
AcDbCircle
   6
CONTINUOUS
  62
6
  10
 78.516056974454
  20
 458.61779878737
  30
0.0
  40
 3.5000000000000
   0
CIRCLE
   5
500
 100
AcDbEntity
   8
LEVEL002
 370
20
 100
AcDbCircle
   6
CONTINUOUS
  62
6
  10
 211.35871312533
  20
 458.61779878737
  30
0.0
  40
 3.5000000000000
   0
ARC
   5
501
 100
AcDbEntity
   8
LEVEL002
 370
20
   6
CONTINUOUS
  62
6
 100
AcDbCircle
  10
 238.48520417409
  20
 484.49130773826
  30
0.0
  40
 29.000000000000
 100
AcDbArc
  50
 180.98790721666
  51
 269.01209278334
   0
ARC
   5
502
 100
AcDbEntity
   8
LEVEL002
 370
20
   6
CONTINUOUS
  62
6
 100
AcDbCircle
  10
 87.642548023212
  20
 466.49130773826
  30
0.0
  40
 21.000000000000
 100
AcDbArc
  50
 180.00000000000
  51
 270.00000000000
   0
LINE
   5
503
 100
AcDbEntity
   8
LEVEL002
 370
20
 100
AcDbLine
   6
CONTINUOUS
  62
6
  10
 66.642548023212
  20
 483.99130773826
  30
0.0
  11
 66.642548023212
  21
 466.49130773826
  31
0.0
   0
LINE
   5
504
 100
AcDbEntity
   8
LEVEL002
 370
20
 100
AcDbLine
   6
CONTINUOUS
  62
6
  10
 105.14254802321
  20
 445.49130773826
  30
0.0
  11
 87.642548023212
  21
 445.49130773826
  31
0.0
   0
ARC
   5
505
 100
AcDbEntity
   8
LEVEL002
 370
20
   6
CONTINUOUS
  62
6
 100
AcDbCircle
  10
 376.64254802321
  20
 466.49130773826
  30
0.0
  40
 21.000000000000
 100
AcDbArc
  50
 180.00000000000
  51
 270.00000000000
   0
LINE
   5
506
 100
AcDbEntity
   8
LEVEL002
 370
20
 100
AcDbLine
   6
CONTINUOUS
  62
6
  10
 355.64254802321
  20
 483.99130773826
  30
0.0
  11
 355.64254802321
  21
 466.49130773826
  31
0.0
   0
LINE
   5
507
 100
AcDbEntity
   8
LEVEL002
 370
20
 100
AcDbLine
   6
CONTINUOUS
  62
6
  10
 394.14254802321
  20
 445.49130773826
  30
0.0
  11
 376.64254802321
  21
 445.49130773826
  31
0.0
   0
ARC
   5
508
 100
AcDbEntity
   8
LEVEL002
 370
20
   6
CONTINUOUS
  62
6
 100
AcDbCircle
  10
 527.48520417409
  20
 484.49130773826
  30
0.0
  40
 29.000000000000
 100
AcDbArc
  50
 180.98790721666
  51
 269.01209278334
   0
MTEXT
   5
50A
 100
AcDbEntity
   8
LEVEL002
 370
15
  62
8
 100
AcDbMText
  10
 708.99999999990
  20
 116.50000000002
  30
0.0
  40
 7.5000000000000
  41
0.0
  71
5
  72
1
   1
\T1.000000;平面図
   7
GMM002
  44
 0.79999984000003
   0
ENDSEC
  0
SECTION
  2
OBJECTS
  0
DICTIONARY
  5
C
100
AcDbDictionary
  3
ACAD_GROUP
350
D
  3
ACAD_MLINESTYLE
350
1B
  3
DWGPROPS
350
1C
  0
DICTIONARY
  5
D
102
{ACAD_REACTORS
330
C
102
}
100
AcDbDictionary
  0
DICTIONARY
  5
1B
102
{ACAD_REACTORS
330
C
102
}
100
AcDbDictionary
  3
STANDARD
350
1D
  0
MLINESTYLE
  5
1D
102
{ACAD_REACTORS
330
1B
102
}
100
AcDbMlineStyle
  2
STANDARD
 70
     0
  3

 62
   256
 51
90.0
 52
90.0
 71
     2
 49
0.5
 62
   256
  6
BYLAYER
 49
-0.5
 62
   256
  6
BYLAYER
   0
XRECORD
   5
1C
 102
{ACAD_REACTORS
 330
C
 102
}
 330
C
 100
AcDbXrecord
 280
1
   1
DWGPROPS COOKIE
   2
 
   3
 
   4
ｈａｒｕｎａ
   6
 
   7
ﾌﾛｱｰ金具部材③
   8
ｈａｒｕｎａ
   9

 300
 = 
 301
 = 
 302
 = 
 303
 = 
 304
 = 
 305
 = 
 306
 = 
 307
 = 
 308
 = 
 309
 = 
  40
0.0
  41
 2458340.5000000
  42
 2460114.5000000
   1

  90
10
   0
ENDSEC
   0
EOF
