   0
SECTION
   2
HEADER
   9
$ACADVER
   1
AC1015
   9
$DWGCODEPAGE
   3
ANSI_932
   9
$LIMMIN
  10
0.0
  20
0.0
   9
$LIMMAX
  10
 420.00000000000
  20
 297.00000000000
   9
$EXTMIN
  10
0.0
  20
0.0
  30
0.0
   9
$EXTMAX
  10
 420.00000000000
  20
 297.00000000000
  30
0.0
   9
$LTSCALE
  40
 8.4000000000000
   9
$HANDSEED
   5
5CC
   0
ENDSEC
   0
SECTION
   2
TABLES
  0
TABLE
  2
VPORT
  5
8
100
AcDbSymbolTable
 70
     1
  0
VPORT
  5
5CB
100
AcDbSymbolTableRecord
100
AcDbViewportTableRecord
  2
*ACTIVE
 70
     0
 10
0.0
 20
0.0
 11
1.0
 21
1.0
  12
 210.00000000000
  22
 148.50000000000
 13
0.0
 23
0.0
 14
1.0
 24
1.0
 15
0.0
 25
0.0
 16
0.0
 26
0.0
 36
1.0
 17
0.0
 27
0.0
 37
0.0
  40
 420.00000000000
  41
 1.4787878787879
 42
50.0
 43
0.0
 44
0.0
 50
0.0
 51
0.0
 71
     0
 72
   100
 73
     1
 74
     1
 75
     0
 76
     0
 77
     0
 78
     0
  0
ENDTAB
  0
TABLE
  2
LTYPE
  5
5
100
AcDbSymbolTable
 70
    25
  0
LTYPE
  5
12
100
AcDbSymbolTableRecord
100
AcDbLinetypeTableRecord
  2
BYBLOCK
 70
     0
  3

 72
    65
 73
     0
 40
0.0
  0
LTYPE
  5
13
100
AcDbSymbolTableRecord
100
AcDbLinetypeTableRecord
  2
BYLAYER
 70
     0
  3

 72
    65
 73
     0
 40
0.0
  0
LTYPE
  5
14
100
AcDbSymbolTableRecord
100
AcDbLinetypeTableRecord
  2
CONTINUOUS
 70
     0
  3
Solid line
 72
    65
 73
     0
 40
0.0
  0
LTYPE
  5
20
100
AcDbSymbolTableRecord
100
AcDbLinetypeTableRecord
  2
BORDER
 70
     0
  3
__ __ . __ __ . __ __ . __ __ . __ __ . __ __ .
 72
    65
 73
     6
 40
1.75
 49
0.5
 74
     0
 49
-0.25
 74
     0
 49
0.5
 74
     0
 49
-0.25
 74
     0
 49
0.0
 74
     0
 49
-0.25
 74
     0
  0
LTYPE
  5
21
100
AcDbSymbolTableRecord
100
AcDbLinetypeTableRecord
  2
BORDER2
 70
     0
  3
__.__.__.__.__.__.__.__.__.__.__.__.__.__.__.__
 72
    65
 73
     6
 40
0.875
 49
0.25
 74
     0
 49
-0.125
 74
     0
 49
0.25
 74
     0
 49
-0.125
 74
     0
 49
0.0
 74
     0
 49
-0.125
 74
     0
  0
LTYPE
  5
22
100
AcDbSymbolTableRecord
100
AcDbLinetypeTableRecord
  2
BORDERX2
 70
     0
  3
____  ____  .  ____  ____  .  ____  ____  .  __
 72
    65
 73
     6
 40
3.5
 49
1.0
 74
     0
 49
-0.5
 74
     0
 49
1.0
 74
     0
 49
-0.5
 74
     0
 49
0.0
 74
     0
 49
-0.5
 74
     0
  0
LTYPE
  5
23
100
AcDbSymbolTableRecord
100
AcDbLinetypeTableRecord
  2
CENTER
 70
     0
  3
____ _ ____ _ ____ _ ____ _ ____ _ ____ _ ____ 
 72
    65
 73
     4
 40
2.0
 49
1.25
 74
     0
 49
-0.25
 74
     0
 49
0.25
 74
     0
 49
-0.25
 74
     0
  0
LTYPE
  5
24
100
AcDbSymbolTableRecord
100
AcDbLinetypeTableRecord
  2
CENTER2
 70
     0
  3
___ _ ___ _ ___ _ ___ _ ___ _ ___ _ ___ _ ___ _
 72
    65
 73
     4
 40
1.125
 49
0.75
 74
     0
 49
-0.125
 74
     0
 49
0.125
 74
     0
 49
-0.125
 74
     0
  0
LTYPE
  5
25
100
AcDbSymbolTableRecord
100
AcDbLinetypeTableRecord
  2
CENTERX2
 70
     0
  3
________  __  ________  __  ________  __  _____
 72
    65
 73
     4
 40
4.0
 49
2.5
 74
     0
 49
-0.5
 74
     0
 49
0.5
 74
     0
 49
-0.5
 74
     0
  0
LTYPE
  5
26
100
AcDbSymbolTableRecord
100
AcDbLinetypeTableRecord
  2
DASHDOT
 70
     0
  3
__ . __ . __ . __ . __ . __ . __ . __ . __ . __
 72
    65
 73
     4
 40
1.0
 49
0.5
 74
     0
 49
-0.25
 74
     0
 49
0.0
 74
     0
 49
-0.25
 74
     0
  0
LTYPE
  5
27
100
AcDbSymbolTableRecord
100
AcDbLinetypeTableRecord
  2
DASHDOT2
 70
     0
  3
_._._._._._._._._._._._._._._._._._._._._._._._
 72
    65
 73
     4
 40
0.5
 49
0.25
 74
     0
 49
-0.125
 74
     0
 49
0.0
 74
     0
 49
-0.125
 74
     0
  0
LTYPE
  5
28
100
AcDbSymbolTableRecord
100
AcDbLinetypeTableRecord
  2
DASHDOTX2
 70
     0
  3
____  .  ____  .  ____  .  ____  .  ____  .  __
 72
    65
 73
     4
 40
2.0
 49
1.0
 74
     0
 49
-0.5
 74
     0
 49
0.0
 74
     0
 49
-0.5
 74
     0
  0
LTYPE
  5
29
100
AcDbSymbolTableRecord
100
AcDbLinetypeTableRecord
  2
DASHED
 70
     0
  3
__ __ __ __ __ __ __ __ __ __ __ __ __ __ __ __
 72
    65
 73
     2
 40
0.75
 49
0.5
 74
     0
 49
-0.25
 74
     0
  0
LTYPE
  5
2A
100
AcDbSymbolTableRecord
100
AcDbLinetypeTableRecord
  2
DASHED2
 70
     0
  3
_ _ _ _ _ _ _ _ _ _ _ _ _ _ _ _ _ _ _ _ _ _ _ _
 72
    65
 73
     2
 40
0.375
 49
0.25
 74
     0
 49
-0.125
 74
     0
  0
LTYPE
  5
2B
100
AcDbSymbolTableRecord
100
AcDbLinetypeTableRecord
  2
DASHEDX2
 70
     0
  3
____  ____  ____  ____  ____  ____  ____  ____ 
 72
    65
 73
     2
 40
1.5
 49
1.0
 74
     0
 49
-0.5
 74
     0
  0
LTYPE
  5
2C
100
AcDbSymbolTableRecord
100
AcDbLinetypeTableRecord
  2
DIVIDE
 70
     0
  3
____ . . ____ . . ____ . . ____ . . ____ . . __
 72
    65
 73
     6
 40
1.25
 49
0.5
 74
     0
 49
-0.25
 74
     0
 49
0.0
 74
     0
 49
-0.25
 74
     0
 49
0.0
 74
     0
 49
-0.25
 74
     0
  0
LTYPE
  5
2D
100
AcDbSymbolTableRecord
100
AcDbLinetypeTableRecord
  2
DIVIDE2
 70
     0
  3
__..__..__..__..__..__..__..__..__..__..__..__.
 72
    65
 73
     6
 40
0.625
 49
0.25
 74
     0
 49
-0.125
 74
     0
 49
0.0
 74
     0
 49
-0.125
 74
     0
 49
0.0
 74
     0
 49
-0.125
 74
     0
  0
LTYPE
  5
2E
100
AcDbSymbolTableRecord
100
AcDbLinetypeTableRecord
  2
DIVIDEX2
 70
     0
  3
________  .  .  ________  .  .  ________  .  . 
 72
    65
 73
     6
 40
2.5
 49
1.0
 74
     0
 49
-0.5
 74
     0
 49
0.0
 74
     0
 49
-0.5
 74
     0
 49
0.0
 74
     0
 49
-0.5
 74
     0
  0
LTYPE
  5
2F
100
AcDbSymbolTableRecord
100
AcDbLinetypeTableRecord
  2
DOT
 70
     0
  3
. . . . . . . . . . . . . . . . . . . . . . . .
 72
    65
 73
     2
 40
0.25
 49
0.0
 74
     0
 49
-0.25
 74
     0
  0
LTYPE
  5
30
100
AcDbSymbolTableRecord
100
AcDbLinetypeTableRecord
  2
DOT2
 70
     0
  3
...............................................
 72
    65
 73
     2
 40
0.125
 49
0.0
 74
     0
 49
-0.125
 74
     0
  0
LTYPE
  5
31
100
AcDbSymbolTableRecord
100
AcDbLinetypeTableRecord
  2
DOTX2
 70
     0
  3
.  .  .  .  .  .  .  .  .  .  .  .  .  .  .  . 
 72
    65
 73
     2
 40
0.5
 49
0.0
 74
     0
 49
-0.5
 74
     0
  0
LTYPE
  5
32
100
AcDbSymbolTableRecord
100
AcDbLinetypeTableRecord
  2
HIDDEN
 70
     0
  3
__ __ __ __ __ __ __ __ __ __ __ __ __ __ __ __
 72
    65
 73
     2
 40
0.375
 49
0.25
 74
     0
 49
-0.125
 74
     0
  0
LTYPE
  5
33
100
AcDbSymbolTableRecord
100
AcDbLinetypeTableRecord
  2
HIDDEN2
 70
     0
  3
_ _ _ _ _ _ _ _ _ _ _ _ _ _ _ _ _ _ _ _ _ _ _ _
 72
    65
 73
     2
 40
0.1875
 49
0.125
 74
     0
 49
-0.0625
 74
     0
  0
LTYPE
  5
34
100
AcDbSymbolTableRecord
100
AcDbLinetypeTableRecord
  2
HIDDENX2
 70
     0
  3
____ ____ ____ ____ ____ ____ ____ ____ ____ __
 72
    65
 73
     2
 40
0.75
 49
0.5
 74
     0
 49
-0.25
 74
     0
  0
LTYPE
  5
35
100
AcDbSymbolTableRecord
100
AcDbLinetypeTableRecord
  2
PHANTOM
 70
     0
  3
______  __  __  ______  __  __  ______  __  __ 
 72
    65
 73
     6
 40
2.5
 49
1.25
 74
     0
 49
-0.25
 74
     0
 49
0.25
 74
     0
 49
-0.25
 74
     0
 49
0.25
 74
     0
 49
-0.25
 74
     0
  0
LTYPE
  5
36
100
AcDbSymbolTableRecord
100
AcDbLinetypeTableRecord
  2
PHANTOM2
 70
     0
  3
___ _ _ ___ _ _ ___ _ _ ___ _ _ ___ _ _ ___ _ _
 72
    65
 73
     6
 40
1.25
 49
0.625
 74
     0
 49
-0.125
 74
     0
 49
0.125
 74
     0
 49
-0.125
 74
     0
 49
0.125
 74
     0
 49
-0.125
 74
     0
  0
LTYPE
  5
37
100
AcDbSymbolTableRecord
100
AcDbLinetypeTableRecord
  2
PHANTOMX2
 70
     0
  3
____________    ____    ____    ____________   
 72
    65
 73
     6
 40
5.0
 49
2.5
 74
     0
 49
-0.5
 74
     0
 49
0.5
 74
     0
 49
-0.5
 74
     0
 49
0.5
 74
     0
 49
-0.5
 74
     0
  0
ENDTAB
   0
TABLE
   2
LAYER
   5
2
 100
AcDbSymbolTable
  70
3
   0
LAYER
   5
E
 100
AcDbSymbolTableRecord
 100
AcDbLayerTableRecord
   2
0
  70
0
  62
7
   6
CONTINUOUS
 390
30
   0
LAYER
   5
39
 100
AcDbSymbolTableRecord
 100
AcDbLayerTableRecord
   2
LEVEL001
  70
0
  62
7
   6
CONTINUOUS
 390
30
   0
LAYER
   5
3A
 100
AcDbSymbolTableRecord
 100
AcDbLayerTableRecord
   2
LEVEL002
  70
0
  62
7
   6
CONTINUOUS
 390
30
   0
ENDTAB
  0
TABLE
  2
STYLE
  5
3
100
AcDbSymbolTable
  70
6
  0
STYLE
  5
F
100
AcDbSymbolTableRecord
100
AcDbTextStyleTableRecord
  2
STANDARD
 70
     0
 40
0.0
 41
1.0
 50
0.0
 71
     0
 42
0.2
  3
TXT
  4
BIGFONT
  0
STYLE
  5
38
100
AcDbSymbolTableRecord
100
AcDbTextStyleTableRecord
  2
STANDARD1
 70
     4
 40
0.0
 41
1.0
 50
0.0
 71
     0
 42
0.2
  3
TXT
  4
BIGFONT
   0
STYLE
   5
3B
 100
AcDbSymbolTableRecord
 100
AcDbTextStyleTableRecord
   2
GMM001
  70
0
  40
0.0
  41
 0.80000000000000
  50
0.0
  71
     0
  42
1.0
   3
txt.shx
   4
bigfont.shx
   0
STYLE
   5
3C
 100
AcDbSymbolTableRecord
 100
AcDbTextStyleTableRecord
   2
GMM002
  70
0
  40
0.0
  41
 1.0000000000000
  50
0.0
  71
     0
  42
1.0
   3
txt.shx
   4
bigfont.shx
   0
STYLE
   5
3D
 100
AcDbSymbolTableRecord
 100
AcDbTextStyleTableRecord
   2
GMM003
  70
0
  40
0.0
  41
 1.0714285714286
  50
0.0
  71
     0
  42
1.0
   3
txt.shx
   4
bigfont.shx
   0
STYLE
   5
3E
 100
AcDbSymbolTableRecord
 100
AcDbTextStyleTableRecord
   2
GMM004
  70
0
  40
0.0
  41
 0.88888888888889
  50
0.0
  71
     0
  42
1.0
   3
txt.shx
   4
bigfont.shx
   0
ENDTAB
  0
TABLE
  2
VIEW
  5
6
100
AcDbSymbolTable
 70
     0
  0
ENDTAB
  0
TABLE
  2
UCS
  5
7
100
AcDbSymbolTable
 70
     0
  0
ENDTAB
  0
TABLE
  2
APPID
  5
9
100
AcDbSymbolTable
 70
     1
  0
APPID
  5
10
100
AcDbSymbolTableRecord
100
AcDbRegAppTableRecord
  2
ACAD
 70
     0
  0
ENDTAB
   0
TABLE
   2
DIMSTYLE
   5
A
 100
AcDbSymbolTable
  70
13
 100
AcDbDimStyleTable
  0
DIMSTYLE
105
1D
100
AcDbSymbolTableRecord
100
AcDbDimStyleTableRecord
  2
STANDARD
 70
     0
  3

  4

  5

  6

  7

 40
1.0
 41
0.18
 42
0.0625
 43
0.38
 44
0.18
 45
0.0
 46
0.0
 47
0.0
 48
0.0
140
0.18
141
0.09
142
0.0
143
25.4
144
1.0
145
0.0
146
1.0
147
0.09
 71
     0
 72
     0
 73
     1
 74
     1
 75
     0
 76
     0
 77
     0
 78
     0
170
     0
171
     2
172
     0
173
     0
174
     0
175
     0
176
     0
177
     0
178
     0
270
     2
271
     4
272
     4
273
     2
274
     2
340
F
275
     0
280
     0
281
     0
282
     0
283
     1
284
     0
285
     0
286
     0
287
     3
288
     0
   0
DIMSTYLE
 105
3F
 100
AcDbSymbolTableRecord
 100
AcDbDimStyleTableRecord
   2
GMM001
  70
0
   3

   4

   5

   6

   7

  40
 1.0000000000000
  41
 2.0000000000000
  42
 1.0000000000000
  43
 8.0000000000000
  44
 1.0000000000000
  45
0.0
  46
0.0
  47
0.0
  48
0.0
 140
 2.5000000000000
 141
 1.0000000000000
 142
0.0
 143
 0.39400000000000E-1
 144
 1.0000000000000
 145
0.0
 146
 1.0000000000000
 147
 1.0000000000000
  71
0
  72
0
  73
0
  74
0
  75
0
  76
0
  77
3
  78
8
 170
0
 171
2
 172
1
 173
1
 174
0
 175
0
 176
8
 177
8
 178
8
 270
2
 271
6
 272
0
 273
2
 274
2
 340
3C
 275
1
 280
0
 281
0
 282
0
 283
1
 284
0
 285
0
 286
0
 287
3
 288
0
   0
DIMSTYLE
 105
40
 100
AcDbSymbolTableRecord
 100
AcDbDimStyleTableRecord
   2
GMM002
  70
0
   3

   4

   5

   6

   7

  40
 1.0000000000000
  41
 2.0000000000000
  42
 1.0000000000000
  43
 8.0000000000000
  44
 1.0000000000000
  45
0.0
  46
0.0
  47
0.0
  48
0.0
 140
 2.5000000000000
 141
 1.0000000000000
 142
0.0
 143
 0.39400000000000E-1
 144
 1.0000000000000
 145
0.0
 146
 1.0000000000000
 147
 0.94014726095969
  71
0
  72
0
  73
0
  74
0
  75
0
  76
0
  77
3
  78
8
 170
0
 171
2
 172
1
 173
1
 174
0
 175
0
 176
8
 177
8
 178
8
 270
2
 271
6
 272
0
 273
2
 274
2
 340
3C
 275
1
 280
0
 281
0
 282
0
 283
1
 284
0
 285
0
 286
0
 287
3
 288
1
   0
DIMSTYLE
 105
41
 100
AcDbSymbolTableRecord
 100
AcDbDimStyleTableRecord
   2
GMM003
  70
0
   3

   4

   5

   6

   7

  40
 1.0000000000000
  41
 2.0000000000000
  42
 1.0000000000000
  43
 8.0000000000000
  44
 1.0000000000000
  45
0.0
  46
0.0
  47
0.0
  48
0.0
 140
 2.5000000000000
 141
 1.0000000000000
 142
0.0
 143
 0.39400000000000E-1
 144
 1.0000000000000
 145
0.0
 146
 1.0000000000000
 147
 0.67838825877163
  71
0
  72
0
  73
0
  74
0
  75
0
  76
0
  77
3
  78
8
 170
0
 171
2
 172
1
 173
1
 174
0
 175
0
 176
8
 177
8
 178
8
 270
2
 271
6
 272
0
 273
2
 274
2
 340
3C
 275
1
 280
0
 281
0
 282
0
 283
1
 284
0
 285
0
 286
0
 287
3
 288
1
   0
DIMSTYLE
 105
42
 100
AcDbSymbolTableRecord
 100
AcDbDimStyleTableRecord
   2
GMM004
  70
0
   3

   4

   5

   6

   7

  40
 1.0000000000000
  41
 2.0000000000000
  42
 1.0000000000000
  43
 8.0000000000000
  44
 1.0000000000000
  45
0.0
  46
0.0
  47
0.0
  48
0.0
 140
 2.5000000000000
 141
 1.0000000000000
 142
0.0
 143
 0.39400000000000E-1
 144
 1.0000000000000
 145
0.0
 146
 1.0000000000000
 147
 0.94019840221301
  71
0
  72
0
  73
0
  74
0
  75
0
  76
0
  77
3
  78
8
 170
0
 171
2
 172
1
 173
1
 174
0
 175
0
 176
8
 177
8
 178
8
 270
2
 271
6
 272
0
 273
2
 274
2
 340
3C
 275
1
 280
0
 281
0
 282
0
 283
1
 284
0
 285
0
 286
0
 287
3
 288
1
   0
DIMSTYLE
 105
43
 100
AcDbSymbolTableRecord
 100
AcDbDimStyleTableRecord
   2
GMM005
  70
0
   3

   4

   5

   6

   7

  40
 1.0000000000000
  41
 2.0000000000000
  42
 1.0000000000000
  43
 8.0000000000000
  44
 1.0000000000000
  45
0.0
  46
0.0
  47
0.0
  48
0.0
 140
 2.5000000000000
 141
 1.0000000000000
 142
0.0
 143
 0.39400000000000E-1
 144
 1.0000000000000
 145
0.0
 146
 1.0000000000000
 147
 0.88079427542723
  71
0
  72
0
  73
0
  74
0
  75
0
  76
0
  77
3
  78
8
 170
0
 171
2
 172
1
 173
1
 174
0
 175
0
 176
8
 177
8
 178
8
 270
2
 271
6
 272
0
 273
2
 274
2
 340
3C
 275
1
 280
0
 281
0
 282
0
 283
1
 284
0
 285
0
 286
0
 287
3
 288
1
   0
DIMSTYLE
 105
44
 100
AcDbSymbolTableRecord
 100
AcDbDimStyleTableRecord
   2
GMM006
  70
0
   3

   4

   5

   6

   7

  40
 1.0000000000000
  41
 2.0000000000000
  42
 1.0000000000000
  43
 8.0000000000000
  44
 1.0000000000000
  45
0.0
  46
0.0
  47
0.0
  48
0.0
 140
 2.5000000000000
 141
 1.0000000000000
 142
0.0
 143
 0.39400000000000E-1
 144
 1.0000000000000
 145
0.0
 146
 1.0000000000000
 147
 0.88323872330409
  71
0
  72
0
  73
0
  74
0
  75
0
  76
0
  77
3
  78
8
 170
0
 171
2
 172
1
 173
1
 174
0
 175
0
 176
8
 177
8
 178
8
 270
2
 271
6
 272
0
 273
2
 274
2
 340
3C
 275
1
 280
0
 281
0
 282
0
 283
1
 284
0
 285
0
 286
0
 287
3
 288
1
   0
DIMSTYLE
 105
45
 100
AcDbSymbolTableRecord
 100
AcDbDimStyleTableRecord
   2
GMM007
  70
0
   3

   4

   5

   6

   7

  40
 1.0000000000000
  41
 2.0000000000000
  42
 1.0000000000000
  43
 8.0000000000000
  44
 1.0000000000000
  45
0.0
  46
0.0
  47
0.0
  48
0.0
 140
 2.5000000000000
 141
 1.0000000000000
 142
0.0
 143
 0.39400000000000E-1
 144
 1.0000000000000
 145
0.0
 146
 1.0000000000000
 147
 0.91549941279276
  71
0
  72
0
  73
0
  74
0
  75
0
  76
0
  77
3
  78
8
 170
0
 171
2
 172
1
 173
1
 174
0
 175
0
 176
8
 177
8
 178
8
 270
2
 271
6
 272
0
 273
2
 274
2
 340
3C
 275
1
 280
0
 281
0
 282
0
 283
1
 284
0
 285
0
 286
0
 287
3
 288
1
   0
DIMSTYLE
 105
46
 100
AcDbSymbolTableRecord
 100
AcDbDimStyleTableRecord
   2
GMM008
  70
0
   3

   4

   5

   6

   7

  40
 1.0000000000000
  41
 2.0000000000000
  42
 1.0000000000000
  43
 8.0000000000000
  44
 1.0000000000000
  45
0.0
  46
0.0
  47
0.0
  48
0.0
 140
 2.5000000000000
 141
 1.0000000000000
 142
0.0
 143
 0.39400000000000E-1
 144
 1.0000000000000
 145
0.0
 146
 1.0000000000000
 147
 1.0000000000000
  71
0
  72
0
  73
0
  74
0
  75
0
  76
0
  77
3
  78
8
 170
0
 171
2
 172
1
 173
1
 174
0
 175
0
 176
8
 177
8
 178
8
 270
2
 271
6
 272
0
 273
2
 274
2
 340
3C
 275
0
 280
0
 281
0
 282
0
 283
1
 284
0
 285
0
 286
0
 287
3
 288
0
   0
DIMSTYLE
 105
47
 100
AcDbSymbolTableRecord
 100
AcDbDimStyleTableRecord
   2
GMM009
  70
0
   3

   4

   5

   6

   7

  40
 1.0000000000000
  41
 2.0000000000000
  42
 1.0000000000000
  43
 8.0000000000000
  44
 1.0000000000000
  45
0.0
  46
0.0
  47
0.0
  48
0.0
 140
 2.5000000000000
 141
 1.0000000000000
 142
0.0
 143
 0.39400000000000E-1
 144
 1.0000000000000
 145
0.0
 146
 1.0000000000000
 147
 0.84715900000000
  71
0
  72
0
  73
0
  74
0
  75
0
  76
0
  77
3
  78
8
 170
0
 171
2
 172
1
 173
1
 174
0
 175
0
 176
8
 177
8
 178
8
 270
2
 271
6
 272
0
 273
2
 274
2
 340
3C
 275
0
 280
0
 281
0
 282
0
 283
1
 284
0
 285
0
 286
0
 287
3
 288
1
   0
DIMSTYLE
 105
48
 100
AcDbSymbolTableRecord
 100
AcDbDimStyleTableRecord
   2
GMM010
  70
0
   3

   4

   5

   6

   7

  40
 1.0000000000000
  41
 2.0000000000000
  42
 1.0000000000000
  43
 8.0000000000000
  44
 1.0000000000000
  45
0.0
  46
0.0
  47
0.0
  48
0.0
 140
 2.5000000000000
 141
 1.0000000000000
 142
0.0
 143
 0.39400000000000E-1
 144
 1.0000000000000
 145
0.0
 146
 1.0000000000000
 147
 1.0292397660819
  71
0
  72
0
  73
0
  74
0
  75
0
  76
0
  77
3
  78
8
 170
0
 171
2
 172
1
 173
1
 174
0
 175
0
 176
8
 177
8
 178
8
 270
2
 271
6
 272
0
 273
2
 274
2
 340
3C
 275
0
 280
0
 281
0
 282
0
 283
1
 284
0
 285
0
 286
0
 287
3
 288
1
   0
DIMSTYLE
 105
49
 100
AcDbSymbolTableRecord
 100
AcDbDimStyleTableRecord
   2
GMM011
  70
0
   3

   4

   5

   6

   7

  40
 1.0000000000000
  41
 2.0000000000000
  42
 1.0000000000000
  43
 8.0000000000000
  44
 1.0000000000000
  45
0.0
  46
0.0
  47
0.0
  48
0.0
 140
 2.5000000000000
 141
 1.0000000000000
 142
0.0
 143
 0.39400000000000E-1
 144
 1.0000000000000
 145
0.0
 146
 1.0000000000000
 147
 0.89721500000000
  71
0
  72
0
  73
0
  74
0
  75
0
  76
0
  77
3
  78
8
 170
0
 171
2
 172
1
 173
1
 174
0
 175
0
 176
8
 177
8
 178
8
 270
2
 271
6
 272
0
 273
2
 274
2
 340
3C
 275
0
 280
0
 281
0
 282
0
 283
1
 284
0
 285
0
 286
0
 287
3
 288
1
   0
ENDTAB
  0
TABLE
  2
BLOCK_RECORD
  5
1
100
AcDbSymbolTable
 70
     0
  0
BLOCK_RECORD
  5
18
100
AcDbSymbolTableRecord
100
AcDbBlockTableRecord
  2
*MODEL_SPACE
  0
BLOCK_RECORD
  5
15
100
AcDbSymbolTableRecord
100
AcDbBlockTableRecord
  2
*PAPER_SPACE
   0
BLOCK_RECORD
   5
4A
 100
AcDbSymbolTableRecord
 100
AcDbBlockTableRecord
   2
*D1
   0
BLOCK_RECORD
   5
4B
 100
AcDbSymbolTableRecord
 100
AcDbBlockTableRecord
   2
*D2
   0
BLOCK_RECORD
   5
4C
 100
AcDbSymbolTableRecord
 100
AcDbBlockTableRecord
   2
*D3
   0
BLOCK_RECORD
   5
4D
 100
AcDbSymbolTableRecord
 100
AcDbBlockTableRecord
   2
*D4
   0
BLOCK_RECORD
   5
4E
 100
AcDbSymbolTableRecord
 100
AcDbBlockTableRecord
   2
*D5
   0
BLOCK_RECORD
   5
4F
 100
AcDbSymbolTableRecord
 100
AcDbBlockTableRecord
   2
*D6
   0
BLOCK_RECORD
   5
50
 100
AcDbSymbolTableRecord
 100
AcDbBlockTableRecord
   2
*D7
   0
BLOCK_RECORD
   5
51
 100
AcDbSymbolTableRecord
 100
AcDbBlockTableRecord
   2
*D8
   0
BLOCK_RECORD
   5
52
 100
AcDbSymbolTableRecord
 100
AcDbBlockTableRecord
   2
*D9
   0
BLOCK_RECORD
   5
53
 100
AcDbSymbolTableRecord
 100
AcDbBlockTableRecord
   2
*D10
   0
BLOCK_RECORD
   5
54
 100
AcDbSymbolTableRecord
 100
AcDbBlockTableRecord
   2
*D11
   0
BLOCK_RECORD
   5
55
 100
AcDbSymbolTableRecord
 100
AcDbBlockTableRecord
   2
*D12
   0
BLOCK_RECORD
   5
56
 100
AcDbSymbolTableRecord
 100
AcDbBlockTableRecord
   2
*D13
   0
BLOCK_RECORD
   5
57
 100
AcDbSymbolTableRecord
 100
AcDbBlockTableRecord
   2
*D14
   0
BLOCK_RECORD
   5
58
 100
AcDbSymbolTableRecord
 100
AcDbBlockTableRecord
   2
*D15
   0
BLOCK_RECORD
   5
59
 100
AcDbSymbolTableRecord
 100
AcDbBlockTableRecord
   2
*D16
   0
BLOCK_RECORD
   5
5A
 100
AcDbSymbolTableRecord
 100
AcDbBlockTableRecord
   2
*D17
   0
BLOCK_RECORD
   5
5B
 100
AcDbSymbolTableRecord
 100
AcDbBlockTableRecord
   2
*D18
   0
BLOCK_RECORD
   5
5C
 100
AcDbSymbolTableRecord
 100
AcDbBlockTableRecord
   2
*D19
   0
BLOCK_RECORD
   5
5D
 100
AcDbSymbolTableRecord
 100
AcDbBlockTableRecord
   2
*D20
   0
BLOCK_RECORD
   5
5E
 100
AcDbSymbolTableRecord
 100
AcDbBlockTableRecord
   2
*D21
   0
BLOCK_RECORD
   5
5F
 100
AcDbSymbolTableRecord
 100
AcDbBlockTableRecord
   2
*D22
   0
BLOCK_RECORD
   5
60
 100
AcDbSymbolTableRecord
 100
AcDbBlockTableRecord
   2
*D23
   0
BLOCK_RECORD
   5
61
 100
AcDbSymbolTableRecord
 100
AcDbBlockTableRecord
   2
*D24
   0
BLOCK_RECORD
   5
62
 100
AcDbSymbolTableRecord
 100
AcDbBlockTableRecord
   2
*D25
   0
BLOCK_RECORD
   5
63
 100
AcDbSymbolTableRecord
 100
AcDbBlockTableRecord
   2
_ARCHTICK
   0
BLOCK_RECORD
   5
64
 100
AcDbSymbolTableRecord
 100
AcDbBlockTableRecord
   2
_BOXBLANK
   0
BLOCK_RECORD
   5
65
 100
AcDbSymbolTableRecord
 100
AcDbBlockTableRecord
   2
_BOXFILLED
   0
BLOCK_RECORD
   5
66
 100
AcDbSymbolTableRecord
 100
AcDbBlockTableRecord
   2
_CLOSED
   0
BLOCK_RECORD
   5
67
 100
AcDbSymbolTableRecord
 100
AcDbBlockTableRecord
   2
_CLOSEDBLANK
   0
BLOCK_RECORD
   5
68
 100
AcDbSymbolTableRecord
 100
AcDbBlockTableRecord
   2
_DATUMBLANK
   0
BLOCK_RECORD
   5
69
 100
AcDbSymbolTableRecord
 100
AcDbBlockTableRecord
   2
_DATUMFILLED
   0
BLOCK_RECORD
   5
6A
 100
AcDbSymbolTableRecord
 100
AcDbBlockTableRecord
   2
_DOT
   0
BLOCK_RECORD
   5
6B
 100
AcDbSymbolTableRecord
 100
AcDbBlockTableRecord
   2
_DOTBLANK
   0
BLOCK_RECORD
   5
6C
 100
AcDbSymbolTableRecord
 100
AcDbBlockTableRecord
   2
_DOTSMALL
   0
BLOCK_RECORD
   5
6D
 100
AcDbSymbolTableRecord
 100
AcDbBlockTableRecord
   2
_INTEGRAL
   0
BLOCK_RECORD
   5
6E
 100
AcDbSymbolTableRecord
 100
AcDbBlockTableRecord
   2
_NONE
   0
BLOCK_RECORD
   5
6F
 100
AcDbSymbolTableRecord
 100
AcDbBlockTableRecord
   2
_OBLIQUE
   0
BLOCK_RECORD
   5
70
 100
AcDbSymbolTableRecord
 100
AcDbBlockTableRecord
   2
_OPEN
   0
BLOCK_RECORD
   5
71
 100
AcDbSymbolTableRecord
 100
AcDbBlockTableRecord
   2
_OPEN30
   0
BLOCK_RECORD
   5
72
 100
AcDbSymbolTableRecord
 100
AcDbBlockTableRecord
   2
_OPEN90
   0
BLOCK_RECORD
   5
73
 100
AcDbSymbolTableRecord
 100
AcDbBlockTableRecord
   2
_ORIGIN
   0
ENDTAB
   0
ENDSEC
  0
SECTION
  2
BLOCKS
  0
BLOCK
  5
19
100
AcDbEntity
  8
0
100
AcDbBlockBegin
  2
*MODEL_SPACE
 70
     0
 10
0.0
 20
0.0
 30
0.0
  3
*MODEL_SPACE
  1

  0
ENDBLK
  5
1A
100
AcDbEntity
  8
0
100
AcDbBlockEnd
  0
BLOCK
  5
16
100
AcDbEntity
 67
     1
  8
0
100
AcDbBlockBegin
  2
*PAPER_SPACE
 70
     0
 10
0.0
 20
0.0
 30
0.0
  3
*PAPER_SPACE
  1

  0
ENDBLK
  5
17
100
AcDbEntity
 67
     1
  8
0
100
AcDbBlockEnd
   0
BLOCK
   5
74
 100
AcDbEntity
   8
0
 100
AcDbBlockBegin
   2
_ARCHTICK
  70
0
  10
0.0
  20
0.0
  30
0.0
   3
_ARCHTICK
   0
POLYLINE
   5
75
 100
AcDbEntity
   8
0
 370
-2
   6
BYBLOCK
  62
0
 100
AcDb2dPolyline
  66
1
  10
0.0
  20
0.0
  30
0.0
  70
1
  40
 0.15000000000000
  41
 0.15000000000000
   0
VERTEX
   5
76
 100
AcDbEntity
   8
0
   6
BYBLOCK
  62
0
 100
AcDbVertex
 100
AcDb2dVertex
  10
-0.50000000000000
  20
-0.50000000000000
  30
0.0
  40
 0.15000000000000
  41
 0.15000000000000
   0
VERTEX
   5
77
 100
AcDbEntity
   8
0
   6
BYBLOCK
  62
0
 100
AcDbVertex
 100
AcDb2dVertex
  10
 0.50000000000000
  20
 0.50000000000000
  30
0.0
  40
 0.15000000000000
  41
 0.15000000000000
   0
SEQEND
   5
78
 100
AcDbEntity
   8
0
   6
BYBLOCK
  62
0
   0
ENDBLK
   5
79
 100
AcDbEntity
   8
0
 100
AcDbBlockEnd
   0
BLOCK
   5
7A
 100
AcDbEntity
   8
0
 100
AcDbBlockBegin
   2
_OBLIQUE
  70
0
  10
0.0
  20
0.0
  30
0.0
   3
_OBLIQUE
   0
LINE
   5
7B
 100
AcDbEntity
   8
0
 370
-2
 100
AcDbLine
   6
BYBLOCK
  62
0
  10
-0.50000000000000
  20
-0.50000000000000
  30
0.0
  11
 0.50000000000000
  21
 0.50000000000000
  31
0.0
   0
ENDBLK
   5
7C
 100
AcDbEntity
   8
0
 100
AcDbBlockEnd
   0
BLOCK
   5
7D
 100
AcDbEntity
   8
0
 100
AcDbBlockBegin
   2
_BOXBLANK
  70
0
  10
0.0
  20
0.0
  30
0.0
   3
_BOXBLANK
   0
LINE
   5
7E
 100
AcDbEntity
   8
0
 370
-2
 100
AcDbLine
   6
BYBLOCK
  62
0
  10
-0.50000000000000
  20
-0.50000000000000
  30
0.0
  11
 0.50000000000000
  21
-0.50000000000000
  31
0.0
   0
LINE
   5
7F
 100
AcDbEntity
   8
0
 370
-2
 100
AcDbLine
   6
BYBLOCK
  62
0
  10
 0.50000000000000
  20
-0.50000000000000
  30
0.0
  11
 0.50000000000000
  21
 0.50000000000000
  31
0.0
   0
LINE
   5
80
 100
AcDbEntity
   8
0
 370
-2
 100
AcDbLine
   6
BYBLOCK
  62
0
  10
 0.50000000000000
  20
 0.50000000000000
  30
0.0
  11
-0.50000000000000
  21
 0.50000000000000
  31
0.0
   0
LINE
   5
81
 100
AcDbEntity
   8
0
 370
-2
 100
AcDbLine
   6
BYBLOCK
  62
0
  10
-0.50000000000000
  20
 0.50000000000000
  30
0.0
  11
-0.50000000000000
  21
-0.50000000000000
  31
0.0
   0
LINE
   5
82
 100
AcDbEntity
   8
0
 370
-2
 100
AcDbLine
   6
BYBLOCK
  62
0
  10
-0.50000000000000
  20
0.0
  30
0.0
  11
-1.0000000000000
  21
0.0
  31
0.0
   0
ENDBLK
   5
83
 100
AcDbEntity
   8
0
 100
AcDbBlockEnd
   0
BLOCK
   5
84
 100
AcDbEntity
   8
0
 100
AcDbBlockBegin
   2
_BOXFILLED
  70
0
  10
0.0
  20
0.0
  30
0.0
   3
_BOXFILLED
   0
SOLID
   5
85
 100
AcDbEntity
   8
0
 100
AcDbTrace
   6
BYBLOCK
  62
0
  10
-0.50000000000000
  20
 0.50000000000000
  30
0.0
  11
 0.50000000000000
  21
 0.50000000000000
  31
0.0
  12
-0.50000000000000
  22
-0.50000000000000
  32
0.0
  13
 0.50000000000000
  23
-0.50000000000000
  33
0.0
   0
LINE
   5
86
 100
AcDbEntity
   8
0
 370
-2
 100
AcDbLine
   6
BYBLOCK
  62
0
  10
-0.50000000000000
  20
0.0
  30
0.0
  11
-1.0000000000000
  21
0.0
  31
0.0
   0
ENDBLK
   5
87
 100
AcDbEntity
   8
0
 100
AcDbBlockEnd
   0
BLOCK
   5
88
 100
AcDbEntity
   8
0
 100
AcDbBlockBegin
   2
_CLOSED
  70
0
  10
0.0
  20
0.0
  30
0.0
   3
_CLOSED
   0
LINE
   5
89
 100
AcDbEntity
   8
0
 370
-2
 100
AcDbLine
   6
BYBLOCK
  62
0
  10
-1.0000000000000
  20
 0.16666666666667
  30
0.0
  11
0.0
  21
0.0
  31
0.0
   0
LINE
   5
8A
 100
AcDbEntity
   8
0
 370
-2
 100
AcDbLine
   6
BYBLOCK
  62
0
  10
0.0
  20
0.0
  30
0.0
  11
-1.0000000000000
  21
-0.16666666666667
  31
0.0
   0
LINE
   5
8B
 100
AcDbEntity
   8
0
 370
-2
 100
AcDbLine
   6
BYBLOCK
  62
0
  10
-1.0000000000000
  20
 0.16666666666667
  30
0.0
  11
-1.0000000000000
  21
-0.16666666666667
  31
0.0
   0
LINE
   5
8C
 100
AcDbEntity
   8
0
 370
-2
 100
AcDbLine
   6
BYBLOCK
  62
0
  10
0.0
  20
0.0
  30
0.0
  11
-1.0000000000000
  21
0.0
  31
0.0
   0
ENDBLK
   5
8D
 100
AcDbEntity
   8
0
 100
AcDbBlockEnd
   0
BLOCK
   5
8E
 100
AcDbEntity
   8
0
 100
AcDbBlockBegin
   2
_OPEN
  70
0
  10
0.0
  20
0.0
  30
0.0
   3
_OPEN
   0
LINE
   5
8F
 100
AcDbEntity
   8
0
 370
-2
 100
AcDbLine
   6
BYBLOCK
  62
0
  10
-1.0000000000000
  20
 0.16666666666667
  30
0.0
  11
0.0
  21
0.0
  31
0.0
   0
LINE
   5
90
 100
AcDbEntity
   8
0
 370
-2
 100
AcDbLine
   6
BYBLOCK
  62
0
  10
0.0
  20
0.0
  30
0.0
  11
-1.0000000000000
  21
-0.16666666666667
  31
0.0
   0
LINE
   5
91
 100
AcDbEntity
   8
0
 370
-2
 100
AcDbLine
   6
BYBLOCK
  62
0
  10
0.0
  20
0.0
  30
0.0
  11
-1.0000000000000
  21
0.0
  31
0.0
   0
ENDBLK
   5
92
 100
AcDbEntity
   8
0
 100
AcDbBlockEnd
   0
BLOCK
   5
93
 100
AcDbEntity
   8
0
 100
AcDbBlockBegin
   2
_OPEN30
  70
0
  10
0.0
  20
0.0
  30
0.0
   3
_OPEN30
   0
LINE
   5
94
 100
AcDbEntity
   8
0
 370
-2
 100
AcDbLine
   6
BYBLOCK
  62
0
  10
-1.0000000000000
  20
 0.26794919243110
  30
0.0
  11
0.0
  21
0.0
  31
0.0
   0
LINE
   5
95
 100
AcDbEntity
   8
0
 370
-2
 100
AcDbLine
   6
BYBLOCK
  62
0
  10
0.0
  20
0.0
  30
0.0
  11
-1.0000000000000
  21
-0.26794919243110
  31
0.0
   0
LINE
   5
96
 100
AcDbEntity
   8
0
 370
-2
 100
AcDbLine
   6
BYBLOCK
  62
0
  10
0.0
  20
0.0
  30
0.0
  11
-1.0000000000000
  21
0.0
  31
0.0
   0
ENDBLK
   5
97
 100
AcDbEntity
   8
0
 100
AcDbBlockEnd
   0
BLOCK
   5
98
 100
AcDbEntity
   8
0
 100
AcDbBlockBegin
   2
_OPEN90
  70
0
  10
0.0
  20
0.0
  30
0.0
   3
_OPEN90
   0
LINE
   5
99
 100
AcDbEntity
   8
0
 370
-2
 100
AcDbLine
   6
BYBLOCK
  62
0
  10
-0.50000000000000
  20
 0.50000000000000
  30
0.0
  11
0.0
  21
0.0
  31
0.0
   0
LINE
   5
9A
 100
AcDbEntity
   8
0
 370
-2
 100
AcDbLine
   6
BYBLOCK
  62
0
  10
0.0
  20
0.0
  30
0.0
  11
-0.50000000000000
  21
-0.50000000000000
  31
0.0
   0
LINE
   5
9B
 100
AcDbEntity
   8
0
 370
-2
 100
AcDbLine
   6
BYBLOCK
  62
0
  10
0.0
  20
0.0
  30
0.0
  11
-1.0000000000000
  21
0.0
  31
0.0
   0
ENDBLK
   5
9C
 100
AcDbEntity
   8
0
 100
AcDbBlockEnd
   0
BLOCK
   5
9D
 100
AcDbEntity
   8
0
 100
AcDbBlockBegin
   2
_CLOSEDBLANK
  70
0
  10
0.0
  20
0.0
  30
0.0
   3
_CLOSEDBLANK
   0
LINE
   5
9E
 100
AcDbEntity
   8
0
 370
-2
 100
AcDbLine
   6
BYBLOCK
  62
0
  10
-1.0000000000000
  20
 0.16666666666667
  30
0.0
  11
0.0
  21
0.0
  31
0.0
   0
LINE
   5
9F
 100
AcDbEntity
   8
0
 370
-2
 100
AcDbLine
   6
BYBLOCK
  62
0
  10
0.0
  20
0.0
  30
0.0
  11
-1.0000000000000
  21
-0.16666666666667
  31
0.0
   0
LINE
   5
A0
 100
AcDbEntity
   8
0
 370
-2
 100
AcDbLine
   6
BYBLOCK
  62
0
  10
-1.0000000000000
  20
 0.16666666666667
  30
0.0
  11
-1.0000000000000
  21
-0.16666666666667
  31
0.0
   0
ENDBLK
   5
A1
 100
AcDbEntity
   8
0
 100
AcDbBlockEnd
   0
BLOCK
   5
A2
 100
AcDbEntity
   8
0
 100
AcDbBlockBegin
   2
_DOT
  70
0
  10
0.0
  20
0.0
  30
0.0
   3
_DOT
   0
POLYLINE
   5
A3
 100
AcDbEntity
   8
0
 370
-2
   6
BYBLOCK
  62
0
 100
AcDb2dPolyline
  66
1
  10
0.0
  20
0.0
  30
0.0
  70
1
  40
 0.50000000000000
  41
 0.50000000000000
   0
VERTEX
   5
A4
 100
AcDbEntity
   8
0
   6
BYBLOCK
  62
0
 100
AcDbVertex
 100
AcDb2dVertex
  10
-0.25000000000000
  20
0.0
  30
0.0
  42
 1.0000000000000
  40
 0.50000000000000
  41
 0.50000000000000
   0
VERTEX
   5
A5
 100
AcDbEntity
   8
0
   6
BYBLOCK
  62
0
 100
AcDbVertex
 100
AcDb2dVertex
  10
 0.25000000000000
  20
0.0
  30
0.0
  42
 1.0000000000000
  40
 0.50000000000000
  41
 0.50000000000000
   0
SEQEND
   5
A6
 100
AcDbEntity
   8
0
   6
BYBLOCK
  62
0
   0
LINE
   5
A7
 100
AcDbEntity
   8
0
 370
-2
 100
AcDbLine
   6
BYBLOCK
  62
0
  10
-0.50000000000000
  20
0.0
  30
0.0
  11
-1.0000000000000
  21
0.0
  31
0.0
   0
ENDBLK
   5
A8
 100
AcDbEntity
   8
0
 100
AcDbBlockEnd
   0
BLOCK
   5
A9
 100
AcDbEntity
   8
0
 100
AcDbBlockBegin
   2
_DOTSMALL
  70
0
  10
0.0
  20
0.0
  30
0.0
   3
_DOTSMALL
   0
POLYLINE
   5
AA
 100
AcDbEntity
   8
0
 370
-2
   6
BYBLOCK
  62
0
 100
AcDb2dPolyline
  66
1
  10
0.0
  20
0.0
  30
0.0
  70
1
  40
 0.50000000000000
  41
 0.50000000000000
   0
VERTEX
   5
AB
 100
AcDbEntity
   8
0
   6
BYBLOCK
  62
0
 100
AcDbVertex
 100
AcDb2dVertex
  10
-0.62500000000000E-1
  20
0.0
  30
0.0
  42
 1.0000000000000
  40
 0.50000000000000
  41
 0.50000000000000
   0
VERTEX
   5
AC
 100
AcDbEntity
   8
0
   6
BYBLOCK
  62
0
 100
AcDbVertex
 100
AcDb2dVertex
  10
 0.62500000000000E-1
  20
0.0
  30
0.0
  42
 1.0000000000000
  40
 0.50000000000000
  41
 0.50000000000000
   0
SEQEND
   5
AD
 100
AcDbEntity
   8
0
   6
BYBLOCK
  62
0
   0
ENDBLK
   5
AE
 100
AcDbEntity
   8
0
 100
AcDbBlockEnd
   0
BLOCK
   5
AF
 100
AcDbEntity
   8
0
 100
AcDbBlockBegin
   2
_DATUMBLANK
  70
0
  10
0.0
  20
0.0
  30
0.0
   3
_DATUMBLANK
   0
LINE
   5
B0
 100
AcDbEntity
   8
0
 370
-2
 100
AcDbLine
   6
BYBLOCK
  62
0
  10
0.0
  20
 0.57735027000000
  30
0.0
  11
-1.0000000000000
  21
0.0
  31
0.0
   0
LINE
   5
B1
 100
AcDbEntity
   8
0
 370
-2
 100
AcDbLine
   6
BYBLOCK
  62
0
  10
-1.0000000000000
  20
0.0
  30
0.0
  11
0.0
  21
-0.57735027000000
  31
0.0
   0
LINE
   5
B2
 100
AcDbEntity
   8
0
 370
-2
 100
AcDbLine
   6
BYBLOCK
  62
0
  10
0.0
  20
-0.57735027000000
  30
0.0
  11
0.0
  21
 0.57735027000000
  31
0.0
   0
ENDBLK
   5
B3
 100
AcDbEntity
   8
0
 100
AcDbBlockEnd
   0
BLOCK
   5
B4
 100
AcDbEntity
   8
0
 100
AcDbBlockBegin
   2
_DATUMFILLED
  70
0
  10
0.0
  20
0.0
  30
0.0
   3
_DATUMFILLED
   0
SOLID
   5
B5
 100
AcDbEntity
   8
0
 100
AcDbTrace
   6
BYBLOCK
  62
0
  10
0.0
  20
 0.57735027000000
  30
0.0
  11
-1.0000000000000
  21
0.0
  31
0.0
  12
0.0
  22
-0.57735027000000
  32
0.0
  13
0.0
  23
-0.57735027000000
  33
0.0
   0
ENDBLK
   5
B6
 100
AcDbEntity
   8
0
 100
AcDbBlockEnd
   0
BLOCK
   5
B7
 100
AcDbEntity
   8
0
 100
AcDbBlockBegin
   2
_ORIGIN
  70
0
  10
0.0
  20
0.0
  30
0.0
   3
_ORIGIN
   0
CIRCLE
   5
B8
 100
AcDbEntity
   8
0
 370
-2
 100
AcDbCircle
   6
BYBLOCK
  62
0
  10
0.0
  20
0.0
  30
0.0
  40
 0.50000000000000
   0
LINE
   5
B9
 100
AcDbEntity
   8
0
 370
-2
 100
AcDbLine
   6
BYBLOCK
  62
0
  10
0.0
  20
0.0
  30
0.0
  11
-1.0000000000000
  21
0.0
  31
0.0
   0
ENDBLK
   5
BA
 100
AcDbEntity
   8
0
 100
AcDbBlockEnd
   0
BLOCK
   5
BB
 100
AcDbEntity
   8
0
 100
AcDbBlockBegin
   2
_NONE
  70
0
  10
0.0
  20
0.0
  30
0.0
   3
_NONE
   0
CIRCLE
   5
BC
 100
AcDbEntity
   8
0
 370
-2
 100
AcDbCircle
   6
BYBLOCK
  62
0
  10
0.0
  20
0.0
  30
0.0
  40
 0.25000000000000
   0
ENDBLK
   5
BD
 100
AcDbEntity
   8
0
 100
AcDbBlockEnd
   0
BLOCK
   5
BE
 100
AcDbEntity
   8
0
 100
AcDbBlockBegin
   2
_DOTBLANK
  70
0
  10
0.0
  20
0.0
  30
0.0
   3
_DOTBLANK
   0
CIRCLE
   5
BF
 100
AcDbEntity
   8
0
 370
-2
 100
AcDbCircle
   6
BYBLOCK
  62
0
  10
0.0
  20
0.0
  30
0.0
  40
 0.50000000000000
   0
LINE
   5
C0
 100
AcDbEntity
   8
0
 370
-2
 100
AcDbLine
   6
BYBLOCK
  62
0
  10
-0.50000000000000
  20
0.0
  30
0.0
  11
-1.0000000000000
  21
0.0
  31
0.0
   0
ENDBLK
   5
C1
 100
AcDbEntity
   8
0
 100
AcDbBlockEnd
   0
BLOCK
   5
C2
 100
AcDbEntity
   8
0
 100
AcDbBlockBegin
   2
_INTEGRAL
  70
0
  10
0.0
  20
0.0
  30
0.0
   3
_INTEGRAL
   0
ARC
   5
C3
 100
AcDbEntity
   8
0
 370
-2
   6
BYBLOCK
  62
0
 100
AcDbCircle
  10
 0.44488800000000
  20
-0.91335000000000E-1
  30
0.0
  40
 0.45416700000000
 100
AcDbArc
  50
 102.00000000000
  51
 168.00000000000
   0
ARC
   5
C4
 100
AcDbEntity
   8
0
 370
-2
   6
BYBLOCK
  62
0
 100
AcDbCircle
  10
-0.44488800000000
  20
 0.91335000000000E-1
  30
0.0
  40
 0.45416700000000
 100
AcDbArc
  50
 282.00000000000
  51
 348.00000000000
   0
ENDBLK
   5
C5
 100
AcDbEntity
   8
0
 100
AcDbBlockEnd
   0
BLOCK
   5
C6
 100
AcDbEntity
   8
0
 100
AcDbBlockBegin
   2
*D1
  70
65
  10
0.0
  20
0.0
  30
0.0
   3
*D1
   0
LINE
   5
C7
 100
AcDbEntity
   8
LEVEL001
 370
15
 100
AcDbLine
   6
CONTINUOUS
  62
8
  10
 45.659176176151
  20
 243.84826397716
  30
0.0
  11
 45.659176176151
  21
 249.09826397718
  31
0.0
   0
LINE
   5
C8
 100
AcDbEntity
   8
LEVEL001
 370
15
 100
AcDbLine
   6
CONTINUOUS
  62
8
  10
 52.659176176151
  20
 243.84826397717
  30
0.0
  11
 52.659176176151
  21
 249.09826397718
  31
0.0
   0
LINE
   5
C9
 100
AcDbEntity
   8
LEVEL001
 370
15
 100
AcDbLine
   6
CONTINUOUS
  62
8
  10
 45.659176176151
  20
 248.09826397718
  30
0.0
  11
 49.159176176151
  21
 248.09826397718
  31
0.0
   0
LINE
   5
CA
 100
AcDbEntity
   8
LEVEL001
 370
15
 100
AcDbLine
   6
CONTINUOUS
  62
8
  10
 52.659176176151
  20
 248.09826397718
  30
0.0
  11
 49.159176176151
  21
 248.09826397718
  31
0.0
   0
SOLID
   5
CB
 100
AcDbEntity
   8
LEVEL001
 100
AcDbTrace
   6
CONTINUOUS
  62
8
  10
 45.659176176151
  20
 248.09826397718
  30
0.0
  11
 47.659176176151
  21
 247.74561001577
  31
0.0
  12
 47.659176176151
  22
 248.45091793860
  32
0.0
  13
 47.659176176151
  23
 248.45091793860
  33
0.0
   0
SOLID
   5
CC
 100
AcDbEntity
   8
LEVEL001
 100
AcDbTrace
   6
CONTINUOUS
  62
8
  10
 52.659176176151
  20
 248.09826397718
  30
0.0
  11
 50.659176176151
  21
 248.45091793860
  31
0.0
  12
 50.659176176151
  22
 247.74561001577
  32
0.0
  13
 50.659176176151
  23
 247.74561001577
  33
0.0
   0
MTEXT
   5
CD
 100
AcDbEntity
   8
LEVEL001
 370
15
  62
8
 100
AcDbMText
  10
 49.159176176151
  20
 249.09826397718
  30
0.0
  40
 2.5000000000000
  41
0.0
  71
8
  72
1
   1
\A1;7
   7
GMM002
   0
ENDBLK
   5
CE
 100
AcDbEntity
   8
0
 100
AcDbBlockEnd
   0
BLOCK
   5
CF
 100
AcDbEntity
   8
0
 100
AcDbBlockBegin
   2
*D2
  70
65
  10
0.0
  20
0.0
  30
0.0
   3
*D2
   0
LINE
   5
D0
 100
AcDbEntity
   8
LEVEL001
 370
15
 100
AcDbLine
   6
CONTINUOUS
  62
8
  10
 32.159176176152
  20
 241.67339284651
  30
0.0
  11
 32.159176176152
  21
 254.09826397718
  31
0.0
   0
LINE
   5
D1
 100
AcDbEntity
   8
LEVEL001
 370
15
 100
AcDbLine
   6
CONTINUOUS
  62
8
  10
 66.159176176151
  20
 241.67339284663
  30
0.0
  11
 66.159176176151
  21
 254.09826397718
  31
0.0
   0
LINE
   5
D2
 100
AcDbEntity
   8
LEVEL001
 370
15
 100
AcDbLine
   6
CONTINUOUS
  62
8
  10
 32.159176176152
  20
 253.09826397718
  30
0.0
  11
 49.159176176152
  21
 253.09826397718
  31
0.0
   0
LINE
   5
D3
 100
AcDbEntity
   8
LEVEL001
 370
15
 100
AcDbLine
   6
CONTINUOUS
  62
8
  10
 66.159176176151
  20
 253.09826397718
  30
0.0
  11
 49.159176176152
  21
 253.09826397718
  31
0.0
   0
SOLID
   5
D4
 100
AcDbEntity
   8
LEVEL001
 100
AcDbTrace
   6
CONTINUOUS
  62
8
  10
 32.159176176152
  20
 253.09826397718
  30
0.0
  11
 34.159176176152
  21
 252.74561001577
  31
0.0
  12
 34.159176176152
  22
 253.45091793860
  32
0.0
  13
 34.159176176152
  23
 253.45091793860
  33
0.0
   0
SOLID
   5
D5
 100
AcDbEntity
   8
LEVEL001
 100
AcDbTrace
   6
CONTINUOUS
  62
8
  10
 66.159176176151
  20
 253.09826397718
  30
0.0
  11
 64.159176176151
  21
 253.45091793860
  31
0.0
  12
 64.159176176151
  22
 252.74561001577
  32
0.0
  13
 64.159176176151
  23
 252.74561001577
  33
0.0
   0
MTEXT
   5
D6
 100
AcDbEntity
   8
LEVEL001
 370
15
  62
8
 100
AcDbMText
  10
 49.159176176152
  20
 254.09826397718
  30
0.0
  40
 2.5000000000000
  41
0.0
  71
8
  72
1
   1
\A1;34
   7
GMM002
   0
ENDBLK
   5
D7
 100
AcDbEntity
   8
0
 100
AcDbBlockEnd
   0
BLOCK
   5
D8
 100
AcDbEntity
   8
0
 100
AcDbBlockBegin
   2
*D3
  70
65
  10
0.0
  20
0.0
  30
0.0
   3
*D3
   0
LINE
   5
D9
 100
AcDbEntity
   8
LEVEL001
 370
15
 100
AcDbLine
   6
CONTINUOUS
  62
8
  10
 66.959176176152
  20
 240.09826397717
  30
0.0
  11
 74.229726838232
  21
 240.09826397717
  31
0.0
   0
LINE
   5
DA
 100
AcDbEntity
   8
LEVEL001
 370
15
 100
AcDbLine
   6
CONTINUOUS
  62
8
  10
 63.159176176151
  20
 243.09826397722
  30
0.0
  11
 74.229726838232
  21
 243.09826397722
  31
0.0
   0
LINE
   5
DB
 100
AcDbEntity
   8
LEVEL001
 370
15
 100
AcDbLine
   6
CONTINUOUS
  62
8
  10
 73.229726838232
  20
 237.59826397717
  30
0.0
  11
 73.229726838232
  21
 241.59826397719
  31
0.0
   0
LINE
   5
DC
 100
AcDbEntity
   8
LEVEL001
 370
15
 100
AcDbLine
   6
CONTINUOUS
  62
8
  10
 73.229726838232
  20
 247.91947272846
  30
0.0
  11
 73.229726838232
  21
 241.59826397719
  31
0.0
   0
SOLID
   5
DD
 100
AcDbEntity
   8
LEVEL001
 100
AcDbTrace
   6
CONTINUOUS
  62
8
  10
 73.229726838232
  20
 240.09826397717
  30
0.0
  11
 72.877072876815
  21
 238.09826397717
  31
0.0
  12
 73.582380799649
  22
 238.09826397717
  32
0.0
  13
 73.582380799649
  23
 238.09826397717
  33
0.0
   0
SOLID
   5
DE
 100
AcDbEntity
   8
LEVEL001
 100
AcDbTrace
   6
CONTINUOUS
  62
8
  10
 73.229726838232
  20
 243.09826397722
  30
0.0
  11
 73.582380799649
  21
 245.09826397722
  31
0.0
  12
 72.877072876815
  22
 245.09826397722
  32
0.0
  13
 72.877072876815
  23
 245.09826397722
  33
0.0
   0
MTEXT
   5
DF
 100
AcDbEntity
   8
LEVEL001
 370
15
  62
8
 100
AcDbMText
  10
 72.289579577273
  20
 245.41947272846
  30
0.0
  40
 2.5000000000000
  41
0.0
  71
7
  72
1
   1
\A1;3
   7
GMM002
  11
0.0
  21
 1.0000000000000
  31
0.0
   0
ENDBLK
   5
E0
 100
AcDbEntity
   8
0
 100
AcDbBlockEnd
   0
BLOCK
   5
E1
 100
AcDbEntity
   8
0
 100
AcDbBlockBegin
   2
*D4
  70
65
  10
0.0
  20
0.0
  30
0.0
   3
*D4
   0
LINE
   5
E2
 100
AcDbEntity
   8
LEVEL001
 370
15
 100
AcDbLine
   6
CONTINUOUS
  62
8
  10
 93.674085374469
  20
 170.18594064254
  30
0.0
  11
 98.874085374469
  21
 170.18594064254
  31
0.0
   0
LINE
   5
E3
 100
AcDbEntity
   8
LEVEL001
 370
15
 100
AcDbLine
   6
CONTINUOUS
  62
8
  10
 89.874085374469
  20
 173.18594064254
  30
0.0
  11
 98.874085374469
  21
 173.18594064254
  31
0.0
   0
LINE
   5
E4
 100
AcDbEntity
   8
LEVEL001
 370
15
 100
AcDbLine
   6
CONTINUOUS
  62
8
  10
 97.874085374469
  20
 167.68594064254
  30
0.0
  11
 97.874085374469
  21
 171.68594064254
  31
0.0
   0
LINE
   5
E5
 100
AcDbEntity
   8
LEVEL001
 370
15
 100
AcDbLine
   6
CONTINUOUS
  62
8
  10
 97.874085374469
  20
 177.60835095504
  30
0.0
  11
 97.874085374469
  21
 171.68594064254
  31
0.0
   0
SOLID
   5
E6
 100
AcDbEntity
   8
LEVEL001
 100
AcDbTrace
   6
CONTINUOUS
  62
8
  10
 97.874085374469
  20
 170.18594064254
  30
0.0
  11
 97.521431413052
  21
 168.18594064254
  31
0.0
  12
 98.226739335886
  22
 168.18594064254
  32
0.0
  13
 98.226739335886
  23
 168.18594064254
  33
0.0
   0
SOLID
   5
E7
 100
AcDbEntity
   8
LEVEL001
 100
AcDbTrace
   6
CONTINUOUS
  62
8
  10
 97.874085374469
  20
 173.18594064254
  30
0.0
  11
 98.226739335886
  21
 175.18594064254
  31
0.0
  12
 97.521431413052
  22
 175.18594064254
  32
0.0
  13
 97.521431413052
  23
 175.18594064254
  33
0.0
   0
MTEXT
   5
E8
 100
AcDbEntity
   8
LEVEL001
 370
15
  62
8
 100
AcDbMText
  10
 97.195697115697
  20
 175.10835095504
  30
0.0
  40
 2.5000000000000
  41
0.0
  71
7
  72
1
   1
\A1;3
   7
GMM002
  11
0.0
  21
 1.0000000000000
  31
0.0
   0
ENDBLK
   5
E9
 100
AcDbEntity
   8
0
 100
AcDbBlockEnd
   0
BLOCK
   5
EA
 100
AcDbEntity
   8
0
 100
AcDbBlockBegin
   2
*D5
  70
65
  10
0.0
  20
0.0
  30
0.0
   3
*D5
   0
LINE
   5
EB
 100
AcDbEntity
   8
LEVEL001
 370
15
 100
AcDbLine
   6
CONTINUOUS
  62
8
  10
 42.874085374469
  20
 175.54246728918
  30
0.0
  11
 42.874085374469
  21
 184.18594064254
  31
0.0
   0
LINE
   5
EC
 100
AcDbEntity
   8
LEVEL001
 370
15
 100
AcDbLine
   6
CONTINUOUS
  62
8
  10
 75.874085374469
  20
 175.54246728918
  30
0.0
  11
 75.874085374469
  21
 184.18594064254
  31
0.0
   0
LINE
   5
ED
 100
AcDbEntity
   8
LEVEL001
 370
15
 100
AcDbLine
   6
CONTINUOUS
  62
8
  10
 42.874085374469
  20
 183.18594064254
  30
0.0
  11
 59.374085374469
  21
 183.18594064254
  31
0.0
   0
LINE
   5
EE
 100
AcDbEntity
   8
LEVEL001
 370
15
 100
AcDbLine
   6
CONTINUOUS
  62
8
  10
 75.874085374469
  20
 183.18594064254
  30
0.0
  11
 59.374085374469
  21
 183.18594064254
  31
0.0
   0
SOLID
   5
EF
 100
AcDbEntity
   8
LEVEL001
 100
AcDbTrace
   6
CONTINUOUS
  62
8
  10
 42.874085374469
  20
 183.18594064254
  30
0.0
  11
 44.874085374469
  21
 182.83328668113
  31
0.0
  12
 44.874085374469
  22
 183.53859460396
  32
0.0
  13
 44.874085374469
  23
 183.53859460396
  33
0.0
   0
SOLID
   5
F0
 100
AcDbEntity
   8
LEVEL001
 100
AcDbTrace
   6
CONTINUOUS
  62
8
  10
 75.874085374469
  20
 183.18594064254
  30
0.0
  11
 73.874085374469
  21
 183.53859460396
  31
0.0
  12
 73.874085374469
  22
 182.83328668113
  32
0.0
  13
 73.874085374469
  23
 182.83328668113
  33
0.0
   0
MTEXT
   5
F1
 100
AcDbEntity
   8
LEVEL001
 370
15
  62
8
 100
AcDbMText
  10
 59.374085374469
  20
 184.18594064254
  30
0.0
  40
 2.5000000000000
  41
0.0
  71
8
  72
1
   1
\A1;33
   7
GMM002
   0
ENDBLK
   5
F2
 100
AcDbEntity
   8
0
 100
AcDbBlockEnd
   0
BLOCK
   5
F3
 100
AcDbEntity
   8
0
 100
AcDbBlockBegin
   2
*D6
  70
65
  10
0.0
  20
0.0
  30
0.0
   3
*D6
   0
LINE
   5
F4
 100
AcDbEntity
   8
LEVEL001
 370
15
 100
AcDbLine
   6
CONTINUOUS
  62
8
  10
 39.374085374469
  20
 173.93594064254
  30
0.0
  11
 39.374085374469
  21
 179.18594064254
  31
0.0
   0
LINE
   5
F5
 100
AcDbEntity
   8
LEVEL001
 370
15
 100
AcDbLine
   6
CONTINUOUS
  62
8
  10
 46.374085374470
  20
 173.93594064254
  30
0.0
  11
 46.374085374470
  21
 179.18594064254
  31
0.0
   0
LINE
   5
F6
 100
AcDbEntity
   8
LEVEL001
 370
15
 100
AcDbLine
   6
CONTINUOUS
  62
8
  10
 35.144266334568
  20
 178.18594064254
  30
0.0
  11
 42.874085374469
  21
 178.18594064254
  31
0.0
   0
LINE
   5
F7
 100
AcDbEntity
   8
LEVEL001
 370
15
 100
AcDbLine
   6
CONTINUOUS
  62
8
  10
 46.374085374470
  20
 178.18594064254
  30
0.0
  11
 42.874085374469
  21
 178.18594064254
  31
0.0
   0
SOLID
   5
F8
 100
AcDbEntity
   8
LEVEL001
 100
AcDbTrace
   6
CONTINUOUS
  62
8
  10
 39.374085374469
  20
 178.18594064254
  30
0.0
  11
 41.374085374469
  21
 177.83328668113
  31
0.0
  12
 41.374085374469
  22
 178.53859460396
  32
0.0
  13
 41.374085374469
  23
 178.53859460396
  33
0.0
   0
SOLID
   5
F9
 100
AcDbEntity
   8
LEVEL001
 100
AcDbTrace
   6
CONTINUOUS
  62
8
  10
 46.374085374470
  20
 178.18594064254
  30
0.0
  11
 44.374085374470
  21
 178.53859460396
  31
0.0
  12
 44.374085374470
  22
 177.83328668113
  32
0.0
  13
 44.374085374470
  23
 177.83328668113
  33
0.0
   0
MTEXT
   5
FA
 100
AcDbEntity
   8
LEVEL001
 370
15
  62
8
 100
AcDbMText
  10
 37.644266334568
  20
 179.12613904476
  30
0.0
  40
 2.5000000000000
  41
0.0
  71
9
  72
1
   1
\A1;7
   7
GMM002
   0
ENDBLK
   5
FB
 100
AcDbEntity
   8
0
 100
AcDbBlockEnd
   0
BLOCK
   5
FC
 100
AcDbEntity
   8
0
 100
AcDbBlockBegin
   2
*D7
  70
65
  10
0.0
  20
0.0
  30
0.0
   3
*D7
   0
LINE
   5
FD
 100
AcDbEntity
   8
LEVEL001
 370
15
 100
AcDbLine
   6
CONTINUOUS
  62
8
  10
 25.874085374469
  20
 171.76106951192
  30
0.0
  11
 25.874085374469
  21
 189.18594064254
  31
0.0
   0
LINE
   5
FE
 100
AcDbEntity
   8
LEVEL001
 370
15
 100
AcDbLine
   6
CONTINUOUS
  62
8
  10
 92.874085374469
  20
 171.76106951195
  30
0.0
  11
 92.874085374469
  21
 189.18594064254
  31
0.0
   0
LINE
   5
FF
 100
AcDbEntity
   8
LEVEL001
 370
15
 100
AcDbLine
   6
CONTINUOUS
  62
8
  10
 25.874085374469
  20
 188.18594064254
  30
0.0
  11
 59.374085374469
  21
 188.18594064254
  31
0.0
   0
LINE
   5
100
 100
AcDbEntity
   8
LEVEL001
 370
15
 100
AcDbLine
   6
CONTINUOUS
  62
8
  10
 92.874085374469
  20
 188.18594064254
  30
0.0
  11
 59.374085374469
  21
 188.18594064254
  31
0.0
   0
SOLID
   5
101
 100
AcDbEntity
   8
LEVEL001
 100
AcDbTrace
   6
CONTINUOUS
  62
8
  10
 25.874085374469
  20
 188.18594064254
  30
0.0
  11
 27.874085374469
  21
 187.83328668113
  31
0.0
  12
 27.874085374469
  22
 188.53859460396
  32
0.0
  13
 27.874085374469
  23
 188.53859460396
  33
0.0
   0
SOLID
   5
102
 100
AcDbEntity
   8
LEVEL001
 100
AcDbTrace
   6
CONTINUOUS
  62
8
  10
 92.874085374469
  20
 188.18594064254
  30
0.0
  11
 90.874085374469
  21
 188.53859460396
  31
0.0
  12
 90.874085374469
  22
 187.83328668113
  32
0.0
  13
 90.874085374469
  23
 187.83328668113
  33
0.0
   0
MTEXT
   5
103
 100
AcDbEntity
   8
LEVEL001
 370
15
  62
8
 100
AcDbMText
  10
 59.374085374469
  20
 189.18594064254
  30
0.0
  40
 2.5000000000000
  41
0.0
  71
8
  72
1
   1
\A1;67
   7
GMM002
   0
ENDBLK
   5
104
 100
AcDbEntity
   8
0
 100
AcDbBlockEnd
   0
BLOCK
   5
105
 100
AcDbEntity
   8
0
 100
AcDbBlockBegin
   2
*D8
  70
65
  10
0.0
  20
0.0
  30
0.0
   3
*D8
   0
LINE
   5
106
 100
AcDbEntity
   8
LEVEL001
 370
15
 100
AcDbLine
   6
CONTINUOUS
  62
8
  10
 193.09399384157
  20
 170.18594064254
  30
0.0
  11
 198.29399384157
  21
 170.18594064254
  31
0.0
   0
LINE
   5
107
 100
AcDbEntity
   8
LEVEL001
 370
15
 100
AcDbLine
   6
CONTINUOUS
  62
8
  10
 189.29399384157
  20
 173.18594064254
  30
0.0
  11
 198.29399384157
  21
 173.18594064254
  31
0.0
   0
LINE
   5
108
 100
AcDbEntity
   8
LEVEL001
 370
15
 100
AcDbLine
   6
CONTINUOUS
  62
8
  10
 197.29399384157
  20
 167.68594064254
  30
0.0
  11
 197.29399384157
  21
 171.68594064254
  31
0.0
   0
LINE
   5
109
 100
AcDbEntity
   8
LEVEL001
 370
15
 100
AcDbLine
   6
CONTINUOUS
  62
8
  10
 197.29399384157
  20
 177.60835095504
  30
0.0
  11
 197.29399384157
  21
 171.68594064254
  31
0.0
   0
SOLID
   5
10A
 100
AcDbEntity
   8
LEVEL001
 100
AcDbTrace
   6
CONTINUOUS
  62
8
  10
 197.29399384157
  20
 170.18594064254
  30
0.0
  11
 196.94133988015
  21
 168.18594064254
  31
0.0
  12
 197.64664780298
  22
 168.18594064254
  32
0.0
  13
 197.64664780298
  23
 168.18594064254
  33
0.0
   0
SOLID
   5
10B
 100
AcDbEntity
   8
LEVEL001
 100
AcDbTrace
   6
CONTINUOUS
  62
8
  10
 197.29399384157
  20
 173.18594064254
  30
0.0
  11
 197.64664780298
  21
 175.18594064254
  31
0.0
  12
 196.94133988015
  22
 175.18594064254
  32
0.0
  13
 196.94133988015
  23
 175.18594064254
  33
0.0
   0
MTEXT
   5
10C
 100
AcDbEntity
   8
LEVEL001
 370
15
  62
8
 100
AcDbMText
  10
 196.61560558280
  20
 175.10835095504
  30
0.0
  40
 2.5000000000000
  41
0.0
  71
7
  72
1
   1
\A1;3
   7
GMM002
  11
0.0
  21
 1.0000000000000
  31
0.0
   0
ENDBLK
   5
10D
 100
AcDbEntity
   8
0
 100
AcDbBlockEnd
   0
BLOCK
   5
10E
 100
AcDbEntity
   8
0
 100
AcDbBlockBegin
   2
*D9
  70
65
  10
0.0
  20
0.0
  30
0.0
   3
*D9
   0
LINE
   5
10F
 100
AcDbEntity
   8
LEVEL001
 370
15
 100
AcDbLine
   6
CONTINUOUS
  62
8
  10
 139.29399384129
  20
 177.09045393029
  30
0.0
  11
 139.29399384129
  21
 184.18594064254
  31
0.0
   0
LINE
   5
110
 100
AcDbEntity
   8
LEVEL001
 370
15
 100
AcDbLine
   6
CONTINUOUS
  62
8
  10
 175.29399384129
  20
 177.09045393029
  30
0.0
  11
 175.29399384129
  21
 184.18594064254
  31
0.0
   0
LINE
   5
111
 100
AcDbEntity
   8
LEVEL001
 370
15
 100
AcDbLine
   6
CONTINUOUS
  62
8
  10
 139.29399384129
  20
 183.18594064254
  30
0.0
  11
 157.29399384129
  21
 183.18594064254
  31
0.0
   0
LINE
   5
112
 100
AcDbEntity
   8
LEVEL001
 370
15
 100
AcDbLine
   6
CONTINUOUS
  62
8
  10
 175.29399384129
  20
 183.18594064254
  30
0.0
  11
 157.29399384129
  21
 183.18594064254
  31
0.0
   0
SOLID
   5
113
 100
AcDbEntity
   8
LEVEL001
 100
AcDbTrace
   6
CONTINUOUS
  62
8
  10
 139.29399384129
  20
 183.18594064254
  30
0.0
  11
 141.29399384129
  21
 182.83328668113
  31
0.0
  12
 141.29399384129
  22
 183.53859460396
  32
0.0
  13
 141.29399384129
  23
 183.53859460396
  33
0.0
   0
SOLID
   5
114
 100
AcDbEntity
   8
LEVEL001
 100
AcDbTrace
   6
CONTINUOUS
  62
8
  10
 175.29399384129
  20
 183.18594064254
  30
0.0
  11
 173.29399384129
  21
 183.53859460396
  31
0.0
  12
 173.29399384129
  22
 182.83328668113
  32
0.0
  13
 173.29399384129
  23
 182.83328668113
  33
0.0
   0
MTEXT
   5
115
 100
AcDbEntity
   8
LEVEL001
 370
15
  62
8
 100
AcDbMText
  10
 157.29399384129
  20
 184.18594064254
  30
0.0
  40
 2.5000000000000
  41
0.0
  71
8
  72
1
   1
\A1;36
   7
GMM002
   0
ENDBLK
   5
116
 100
AcDbEntity
   8
0
 100
AcDbBlockEnd
   0
BLOCK
   5
117
 100
AcDbEntity
   8
0
 100
AcDbBlockBegin
   2
*D10
  70
65
  10
0.0
  20
0.0
  30
0.0
   3
*D10
   0
LINE
   5
118
 100
AcDbEntity
   8
LEVEL001
 370
15
 100
AcDbLine
   6
CONTINUOUS
  62
8
  10
 135.79399384129
  20
 173.93594064254
  30
0.0
  11
 135.79399384129
  21
 179.18594064254
  31
0.0
   0
LINE
   5
119
 100
AcDbEntity
   8
LEVEL001
 370
15
 100
AcDbLine
   6
CONTINUOUS
  62
8
  10
 142.79399384129
  20
 173.93594064254
  30
0.0
  11
 142.79399384129
  21
 179.18594064254
  31
0.0
   0
LINE
   5
11A
 100
AcDbEntity
   8
LEVEL001
 370
15
 100
AcDbLine
   6
CONTINUOUS
  62
8
  10
 131.64355283887
  20
 178.18594064254
  30
0.0
  11
 139.29399384129
  21
 178.18594064254
  31
0.0
   0
LINE
   5
11B
 100
AcDbEntity
   8
LEVEL001
 370
15
 100
AcDbLine
   6
CONTINUOUS
  62
8
  10
 142.79399384129
  20
 178.18594064254
  30
0.0
  11
 139.29399384129
  21
 178.18594064254
  31
0.0
   0
SOLID
   5
11C
 100
AcDbEntity
   8
LEVEL001
 100
AcDbTrace
   6
CONTINUOUS
  62
8
  10
 135.79399384129
  20
 178.18594064254
  30
0.0
  11
 137.79399384129
  21
 177.83328668113
  31
0.0
  12
 137.79399384129
  22
 178.53859460396
  32
0.0
  13
 137.79399384129
  23
 178.53859460396
  33
0.0
   0
SOLID
   5
11D
 100
AcDbEntity
   8
LEVEL001
 100
AcDbTrace
   6
CONTINUOUS
  62
8
  10
 142.79399384129
  20
 178.18594064254
  30
0.0
  11
 140.79399384129
  21
 178.53859460396
  31
0.0
  12
 140.79399384129
  22
 177.83328668113
  32
0.0
  13
 140.79399384129
  23
 177.83328668113
  33
0.0
   0
MTEXT
   5
11E
 100
AcDbEntity
   8
LEVEL001
 370
15
  62
8
 100
AcDbMText
  10
 134.14355283887
  20
 179.06673491797
  30
0.0
  40
 2.5000000000000
  41
0.0
  71
9
  72
1
   1
\A1;7
   7
GMM002
   0
ENDBLK
   5
11F
 100
AcDbEntity
   8
0
 100
AcDbBlockEnd
   0
BLOCK
   5
120
 100
AcDbEntity
   8
0
 100
AcDbBlockBegin
   2
*D11
  70
65
  10
0.0
  20
0.0
  30
0.0
   3
*D11
   0
LINE
   5
121
 100
AcDbEntity
   8
LEVEL001
 370
15
 100
AcDbLine
   6
CONTINUOUS
  62
8
  10
 122.29399384129
  20
 171.76106951193
  30
0.0
  11
 122.29399384129
  21
 189.18594064254
  31
0.0
   0
LINE
   5
122
 100
AcDbEntity
   8
LEVEL001
 370
15
 100
AcDbLine
   6
CONTINUOUS
  62
8
  10
 192.29399384129
  20
 171.76106951197
  30
0.0
  11
 192.29399384129
  21
 189.18594064254
  31
0.0
   0
LINE
   5
123
 100
AcDbEntity
   8
LEVEL001
 370
15
 100
AcDbLine
   6
CONTINUOUS
  62
8
  10
 122.29399384129
  20
 188.18594064254
  30
0.0
  11
 157.29399384129
  21
 188.18594064254
  31
0.0
   0
LINE
   5
124
 100
AcDbEntity
   8
LEVEL001
 370
15
 100
AcDbLine
   6
CONTINUOUS
  62
8
  10
 192.29399384129
  20
 188.18594064254
  30
0.0
  11
 157.29399384129
  21
 188.18594064254
  31
0.0
   0
SOLID
   5
125
 100
AcDbEntity
   8
LEVEL001
 100
AcDbTrace
   6
CONTINUOUS
  62
8
  10
 122.29399384129
  20
 188.18594064254
  30
0.0
  11
 124.29399384129
  21
 187.83328668113
  31
0.0
  12
 124.29399384129
  22
 188.53859460396
  32
0.0
  13
 124.29399384129
  23
 188.53859460396
  33
0.0
   0
SOLID
   5
126
 100
AcDbEntity
   8
LEVEL001
 100
AcDbTrace
   6
CONTINUOUS
  62
8
  10
 192.29399384129
  20
 188.18594064254
  30
0.0
  11
 190.29399384129
  21
 188.53859460396
  31
0.0
  12
 190.29399384129
  22
 187.83328668113
  32
0.0
  13
 190.29399384129
  23
 187.83328668113
  33
0.0
   0
MTEXT
   5
127
 100
AcDbEntity
   8
LEVEL001
 370
15
  62
8
 100
AcDbMText
  10
 157.29399384129
  20
 189.18594064254
  30
0.0
  40
 2.5000000000000
  41
0.0
  71
8
  72
1
   1
\A1;70
   7
GMM002
   0
ENDBLK
   5
128
 100
AcDbEntity
   8
0
 100
AcDbBlockEnd
   0
BLOCK
   5
129
 100
AcDbEntity
   8
0
 100
AcDbBlockBegin
   2
*D12
  70
65
  10
0.0
  20
0.0
  30
0.0
   3
*D12
   0
LINE
   5
12A
 100
AcDbEntity
   8
LEVEL001
 370
15
 100
AcDbLine
   6
CONTINUOUS
  62
8
  10
 292.41321580925
  20
 170.18594064254
  30
0.0
  11
 297.61321580925
  21
 170.18594064254
  31
0.0
   0
LINE
   5
12B
 100
AcDbEntity
   8
LEVEL001
 370
15
 100
AcDbLine
   6
CONTINUOUS
  62
8
  10
 288.61321580925
  20
 173.18594064257
  30
0.0
  11
 297.61321580925
  21
 173.18594064257
  31
0.0
   0
LINE
   5
12C
 100
AcDbEntity
   8
LEVEL001
 370
15
 100
AcDbLine
   6
CONTINUOUS
  62
8
  10
 296.61321580925
  20
 167.68594064254
  30
0.0
  11
 296.61321580925
  21
 171.68594064256
  31
0.0
   0
LINE
   5
12D
 100
AcDbEntity
   8
LEVEL001
 370
15
 100
AcDbLine
   6
CONTINUOUS
  62
8
  10
 296.61321580925
  20
 177.15179829573
  30
0.0
  11
 296.61321580925
  21
 171.68594064256
  31
0.0
   0
SOLID
   5
12E
 100
AcDbEntity
   8
LEVEL001
 100
AcDbTrace
   6
CONTINUOUS
  62
8
  10
 296.61321580925
  20
 170.18594064254
  30
0.0
  11
 296.26056184784
  21
 168.18594064254
  31
0.0
  12
 296.96586977067
  22
 168.18594064254
  32
0.0
  13
 296.96586977067
  23
 168.18594064254
  33
0.0
   0
SOLID
   5
12F
 100
AcDbEntity
   8
LEVEL001
 100
AcDbTrace
   6
CONTINUOUS
  62
8
  10
 296.61321580925
  20
 173.18594064257
  30
0.0
  11
 296.96586977067
  21
 175.18594064257
  31
0.0
  12
 296.26056184784
  22
 175.18594064257
  32
0.0
  13
 296.26056184784
  23
 175.18594064257
  33
0.0
   0
MTEXT
   5
130
 100
AcDbEntity
   8
LEVEL001
 370
15
  62
8
 100
AcDbMText
  10
 295.72997708595
  20
 174.65179829573
  30
0.0
  40
 2.5000000000000
  41
0.0
  71
7
  72
1
   1
\A1;3
   7
GMM002
  11
0.0
  21
 1.0000000000000
  31
0.0
   0
ENDBLK
   5
131
 100
AcDbEntity
   8
0
 100
AcDbBlockEnd
   0
BLOCK
   5
132
 100
AcDbEntity
   8
0
 100
AcDbBlockBegin
   2
*D13
  70
65
  10
0.0
  20
0.0
  30
0.0
   3
*D13
   0
LINE
   5
133
 100
AcDbEntity
   8
LEVEL001
 370
15
 100
AcDbLine
   6
CONTINUOUS
  62
8
  10
 235.61321580925
  20
 176.71395202585
  30
0.0
  11
 235.61321580925
  21
 184.18594064254
  31
0.0
   0
LINE
   5
134
 100
AcDbEntity
   8
LEVEL001
 370
15
 100
AcDbLine
   6
CONTINUOUS
  62
8
  10
 274.61321580925
  20
 176.71395202585
  30
0.0
  11
 274.61321580925
  21
 184.18594064254
  31
0.0
   0
LINE
   5
135
 100
AcDbEntity
   8
LEVEL001
 370
15
 100
AcDbLine
   6
CONTINUOUS
  62
8
  10
 235.61321580925
  20
 183.18594064254
  30
0.0
  11
 255.11321580925
  21
 183.18594064254
  31
0.0
   0
LINE
   5
136
 100
AcDbEntity
   8
LEVEL001
 370
15
 100
AcDbLine
   6
CONTINUOUS
  62
8
  10
 274.61321580925
  20
 183.18594064254
  30
0.0
  11
 255.11321580925
  21
 183.18594064254
  31
0.0
   0
SOLID
   5
137
 100
AcDbEntity
   8
LEVEL001
 100
AcDbTrace
   6
CONTINUOUS
  62
8
  10
 235.61321580925
  20
 183.18594064254
  30
0.0
  11
 237.61321580925
  21
 182.83328668113
  31
0.0
  12
 237.61321580925
  22
 183.53859460396
  32
0.0
  13
 237.61321580925
  23
 183.53859460396
  33
0.0
   0
SOLID
   5
138
 100
AcDbEntity
   8
LEVEL001
 100
AcDbTrace
   6
CONTINUOUS
  62
8
  10
 274.61321580925
  20
 183.18594064254
  30
0.0
  11
 272.61321580925
  21
 183.53859460396
  31
0.0
  12
 272.61321580925
  22
 182.83328668113
  32
0.0
  13
 272.61321580925
  23
 182.83328668113
  33
0.0
   0
MTEXT
   5
139
 100
AcDbEntity
   8
LEVEL001
 370
15
  62
8
 100
AcDbMText
  10
 255.11321580925
  20
 184.18594064254
  30
0.0
  40
 2.5000000000000
  41
0.0
  71
8
  72
1
   1
\A1;39
   7
GMM002
   0
ENDBLK
   5
13A
 100
AcDbEntity
   8
0
 100
AcDbBlockEnd
   0
BLOCK
   5
13B
 100
AcDbEntity
   8
0
 100
AcDbBlockBegin
   2
*D14
  70
65
  10
0.0
  20
0.0
  30
0.0
   3
*D14
   0
LINE
   5
13C
 100
AcDbEntity
   8
LEVEL001
 370
15
 100
AcDbLine
   6
CONTINUOUS
  62
8
  10
 232.11321580925
  20
 173.93594064254
  30
0.0
  11
 232.11321580925
  21
 179.18594064254
  31
0.0
   0
LINE
   5
13D
 100
AcDbEntity
   8
LEVEL001
 370
15
 100
AcDbLine
   6
CONTINUOUS
  62
8
  10
 239.11321580925
  20
 173.93594064254
  30
0.0
  11
 239.11321580925
  21
 179.18594064254
  31
0.0
   0
LINE
   5
13E
 100
AcDbEntity
   8
LEVEL001
 370
15
 100
AcDbLine
   6
CONTINUOUS
  62
8
  10
 226.70639429640
  20
 178.18594064254
  30
0.0
  11
 235.61321580925
  21
 178.18594064254
  31
0.0
   0
LINE
   5
13F
 100
AcDbEntity
   8
LEVEL001
 370
15
 100
AcDbLine
   6
CONTINUOUS
  62
8
  10
 239.11321580925
  20
 178.18594064254
  30
0.0
  11
 235.61321580925
  21
 178.18594064254
  31
0.0
   0
SOLID
   5
140
 100
AcDbEntity
   8
LEVEL001
 100
AcDbTrace
   6
CONTINUOUS
  62
8
  10
 232.11321580925
  20
 178.18594064254
  30
0.0
  11
 234.11321580925
  21
 177.83328668113
  31
0.0
  12
 234.11321580925
  22
 178.53859460396
  32
0.0
  13
 234.11321580925
  23
 178.53859460396
  33
0.0
   0
SOLID
   5
141
 100
AcDbEntity
   8
LEVEL001
 100
AcDbTrace
   6
CONTINUOUS
  62
8
  10
 239.11321580925
  20
 178.18594064254
  30
0.0
  11
 237.11321580925
  21
 178.53859460396
  31
0.0
  12
 237.11321580925
  22
 177.83328668113
  32
0.0
  13
 237.11321580925
  23
 177.83328668113
  33
0.0
   0
MTEXT
   5
142
 100
AcDbEntity
   8
LEVEL001
 370
15
  62
8
 100
AcDbMText
  10
 229.20639429640
  20
 179.10144005534
  30
0.0
  40
 2.5000000000000
  41
0.0
  71
9
  72
1
   1
\A1;7
   7
GMM002
   0
ENDBLK
   5
143
 100
AcDbEntity
   8
0
 100
AcDbBlockEnd
   0
BLOCK
   5
144
 100
AcDbEntity
   8
0
 100
AcDbBlockBegin
   2
*D15
  70
65
  10
0.0
  20
0.0
  30
0.0
   3
*D15
   0
LINE
   5
145
 100
AcDbEntity
   8
LEVEL001
 370
15
 100
AcDbLine
   6
CONTINUOUS
  62
8
  10
 218.61321580925
  20
 171.76106951193
  30
0.0
  11
 218.61321580925
  21
 189.18594064254
  31
0.0
   0
LINE
   5
146
 100
AcDbEntity
   8
LEVEL001
 370
15
 100
AcDbLine
   6
CONTINUOUS
  62
8
  10
 291.61321580925
  20
 171.76106951197
  30
0.0
  11
 291.61321580925
  21
 189.18594064254
  31
0.0
   0
LINE
   5
147
 100
AcDbEntity
   8
LEVEL001
 370
15
 100
AcDbLine
   6
CONTINUOUS
  62
8
  10
 218.61321580925
  20
 188.18594064254
  30
0.0
  11
 255.11321580925
  21
 188.18594064254
  31
0.0
   0
LINE
   5
148
 100
AcDbEntity
   8
LEVEL001
 370
15
 100
AcDbLine
   6
CONTINUOUS
  62
8
  10
 291.61321580925
  20
 188.18594064254
  30
0.0
  11
 255.11321580925
  21
 188.18594064254
  31
0.0
   0
SOLID
   5
149
 100
AcDbEntity
   8
LEVEL001
 100
AcDbTrace
   6
CONTINUOUS
  62
8
  10
 218.61321580925
  20
 188.18594064254
  30
0.0
  11
 220.61321580925
  21
 187.83328668113
  31
0.0
  12
 220.61321580925
  22
 188.53859460396
  32
0.0
  13
 220.61321580925
  23
 188.53859460396
  33
0.0
   0
SOLID
   5
14A
 100
AcDbEntity
   8
LEVEL001
 100
AcDbTrace
   6
CONTINUOUS
  62
8
  10
 291.61321580925
  20
 188.18594064254
  30
0.0
  11
 289.61321580925
  21
 188.53859460396
  31
0.0
  12
 289.61321580925
  22
 187.83328668113
  32
0.0
  13
 289.61321580925
  23
 187.83328668113
  33
0.0
   0
MTEXT
   5
14B
 100
AcDbEntity
   8
LEVEL001
 370
15
  62
8
 100
AcDbMText
  10
 255.11321580925
  20
 189.18594064254
  30
0.0
  40
 2.5000000000000
  41
0.0
  71
8
  72
1
   1
\A1;73
   7
GMM002
   0
ENDBLK
   5
14C
 100
AcDbEntity
   8
0
 100
AcDbBlockEnd
   0
BLOCK
   5
14D
 100
AcDbEntity
   8
0
 100
AcDbBlockBegin
   2
*D16
  70
65
  10
0.0
  20
0.0
  30
0.0
   3
*D16
   0
LINE
   5
14E
 100
AcDbEntity
   8
LEVEL001
 370
15
 100
AcDbLine
   6
CONTINUOUS
  62
8
  10
 176.70668560639
  20
 99.725804034615
  30
0.0
  11
 176.70668560639
  21
 117.15067516533
  31
0.0
   0
LINE
   5
14F
 100
AcDbEntity
   8
LEVEL001
 370
15
 100
AcDbLine
   6
CONTINUOUS
  62
8
  10
 282.70668560639
  20
 99.725804034824
  30
0.0
  11
 282.70668560639
  21
 117.15067516533
  31
0.0
   0
LINE
   5
150
 100
AcDbEntity
   8
LEVEL001
 370
15
 100
AcDbLine
   6
CONTINUOUS
  62
8
  10
 176.70668560639
  20
 116.15067516533
  30
0.0
  11
 229.70668560639
  21
 116.15067516533
  31
0.0
   0
LINE
   5
151
 100
AcDbEntity
   8
LEVEL001
 370
15
 100
AcDbLine
   6
CONTINUOUS
  62
8
  10
 282.70668560639
  20
 116.15067516533
  30
0.0
  11
 229.70668560639
  21
 116.15067516533
  31
0.0
   0
SOLID
   5
152
 100
AcDbEntity
   8
LEVEL001
 100
AcDbTrace
   6
CONTINUOUS
  62
8
  10
 176.70668560639
  20
 116.15067516533
  30
0.0
  11
 178.70668560639
  21
 115.79802120392
  31
0.0
  12
 178.70668560639
  22
 116.50332912675
  32
0.0
  13
 178.70668560639
  23
 116.50332912675
  33
0.0
   0
SOLID
   5
153
 100
AcDbEntity
   8
LEVEL001
 100
AcDbTrace
   6
CONTINUOUS
  62
8
  10
 282.70668560639
  20
 116.15067516533
  30
0.0
  11
 280.70668560639
  21
 116.50332912675
  31
0.0
  12
 280.70668560639
  22
 115.79802120392
  32
0.0
  13
 280.70668560639
  23
 115.79802120392
  33
0.0
   0
MTEXT
   5
154
 100
AcDbEntity
   8
LEVEL001
 370
15
  62
8
 100
AcDbMText
  10
 229.70668560639
  20
 117.15067516533
  30
0.0
  40
 2.5000000000000
  41
0.0
  71
8
  72
1
   1
\A1;106
   7
GMM002
   0
ENDBLK
   5
155
 100
AcDbEntity
   8
0
 100
AcDbBlockEnd
   0
BLOCK
   5
156
 100
AcDbEntity
   8
0
 100
AcDbBlockBegin
   2
*D17
  70
65
  10
0.0
  20
0.0
  30
0.0
   3
*D17
   0
LINE
   5
157
 100
AcDbEntity
   8
LEVEL001
 370
15
 100
AcDbLine
   6
CONTINUOUS
  62
8
  10
 190.20668560639
  20
 101.90067516533
  30
0.0
  11
 190.20668560639
  21
 107.15067516533
  31
0.0
   0
LINE
   5
158
 100
AcDbEntity
   8
LEVEL001
 370
15
 100
AcDbLine
   6
CONTINUOUS
  62
8
  10
 197.20668560639
  20
 101.90067516533
  30
0.0
  11
 197.20668560639
  21
 107.15067516533
  31
0.0
   0
LINE
   5
159
 100
AcDbEntity
   8
LEVEL001
 370
15
 100
AcDbLine
   6
CONTINUOUS
  62
8
  10
 185.81924738519
  20
 106.15067516533
  30
0.0
  11
 193.70668560639
  21
 106.15067516533
  31
0.0
   0
LINE
   5
15A
 100
AcDbEntity
   8
LEVEL001
 370
15
 100
AcDbLine
   6
CONTINUOUS
  62
8
  10
 199.70668560639
  20
 106.15067516533
  30
0.0
  11
 193.70668560639
  21
 106.15067516533
  31
0.0
   0
SOLID
   5
15B
 100
AcDbEntity
   8
LEVEL001
 100
AcDbTrace
   6
CONTINUOUS
  62
8
  10
 190.20668560639
  20
 106.15067516533
  30
0.0
  11
 188.20668560639
  21
 106.50332912675
  31
0.0
  12
 188.20668560639
  22
 105.79802120392
  32
0.0
  13
 188.20668560639
  23
 105.79802120392
  33
0.0
   0
SOLID
   5
15C
 100
AcDbEntity
   8
LEVEL001
 100
AcDbTrace
   6
CONTINUOUS
  62
8
  10
 197.20668560639
  20
 106.15067516533
  30
0.0
  11
 199.20668560639
  21
 105.79802120392
  31
0.0
  12
 199.20668560639
  22
 106.50332912675
  32
0.0
  13
 199.20668560639
  23
 106.50332912675
  33
0.0
   0
MTEXT
   5
15D
 100
AcDbEntity
   8
LEVEL001
 370
15
  62
8
 100
AcDbMText
  10
 188.31924738519
  20
 106.99783416533
  30
0.0
  40
 2.5000000000000
  41
0.0
  71
9
  72
1
   1
\A1;7
   7
GMM002
   0
ENDBLK
   5
15E
 100
AcDbEntity
   8
0
 100
AcDbBlockEnd
   0
BLOCK
   5
15F
 100
AcDbEntity
   8
0
 100
AcDbBlockBegin
   2
*D18
  70
65
  10
0.0
  20
0.0
  30
0.0
   3
*D18
   0
LINE
   5
160
 100
AcDbEntity
   8
LEVEL001
 370
15
 100
AcDbLine
   6
CONTINUOUS
  62
8
  10
 193.70668560639
  20
 104.79973857912
  30
0.0
  11
 193.70668560639
  21
 112.15067516533
  31
0.0
   0
LINE
   5
161
 100
AcDbEntity
   8
LEVEL001
 370
15
 100
AcDbLine
   6
CONTINUOUS
  62
8
  10
 193.70668560639
  20
 111.15067516533
  30
0.0
  11
 211.70668560639
  21
 111.15067516533
  31
0.0
   0
LINE
   5
162
 100
AcDbEntity
   8
LEVEL001
 370
15
 100
AcDbLine
   6
CONTINUOUS
  62
8
  10
 229.70668560639
  20
 111.15067516533
  30
0.0
  11
 211.70668560639
  21
 111.15067516533
  31
0.0
   0
SOLID
   5
163
 100
AcDbEntity
   8
LEVEL001
 100
AcDbTrace
   6
CONTINUOUS
  62
8
  10
 193.70668560639
  20
 111.15067516533
  30
0.0
  11
 195.70668560639
  21
 110.79802120392
  31
0.0
  12
 195.70668560639
  22
 111.50332912675
  32
0.0
  13
 195.70668560639
  23
 111.50332912675
  33
0.0
   0
SOLID
   5
164
 100
AcDbEntity
   8
LEVEL001
 100
AcDbTrace
   6
CONTINUOUS
  62
8
  10
 229.70668560639
  20
 111.15067516533
  30
0.0
  11
 227.70668560639
  21
 111.50332912675
  31
0.0
  12
 227.70668560639
  22
 110.79802120392
  32
0.0
  13
 227.70668560639
  23
 110.79802120392
  33
0.0
   0
MTEXT
   5
165
 100
AcDbEntity
   8
LEVEL001
 370
15
  62
8
 100
AcDbMText
  10
 211.70668560639
  20
 112.15067516533
  30
0.0
  40
 2.5000000000000
  41
0.0
  71
8
  72
1
   1
\A1;36
   7
GMM002
   0
ENDBLK
   5
166
 100
AcDbEntity
   8
0
 100
AcDbBlockEnd
   0
BLOCK
   5
167
 100
AcDbEntity
   8
0
 100
AcDbBlockBegin
   2
*D19
  70
65
  10
0.0
  20
0.0
  30
0.0
   3
*D19
   0
LINE
   5
168
 100
AcDbEntity
   8
LEVEL001
 370
15
 100
AcDbLine
   6
CONTINUOUS
  62
8
  10
 229.70668560639
  20
 105.29973857912
  30
0.0
  11
 229.70668560639
  21
 112.15067516533
  31
0.0
   0
LINE
   5
169
 100
AcDbEntity
   8
LEVEL001
 370
15
 100
AcDbLine
   6
CONTINUOUS
  62
8
  10
 265.70668560639
  20
 106.49860553818
  30
0.0
  11
 265.70668560639
  21
 112.15067516533
  31
0.0
   0
LINE
   5
16A
 100
AcDbEntity
   8
LEVEL001
 370
15
 100
AcDbLine
   6
CONTINUOUS
  62
8
  10
 229.70668560639
  20
 111.15067516533
  30
0.0
  11
 247.70668560639
  21
 111.15067516533
  31
0.0
   0
LINE
   5
16B
 100
AcDbEntity
   8
LEVEL001
 370
15
 100
AcDbLine
   6
CONTINUOUS
  62
8
  10
 265.70668560639
  20
 111.15067516533
  30
0.0
  11
 247.70668560639
  21
 111.15067516533
  31
0.0
   0
SOLID
   5
16C
 100
AcDbEntity
   8
LEVEL001
 100
AcDbTrace
   6
CONTINUOUS
  62
8
  10
 229.70668560639
  20
 111.15067516533
  30
0.0
  11
 231.70668560639
  21
 110.79802120392
  31
0.0
  12
 231.70668560639
  22
 111.50332912675
  32
0.0
  13
 231.70668560639
  23
 111.50332912675
  33
0.0
   0
SOLID
   5
16D
 100
AcDbEntity
   8
LEVEL001
 100
AcDbTrace
   6
CONTINUOUS
  62
8
  10
 265.70668560639
  20
 111.15067516533
  30
0.0
  11
 263.70668560639
  21
 111.50332912675
  31
0.0
  12
 263.70668560639
  22
 110.79802120392
  32
0.0
  13
 263.70668560639
  23
 110.79802120392
  33
0.0
   0
MTEXT
   5
16E
 100
AcDbEntity
   8
LEVEL001
 370
15
  62
8
 100
AcDbMText
  10
 247.70668560639
  20
 112.15067516533
  30
0.0
  40
 2.5000000000000
  41
0.0
  71
8
  72
1
   1
\A1;36
   7
GMM002
   0
ENDBLK
   5
16F
 100
AcDbEntity
   8
0
 100
AcDbBlockEnd
   0
BLOCK
   5
170
 100
AcDbEntity
   8
0
 100
AcDbBlockBegin
   2
*D20
  70
65
  10
0.0
  20
0.0
  30
0.0
   3
*D20
   0
LINE
   5
171
 100
AcDbEntity
   8
LEVEL001
 370
15
 100
AcDbLine
   6
CONTINUOUS
  62
8
  10
 283.50668560639
  20
 98.150675165334
  30
0.0
  11
 289.57809841486
  21
 98.150675165334
  31
0.0
   0
LINE
   5
172
 100
AcDbEntity
   8
LEVEL001
 370
15
 100
AcDbLine
   6
CONTINUOUS
  62
8
  10
 279.70668560639
  20
 101.15067516542
  30
0.0
  11
 289.57809841486
  21
 101.15067516542
  31
0.0
   0
LINE
   5
173
 100
AcDbEntity
   8
LEVEL001
 370
15
 100
AcDbLine
   6
CONTINUOUS
  62
8
  10
 288.57809841486
  20
 95.650675165334
  30
0.0
  11
 288.57809841486
  21
 99.650675165377
  31
0.0
   0
LINE
   5
174
 100
AcDbEntity
   8
LEVEL001
 370
15
 100
AcDbLine
   6
CONTINUOUS
  62
8
  10
 288.57809841486
  20
 106.36072692668
  30
0.0
  11
 288.57809841486
  21
 99.650675165377
  31
0.0
   0
SOLID
   5
175
 100
AcDbEntity
   8
LEVEL001
 100
AcDbTrace
   6
CONTINUOUS
  62
8
  10
 288.57809841486
  20
 98.150675165334
  30
0.0
  11
 288.22544445345
  21
 96.150675165334
  31
0.0
  12
 288.93075237628
  22
 96.150675165334
  32
0.0
  13
 288.93075237628
  23
 96.150675165334
  33
0.0
   0
SOLID
   5
176
 100
AcDbEntity
   8
LEVEL001
 100
AcDbTrace
   6
CONTINUOUS
  62
8
  10
 288.57809841486
  20
 101.15067516542
  30
0.0
  11
 288.93075237628
  21
 103.15067516542
  31
0.0
  12
 288.22544445345
  22
 103.15067516542
  32
0.0
  13
 288.22544445345
  23
 103.15067516542
  33
0.0
   0
MTEXT
   5
177
 100
AcDbEntity
   8
LEVEL001
 370
15
  62
8
 100
AcDbMText
  10
 287.54885864878
  20
 103.86072692668
  30
0.0
  40
 2.5000000000000
  41
0.0
  71
7
  72
1
   1
\A1;3
   7
GMM002
  11
0.0
  21
 1.0000000000000
  31
0.0
   0
ENDBLK
   5
178
 100
AcDbEntity
   8
0
 100
AcDbBlockEnd
   0
BLOCK
   5
179
 100
AcDbEntity
   8
0
 100
AcDbBlockBegin
   2
*D21
  70
65
  10
0.0
  20
0.0
  30
0.0
   3
*D21
   0
LINE
   5
17A
 100
AcDbEntity
   8
LEVEL001
 370
15
 100
AcDbLine
   6
CONTINUOUS
  62
8
  10
 51.462758143348
  20
 101.90067516533
  30
0.0
  11
 51.462758143348
  21
 107.15067516533
  31
0.0
   0
LINE
   5
17B
 100
AcDbEntity
   8
LEVEL001
 370
15
 100
AcDbLine
   6
CONTINUOUS
  62
8
  10
 58.462758143348
  20
 101.90067516533
  30
0.0
  11
 58.462758143348
  21
 107.15067516533
  31
0.0
   0
LINE
   5
17C
 100
AcDbEntity
   8
LEVEL001
 370
15
 100
AcDbLine
   6
CONTINUOUS
  62
8
  10
 47.388073824949
  20
 106.15067516533
  30
0.0
  11
 54.962758143348
  21
 106.15067516533
  31
0.0
   0
LINE
   5
17D
 100
AcDbEntity
   8
LEVEL001
 370
15
 100
AcDbLine
   6
CONTINUOUS
  62
8
  10
 60.962758143348
  20
 106.15067516533
  30
0.0
  11
 54.962758143348
  21
 106.15067516533
  31
0.0
   0
SOLID
   5
17E
 100
AcDbEntity
   8
LEVEL001
 100
AcDbTrace
   6
CONTINUOUS
  62
8
  10
 51.462758143348
  20
 106.15067516533
  30
0.0
  11
 49.462758143348
  21
 106.50332912675
  31
0.0
  12
 49.462758143348
  22
 105.79802120392
  32
0.0
  13
 49.462758143348
  23
 105.79802120392
  33
0.0
   0
SOLID
   5
17F
 100
AcDbEntity
   8
LEVEL001
 100
AcDbTrace
   6
CONTINUOUS
  62
8
  10
 58.462758143348
  20
 106.15067516533
  30
0.0
  11
 60.462758143348
  21
 105.79802120392
  31
0.0
  12
 60.462758143348
  22
 106.50332912675
  32
0.0
  13
 60.462758143348
  23
 106.50332912675
  33
0.0
   0
MTEXT
   5
180
 100
AcDbEntity
   8
LEVEL001
 370
15
  62
8
 100
AcDbMText
  10
 49.888073824949
  20
 107.04789016533
  30
0.0
  40
 2.5000000000000
  41
0.0
  71
9
  72
1
   1
\A1;7
   7
GMM002
   0
ENDBLK
   5
181
 100
AcDbEntity
   8
0
 100
AcDbBlockEnd
   0
BLOCK
   5
182
 100
AcDbEntity
   8
0
 100
AcDbBlockBegin
   2
*D22
  70
65
  10
0.0
  20
0.0
  30
0.0
   3
*D22
   0
LINE
   5
183
 100
AcDbEntity
   8
LEVEL001
 370
15
 100
AcDbLine
   6
CONTINUOUS
  62
8
  10
 54.962758143348
  20
 103.80227564550
  30
0.0
  11
 54.962758143348
  21
 112.15067516533
  31
0.0
   0
LINE
   5
184
 100
AcDbEntity
   8
LEVEL001
 370
15
 100
AcDbLine
   6
CONTINUOUS
  62
8
  10
 54.962758143348
  20
 111.15067516533
  30
0.0
  11
 71.462758143348
  21
 111.15067516533
  31
0.0
   0
LINE
   5
185
 100
AcDbEntity
   8
LEVEL001
 370
15
 100
AcDbLine
   6
CONTINUOUS
  62
8
  10
 87.962758143348
  20
 111.15067516533
  30
0.0
  11
 71.462758143348
  21
 111.15067516533
  31
0.0
   0
SOLID
   5
186
 100
AcDbEntity
   8
LEVEL001
 100
AcDbTrace
   6
CONTINUOUS
  62
8
  10
 54.962758143348
  20
 111.15067516533
  30
0.0
  11
 56.962758143348
  21
 110.79802120392
  31
0.0
  12
 56.962758143348
  22
 111.50332912675
  32
0.0
  13
 56.962758143348
  23
 111.50332912675
  33
0.0
   0
SOLID
   5
187
 100
AcDbEntity
   8
LEVEL001
 100
AcDbTrace
   6
CONTINUOUS
  62
8
  10
 87.962758143348
  20
 111.15067516533
  30
0.0
  11
 85.962758143348
  21
 111.50332912675
  31
0.0
  12
 85.962758143348
  22
 110.79802120392
  32
0.0
  13
 85.962758143348
  23
 110.79802120392
  33
0.0
   0
MTEXT
   5
188
 100
AcDbEntity
   8
LEVEL001
 370
15
  62
8
 100
AcDbMText
  10
 71.462758143348
  20
 112.15067516533
  30
0.0
  40
 2.5000000000000
  41
0.0
  71
8
  72
1
   1
\A1;33
   7
GMM002
   0
ENDBLK
   5
189
 100
AcDbEntity
   8
0
 100
AcDbBlockEnd
   0
BLOCK
   5
18A
 100
AcDbEntity
   8
0
 100
AcDbBlockBegin
   2
*D23
  70
65
  10
0.0
  20
0.0
  30
0.0
   3
*D23
   0
LINE
   5
18B
 100
AcDbEntity
   8
LEVEL001
 370
15
 100
AcDbLine
   6
CONTINUOUS
  62
8
  10
 87.962758143348
  20
 103.80227564550
  30
0.0
  11
 87.962758143348
  21
 112.15067516533
  31
0.0
   0
LINE
   5
18C
 100
AcDbEntity
   8
LEVEL001
 370
15
 100
AcDbLine
   6
CONTINUOUS
  62
8
  10
 120.96275814335
  20
 103.80227564550
  30
0.0
  11
 120.96275814335
  21
 112.15067516533
  31
0.0
   0
LINE
   5
18D
 100
AcDbEntity
   8
LEVEL001
 370
15
 100
AcDbLine
   6
CONTINUOUS
  62
8
  10
 87.962758143348
  20
 111.15067516533
  30
0.0
  11
 104.46275814335
  21
 111.15067516533
  31
0.0
   0
LINE
   5
18E
 100
AcDbEntity
   8
LEVEL001
 370
15
 100
AcDbLine
   6
CONTINUOUS
  62
8
  10
 120.96275814335
  20
 111.15067516533
  30
0.0
  11
 104.46275814335
  21
 111.15067516533
  31
0.0
   0
SOLID
   5
18F
 100
AcDbEntity
   8
LEVEL001
 100
AcDbTrace
   6
CONTINUOUS
  62
8
  10
 87.962758143348
  20
 111.15067516533
  30
0.0
  11
 89.962758143348
  21
 110.79802120392
  31
0.0
  12
 89.962758143348
  22
 111.50332912675
  32
0.0
  13
 89.962758143348
  23
 111.50332912675
  33
0.0
   0
SOLID
   5
190
 100
AcDbEntity
   8
LEVEL001
 100
AcDbTrace
   6
CONTINUOUS
  62
8
  10
 120.96275814335
  20
 111.15067516533
  30
0.0
  11
 118.96275814335
  21
 111.50332912675
  31
0.0
  12
 118.96275814335
  22
 110.79802120392
  32
0.0
  13
 118.96275814335
  23
 110.79802120392
  33
0.0
   0
MTEXT
   5
191
 100
AcDbEntity
   8
LEVEL001
 370
15
  62
8
 100
AcDbMText
  10
 104.46275814335
  20
 112.15067516533
  30
0.0
  40
 2.5000000000000
  41
0.0
  71
8
  72
1
   1
\A1;33
   7
GMM002
   0
ENDBLK
   5
192
 100
AcDbEntity
   8
0
 100
AcDbBlockEnd
   0
BLOCK
   5
193
 100
AcDbEntity
   8
0
 100
AcDbBlockBegin
   2
*D24
  70
65
  10
0.0
  20
0.0
  30
0.0
   3
*D24
   0
LINE
   5
194
 100
AcDbEntity
   8
LEVEL001
 370
15
 100
AcDbLine
   6
CONTINUOUS
  62
8
  10
 37.962758143348
  20
 99.725804034615
  30
0.0
  11
 37.962758143348
  21
 117.15067516533
  31
0.0
   0
LINE
   5
195
 100
AcDbEntity
   8
LEVEL001
 370
15
 100
AcDbLine
   6
CONTINUOUS
  62
8
  10
 137.96275814335
  20
 99.725804034824
  30
0.0
  11
 137.96275814335
  21
 117.15067516533
  31
0.0
   0
LINE
   5
196
 100
AcDbEntity
   8
LEVEL001
 370
15
 100
AcDbLine
   6
CONTINUOUS
  62
8
  10
 37.962758143348
  20
 116.15067516533
  30
0.0
  11
 87.962758143349
  21
 116.15067516533
  31
0.0
   0
LINE
   5
197
 100
AcDbEntity
   8
LEVEL001
 370
15
 100
AcDbLine
   6
CONTINUOUS
  62
8
  10
 137.96275814335
  20
 116.15067516533
  30
0.0
  11
 87.962758143349
  21
 116.15067516533
  31
0.0
   0
SOLID
   5
198
 100
AcDbEntity
   8
LEVEL001
 100
AcDbTrace
   6
CONTINUOUS
  62
8
  10
 37.962758143348
  20
 116.15067516533
  30
0.0
  11
 39.962758143348
  21
 115.79802120392
  31
0.0
  12
 39.962758143348
  22
 116.50332912675
  32
0.0
  13
 39.962758143348
  23
 116.50332912675
  33
0.0
   0
SOLID
   5
199
 100
AcDbEntity
   8
LEVEL001
 100
AcDbTrace
   6
CONTINUOUS
  62
8
  10
 137.96275814335
  20
 116.15067516533
  30
0.0
  11
 135.96275814335
  21
 116.50332912675
  31
0.0
  12
 135.96275814335
  22
 115.79802120392
  32
0.0
  13
 135.96275814335
  23
 115.79802120392
  33
0.0
   0
MTEXT
   5
19A
 100
AcDbEntity
   8
LEVEL001
 370
15
  62
8
 100
AcDbMText
  10
 87.962758143349
  20
 117.15067516533
  30
0.0
  40
 2.5000000000000
  41
0.0
  71
8
  72
1
   1
\A1;100
   7
GMM002
   0
ENDBLK
   5
19B
 100
AcDbEntity
   8
0
 100
AcDbBlockEnd
   0
BLOCK
   5
19C
 100
AcDbEntity
   8
0
 100
AcDbBlockBegin
   2
*D25
  70
65
  10
0.0
  20
0.0
  30
0.0
   3
*D25
   0
LINE
   5
19D
 100
AcDbEntity
   8
LEVEL001
 370
15
 100
AcDbLine
   6
CONTINUOUS
  62
8
  10
 138.76275814335
  20
 98.150675165334
  30
0.0
  11
 144.83417095182
  21
 98.150675165334
  31
0.0
   0
LINE
   5
19E
 100
AcDbEntity
   8
LEVEL001
 370
15
 100
AcDbLine
   6
CONTINUOUS
  62
8
  10
 134.96275814335
  20
 101.15067516542
  30
0.0
  11
 144.83417095182
  21
 101.15067516542
  31
0.0
   0
LINE
   5
19F
 100
AcDbEntity
   8
LEVEL001
 370
15
 100
AcDbLine
   6
CONTINUOUS
  62
8
  10
 143.83417095182
  20
 95.650675165334
  30
0.0
  11
 143.83417095182
  21
 99.650675165377
  31
0.0
   0
LINE
   5
1A0
 100
AcDbEntity
   8
LEVEL001
 370
15
 100
AcDbLine
   6
CONTINUOUS
  62
8
  10
 143.83417095182
  20
 106.36072692668
  30
0.0
  11
 143.83417095182
  21
 99.650675165377
  31
0.0
   0
SOLID
   5
1A1
 100
AcDbEntity
   8
LEVEL001
 100
AcDbTrace
   6
CONTINUOUS
  62
8
  10
 143.83417095182
  20
 98.150675165334
  30
0.0
  11
 143.48151699041
  21
 96.150675165334
  31
0.0
  12
 144.18682491324
  22
 96.150675165334
  32
0.0
  13
 144.18682491324
  23
 96.150675165334
  33
0.0
   0
SOLID
   5
1A2
 100
AcDbEntity
   8
LEVEL001
 100
AcDbTrace
   6
CONTINUOUS
  62
8
  10
 143.83417095182
  20
 101.15067516542
  30
0.0
  11
 144.18682491324
  21
 103.15067516542
  31
0.0
  12
 143.48151699041
  22
 103.15067516542
  32
0.0
  13
 143.48151699041
  23
 103.15067516542
  33
0.0
   0
MTEXT
   5
1A3
 100
AcDbEntity
   8
LEVEL001
 370
15
  62
8
 100
AcDbMText
  10
 142.80493118574
  20
 103.86072692668
  30
0.0
  40
 2.5000000000000
  41
0.0
  71
7
  72
1
   1
\A1;3
   7
GMM002
  11
0.0
  21
 1.0000000000000
  31
0.0
   0
ENDBLK
   5
1A4
 100
AcDbEntity
   8
0
 100
AcDbBlockEnd
   0
ENDSEC
   0
SECTION
   2
ENTITIES
   0
LINE
   5
1A5
 100
AcDbEntity
   8
LEVEL002
 370
30
 100
AcDbLine
   6
CONTINUOUS
  62
7
  10
 344.15000000000
  20
 272.07500000000
  30
0.0
  11
 336.95000000000
  21
 272.07500000000
  31
0.0
   0
LINE
   5
1A6
 100
AcDbEntity
   8
LEVEL002
 370
30
 100
AcDbLine
   6
CONTINUOUS
  62
7
  10
 336.95000000000
  20
 272.07500000000
  30
0.0
  11
 336.95000000000
  21
 261.27500000000
  31
0.0
   0
LINE
   5
1A7
 100
AcDbEntity
   8
LEVEL002
 370
30
 100
AcDbLine
   6
CONTINUOUS
  62
7
  10
 336.95000000000
  20
 261.27500000000
  30
0.0
  11
 340.55000000000
  21
 261.27500000000
  31
0.0
   0
LINE
   5
1A8
 100
AcDbEntity
   8
LEVEL002
 370
30
 100
AcDbLine
   6
CONTINUOUS
  62
7
  10
 340.55000000000
  20
 261.27500000000
  30
0.0
  11
 340.55000000000
  21
 263.07500000000
  31
0.0
   0
LINE
   5
1A9
 100
AcDbEntity
   8
LEVEL002
 370
30
 100
AcDbLine
   6
CONTINUOUS
  62
7
  10
 340.55000000000
  20
 263.07500000000
  30
0.0
  11
 344.15000000000
  21
 263.07500000000
  31
0.0
   0
ARC
   5
1AA
 100
AcDbEntity
   8
LEVEL002
 370
30
   6
CONTINUOUS
  62
7
 100
AcDbCircle
  10
 344.15000000000
  20
 267.57500000000
  30
0.0
  40
 4.5000000000000
 100
AcDbArc
  50
 270.00000000000
  51
 90.000000000000
   0
LINE
   5
1AB
 100
AcDbEntity
   8
LEVEL002
 370
30
 100
AcDbLine
   6
CONTINUOUS
  62
7
  10
 340.55000000000
  20
 266.67500000000
  30
0.0
  11
 344.15000000000
  21
 266.67500000000
  31
0.0
   0
ARC
   5
1AC
 100
AcDbEntity
   8
LEVEL002
 370
30
   6
CONTINUOUS
  62
7
 100
AcDbCircle
  10
 344.15000000000
  20
 267.57500000000
  30
0.0
  40
 0.90000000000000
 100
AcDbArc
  50
 270.00000000000
  51
 90.000000000000
   0
LINE
   5
1AD
 100
AcDbEntity
   8
LEVEL002
 370
30
 100
AcDbLine
   6
CONTINUOUS
  62
7
  10
 344.15000000000
  20
 268.47500000000
  30
0.0
  11
 340.55000000000
  21
 268.47500000000
  31
0.0
   0
LINE
   5
1AE
 100
AcDbEntity
   8
LEVEL002
 370
30
 100
AcDbLine
   6
CONTINUOUS
  62
7
  10
 340.55000000000
  20
 268.47500000000
  30
0.0
  11
 340.55000000000
  21
 266.67500000000
  31
0.0
   0
LINE
   5
1AF
 100
AcDbEntity
   8
LEVEL002
 370
30
 100
AcDbLine
   6
CONTINUOUS
  62
7
  10
 345.95000000000
  20
 261.27500000000
  30
0.0
  11
 353.15000000000
  21
 272.07500000000
  31
0.0
   0
LINE
   5
1B0
 100
AcDbEntity
   8
LEVEL002
 370
30
 100
AcDbLine
   6
CONTINUOUS
  62
7
  10
 353.15000000000
  20
 272.07500000000
  30
0.0
  11
 362.15000000000
  21
 272.07500000000
  31
0.0
   0
LINE
   5
1B1
 100
AcDbEntity
   8
LEVEL002
 370
30
 100
AcDbLine
   6
CONTINUOUS
  62
7
  10
 362.15000000000
  20
 272.07500000000
  30
0.0
  11
 362.15000000000
  21
 264.87500000000
  31
0.0
   0
LINE
   5
1B2
 100
AcDbEntity
   8
LEVEL002
 370
30
 100
AcDbLine
   6
CONTINUOUS
  62
7
  10
 362.15000000000
  20
 264.87500000000
  30
0.0
  11
 367.55000000000
  21
 264.87500000000
  31
0.0
   0
LINE
   5
1B3
 100
AcDbEntity
   8
LEVEL002
 370
30
 100
AcDbLine
   6
CONTINUOUS
  62
7
  10
 367.55000000000
  20
 264.87500000000
  30
0.0
  11
 367.55000000000
  21
 268.47500000000
  31
0.0
   0
LINE
   5
1B4
 100
AcDbEntity
   8
LEVEL002
 370
30
 100
AcDbLine
   6
CONTINUOUS
  62
7
  10
 367.55000000000
  20
 268.47500000000
  30
0.0
  11
 363.95000000000
  21
 268.47500000000
  31
0.0
   0
LINE
   5
1B5
 100
AcDbEntity
   8
LEVEL002
 370
30
 100
AcDbLine
   6
CONTINUOUS
  62
7
  10
 363.95000000000
  20
 268.47500000000
  30
0.0
  11
 363.95000000000
  21
 272.07500000000
  31
0.0
   0
LINE
   5
1B6
 100
AcDbEntity
   8
LEVEL002
 370
30
 100
AcDbLine
   6
CONTINUOUS
  62
7
  10
 363.95000000000
  20
 272.07500000000
  30
0.0
  11
 385.55000000000
  21
 272.07500000000
  31
0.0
   0
LINE
   5
1B7
 100
AcDbEntity
   8
LEVEL002
 370
30
 100
AcDbLine
   6
CONTINUOUS
  62
7
  10
 385.55000000000
  20
 272.07500000000
  30
0.0
  11
 385.55000000000
  21
 268.47500000000
  31
0.0
   0
LINE
   5
1B8
 100
AcDbEntity
   8
LEVEL002
 370
30
 100
AcDbLine
   6
CONTINUOUS
  62
7
  10
 385.55000000000
  20
 268.47500000000
  30
0.0
  11
 378.35000000000
  21
 268.47500000000
  31
0.0
   0
LINE
   5
1B9
 100
AcDbEntity
   8
LEVEL002
 370
30
 100
AcDbLine
   6
CONTINUOUS
  62
7
  10
 378.35000000000
  20
 268.47500000000
  30
0.0
  11
 378.35000000000
  21
 267.57500000000
  31
0.0
   0
LINE
   5
1BA
 100
AcDbEntity
   8
LEVEL002
 370
30
 100
AcDbLine
   6
CONTINUOUS
  62
7
  10
 378.35000000000
  20
 267.57500000000
  30
0.0
  11
 384.65000000000
  21
 267.57500000000
  31
0.0
   0
LINE
   5
1BB
 100
AcDbEntity
   8
LEVEL002
 370
30
 100
AcDbLine
   6
CONTINUOUS
  62
7
  10
 384.65000000000
  20
 267.57500000000
  30
0.0
  11
 384.65000000000
  21
 265.77500000000
  31
0.0
   0
LINE
   5
1BC
 100
AcDbEntity
   8
LEVEL002
 370
30
 100
AcDbLine
   6
CONTINUOUS
  62
7
  10
 384.65000000000
  20
 265.77500000000
  30
0.0
  11
 378.35000000000
  21
 265.77500000000
  31
0.0
   0
LINE
   5
1BD
 100
AcDbEntity
   8
LEVEL002
 370
30
 100
AcDbLine
   6
CONTINUOUS
  62
7
  10
 378.35000000000
  20
 265.77500000000
  30
0.0
  11
 378.35000000000
  21
 264.87500000000
  31
0.0
   0
LINE
   5
1BE
 100
AcDbEntity
   8
LEVEL002
 370
30
 100
AcDbLine
   6
CONTINUOUS
  62
7
  10
 378.35000000000
  20
 264.87500000000
  30
0.0
  11
 385.55000000000
  21
 264.87500000000
  31
0.0
   0
LINE
   5
1BF
 100
AcDbEntity
   8
LEVEL002
 370
30
 100
AcDbLine
   6
CONTINUOUS
  62
7
  10
 385.55000000000
  20
 264.87500000000
  30
0.0
  11
 385.55000000000
  21
 261.27500000000
  31
0.0
   0
LINE
   5
1C0
 100
AcDbEntity
   8
LEVEL002
 370
30
 100
AcDbLine
   6
CONTINUOUS
  62
7
  10
 385.55000000000
  20
 261.27500000000
  30
0.0
  11
 374.75000000000
  21
 261.27500000000
  31
0.0
   0
LINE
   5
1C1
 100
AcDbEntity
   8
LEVEL002
 370
30
 100
AcDbLine
   6
CONTINUOUS
  62
7
  10
 374.75000000000
  20
 261.27500000000
  30
0.0
  11
 374.75000000000
  21
 268.47500000000
  31
0.0
   0
LINE
   5
1C2
 100
AcDbEntity
   8
LEVEL002
 370
30
 100
AcDbLine
   6
CONTINUOUS
  62
7
  10
 374.75000000000
  20
 268.47500000000
  30
0.0
  11
 371.15000000000
  21
 268.47500000000
  31
0.0
   0
LINE
   5
1C3
 100
AcDbEntity
   8
LEVEL002
 370
30
 100
AcDbLine
   6
CONTINUOUS
  62
7
  10
 371.15000000000
  20
 268.47500000000
  30
0.0
  11
 371.15000000000
  21
 261.27500000000
  31
0.0
   0
LINE
   5
1C4
 100
AcDbEntity
   8
LEVEL002
 370
30
 100
AcDbLine
   6
CONTINUOUS
  62
7
  10
 371.15000000000
  20
 261.27500000000
  30
0.0
  11
 358.55000000000
  21
 261.27500000000
  31
0.0
   0
LINE
   5
1C5
 100
AcDbEntity
   8
LEVEL002
 370
30
 100
AcDbLine
   6
CONTINUOUS
  62
7
  10
 358.55000000000
  20
 261.27500000000
  30
0.0
  11
 358.55000000000
  21
 272.07500000000
  31
0.0
   0
LINE
   5
1C6
 100
AcDbEntity
   8
LEVEL002
 370
30
 100
AcDbLine
   6
CONTINUOUS
  62
7
  10
 358.55000000000
  20
 272.07500000000
  30
0.0
  11
 351.35000000000
  21
 261.27500000000
  31
0.0
   0
LINE
   5
1C7
 100
AcDbEntity
   8
LEVEL002
 370
30
 100
AcDbLine
   6
CONTINUOUS
  62
7
  10
 351.35000000000
  20
 261.27500000000
  30
0.0
  11
 345.95000000000
  21
 261.27500000000
  31
0.0
   0
LINE
   5
1C8
 100
AcDbEntity
   8
LEVEL002
 370
30
 100
AcDbLine
   6
CONTINUOUS
  62
7
  10
 357.35000000000
  20
 268.11166923470
  30
0.0
  11
 352.79222051020
  21
 261.27500000000
  31
0.0
   0
LINE
   5
1C9
 100
AcDbEntity
   8
LEVEL002
 370
30
 100
AcDbLine
   6
CONTINUOUS
  62
7
  10
 352.79222051020
  20
 261.27500000000
  30
0.0
  11
 357.35000000000
  21
 261.27500000000
  31
0.0
   0
LINE
   5
1CA
 100
AcDbEntity
   8
LEVEL002
 370
30
 100
AcDbLine
   6
CONTINUOUS
  62
7
  10
 357.35000000000
  20
 261.27500000000
  30
0.0
  11
 357.35000000000
  21
 268.11166923470
  31
0.0
   0
ARC
   5
1CB
 100
AcDbEntity
   8
LEVEL002
 370
30
   6
CONTINUOUS
  62
7
 100
AcDbCircle
  10
 390.95000000000
  20
 266.67500000000
  30
0.0
  40
 5.4000000000000
 100
AcDbArc
  50
 90.000000000000
  51
 270.00000000000
   0
ARC
   5
1CC
 100
AcDbEntity
   8
LEVEL002
 370
30
   6
CONTINUOUS
  62
7
 100
AcDbCircle
  10
 390.95000000000
  20
 266.67500000000
  30
0.0
  40
 1.8000000000000
 100
AcDbArc
  50
 90.000000000000
  51
 270.00000000000
   0
LINE
   5
1CD
 100
AcDbEntity
   8
LEVEL002
 370
30
 100
AcDbLine
   6
CONTINUOUS
  62
7
  10
 390.95000000000
  20
 272.07500000000
  30
0.0
  11
 396.35000000000
  21
 272.07500000000
  31
0.0
   0
LINE
   5
1CE
 100
AcDbEntity
   8
LEVEL002
 370
30
 100
AcDbLine
   6
CONTINUOUS
  62
7
  10
 396.35000000000
  20
 272.07500000000
  30
0.0
  11
 396.35000000000
  21
 268.47500000000
  31
0.0
   0
LINE
   5
1CF
 100
AcDbEntity
   8
LEVEL002
 370
30
 100
AcDbLine
   6
CONTINUOUS
  62
7
  10
 396.35000000000
  20
 268.47500000000
  30
0.0
  11
 390.95000000000
  21
 268.47500000000
  31
0.0
   0
LINE
   5
1D0
 100
AcDbEntity
   8
LEVEL002
 370
30
 100
AcDbLine
   6
CONTINUOUS
  62
7
  10
 336.95000000000
  20
 272.07500000000
  30
0.0
  11
 336.95000000000
  21
 261.27500000000
  31
0.0
   0
LINE
   5
1D1
 100
AcDbEntity
   8
LEVEL002
 370
30
 100
AcDbLine
   6
CONTINUOUS
  62
7
  10
 336.95000000000
  20
 261.27500000000
  30
0.0
  11
 340.55000000000
  21
 261.27500000000
  31
0.0
   0
LINE
   5
1D2
 100
AcDbEntity
   8
LEVEL002
 370
30
 100
AcDbLine
   6
CONTINUOUS
  62
7
  10
 340.55000000000
  20
 261.27500000000
  30
0.0
  11
 340.55000000000
  21
 263.07500000000
  31
0.0
   0
LINE
   5
1D3
 100
AcDbEntity
   8
LEVEL002
 370
30
 100
AcDbLine
   6
CONTINUOUS
  62
7
  10
 340.55000000000
  20
 263.07500000000
  30
0.0
  11
 344.15000000000
  21
 263.07500000000
  31
0.0
   0
ARC
   5
1D4
 100
AcDbEntity
   8
LEVEL002
 370
30
   6
CONTINUOUS
  62
7
 100
AcDbCircle
  10
 344.15000000000
  20
 267.57500000000
  30
0.0
  40
 4.5000000000000
 100
AcDbArc
  50
 270.00000000000
  51
 90.000000000000
   0
LINE
   5
1D5
 100
AcDbEntity
   8
LEVEL002
 370
30
 100
AcDbLine
   6
CONTINUOUS
  62
7
  10
 344.15000000000
  20
 272.07500000000
  30
0.0
  11
 336.95000000000
  21
 272.07500000000
  31
0.0
   0
LINE
   5
1D6
 100
AcDbEntity
   8
LEVEL002
 370
30
 100
AcDbLine
   6
CONTINUOUS
  62
7
  10
 340.55000000000
  20
 268.47500000000
  30
0.0
  11
 340.55000000000
  21
 266.67500000000
  31
0.0
   0
LINE
   5
1D7
 100
AcDbEntity
   8
LEVEL002
 370
30
 100
AcDbLine
   6
CONTINUOUS
  62
7
  10
 340.55000000000
  20
 266.67500000000
  30
0.0
  11
 344.15000000000
  21
 266.67500000000
  31
0.0
   0
ARC
   5
1D8
 100
AcDbEntity
   8
LEVEL002
 370
30
   6
CONTINUOUS
  62
7
 100
AcDbCircle
  10
 344.15000000000
  20
 267.57500000000
  30
0.0
  40
 0.90000000000000
 100
AcDbArc
  50
 270.00000000000
  51
 90.000000000000
   0
LINE
   5
1D9
 100
AcDbEntity
   8
LEVEL002
 370
30
 100
AcDbLine
   6
CONTINUOUS
  62
7
  10
 344.15000000000
  20
 268.47500000000
  30
0.0
  11
 340.55000000000
  21
 268.47500000000
  31
0.0
   0
LINE
   5
1DA
 100
AcDbEntity
   8
LEVEL002
 370
30
 100
AcDbLine
   6
CONTINUOUS
  62
7
  10
 353.15000000000
  20
 272.07500000000
  30
0.0
  11
 345.95000000000
  21
 261.27500000000
  31
0.0
   0
LINE
   5
1DB
 100
AcDbEntity
   8
LEVEL002
 370
30
 100
AcDbLine
   6
CONTINUOUS
  62
7
  10
 345.95000000000
  20
 261.27500000000
  30
0.0
  11
 351.35000000000
  21
 261.27500000000
  31
0.0
   0
LINE
   5
1DC
 100
AcDbEntity
   8
LEVEL002
 370
30
 100
AcDbLine
   6
CONTINUOUS
  62
7
  10
 351.35000000000
  20
 261.27500000000
  30
0.0
  11
 358.55000000000
  21
 272.07500000000
  31
0.0
   0
LINE
   5
1DD
 100
AcDbEntity
   8
LEVEL002
 370
30
 100
AcDbLine
   6
CONTINUOUS
  62
7
  10
 358.55000000000
  20
 272.07500000000
  30
0.0
  11
 353.15000000000
  21
 272.07500000000
  31
0.0
   0
LINE
   5
1DE
 100
AcDbEntity
   8
LEVEL002
 370
30
 100
AcDbLine
   6
CONTINUOUS
  62
7
  10
 357.35000000000
  20
 261.27500000000
  30
0.0
  11
 357.35000000000
  21
 268.11166923470
  31
0.0
   0
LINE
   5
1DF
 100
AcDbEntity
   8
LEVEL002
 370
30
 100
AcDbLine
   6
CONTINUOUS
  62
7
  10
 357.35000000000
  20
 268.11166923470
  30
0.0
  11
 352.79222051020
  21
 261.27500000000
  31
0.0
   0
LINE
   5
1E0
 100
AcDbEntity
   8
LEVEL002
 370
30
 100
AcDbLine
   6
CONTINUOUS
  62
7
  10
 352.79222051020
  20
 261.27500000000
  30
0.0
  11
 357.35000000000
  21
 261.27500000000
  31
0.0
   0
LINE
   5
1E1
 100
AcDbEntity
   8
LEVEL002
 370
30
 100
AcDbLine
   6
CONTINUOUS
  62
7
  10
 358.55000000000
  20
 261.27500000000
  30
0.0
  11
 371.15000000000
  21
 261.27500000000
  31
0.0
   0
LINE
   5
1E2
 100
AcDbEntity
   8
LEVEL002
 370
30
 100
AcDbLine
   6
CONTINUOUS
  62
7
  10
 371.15000000000
  20
 261.27500000000
  30
0.0
  11
 371.15000000000
  21
 268.47500000000
  31
0.0
   0
LINE
   5
1E3
 100
AcDbEntity
   8
LEVEL002
 370
30
 100
AcDbLine
   6
CONTINUOUS
  62
7
  10
 371.15000000000
  20
 268.47500000000
  30
0.0
  11
 374.75000000000
  21
 268.47500000000
  31
0.0
   0
LINE
   5
1E4
 100
AcDbEntity
   8
LEVEL002
 370
30
 100
AcDbLine
   6
CONTINUOUS
  62
7
  10
 374.75000000000
  20
 268.47500000000
  30
0.0
  11
 374.75000000000
  21
 261.27500000000
  31
0.0
   0
LINE
   5
1E5
 100
AcDbEntity
   8
LEVEL002
 370
30
 100
AcDbLine
   6
CONTINUOUS
  62
7
  10
 374.75000000000
  20
 261.27500000000
  30
0.0
  11
 385.55000000000
  21
 261.27500000000
  31
0.0
   0
LINE
   5
1E6
 100
AcDbEntity
   8
LEVEL002
 370
30
 100
AcDbLine
   6
CONTINUOUS
  62
7
  10
 385.55000000000
  20
 261.27500000000
  30
0.0
  11
 385.55000000000
  21
 264.87500000000
  31
0.0
   0
LINE
   5
1E7
 100
AcDbEntity
   8
LEVEL002
 370
30
 100
AcDbLine
   6
CONTINUOUS
  62
7
  10
 385.55000000000
  20
 264.87500000000
  30
0.0
  11
 378.35000000000
  21
 264.87500000000
  31
0.0
   0
LINE
   5
1E8
 100
AcDbEntity
   8
LEVEL002
 370
30
 100
AcDbLine
   6
CONTINUOUS
  62
7
  10
 378.35000000000
  20
 264.87500000000
  30
0.0
  11
 378.35000000000
  21
 265.77500000000
  31
0.0
   0
LINE
   5
1E9
 100
AcDbEntity
   8
LEVEL002
 370
30
 100
AcDbLine
   6
CONTINUOUS
  62
7
  10
 378.35000000000
  20
 265.77500000000
  30
0.0
  11
 384.65000000000
  21
 265.77500000000
  31
0.0
   0
LINE
   5
1EA
 100
AcDbEntity
   8
LEVEL002
 370
30
 100
AcDbLine
   6
CONTINUOUS
  62
7
  10
 384.65000000000
  20
 265.77500000000
  30
0.0
  11
 384.65000000000
  21
 267.57500000000
  31
0.0
   0
LINE
   5
1EB
 100
AcDbEntity
   8
LEVEL002
 370
30
 100
AcDbLine
   6
CONTINUOUS
  62
7
  10
 384.65000000000
  20
 267.57500000000
  30
0.0
  11
 378.35000000000
  21
 267.57500000000
  31
0.0
   0
LINE
   5
1EC
 100
AcDbEntity
   8
LEVEL002
 370
30
 100
AcDbLine
   6
CONTINUOUS
  62
7
  10
 378.35000000000
  20
 267.57500000000
  30
0.0
  11
 378.35000000000
  21
 268.47500000000
  31
0.0
   0
LINE
   5
1ED
 100
AcDbEntity
   8
LEVEL002
 370
30
 100
AcDbLine
   6
CONTINUOUS
  62
7
  10
 378.35000000000
  20
 268.47500000000
  30
0.0
  11
 385.55000000000
  21
 268.47500000000
  31
0.0
   0
LINE
   5
1EE
 100
AcDbEntity
   8
LEVEL002
 370
30
 100
AcDbLine
   6
CONTINUOUS
  62
7
  10
 385.55000000000
  20
 268.47500000000
  30
0.0
  11
 385.55000000000
  21
 272.07500000000
  31
0.0
   0
LINE
   5
1EF
 100
AcDbEntity
   8
LEVEL002
 370
30
 100
AcDbLine
   6
CONTINUOUS
  62
7
  10
 385.55000000000
  20
 272.07500000000
  30
0.0
  11
 363.95000000000
  21
 272.07500000000
  31
0.0
   0
LINE
   5
1F0
 100
AcDbEntity
   8
LEVEL002
 370
30
 100
AcDbLine
   6
CONTINUOUS
  62
7
  10
 363.95000000000
  20
 272.07500000000
  30
0.0
  11
 363.95000000000
  21
 268.47500000000
  31
0.0
   0
LINE
   5
1F1
 100
AcDbEntity
   8
LEVEL002
 370
30
 100
AcDbLine
   6
CONTINUOUS
  62
7
  10
 363.95000000000
  20
 268.47500000000
  30
0.0
  11
 367.55000000000
  21
 268.47500000000
  31
0.0
   0
LINE
   5
1F2
 100
AcDbEntity
   8
LEVEL002
 370
30
 100
AcDbLine
   6
CONTINUOUS
  62
7
  10
 367.55000000000
  20
 268.47500000000
  30
0.0
  11
 367.55000000000
  21
 264.87500000000
  31
0.0
   0
LINE
   5
1F3
 100
AcDbEntity
   8
LEVEL002
 370
30
 100
AcDbLine
   6
CONTINUOUS
  62
7
  10
 367.55000000000
  20
 264.87500000000
  30
0.0
  11
 362.15000000000
  21
 264.87500000000
  31
0.0
   0
LINE
   5
1F4
 100
AcDbEntity
   8
LEVEL002
 370
30
 100
AcDbLine
   6
CONTINUOUS
  62
7
  10
 362.15000000000
  20
 264.87500000000
  30
0.0
  11
 362.15000000000
  21
 272.07500000000
  31
0.0
   0
LINE
   5
1F5
 100
AcDbEntity
   8
LEVEL002
 370
30
 100
AcDbLine
   6
CONTINUOUS
  62
7
  10
 362.15000000000
  20
 272.07500000000
  30
0.0
  11
 358.55000000000
  21
 272.07500000000
  31
0.0
   0
LINE
   5
1F6
 100
AcDbEntity
   8
LEVEL002
 370
30
 100
AcDbLine
   6
CONTINUOUS
  62
7
  10
 358.55000000000
  20
 272.07500000000
  30
0.0
  11
 358.55000000000
  21
 261.27500000000
  31
0.0
   0
LINE
   5
1F7
 100
AcDbEntity
   8
LEVEL002
 370
30
 100
AcDbLine
   6
CONTINUOUS
  62
7
  10
 390.95000000000
  20
 261.27500000000
  30
0.0
  11
 396.35000000000
  21
 261.27500000000
  31
0.0
   0
LINE
   5
1F8
 100
AcDbEntity
   8
LEVEL002
 370
30
 100
AcDbLine
   6
CONTINUOUS
  62
7
  10
 396.35000000000
  20
 261.27500000000
  30
0.0
  11
 396.35000000000
  21
 264.87500000000
  31
0.0
   0
LINE
   5
1F9
 100
AcDbEntity
   8
LEVEL002
 370
30
 100
AcDbLine
   6
CONTINUOUS
  62
7
  10
 396.35000000000
  20
 264.87500000000
  30
0.0
  11
 390.95000000000
  21
 264.87500000000
  31
0.0
   0
ARC
   5
1FA
 100
AcDbEntity
   8
LEVEL002
 370
30
   6
CONTINUOUS
  62
7
 100
AcDbCircle
  10
 390.95000000000
  20
 266.67500000000
  30
0.0
  40
 1.8000000000000
 100
AcDbArc
  50
 90.000000000000
  51
 270.00000000000
   0
LINE
   5
1FB
 100
AcDbEntity
   8
LEVEL002
 370
30
 100
AcDbLine
   6
CONTINUOUS
  62
7
  10
 390.95000000000
  20
 268.47500000000
  30
0.0
  11
 396.35000000000
  21
 268.47500000000
  31
0.0
   0
LINE
   5
1FC
 100
AcDbEntity
   8
LEVEL002
 370
30
 100
AcDbLine
   6
CONTINUOUS
  62
7
  10
 396.35000000000
  20
 268.47500000000
  30
0.0
  11
 396.35000000000
  21
 272.07500000000
  31
0.0
   0
LINE
   5
1FD
 100
AcDbEntity
   8
LEVEL002
 370
30
 100
AcDbLine
   6
CONTINUOUS
  62
7
  10
 396.35000000000
  20
 272.07500000000
  30
0.0
  11
 390.95000000000
  21
 272.07500000000
  31
0.0
   0
ARC
   5
1FE
 100
AcDbEntity
   8
LEVEL002
 370
30
   6
CONTINUOUS
  62
7
 100
AcDbCircle
  10
 390.95000000000
  20
 266.67500000000
  30
0.0
  40
 5.4000000000000
 100
AcDbArc
  50
 90.000000000000
  51
 270.00000000000
   0
MTEXT
   5
200
 100
AcDbEntity
   8
LEVEL002
 370
30
  62
7
 100
AcDbMText
  10
 336.95000000000
  20
 273.87500000000
  30
0.0
  40
 3.7500000000000
  41
0.0
  71
7
  72
1
   1
\T1.000000;ケージーパルテック株式会社
   7
GMM001
  44
 0.79999984000003
   0
LINE
   5
201
 100
AcDbEntity
   8
LEVEL002
 370
30
 100
AcDbLine
   6
CONTINUOUS
  62
7
  10
 333.35000000000
  20
 263.67500000000
  30
0.0
  11
 328.85000000000
  21
 270.87500000000
  31
0.0
   0
LINE
   5
202
 100
AcDbEntity
   8
LEVEL002
 370
30
 100
AcDbLine
   6
CONTINUOUS
  62
7
  10
 328.85000000000
  20
 270.87500000000
  30
0.0
  11
 333.35000000000
  21
 270.87500000000
  31
0.0
   0
LINE
   5
203
 100
AcDbEntity
   8
LEVEL002
 370
30
 100
AcDbLine
   6
CONTINUOUS
  62
7
  10
 333.35000000000
  20
 270.87500000000
  30
0.0
  11
 333.35000000000
  21
 263.67500000000
  31
0.0
   0
LINE
   5
204
 100
AcDbEntity
   8
LEVEL002
 370
30
 100
AcDbLine
   6
CONTINUOUS
  62
7
  10
 328.85000000000
  20
 270.87500000000
  30
0.0
  11
 333.35000000000
  21
 263.67500000000
  31
0.0
   0
LINE
   5
205
 100
AcDbEntity
   8
LEVEL002
 370
30
 100
AcDbLine
   6
CONTINUOUS
  62
7
  10
 333.35000000000
  20
 263.67500000000
  30
0.0
  11
 333.35000000000
  21
 270.87500000000
  31
0.0
   0
LINE
   5
206
 100
AcDbEntity
   8
LEVEL002
 370
30
 100
AcDbLine
   6
CONTINUOUS
  62
7
  10
 333.35000000000
  20
 270.87500000000
  30
0.0
  11
 328.85000000000
  21
 270.87500000000
  31
0.0
   0
LINE
   5
207
 100
AcDbEntity
   8
LEVEL002
 370
30
 100
AcDbLine
   6
CONTINUOUS
  62
7
  10
 319.05000000000
  20
 280.47500000000
  30
0.0
  11
 312.65000000000
  21
 270.87500000000
  31
0.0
   0
LINE
   5
208
 100
AcDbEntity
   8
LEVEL002
 370
30
 100
AcDbLine
   6
CONTINUOUS
  62
7
  10
 312.65000000000
  20
 270.87500000000
  30
0.0
  11
 319.05000000000
  21
 261.27500000000
  31
0.0
   0
LINE
   5
209
 100
AcDbEntity
   8
LEVEL002
 370
30
 100
AcDbLine
   6
CONTINUOUS
  62
7
  10
 324.45000000000
  20
 261.27500000000
  30
0.0
  11
 318.05000000000
  21
 270.87500000000
  31
0.0
   0
LINE
   5
20A
 100
AcDbEntity
   8
LEVEL002
 370
30
 100
AcDbLine
   6
CONTINUOUS
  62
7
  10
 318.05000000000
  20
 270.87500000000
  30
0.0
  11
 324.45000000000
  21
 280.47500000000
  31
0.0
   0
LINE
   5
20B
 100
AcDbEntity
   8
LEVEL002
 370
30
 100
AcDbLine
   6
CONTINUOUS
  62
7
  10
 327.15000000000
  20
 280.47500000000
  30
0.0
  11
 320.75000000000
  21
 270.87500000000
  31
0.0
   0
LINE
   5
20C
 100
AcDbEntity
   8
LEVEL002
 370
30
 100
AcDbLine
   6
CONTINUOUS
  62
7
  10
 320.75000000000
  20
 270.87500000000
  30
0.0
  11
 327.15000000000
  21
 261.27500000000
  31
0.0
   0
LINE
   5
20D
 100
AcDbEntity
   8
LEVEL002
 370
30
 100
AcDbLine
   6
CONTINUOUS
  62
7
  10
 332.55000000000
  20
 261.27500000000
  30
0.0
  11
 326.15000000000
  21
 270.87500000000
  31
0.0
   0
LINE
   5
20E
 100
AcDbEntity
   8
LEVEL002
 370
30
 100
AcDbLine
   6
CONTINUOUS
  62
7
  10
 326.15000000000
  20
 270.87500000000
  30
0.0
  11
 332.55000000000
  21
 280.47500000000
  31
0.0
   0
LINE
   5
20F
 100
AcDbEntity
   8
LEVEL002
 370
30
 100
AcDbLine
   6
CONTINUOUS
  62
7
  10
 319.05000000000
  20
 261.27500000000
  30
0.0
  11
 312.65000000000
  21
 270.87500000000
  31
0.0
   0
LINE
   5
210
 100
AcDbEntity
   8
LEVEL002
 370
30
 100
AcDbLine
   6
CONTINUOUS
  62
7
  10
 312.65000000000
  20
 270.87500000000
  30
0.0
  11
 319.05000000000
  21
 280.47500000000
  31
0.0
   0
LINE
   5
211
 100
AcDbEntity
   8
LEVEL002
 370
30
 100
AcDbLine
   6
CONTINUOUS
  62
7
  10
 319.05000000000
  20
 280.47500000000
  30
0.0
  11
 324.45000000000
  21
 280.47500000000
  31
0.0
   0
LINE
   5
212
 100
AcDbEntity
   8
LEVEL002
 370
30
 100
AcDbLine
   6
CONTINUOUS
  62
7
  10
 324.45000000000
  20
 280.47500000000
  30
0.0
  11
 318.05000000000
  21
 270.87500000000
  31
0.0
   0
LINE
   5
213
 100
AcDbEntity
   8
LEVEL002
 370
30
 100
AcDbLine
   6
CONTINUOUS
  62
7
  10
 318.05000000000
  20
 270.87500000000
  30
0.0
  11
 324.45000000000
  21
 261.27500000000
  31
0.0
   0
LINE
   5
214
 100
AcDbEntity
   8
LEVEL002
 370
30
 100
AcDbLine
   6
CONTINUOUS
  62
7
  10
 324.45000000000
  20
 261.27500000000
  30
0.0
  11
 319.05000000000
  21
 261.27500000000
  31
0.0
   0
LINE
   5
215
 100
AcDbEntity
   8
LEVEL002
 370
30
 100
AcDbLine
   6
CONTINUOUS
  62
7
  10
 327.15000000000
  20
 261.27500000000
  30
0.0
  11
 320.75000000000
  21
 270.87500000000
  31
0.0
   0
LINE
   5
216
 100
AcDbEntity
   8
LEVEL002
 370
30
 100
AcDbLine
   6
CONTINUOUS
  62
7
  10
 320.75000000000
  20
 270.87500000000
  30
0.0
  11
 327.15000000000
  21
 280.47500000000
  31
0.0
   0
LINE
   5
217
 100
AcDbEntity
   8
LEVEL002
 370
30
 100
AcDbLine
   6
CONTINUOUS
  62
7
  10
 327.15000000000
  20
 280.47500000000
  30
0.0
  11
 332.55000000000
  21
 280.47500000000
  31
0.0
   0
LINE
   5
218
 100
AcDbEntity
   8
LEVEL002
 370
30
 100
AcDbLine
   6
CONTINUOUS
  62
7
  10
 332.55000000000
  20
 280.47500000000
  30
0.0
  11
 326.15000000000
  21
 270.87500000000
  31
0.0
   0
LINE
   5
219
 100
AcDbEntity
   8
LEVEL002
 370
30
 100
AcDbLine
   6
CONTINUOUS
  62
7
  10
 326.15000000000
  20
 270.87500000000
  30
0.0
  11
 332.55000000000
  21
 261.27500000000
  31
0.0
   0
LINE
   5
21A
 100
AcDbEntity
   8
LEVEL002
 370
30
 100
AcDbLine
   6
CONTINUOUS
  62
7
  10
 332.55000000000
  20
 261.27500000000
  30
0.0
  11
 327.15000000000
  21
 261.27500000000
  31
0.0
   0
LINE
   5
21B
 100
AcDbEntity
   8
LEVEL001
 370
30
 100
AcDbLine
   6
DOT
  62
7
  10
0.0
  20
0.0
  30
0.0
  11
 420.00000000000
  21
0.0
  31
0.0
   0
LINE
   5
21C
 100
AcDbEntity
   8
LEVEL001
 370
30
 100
AcDbLine
   6
DOT
  62
7
  10
 420.00000000000
  20
0.0
  30
0.0
  11
 420.00000000000
  21
 297.00000000000
  31
0.0
   0
LINE
   5
21D
 100
AcDbEntity
   8
LEVEL001
 370
30
 100
AcDbLine
   6
DOT
  62
7
  10
 420.00000000000
  20
 297.00000000000
  30
0.0
  11
0.0
  21
 297.00000000000
  31
0.0
   0
LINE
   5
21E
 100
AcDbEntity
   8
LEVEL001
 370
30
 100
AcDbLine
   6
DOT
  62
7
  10
0.0
  20
 297.00000000000
  30
0.0
  11
0.0
  21
0.0
  31
0.0
   0
LINE
   5
21F
 100
AcDbEntity
   8
LEVEL002
 370
40
 100
AcDbLine
   6
CONTINUOUS
  62
3
  10
 15.499999999950
  20
 275.00000000000
  30
0.0
  11
 304.49999999995
  21
 275.00000000000
  31
0.0
   0
LINE
   5
220
 100
AcDbEntity
   8
LEVEL002
 370
40
 100
AcDbLine
   6
CONTINUOUS
  62
3
  10
 304.49999999995
  20
 256.75000000000
  30
0.0
  11
 404.49999999995
  21
 256.75000000000
  31
0.0
   0
LINE
   5
221
 100
AcDbEntity
   8
LEVEL002
 370
40
 100
AcDbLine
   6
CONTINUOUS
  62
3
  10
 304.49999999995
  20
 236.75000000000
  30
0.0
  11
 404.49999999995
  21
 236.75000000000
  31
0.0
   0
LINE
   5
222
 100
AcDbEntity
   8
LEVEL002
 370
40
 100
AcDbLine
   6
CONTINUOUS
  62
3
  10
 304.49999999995
  20
 216.75000000000
  30
0.0
  11
 404.49999999995
  21
 216.75000000000
  31
0.0
   0
LINE
   5
223
 100
AcDbEntity
   8
LEVEL002
 370
40
 100
AcDbLine
   6
CONTINUOUS
  62
3
  10
 304.49999999995
  20
 72.000000000010
  30
0.0
  11
 404.49999999995
  21
 72.000000000010
  31
0.0
   0
LINE
   5
224
 100
AcDbEntity
   8
LEVEL002
 370
40
 100
AcDbLine
   6
CONTINUOUS
  62
3
  10
 304.49999999995
  20
 52.000000000010
  30
0.0
  11
 404.49999999995
  21
 52.000000000010
  31
0.0
   0
LINE
   5
225
 100
AcDbEntity
   8
LEVEL002
 370
40
 100
AcDbLine
   6
CONTINUOUS
  62
3
  10
 304.49999999995
  20
 32.000000000010
  30
0.0
  11
 404.49999999995
  21
 32.000000000010
  31
0.0
   0
LINE
   5
226
 100
AcDbEntity
   8
LEVEL002
 370
40
 100
AcDbLine
   6
CONTINUOUS
  62
3
  10
 354.49999999995
  20
 52.000000000010
  30
0.0
  11
 354.49999999995
  21
 12.000000000010
  31
0.0
   0
LINE
   5
227
 100
AcDbEntity
   8
LEVEL002
 370
40
 100
AcDbLine
   6
CONTINUOUS
  62
3
  10
 354.49999999995
  20
 38.666666666680
  30
0.0
  11
 404.49999999995
  21
 38.666666666680
  31
0.0
   0
LINE
   5
228
 100
AcDbEntity
   8
LEVEL002
 370
40
 100
AcDbLine
   6
CONTINUOUS
  62
3
  10
 354.49999999995
  20
 45.333333333345
  30
0.0
  11
 404.49999999995
  21
 45.333333333345
  31
0.0
   0
LINE
   5
229
 100
AcDbEntity
   8
LEVEL002
 370
50
 100
AcDbLine
   6
CONTINUOUS
  62
4
  10
 404.49999999995
  20
 285.00000000000
  30
0.0
  11
 15.499999999950
  21
 285.00000000000
  31
0.0
   0
LINE
   5
22A
 100
AcDbEntity
   8
LEVEL002
 370
50
 100
AcDbLine
   6
CONTINUOUS
  62
4
  10
 304.49999999995
  20
 285.00000000000
  30
0.0
  11
 304.49999999995
  21
 12.000000000010
  31
0.0
   0
LINE
   5
22B
 100
AcDbEntity
   8
LEVEL002
 370
50
 100
AcDbLine
   6
CONTINUOUS
  62
4
  10
 404.49999999995
  20
 12.000000000010
  30
0.0
  11
 404.49999999995
  21
 285.00000000000
  31
0.0
   0
LINE
   5
22C
 100
AcDbEntity
   8
LEVEL002
 370
50
 100
AcDbLine
   6
CONTINUOUS
  62
4
  10
 15.499999999950
  20
 285.00000000000
  30
0.0
  11
 15.499999999950
  21
 12.000000000010
  31
0.0
   0
LINE
   5
22D
 100
AcDbEntity
   8
LEVEL002
 370
50
 100
AcDbLine
   6
CONTINUOUS
  62
4
  10
 15.499999999950
  20
 12.000000000010
  30
0.0
  11
 404.49999999995
  21
 12.000000000010
  31
0.0
   0
HATCH
   5
22E
 100
AcDbEntity
   8
LEVEL001
  62
1
 100
AcDbHatch
  10
0.0
  20
0.0
  30
0.0
 210
0.0
 220
0.0
 230
 1.0000000000000
   2
SOLID
  70
1
  71
1
  91
7
  92
1
  93
6
  72
1
  10
 324.45000000000
  20
 280.47500000000
  11
 318.05000000000
  21
 270.87500000000
  72
1
  10
 318.05000000000
  20
 270.87500000000
  11
 324.45000000000
  21
 261.27500000000
  72
1
  10
 324.45000000000
  20
 261.27500000000
  11
 319.05000000000
  21
 261.27500000000
  72
1
  10
 319.05000000000
  20
 261.27500000000
  11
 312.65000000000
  21
 270.87500000000
  72
1
  10
 312.65000000000
  20
 270.87500000000
  11
 319.05000000000
  21
 280.47500000000
  72
1
  10
 319.05000000000
  20
 280.47500000000
  11
 324.45000000000
  21
 280.47500000000
  97
1
 330

  92
16
  93
6
  72
1
  10
 327.15000000000
  20
 280.47500000000
  11
 332.55000000000
  21
 280.47500000000
  72
1
  10
 332.55000000000
  20
 280.47500000000
  11
 326.15000000000
  21
 270.87500000000
  72
1
  10
 326.15000000000
  20
 270.87500000000
  11
 332.55000000000
  21
 261.27500000000
  72
1
  10
 332.55000000000
  20
 261.27500000000
  11
 327.15000000000
  21
 261.27500000000
  72
1
  10
 327.15000000000
  20
 261.27500000000
  11
 320.75000000000
  21
 270.87500000000
  72
1
  10
 320.75000000000
  20
 270.87500000000
  11
 327.15000000000
  21
 280.47500000000
  97
1
 330

  92
16
  93
3
  72
1
  10
 333.35000000000
  20
 270.87500000000
  11
 328.85000000000
  21
 270.87500000000
  72
1
  10
 328.85000000000
  20
 270.87500000000
  11
 333.35000000000
  21
 263.67500000000
  72
1
  10
 333.35000000000
  20
 263.67500000000
  11
 333.35000000000
  21
 270.87500000000
  97
1
 330

  92
16
  93
6
  72
1
  10
 336.95000000000
  20
 272.07500000000
  11
 344.15000000000
  21
 272.07500000000
  72
2
  10
 344.15000000000
  20
 267.57500000000
  40
 4.5000000000000
  50
 270.00000000000
  51
 90.000000000000
  73
0
  72
1
  10
 344.15000000000
  20
 263.07500000000
  11
 340.55000000000
  21
 263.07500000000
  72
1
  10
 340.55000000000
  20
 263.07500000000
  11
 340.55000000000
  21
 261.27500000000
  72
1
  10
 340.55000000000
  20
 261.27500000000
  11
 336.95000000000
  21
 261.27500000000
  72
1
  10
 336.95000000000
  20
 261.27500000000
  11
 336.95000000000
  21
 272.07500000000
  97
1
 330

  92
16
  93
4
  72
1
  10
 344.15000000000
  20
 268.47500000000
  11
 340.55000000000
  21
 268.47500000000
  72
1
  10
 340.55000000000
  20
 268.47500000000
  11
 340.55000000000
  21
 266.67500000000
  72
1
  10
 340.55000000000
  20
 266.67500000000
  11
 344.15000000000
  21
 266.67500000000
  72
2
  10
 344.15000000000
  20
 267.57500000000
  40
 0.90000000000000
  50
 270.00000000000
  51
 90.000000000000
  73
1
  97
1
 330

  92
16
  93
4
  72
1
  10
 345.95000000000
  20
 261.27500000000
  11
 353.15000000000
  21
 272.07500000000
  72
1
  10
 353.15000000000
  20
 272.07500000000
  11
 358.55000000000
  21
 272.07500000000
  72
1
  10
 358.55000000000
  20
 272.07500000000
  11
 351.35000000000
  21
 261.27500000000
  72
1
  10
 351.35000000000
  20
 261.27500000000
  11
 345.95000000000
  21
 261.27500000000
  97
1
 330

  92
16
  93
3
  72
1
  10
 357.35000000000
  20
 268.11166923470
  11
 352.79222051020
  21
 261.27500000000
  72
1
  10
 352.79222051020
  20
 261.27500000000
  11
 357.35000000000
  21
 261.27500000000
  72
1
  10
 357.35000000000
  20
 261.27500000000
  11
 357.35000000000
  21
 268.11166923470
  97
1
 330

  75
0
  76
1
  98
1
  10
0.0
  20
0.0
   0
HATCH
   5
22F
 100
AcDbEntity
   8
LEVEL001
  62
1
 100
AcDbHatch
  10
0.0
  20
0.0
  30
0.0
 210
0.0
 220
0.0
 230
 1.0000000000000
   2
SOLID
  70
1
  71
1
  91
1
  92
1
  93
22
  72
1
  10
 358.55000000000
  20
 272.07500000000
  11
 362.15000000000
  21
 272.07500000000
  72
1
  10
 362.15000000000
  20
 272.07500000000
  11
 362.15000000000
  21
 264.87500000000
  72
1
  10
 362.15000000000
  20
 264.87500000000
  11
 367.55000000000
  21
 264.87500000000
  72
1
  10
 367.55000000000
  20
 264.87500000000
  11
 367.55000000000
  21
 268.47500000000
  72
1
  10
 367.55000000000
  20
 268.47500000000
  11
 363.95000000000
  21
 268.47500000000
  72
1
  10
 363.95000000000
  20
 268.47500000000
  11
 363.95000000000
  21
 272.07500000000
  72
1
  10
 363.95000000000
  20
 272.07500000000
  11
 385.55000000000
  21
 272.07500000000
  72
1
  10
 385.55000000000
  20
 272.07500000000
  11
 385.55000000000
  21
 268.47500000000
  72
1
  10
 385.55000000000
  20
 268.47500000000
  11
 378.35000000000
  21
 268.47500000000
  72
1
  10
 378.35000000000
  20
 268.47500000000
  11
 378.35000000000
  21
 267.57500000000
  72
1
  10
 378.35000000000
  20
 267.57500000000
  11
 384.65000000000
  21
 267.57500000000
  72
1
  10
 384.65000000000
  20
 267.57500000000
  11
 384.65000000000
  21
 265.77500000000
  72
1
  10
 384.65000000000
  20
 265.77500000000
  11
 378.35000000000
  21
 265.77500000000
  72
1
  10
 378.35000000000
  20
 265.77500000000
  11
 378.35000000000
  21
 264.87500000000
  72
1
  10
 378.35000000000
  20
 264.87500000000
  11
 385.55000000000
  21
 264.87500000000
  72
1
  10
 385.55000000000
  20
 264.87500000000
  11
 385.55000000000
  21
 261.27500000000
  72
1
  10
 385.55000000000
  20
 261.27500000000
  11
 374.75000000000
  21
 261.27500000000
  72
1
  10
 374.75000000000
  20
 261.27500000000
  11
 374.75000000000
  21
 268.47500000000
  72
1
  10
 374.75000000000
  20
 268.47500000000
  11
 371.15000000000
  21
 268.47500000000
  72
1
  10
 371.15000000000
  20
 268.47500000000
  11
 371.15000000000
  21
 261.27500000000
  72
1
  10
 371.15000000000
  20
 261.27500000000
  11
 358.55000000000
  21
 261.27500000000
  72
1
  10
 358.55000000000
  20
 261.27500000000
  11
 358.55000000000
  21
 272.07500000000
  97
1
 330

  75
0
  76
1
  98
1
  10
0.0
  20
0.0
   0
HATCH
   5
230
 100
AcDbEntity
   8
LEVEL001
  62
1
 100
AcDbHatch
  10
0.0
  20
0.0
  30
0.0
 210
0.0
 220
0.0
 230
 1.0000000000000
   2
SOLID
  70
1
  71
1
  91
1
  92
1
  93
8
  72
1
  10
 396.35000000000
  20
 272.07500000000
  11
 390.95000000000
  21
 272.07500000000
  72
2
  10
 390.95000000000
  20
 266.67500000000
  40
 5.4000000000000
  50
 90.000000000000
  51
 270.00000000000
  73
1
  72
1
  10
 390.95000000000
  20
 261.27500000000
  11
 396.35000000000
  21
 261.27500000000
  72
1
  10
 396.35000000000
  20
 261.27500000000
  11
 396.35000000000
  21
 264.87500000000
  72
1
  10
 396.35000000000
  20
 264.87500000000
  11
 390.95000000000
  21
 264.87500000000
  72
2
  10
 390.95000000000
  20
 266.67500000000
  40
 1.8000000000000
  50
 90.000000000000
  51
 270.00000000000
  73
0
  72
1
  10
 390.95000000000
  20
 268.47500000000
  11
 396.35000000000
  21
 268.47500000000
  72
1
  10
 396.35000000000
  20
 268.47500000000
  11
 396.35000000000
  21
 272.07500000000
  97
1
 330

  75
0
  76
1
  98
1
  10
0.0
  20
0.0
   0
MTEXT
   5
232
 100
AcDbEntity
   8
LEVEL002
 370
15
  62
8
 100
AcDbMText
  10
 310.79999999995
  20
 28.250000000010
  30
0.0
  40
 3.0000000000000
  41
0.0
  71
5
  72
1
   1
\T1.000000;サイズ：
   7
GMM002
  44
 0.79999984000003
   0
MTEXT
   5
234
 100
AcDbEntity
   8
LEVEL002
 370
15
  62
8
 100
AcDbMText
  10
 309.29999999995
  20
 48.250000000010
  30
0.0
  40
 3.0000000000000
  41
0.0
  71
5
  72
1
   1
\T1.000000;縮尺：
   7
GMM002
  44
 0.79999984000003
   0
MTEXT
   5
236
 100
AcDbEntity
   8
LEVEL002
 370
15
  62
8
 100
AcDbMText
  10
 312.29999999995
  20
 68.250000000010
  30
0.0
  40
 3.0000000000000
  41
0.0
  71
5
  72
1
   1
\T1.000000;図面名称：
   7
GMM002
  44
 0.79999984000003
   0
MTEXT
   5
238
 100
AcDbEntity
   8
LEVEL002
 370
15
  62
8
 100
AcDbMText
  10
 363.79999999995
  20
 28.250000000010
  30
0.0
  40
 3.0000000000000
  41
0.0
  71
5
  72
1
   1
\T1.000000;ファイル名：
   7
GMM002
  44
 0.79999984000003
   0
MTEXT
   5
23A
 100
AcDbEntity
   8
LEVEL002
 370
15
  62
8
 100
AcDbMText
  10
 362.29999999995
  20
 42.000000000010
  30
0.0
  40
 2.8000000000000
  41
0.0
  71
5
  72
1
   1
\T1.000000;変更日付：
   7
GMM003
  44
 0.79999984000003
   0
MTEXT
   5
23C
 100
AcDbEntity
   8
LEVEL002
 370
15
  62
8
 100
AcDbMText
  10
 329.49999999995
  20
 18.250000000010
  30
0.0
  40
 3.7500000000000
  41
0.0
  71
5
  72
1
   1
\T1.000000;Ａ３
   7
GMM002
  44
 0.79999984000003
   0
MTEXT
   5
23E
 100
AcDbEntity
   8
LEVEL002
 370
15
  62
8
 100
AcDbMText
  10
 309.29999999995
  20
 213.00000000000
  30
0.0
  40
 3.0000000000000
  41
0.0
  71
5
  72
1
   1
\T1.000000;仕様：
   7
GMM002
  44
 0.79999984000003
   0
MTEXT
   5
240
 100
AcDbEntity
   8
LEVEL002
 370
15
  62
8
 100
AcDbMText
  10
 309.29999999995
  20
 233.00000000000
  30
0.0
  40
 3.0000000000000
  41
0.0
  71
5
  72
1
   1
\T1.000000;形式：
   7
GMM002
  44
 0.79999984000003
   0
MTEXT
   5
242
 100
AcDbEntity
   8
LEVEL002
 370
15
  62
8
 100
AcDbMText
  10
 310.79999999995
  20
 253.00000000000
  30
0.0
  40
 3.0000000000000
  41
0.0
  71
5
  72
1
   1
\T1.000000;商品名：
   7
GMM002
  44
 0.79999984000003
   0
MTEXT
   5
244
 100
AcDbEntity
   8
LEVEL002
 370
15
  62
8
 100
AcDbMText
  10
 346.89999999995
  20
 76.870803459012
  30
0.0
  40
 4.0000000000000
  41
0.0
  71
5
  72
1
   1
\T1.000000;　※本製品は予告無しに変更する事があります。
   7
GMM002
  44
 0.79999984000003
   0
MTEXT
   5
246
 100
AcDbEntity
   8
LEVEL002
 370
15
  62
8
 100
AcDbMText
  10
 362.29999999995
  20
 48.666666666680
  30
0.0
  40
 2.8000000000000
  41
0.0
  71
5
  72
1
   1
\T1.000000;作成日付：
   7
GMM003
  44
 0.79999984000003
   0
MTEXT
   5
248
 100
AcDbEntity
   8
LEVEL002
 370
15
  62
8
 100
AcDbMText
  10
 387.21508456075
  20
 42.000000000010
  30
0.0
  40
 3.0000000000000
  41
0.0
  71
5
  72
1
   1
\T1.000000;令和　　年　　月　　日
   7
GMM002
  44
 0.79999984000003
   0
MTEXT
   5
24A
 100
AcDbEntity
   8
LEVEL002
 370
15
  62
8
 100
AcDbMText
  10
 387.21508456075
  20
 35.333333333345
  30
0.0
  40
 3.0000000000000
  41
0.0
  71
5
  72
1
   1
\T1.000000;令和　　年　　月　　日
   7
GMM002
  44
 0.79999984000003
   0
LINE
   5
24B
 100
AcDbEntity
   8
LEVEL002
 370
40
 100
AcDbLine
   6
CONTINUOUS
  62
3
  10
 15.499999999950
  20
 70.250000000008
  30
0.0
  11
 304.49999999995
  21
 70.250000000008
  31
0.0
   0
LINE
   5
24C
 100
AcDbEntity
   8
LEVEL002
 370
40
 100
AcDbLine
   6
CONTINUOUS
  62
3
  10
 15.499999999950
  20
 80.250000000008
  30
0.0
  11
 304.49999999995
  21
 80.250000000008
  31
0.0
   0
LINE
   5
24D
 100
AcDbEntity
   8
LEVEL002
 370
40
 100
AcDbLine
   6
CONTINUOUS
  62
3
  10
 15.499999999950
  20
 138.50000000001
  30
0.0
  11
 304.49999999995
  21
 138.50000000001
  31
0.0
   0
LINE
   5
24E
 100
AcDbEntity
   8
LEVEL002
 370
40
 100
AcDbLine
   6
CONTINUOUS
  62
3
  10
 15.499999999950
  20
 148.50000000001
  30
0.0
  11
 304.49999999995
  21
 148.50000000001
  31
0.0
   0
LINE
   5
24F
 100
AcDbEntity
   8
LEVEL002
 370
40
 100
AcDbLine
   6
CONTINUOUS
  62
3
  10
 15.499999999950
  20
 206.75000000000
  30
0.0
  11
 304.49999999995
  21
 206.75000000000
  31
0.0
   0
LINE
   5
250
 100
AcDbEntity
   8
LEVEL002
 370
40
 100
AcDbLine
   6
CONTINUOUS
  62
3
  10
 15.499999999950
  20
 216.75000000000
  30
0.0
  11
 304.49999999995
  21
 216.75000000000
  31
0.0
   0
MTEXT
   5
252
 100
AcDbEntity
   8
LEVEL002
 370
15
  62
8
 100
AcDbMText
  10
 334.49999999995
  20
 244.50000000000
  30
0.0
  40
 4.5000000000000
  41
0.0
  71
7
  72
1
   1
\T1.000000;　パルフラットレール
   7
GMM004
  44
 0.79999984000003
   0
MTEXT
   5
254
 100
AcDbEntity
   8
LEVEL002
 370
15
  62
8
 100
AcDbMText
  10
 354.49999999995
  20
 58.250000000010
  30
0.0
  40
 3.7500000000000
  41
0.0
  71
5
  72
1
   1
\T1.000000;断面図
   7
GMM002
  44
 0.79999984000003
   0
MTEXT
   5
256
 100
AcDbEntity
   8
LEVEL002
 370
15
  62
8
 100
AcDbMText
  10
 329.49999999995
  20
 38.250000000010
  30
0.0
  40
 3.7500000000000
  41
0.0
  71
5
  72
1
   1
\T1.000000;Ｓ＝１：１
   7
GMM002
  44
 0.79999984000003
   0
LINE
   5
257
 100
AcDbEntity
   8
LEVEL001
 370
40
 100
AcDbLine
   6
CONTINUOUS
  62
3
  10
 87.749999999950
  20
 285.00000000000
  30
0.0
  11
 87.749999999950
  21
 216.75000000000
  31
0.0
   0
LINE
   5
258
 100
AcDbEntity
   8
LEVEL001
 370
40
 100
AcDbLine
   6
CONTINUOUS
  62
3
  10
 159.99999999995
  20
 285.00000000000
  30
0.0
  11
 159.99999999995
  21
 216.75000000000
  31
0.0
   0
LINE
   5
259
 100
AcDbEntity
   8
LEVEL001
 370
40
 100
AcDbLine
   6
CONTINUOUS
  62
3
  10
 232.24999999995
  20
 285.00000000000
  30
0.0
  11
 232.24999999995
  21
 216.75000000000
  31
0.0
   0
LINE
   5
25A
 100
AcDbEntity
   8
LEVEL001
 370
40
 100
AcDbLine
   6
CONTINUOUS
  62
3
  10
 111.83333333328
  20
 216.75000000000
  30
0.0
  11
 111.83333333328
  21
 148.50000000001
  31
0.0
   0
LINE
   5
25B
 100
AcDbEntity
   8
LEVEL001
 370
40
 100
AcDbLine
   6
CONTINUOUS
  62
3
  10
 208.16666666662
  20
 216.75000000000
  30
0.0
  11
 208.16666666662
  21
 148.50000000001
  31
0.0
   0
LINE
   5
25C
 100
AcDbEntity
   8
LEVEL001
 370
40
 100
AcDbLine
   6
CONTINUOUS
  62
3
  10
 159.99999999995
  20
 148.50000000001
  30
0.0
  11
 159.99999999995
  21
 12.000000000010
  31
0.0
   0
MTEXT
   5
25E
 100
AcDbEntity
   8
LEVEL002
 370
15
  62
8
 100
AcDbMText
  10
 387.21508456075
  20
 48.666666666680
  30
0.0
  40
 3.0000000000000
  41
0.0
  71
5
  72
1
   1
\T1.000000;令和　４年　７月　６日
   7
GMM002
  44
 0.79999984000003
   0
MTEXT
   5
260
 100
AcDbEntity
   8
LEVEL002
 370
15
  62
8
 100
AcDbMText
  10
 354.49999999995
  20
 229.41666666667
  30
0.0
  40
 4.0000000000000
  41
0.0
  71
2
  72
1
   1
{\W1.000000;\T1.000000;アルミＶ溝レール（Ｍタイプ③）}\P{\W0.500000;\T1.000000;(\W1.000000;\T1.000000;ＡＭ型\W0.500000;\T1.000000;)}
   7
GMM002
  44
 0.79999984000003
   0
DIMENSION
   5
261
 100
AcDbEntity
   8
LEVEL001
 370
15
   6
CONTINUOUS
  62
8
 100
AcDbDimension
   2
*D1
  10
 52.659176176151
  20
 248.09826397718
  30
0.0
  11
 49.159176176151
  21
 248.09826397718
  31
0.0
  70
0
   3
GMM001
 100
AcDbAlignedDimension
  13
 45.659176176151
  23
 242.84826397716
  33
0.0
  14
 52.659176176151
  24
 242.84826397717
  34
0.0
 100
AcDbRotatedDimension
   0
DIMENSION
   5
262
 100
AcDbEntity
   8
LEVEL001
 370
15
   6
CONTINUOUS
  62
8
 100
AcDbDimension
   2
*D2
  10
 66.159176176151
  20
 253.09826397718
  30
0.0
  11
 49.159176176152
  21
 253.09826397718
  31
0.0
  70
0
   3
GMM001
 100
AcDbAlignedDimension
  13
 32.159176176152
  23
 240.67339284651
  33
0.0
  14
 66.159176176151
  24
 240.67339284663
  34
0.0
 100
AcDbRotatedDimension
   0
DIMENSION
   5
263
 100
AcDbEntity
   8
LEVEL001
 370
15
   6
CONTINUOUS
  62
8
 100
AcDbDimension
   2
*D3
  10
 73.229726838232
  20
 243.09826397722
  30
0.0
  11
 73.229726838232
  21
 245.41947272846
  31
0.0
  70
128
   3
GMM002
 100
AcDbAlignedDimension
  13
 65.959176176152
  23
 240.09826397717
  33
0.0
  14
 62.159176176151
  24
 243.09826397722
  34
0.0
  50
 90.000000000000
 100
AcDbRotatedDimension
   0
LINE
   5
264
 100
AcDbEntity
   8
LEVEL002
 370
30
 100
AcDbLine
   6
CONTINUOUS
  62
7
  10
 32.963023753428
  20
 240.09826397717
  30
0.0
  11
 36.427125368617
  21
 242.09826397719
  31
0.0
   0
LINE
   5
265
 100
AcDbEntity
   8
LEVEL002
 370
30
 100
AcDbLine
   6
CONTINUOUS
  62
7
  10
 36.427125368617
  20
 242.09826397719
  30
0.0
  11
 36.909176176151
  21
 242.09826397719
  31
0.0
   0
LINE
   5
266
 100
AcDbEntity
   8
LEVEL002
 370
30
 100
AcDbLine
   6
CONTINUOUS
  62
7
  10
 36.909176176151
  20
 242.09826397719
  30
0.0
  11
 36.909176176151
  21
 240.49826397717
  31
0.0
   0
ARC
   5
267
 100
AcDbEntity
   8
LEVEL002
 370
30
   6
CONTINUOUS
  62
7
 100
AcDbCircle
  10
 37.309176176151
  20
 240.49826397717
  30
0.0
  40
 0.40000000000000
 100
AcDbArc
  50
 180.00000000000
  51
 269.99999999998
   0
LINE
   5
268
 100
AcDbEntity
   8
LEVEL002
 370
30
 100
AcDbLine
   6
CONTINUOUS
  62
7
  10
 37.309176176151
  20
 240.09826397717
  30
0.0
  11
 37.509176176151
  21
 240.09826397717
  31
0.0
   0
ARC
   5
269
 100
AcDbEntity
   8
LEVEL002
 370
30
   6
CONTINUOUS
  62
7
 100
AcDbCircle
  10
 37.509176176151
  20
 240.49826397716
  30
0.0
  40
 0.40000000000000
 100
AcDbArc
  50
 270.00000000001
  51
 0.40711099922733E-11
   0
ARC
   5
26A
 100
AcDbEntity
   8
LEVEL002
 370
30
   6
CONTINUOUS
  62
7
 100
AcDbCircle
  10
 44.309176176152
  20
 240.49826397717
  30
0.0
  40
 0.40000000000000
 100
AcDbArc
  50
 180.00000000000
  51
 269.99999999992
   0
ARC
   5
26B
 100
AcDbEntity
   8
LEVEL002
 370
30
   6
CONTINUOUS
  62
7
 100
AcDbCircle
  10
 54.009176176151
  20
 240.49826397716
  30
0.0
  40
 0.40000000000000
 100
AcDbArc
  50
 270.00000000001
  51
 0.40711099922733E-11
   0
ARC
   5
26C
 100
AcDbEntity
   8
LEVEL002
 370
30
   6
CONTINUOUS
  62
7
 100
AcDbCircle
  10
 60.809176176152
  20
 240.49826397717
  30
0.0
  40
 0.40000000000000
 100
AcDbArc
  50
 180.00000000000
  51
 269.99999999992
   0
LINE
   5
26D
 100
AcDbEntity
   8
LEVEL002
 370
30
 100
AcDbLine
   6
CONTINUOUS
  62
7
  10
 60.809176176151
  20
 240.09826397717
  30
0.0
  11
 61.009176176151
  21
 240.09826397717
  31
0.0
   0
LINE
   5
26E
 100
AcDbEntity
   8
LEVEL002
 370
30
 100
AcDbLine
   6
CONTINUOUS
  62
7
  10
 61.409176176151
  20
 240.49826397717
  30
0.0
  11
 61.409176176151
  21
 242.09826397719
  31
0.0
   0
LINE
   5
26F
 100
AcDbEntity
   8
LEVEL002
 370
30
 100
AcDbLine
   6
CONTINUOUS
  62
7
  10
 61.409176176151
  20
 242.09826397719
  30
0.0
  11
 61.891226983771
  21
 242.09826397719
  31
0.0
   0
LINE
   5
270
 100
AcDbEntity
   8
LEVEL002
 370
30
 100
AcDbLine
   6
CONTINUOUS
  62
7
  10
 61.891226983771
  20
 242.09826397719
  30
0.0
  11
 65.355328598960
  21
 240.09826397717
  31
0.0
   0
ARC
   5
271
 100
AcDbEntity
   8
LEVEL002
 370
30
   6
CONTINUOUS
  62
7
 100
AcDbCircle
  10
 61.009176176151
  20
 240.49826397716
  30
0.0
  40
 0.40000000000000
 100
AcDbArc
  50
 270.00000000001
  51
 0.40711099922733E-11
   0
LINE
   5
272
 100
AcDbEntity
   8
LEVEL002
 370
30
 100
AcDbLine
   6
CONTINUOUS
  62
7
  10
 32.963023753428
  20
 240.09826397717
  30
0.0
  11
 32.359176176151
  21
 240.09826397717
  31
0.0
   0
ARC
   5
273
 100
AcDbEntity
   8
LEVEL002
 370
30
   6
CONTINUOUS
  62
7
 100
AcDbCircle
  10
 32.359176176151
  20
 240.29826397717
  30
0.0
  40
 0.20000000000000
 100
AcDbArc
  50
 180.00000000003
  51
 270.00000000001
   0
LINE
   5
274
 100
AcDbEntity
   8
LEVEL002
 370
30
 100
AcDbLine
   6
CONTINUOUS
  62
7
  10
 32.159176176151
  20
 240.29826397717
  30
0.0
  11
 32.159176176151
  21
 240.67339284651
  31
0.0
   0
ARC
   5
275
 100
AcDbEntity
   8
LEVEL002
 370
30
   6
CONTINUOUS
  62
7
 100
AcDbCircle
  10
 32.359176176152
  20
 240.67339284651
  30
0.0
  40
 0.20000000000000
 100
AcDbArc
  50
 120.00000000033
  51
 180.00000000018
   0
ARC
   5
276
 100
AcDbEntity
   8
LEVEL002
 370
30
   6
CONTINUOUS
  62
7
 100
AcDbCircle
  10
 65.959176176151
  20
 240.67339284663
  30
0.0
  40
 0.20000000000000
 100
AcDbArc
  50
0.0
  51
 60.000000000197
   0
LINE
   5
277
 100
AcDbEntity
   8
LEVEL002
 370
30
 100
AcDbLine
   6
CONTINUOUS
  62
7
  10
 66.159176176151
  20
 240.67339284663
  30
0.0
  11
 66.159176176151
  21
 240.29826397717
  31
0.0
   0
LINE
   5
278
 100
AcDbEntity
   8
LEVEL002
 370
30
 100
AcDbLine
   6
CONTINUOUS
  62
7
  10
 65.959176176151
  20
 240.09826397717
  30
0.0
  11
 65.355328598960
  21
 240.09826397717
  31
0.0
   0
ARC
   5
279
 100
AcDbEntity
   8
LEVEL002
 370
30
   6
CONTINUOUS
  62
7
 100
AcDbCircle
  10
 65.959176176152
  20
 240.29826397717
  30
0.0
  40
 0.20000000000000
 100
AcDbArc
  50
 269.99999999987
  51
0.0
   0
LINE
   5
27A
 100
AcDbEntity
   8
LEVEL002
 370
30
 100
AcDbLine
   6
CONTINUOUS
  62
7
  10
 40.609176176294
  20
 242.09826397719
  30
0.0
  11
 40.909176176227
  21
 242.39826397713
  31
0.0
   0
LINE
   5
27B
 100
AcDbEntity
   8
LEVEL002
 370
30
 100
AcDbLine
   6
CONTINUOUS
  62
7
  10
 40.909176176227
  20
 242.39826397713
  30
0.0
  11
 41.209176176160
  21
 242.09826397719
  31
0.0
   0
LINE
   5
27C
 100
AcDbEntity
   8
LEVEL002
 370
30
 100
AcDbLine
   6
CONTINUOUS
  62
7
  10
 37.909176176151
  20
 240.49826397717
  30
0.0
  11
 37.909176176151
  21
 242.09826397719
  31
0.0
   0
LINE
   5
27D
 100
AcDbEntity
   8
LEVEL002
 370
30
 100
AcDbLine
   6
CONTINUOUS
  62
7
  10
 37.909176176151
  20
 242.09826397719
  30
0.0
  11
 40.609176176294
  21
 242.09826397719
  31
0.0
   0
LINE
   5
27E
 100
AcDbEntity
   8
LEVEL002
 370
30
 100
AcDbLine
   6
CONTINUOUS
  62
7
  10
 41.209176176160
  20
 242.09826397719
  30
0.0
  11
 43.909176176151
  21
 242.09826397719
  31
0.0
   0
LINE
   5
27F
 100
AcDbEntity
   8
LEVEL002
 370
30
 100
AcDbLine
   6
CONTINUOUS
  62
7
  10
 43.909176176151
  20
 242.09826397719
  30
0.0
  11
 43.909176176151
  21
 240.49826397717
  31
0.0
   0
LINE
   5
280
 100
AcDbEntity
   8
LEVEL002
 370
30
 100
AcDbLine
   6
CONTINUOUS
  62
7
  10
 57.109176176218
  20
 242.09826397726
  30
0.0
  11
 57.409176176151
  21
 242.39826397719
  31
0.0
   0
LINE
   5
281
 100
AcDbEntity
   8
LEVEL002
 370
30
 100
AcDbLine
   6
CONTINUOUS
  62
7
  10
 57.409176176151
  20
 242.39826397719
  30
0.0
  11
 57.709176176084
  21
 242.09826397726
  31
0.0
   0
LINE
   5
282
 100
AcDbEntity
   8
LEVEL002
 370
30
 100
AcDbLine
   6
CONTINUOUS
  62
7
  10
 54.409176176151
  20
 240.49826397717
  30
0.0
  11
 54.409176176151
  21
 242.09826397719
  31
0.0
   0
LINE
   5
283
 100
AcDbEntity
   8
LEVEL002
 370
30
 100
AcDbLine
   6
CONTINUOUS
  62
7
  10
 54.409176176151
  20
 242.09826397719
  30
0.0
  11
 57.109176176151
  21
 242.09826397719
  31
0.0
   0
LINE
   5
284
 100
AcDbEntity
   8
LEVEL002
 370
30
 100
AcDbLine
   6
CONTINUOUS
  62
7
  10
 57.709176176151
  20
 242.09826397719
  30
0.0
  11
 60.409176176151
  21
 242.09826397719
  31
0.0
   0
LINE
   5
285
 100
AcDbEntity
   8
LEVEL002
 370
30
 100
AcDbLine
   6
CONTINUOUS
  62
7
  10
 60.409176176151
  20
 242.09826397719
  30
0.0
  11
 60.409176176151
  21
 240.49826397717
  31
0.0
   0
LINE
   5
286
 100
AcDbEntity
   8
LEVEL002
 370
30
 100
AcDbLine
   6
CONTINUOUS
  62
7
  10
 32.259176176151
  20
 240.84659792727
  30
0.0
  11
 36.159176176151
  21
 243.09826397711
  31
0.0
   0
LINE
   5
287
 100
AcDbEntity
   8
LEVEL002
 370
30
 100
AcDbLine
   6
CONTINUOUS
  62
7
  10
 36.159176176151
  20
 243.09826397711
  30
0.0
  11
 45.409176176150
  21
 243.09826397716
  31
0.0
   0
ARC
   5
288
 100
AcDbEntity
   8
LEVEL002
 370
30
   6
CONTINUOUS
  62
7
 100
AcDbCircle
  10
 45.409176176151
  20
 242.84826397716
  30
0.0
  40
 0.25000000000000
 100
AcDbArc
  50
0.0
  51
 90.000000000326
   0
LINE
   5
289
 100
AcDbEntity
   8
LEVEL002
 370
30
 100
AcDbLine
   6
CONTINUOUS
  62
7
  10
 45.659176176151
  20
 242.84826397716
  30
0.0
  11
 45.659176176151
  21
 242.09826397716
  31
0.0
   0
LINE
   5
28A
 100
AcDbEntity
   8
LEVEL002
 370
30
 100
AcDbLine
   6
CONTINUOUS
  62
7
  10
 45.659176176151
  20
 242.09826397716
  30
0.0
  11
 48.159176176151
  21
 241.09826397717
  31
0.0
   0
LINE
   5
28B
 100
AcDbEntity
   8
LEVEL002
 370
30
 100
AcDbLine
   6
CONTINUOUS
  62
7
  10
 48.159176176151
  20
 241.09826397717
  30
0.0
  11
 50.159176176151
  21
 241.09826397717
  31
0.0
   0
LINE
   5
28C
 100
AcDbEntity
   8
LEVEL002
 370
30
 100
AcDbLine
   6
CONTINUOUS
  62
7
  10
 50.159176176151
  20
 241.09826397717
  30
0.0
  11
 52.659176176151
  21
 242.09826397716
  31
0.0
   0
LINE
   5
28D
 100
AcDbEntity
   8
LEVEL002
 370
30
 100
AcDbLine
   6
CONTINUOUS
  62
7
  10
 52.659176176151
  20
 242.09826397716
  30
0.0
  11
 52.659176176151
  21
 242.84826397717
  31
0.0
   0
ARC
   5
28E
 100
AcDbEntity
   8
LEVEL002
 370
30
   6
CONTINUOUS
  62
7
 100
AcDbCircle
  10
 52.909176176151
  20
 242.84826397717
  30
0.0
  40
 0.25000000000000
 100
AcDbArc
  50
 90.000000000261
  51
 180.00000000000
   0
LINE
   5
28F
 100
AcDbEntity
   8
LEVEL002
 370
30
 100
AcDbLine
   6
CONTINUOUS
  62
7
  10
 52.909176176150
  20
 243.09826397717
  30
0.0
  11
 62.159176176151
  21
 243.09826397722
  31
0.0
   0
LINE
   5
290
 100
AcDbEntity
   8
LEVEL002
 370
30
 100
AcDbLine
   6
CONTINUOUS
  62
7
  10
 62.159176176151
  20
 243.09826397722
  30
0.0
  11
 66.059176176151
  21
 240.84659792738
  31
0.0
   0
ARC
   5
291
 100
AcDbEntity
   8
LEVEL002
 370
30
   6
CONTINUOUS
  62
7
 100
AcDbCircle
  10
 44.509176176151
  20
 240.49826397716
  30
0.0
  40
 0.40000000000000
 100
AcDbArc
  50
 270.00000000001
  51
 0.40711099922733E-11
   0
LINE
   5
292
 100
AcDbEntity
   8
LEVEL002
 370
30
 100
AcDbLine
   6
CONTINUOUS
  62
7
  10
 44.309176176151
  20
 240.09826397717
  30
0.0
  11
 44.509176176151
  21
 240.09826397717
  31
0.0
   0
ARC
   5
293
 100
AcDbEntity
   8
LEVEL002
 370
30
   6
CONTINUOUS
  62
7
 100
AcDbCircle
  10
 53.809176176152
  20
 240.49826397717
  30
0.0
  40
 0.40000000000000
 100
AcDbArc
  50
 180.00000000000
  51
 269.99999999992
   0
LINE
   5
294
 100
AcDbEntity
   8
LEVEL002
 370
30
 100
AcDbLine
   6
CONTINUOUS
  62
7
  10
 53.809176176152
  20
 240.09826397717
  30
0.0
  11
 54.009176176151
  21
 240.09826397717
  31
0.0
   0
LINE
   5
295
 100
AcDbEntity
   8
LEVEL002
 370
30
 100
AcDbLine
   6
CONTINUOUS
  62
7
  10
 44.909176176151
  20
 240.49826397717
  30
0.0
  11
 44.909176176151
  21
 241.32123101576
  31
0.0
   0
LINE
   5
296
 100
AcDbEntity
   8
LEVEL002
 370
30
 100
AcDbLine
   6
CONTINUOUS
  62
7
  10
 53.409176176151
  20
 241.32123101567
  30
0.0
  11
 53.409176176151
  21
 240.49826397717
  31
0.0
   0
LINE
   5
297
 100
AcDbEntity
   8
LEVEL002
 370
30
 100
AcDbLine
   6
CONTINUOUS
  62
7
  10
 44.909176176151
  20
 241.32123101576
  30
0.0
  11
 47.966593772639
  21
 240.09826397717
  31
0.0
   0
LINE
   5
298
 100
AcDbEntity
   8
LEVEL002
 370
30
 100
AcDbLine
   6
CONTINUOUS
  62
7
  10
 47.966593772639
  20
 240.09826397717
  30
0.0
  11
 50.351758579889
  21
 240.09826397717
  31
0.0
   0
LINE
   5
299
 100
AcDbEntity
   8
LEVEL002
 370
30
 100
AcDbLine
   6
CONTINUOUS
  62
7
  10
 50.351758579889
  20
 240.09826397717
  30
0.0
  11
 53.409176176151
  21
 241.32123101567
  31
0.0
   0
LINE
   5
29A
 100
AcDbEntity
   8
LEVEL002
 370
15
 100
AcDbLine
   6
DASHDOT
  62
8
  10
 40.909176176151
  20
 244.68597721745
  30
0.0
  11
 40.909176176151
  21
 238.46651334020
  31
0.0
   0
LINE
   5
29B
 100
AcDbEntity
   8
LEVEL002
 370
15
 100
AcDbLine
   6
DASHDOT
  62
8
  10
 57.409176176151
  20
 244.68597721745
  30
0.0
  11
 57.409176176151
  21
 238.46651334020
  31
0.0
   0
LINE
   5
29C
 100
AcDbEntity
   8
LEVEL002
 370
15
 100
AcDbLine
   6
DASHDOT
  62
8
  10
 49.159176176151
  20
 244.68597721745
  30
0.0
  11
 49.159176176151
  21
 238.46651334020
  31
0.0
   0
DIMENSION
   5
29D
 100
AcDbEntity
   8
LEVEL001
 370
15
   6
CONTINUOUS
  62
8
 100
AcDbDimension
   2
*D4
  10
 97.874085374469
  20
 173.18594064254
  30
0.0
  11
 97.874085374469
  21
 175.10835095504
  31
0.0
  70
128
   3
GMM003
 100
AcDbAlignedDimension
  13
 92.674085374469
  23
 170.18594064254
  33
0.0
  14
 88.874085374469
  24
 173.18594064254
  34
0.0
  50
 90.000000000000
 100
AcDbRotatedDimension
   0
DIMENSION
   5
29E
 100
AcDbEntity
   8
LEVEL001
 370
15
   6
CONTINUOUS
  62
8
 100
AcDbDimension
   2
*D5
  10
 75.874085374469
  20
 183.18594064254
  30
0.0
  11
 59.374085374469
  21
 183.18594064254
  31
0.0
  70
0
   3
GMM001
 100
AcDbAlignedDimension
  13
 42.874085374469
  23
 174.54246728918
  33
0.0
  14
 75.874085374469
  24
 174.54246728918
  34
0.0
 100
AcDbRotatedDimension
   0
DIMENSION
   5
29F
 100
AcDbEntity
   8
LEVEL001
 370
15
   6
CONTINUOUS
  62
8
 100
AcDbDimension
   2
*D6
  10
 46.374085374470
  20
 178.18594064254
  30
0.0
  11
 37.644266334568
  21
 178.18594064254
  31
0.0
  70
128
   3
GMM004
 100
AcDbAlignedDimension
  13
 39.374085374469
  23
 172.93594064254
  33
0.0
  14
 46.374085374470
  24
 172.93594064254
  34
0.0
 100
AcDbRotatedDimension
   0
DIMENSION
   5
2A0
 100
AcDbEntity
   8
LEVEL001
 370
15
   6
CONTINUOUS
  62
8
 100
AcDbDimension
   2
*D7
  10
 92.874085374469
  20
 188.18594064254
  30
0.0
  11
 59.374085374469
  21
 188.18594064254
  31
0.0
  70
0
   3
GMM001
 100
AcDbAlignedDimension
  13
 25.874085374469
  23
 170.76106951192
  33
0.0
  14
 92.874085374469
  24
 170.76106951195
  34
0.0
 100
AcDbRotatedDimension
   0
ARC
   5
2A1
 100
AcDbEntity
   8
LEVEL002
 370
30
   6
CONTINUOUS
  62
7
 100
AcDbCircle
  10
 26.074085374469
  20
 170.76106951192
  30
0.0
  40
 0.20000000000000
 100
AcDbArc
  50
 120.00000000025
  51
 180.00000000011
   0
LINE
   5
2A2
 100
AcDbEntity
   8
LEVEL002
 370
30
 100
AcDbLine
   6
CONTINUOUS
  62
7
  10
 26.677932951581
  20
 170.18594064254
  30
0.0
  11
 26.074085374469
  21
 170.18594064254
  31
0.0
   0
LINE
   5
2A3
 100
AcDbEntity
   8
LEVEL002
 370
30
 100
AcDbLine
   6
CONTINUOUS
  62
7
  10
 25.874085374469
  20
 170.38594064254
  30
0.0
  11
 25.874085374469
  21
 170.76106951192
  31
0.0
   0
ARC
   5
2A4
 100
AcDbEntity
   8
LEVEL002
 370
30
   6
CONTINUOUS
  62
7
 100
AcDbCircle
  10
 26.074085374469
  20
 170.38594064254
  30
0.0
  40
 0.20000000000000
 100
AcDbArc
  50
 179.99999999917
  51
 270.00000000001
   0
LINE
   5
2A5
 100
AcDbEntity
   8
LEVEL002
 370
30
 100
AcDbLine
   6
CONTINUOUS
  62
7
  10
 25.974085374469
  20
 170.93427459267
  30
0.0
  11
 29.874085374469
  21
 173.18594064251
  31
0.0
   0
LINE
   5
2A6
 100
AcDbEntity
   8
LEVEL002
 370
30
 100
AcDbLine
   6
CONTINUOUS
  62
7
  10
 29.874085374469
  20
 173.18594064251
  30
0.0
  11
 39.124085374468
  21
 173.18594064254
  31
0.0
   0
ARC
   5
2A7
 100
AcDbEntity
   8
LEVEL002
 370
30
   6
CONTINUOUS
  62
7
 100
AcDbCircle
  10
 39.124085374469
  20
 172.93594064254
  30
0.0
  40
 0.25000000000000
 100
AcDbArc
  50
0.0
  51
 90.000000000156
   0
LINE
   5
2A8
 100
AcDbEntity
   8
LEVEL002
 370
30
 100
AcDbLine
   6
CONTINUOUS
  62
7
  10
 39.374085374469
  20
 172.93594064254
  30
0.0
  11
 39.374085374469
  21
 172.18594064254
  31
0.0
   0
LINE
   5
2A9
 100
AcDbEntity
   8
LEVEL002
 370
30
 100
AcDbLine
   6
CONTINUOUS
  62
7
  10
 39.374085374469
  20
 172.18594064254
  30
0.0
  11
 41.874085374469
  21
 171.18594064254
  31
0.0
   0
LINE
   5
2AA
 100
AcDbEntity
   8
LEVEL002
 370
30
 100
AcDbLine
   6
CONTINUOUS
  62
7
  10
 41.874085374469
  20
 171.18594064254
  30
0.0
  11
 43.874085374469
  21
 171.18594064254
  31
0.0
   0
LINE
   5
2AB
 100
AcDbEntity
   8
LEVEL002
 370
30
 100
AcDbLine
   6
CONTINUOUS
  62
7
  10
 43.874085374469
  20
 171.18594064254
  30
0.0
  11
 46.374085374469
  21
 172.18594064254
  31
0.0
   0
LINE
   5
2AC
 100
AcDbEntity
   8
LEVEL002
 370
30
 100
AcDbLine
   6
CONTINUOUS
  62
7
  10
 46.374085374469
  20
 172.18594064254
  30
0.0
  11
 46.374085374469
  21
 172.93594064254
  31
0.0
   0
ARC
   5
2AD
 100
AcDbEntity
   8
LEVEL002
 370
30
   6
CONTINUOUS
  62
7
 100
AcDbCircle
  10
 46.624085374470
  20
 172.93594064254
  30
0.0
  40
 0.25000000000000
 100
AcDbArc
  50
 90.000000000156
  51
 180.00000000000
   0
LINE
   5
2AE
 100
AcDbEntity
   8
LEVEL002
 370
30
 100
AcDbLine
   6
CONTINUOUS
  62
7
  10
 26.677932951581
  20
 170.18594064254
  30
0.0
  11
 30.142034566719
  21
 172.18594064254
  31
0.0
   0
LINE
   5
2AF
 100
AcDbEntity
   8
LEVEL002
 370
30
 100
AcDbLine
   6
CONTINUOUS
  62
7
  10
 30.142034566719
  20
 172.18594064254
  30
0.0
  11
 30.624085374469
  21
 172.18594064254
  31
0.0
   0
LINE
   5
2B0
 100
AcDbEntity
   8
LEVEL002
 370
30
 100
AcDbLine
   6
CONTINUOUS
  62
7
  10
 30.624085374469
  20
 172.18594064254
  30
0.0
  11
 30.624085374469
  21
 170.58594064254
  31
0.0
   0
ARC
   5
2B1
 100
AcDbEntity
   8
LEVEL002
 370
30
   6
CONTINUOUS
  62
7
 100
AcDbCircle
  10
 31.024085374470
  20
 170.58594064254
  30
0.0
  40
 0.40000000000000
 100
AcDbArc
  50
 180.00000000002
  51
 269.99999999988
   0
LINE
   5
2B2
 100
AcDbEntity
   8
LEVEL002
 370
30
 100
AcDbLine
   6
CONTINUOUS
  62
7
  10
 31.024085374469
  20
 170.18594064254
  30
0.0
  11
 31.224085374469
  21
 170.18594064254
  31
0.0
   0
ARC
   5
2B3
 100
AcDbEntity
   8
LEVEL002
 370
30
   6
CONTINUOUS
  62
7
 100
AcDbCircle
  10
 31.224085374469
  20
 170.58594064254
  30
0.0
  40
 0.40000000000000
 100
AcDbArc
  50
 269.99999999999
  51
 0.12213329976820E-10
   0
LINE
   5
2B4
 100
AcDbEntity
   8
LEVEL002
 370
30
 100
AcDbLine
   6
CONTINUOUS
  62
7
  10
 31.624085374469
  20
 170.58594064254
  30
0.0
  11
 31.624085374469
  21
 172.18594064254
  31
0.0
   0
LINE
   5
2B5
 100
AcDbEntity
   8
LEVEL002
 370
30
 100
AcDbLine
   6
CONTINUOUS
  62
7
  10
 31.624085374469
  20
 172.18594064254
  30
0.0
  11
 34.324085374686
  21
 172.18594064254
  31
0.0
   0
LINE
   5
2B6
 100
AcDbEntity
   8
LEVEL002
 370
30
 100
AcDbLine
   6
CONTINUOUS
  62
7
  10
 34.324085374686
  20
 172.18594064254
  30
0.0
  11
 34.624085374802
  21
 172.48594064266
  31
0.0
   0
LINE
   5
2B7
 100
AcDbEntity
   8
LEVEL002
 370
30
 100
AcDbLine
   6
CONTINUOUS
  62
7
  10
 34.624085374802
  20
 172.48594064266
  30
0.0
  11
 34.924085374917
  21
 172.18594064254
  31
0.0
   0
LINE
   5
2B8
 100
AcDbEntity
   8
LEVEL002
 370
30
 100
AcDbLine
   6
CONTINUOUS
  62
7
  10
 34.924085374917
  20
 172.18594064254
  30
0.0
  11
 37.624085374469
  21
 172.18594064254
  31
0.0
   0
LINE
   5
2B9
 100
AcDbEntity
   8
LEVEL002
 370
30
 100
AcDbLine
   6
CONTINUOUS
  62
7
  10
 37.624085374469
  20
 172.18594064254
  30
0.0
  11
 37.624085374469
  21
 170.58594064254
  31
0.0
   0
ARC
   5
2BA
 100
AcDbEntity
   8
LEVEL002
 370
30
   6
CONTINUOUS
  62
7
 100
AcDbCircle
  10
 38.024085374470
  20
 170.58594064254
  30
0.0
  40
 0.40000000000000
 100
AcDbArc
  50
 180.00000000002
  51
 269.99999999982
   0
LINE
   5
2BB
 100
AcDbEntity
   8
LEVEL002
 370
30
 100
AcDbLine
   6
CONTINUOUS
  62
7
  10
 38.024085374469
  20
 170.18594064254
  30
0.0
  11
 38.224085374469
  21
 170.18594064254
  31
0.0
   0
ARC
   5
2BC
 100
AcDbEntity
   8
LEVEL002
 370
30
   6
CONTINUOUS
  62
7
 100
AcDbCircle
  10
 38.224085374469
  20
 170.58594064254
  30
0.0
  40
 0.40000000000000
 100
AcDbArc
  50
 269.99999999999
  51
 0.12213329976820E-10
   0
ARC
   5
2BD
 100
AcDbEntity
   8
LEVEL002
 370
30
   6
CONTINUOUS
  62
7
 100
AcDbCircle
  10
 92.674085374469
  20
 170.76106951195
  30
0.0
  40
 0.20000000000000
 100
AcDbArc
  50
 0.81422199845465E-11
  51
 60.000000000043
   0
LINE
   5
2BE
 100
AcDbEntity
   8
LEVEL002
 370
30
 100
AcDbLine
   6
CONTINUOUS
  62
7
  10
 92.874085374469
  20
 170.76106951195
  30
0.0
  11
 92.874085374469
  21
 170.38594064254
  31
0.0
   0
LINE
   5
2BF
 100
AcDbEntity
   8
LEVEL002
 370
30
 100
AcDbLine
   6
CONTINUOUS
  62
7
  10
 92.674085374469
  20
 170.18594064254
  30
0.0
  11
 92.070237796946
  21
 170.18594064254
  31
0.0
   0
ARC
   5
2C0
 100
AcDbEntity
   8
LEVEL002
 370
30
   6
CONTINUOUS
  62
7
 100
AcDbCircle
  10
 92.674085374466
  20
 170.38594064254
  30
0.0
  40
 0.20000000000000
 100
AcDbArc
  50
 270.00000000083
  51
0.0
   0
ARC
   5
2C1
 100
AcDbEntity
   8
LEVEL002
 370
30
   6
CONTINUOUS
  62
7
 100
AcDbCircle
  10
 72.124085374469
  20
 172.93594064254
  30
0.0
  40
 0.25000000000000
 100
AcDbArc
  50
0.0
  51
 90.000000000156
   0
LINE
   5
2C2
 100
AcDbEntity
   8
LEVEL002
 370
30
 100
AcDbLine
   6
CONTINUOUS
  62
7
  10
 72.374085374469
  20
 172.93594064254
  30
0.0
  11
 72.374085374469
  21
 172.18594064254
  31
0.0
   0
LINE
   5
2C3
 100
AcDbEntity
   8
LEVEL002
 370
30
 100
AcDbLine
   6
CONTINUOUS
  62
7
  10
 72.374085374469
  20
 172.18594064254
  30
0.0
  11
 74.874085374469
  21
 171.18594064254
  31
0.0
   0
LINE
   5
2C4
 100
AcDbEntity
   8
LEVEL002
 370
30
 100
AcDbLine
   6
CONTINUOUS
  62
7
  10
 74.874085374469
  20
 171.18594064254
  30
0.0
  11
 76.874085374469
  21
 171.18594064254
  31
0.0
   0
LINE
   5
2C5
 100
AcDbEntity
   8
LEVEL002
 370
30
 100
AcDbLine
   6
CONTINUOUS
  62
7
  10
 76.874085374469
  20
 171.18594064254
  30
0.0
  11
 79.374085374469
  21
 172.18594064254
  31
0.0
   0
LINE
   5
2C6
 100
AcDbEntity
   8
LEVEL002
 370
30
 100
AcDbLine
   6
CONTINUOUS
  62
7
  10
 79.374085374469
  20
 172.18594064254
  30
0.0
  11
 79.374085374469
  21
 172.93594064254
  31
0.0
   0
LINE
   5
2C7
 100
AcDbEntity
   8
LEVEL002
 370
30
 100
AcDbLine
   6
CONTINUOUS
  62
7
  10
 79.624085374469
  20
 173.18594064254
  30
0.0
  11
 88.874085374469
  21
 173.18594064254
  31
0.0
   0
LINE
   5
2C8
 100
AcDbEntity
   8
LEVEL002
 370
30
 100
AcDbLine
   6
CONTINUOUS
  62
7
  10
 88.874085374469
  20
 173.18594064254
  30
0.0
  11
 92.774085374469
  21
 170.93427459271
  31
0.0
   0
ARC
   5
2C9
 100
AcDbEntity
   8
LEVEL002
 370
30
   6
CONTINUOUS
  62
7
 100
AcDbCircle
  10
 79.624085374468
  20
 172.93594064254
  30
0.0
  40
 0.25000000000000
 100
AcDbArc
  50
 89.999999999818
  51
 180.00000000000
   0
ARC
   5
2CA
 100
AcDbEntity
   8
LEVEL002
 370
30
   6
CONTINUOUS
  62
7
 100
AcDbCircle
  10
 80.524085374469
  20
 170.58594064254
  30
0.0
  40
 0.40000000000000
 100
AcDbArc
  50
 180.00000000002
  51
 269.99999999993
   0
LINE
   5
2CB
 100
AcDbEntity
   8
LEVEL002
 370
30
 100
AcDbLine
   6
CONTINUOUS
  62
7
  10
 80.524085374469
  20
 170.18594064254
  30
0.0
  11
 80.724085374469
  21
 170.18594064254
  31
0.0
   0
ARC
   5
2CC
 100
AcDbEntity
   8
LEVEL002
 370
30
   6
CONTINUOUS
  62
7
 100
AcDbCircle
  10
 80.724085374469
  20
 170.58594064254
  30
0.0
  40
 0.40000000000000
 100
AcDbArc
  50
 269.99999999999
  51
 0.12213329976820E-10
   0
LINE
   5
2CD
 100
AcDbEntity
   8
LEVEL002
 370
30
 100
AcDbLine
   6
CONTINUOUS
  62
7
  10
 81.124085374469
  20
 170.58594064254
  30
0.0
  11
 81.124085374469
  21
 172.18594064254
  31
0.0
   0
LINE
   5
2CE
 100
AcDbEntity
   8
LEVEL002
 370
30
 100
AcDbLine
   6
CONTINUOUS
  62
7
  10
 81.124085374469
  20
 172.18594064254
  30
0.0
  11
 83.824085374651
  21
 172.18594064254
  31
0.0
   0
LINE
   5
2CF
 100
AcDbEntity
   8
LEVEL002
 370
30
 100
AcDbLine
   6
CONTINUOUS
  62
7
  10
 83.824085374651
  20
 172.18594064254
  30
0.0
  11
 84.124085374767
  21
 172.48594064266
  31
0.0
   0
LINE
   5
2D0
 100
AcDbEntity
   8
LEVEL002
 370
30
 100
AcDbLine
   6
CONTINUOUS
  62
7
  10
 84.124085374767
  20
 172.48594064266
  30
0.0
  11
 84.424085374883
  21
 172.18594064254
  31
0.0
   0
LINE
   5
2D1
 100
AcDbEntity
   8
LEVEL002
 370
30
 100
AcDbLine
   6
CONTINUOUS
  62
7
  10
 84.424085374883
  20
 172.18594064254
  30
0.0
  11
 87.124085374469
  21
 172.18594064254
  31
0.0
   0
LINE
   5
2D2
 100
AcDbEntity
   8
LEVEL002
 370
30
 100
AcDbLine
   6
CONTINUOUS
  62
7
  10
 87.124085374469
  20
 172.18594064254
  30
0.0
  11
 87.124085374469
  21
 170.58594064254
  31
0.0
   0
ARC
   5
2D3
 100
AcDbEntity
   8
LEVEL002
 370
30
   6
CONTINUOUS
  62
7
 100
AcDbCircle
  10
 87.524085374470
  20
 170.58594064254
  30
0.0
  40
 0.40000000000000
 100
AcDbArc
  50
 180.00000000002
  51
 269.99999999991
   0
LINE
   5
2D4
 100
AcDbEntity
   8
LEVEL002
 370
30
 100
AcDbLine
   6
CONTINUOUS
  62
7
  10
 87.524085374469
  20
 170.18594064254
  30
0.0
  11
 87.724085374469
  21
 170.18594064254
  31
0.0
   0
LINE
   5
2D5
 100
AcDbEntity
   8
LEVEL002
 370
30
 100
AcDbLine
   6
CONTINUOUS
  62
7
  10
 88.124085374469
  20
 170.58594064254
  30
0.0
  11
 88.124085374469
  21
 172.18594064254
  31
0.0
   0
LINE
   5
2D6
 100
AcDbEntity
   8
LEVEL002
 370
30
 100
AcDbLine
   6
CONTINUOUS
  62
7
  10
 88.124085374469
  20
 172.18594064254
  30
0.0
  11
 88.606136181809
  21
 172.18594064254
  31
0.0
   0
LINE
   5
2D7
 100
AcDbEntity
   8
LEVEL002
 370
30
 100
AcDbLine
   6
CONTINUOUS
  62
7
  10
 88.606136181809
  20
 172.18594064254
  30
0.0
  11
 92.070237796946
  21
 170.18594064254
  31
0.0
   0
ARC
   5
2D8
 100
AcDbEntity
   8
LEVEL002
 370
30
   6
CONTINUOUS
  62
7
 100
AcDbCircle
  10
 87.724085374469
  20
 170.58594064254
  30
0.0
  40
 0.40000000000000
 100
AcDbArc
  50
 269.99999999999
  51
0.0
   0
LINE
   5
2D9
 100
AcDbEntity
   8
LEVEL002
 370
30
 100
AcDbLine
   6
CONTINUOUS
  62
7
  10
 46.624085374469
  20
 173.18594064254
  30
0.0
  11
 72.124085374468
  21
 173.18594064255
  31
0.0
   0
ARC
   5
2DA
 100
AcDbEntity
   8
LEVEL002
 370
30
   6
CONTINUOUS
  62
7
 100
AcDbCircle
  10
 46.774085374470
  20
 170.58594064254
  30
0.0
  40
 0.40000000000000
 100
AcDbArc
  50
 180.00000000002
  51
 269.99999999988
   0
LINE
   5
2DB
 100
AcDbEntity
   8
LEVEL002
 370
30
 100
AcDbLine
   6
CONTINUOUS
  62
7
  10
 46.774085374469
  20
 170.18594064254
  30
0.0
  11
 46.974085374469
  21
 170.18594064254
  31
0.0
   0
ARC
   5
2DC
 100
AcDbEntity
   8
LEVEL002
 370
30
   6
CONTINUOUS
  62
7
 100
AcDbCircle
  10
 46.974085374469
  20
 170.58594064254
  30
0.0
  40
 0.40000000000000
 100
AcDbArc
  50
 269.99999999999
  51
 0.12213329976820E-10
   0
LINE
   5
2DD
 100
AcDbEntity
   8
LEVEL002
 370
30
 100
AcDbLine
   6
CONTINUOUS
  62
7
  10
 47.374085374469
  20
 170.58594064254
  30
0.0
  11
 47.374085374469
  21
 172.18594064254
  31
0.0
   0
LINE
   5
2DE
 100
AcDbEntity
   8
LEVEL002
 370
30
 100
AcDbLine
   6
CONTINUOUS
  62
7
  10
 47.374085374469
  20
 172.18594064254
  30
0.0
  11
 58.874085374469
  21
 172.18594064254
  31
0.0
   0
LINE
   5
2DF
 100
AcDbEntity
   8
LEVEL002
 370
30
 100
AcDbLine
   6
CONTINUOUS
  62
7
  10
 58.874085374469
  20
 172.18594064254
  30
0.0
  11
 58.874085374469
  21
 170.58594064254
  31
0.0
   0
ARC
   5
2E0
 100
AcDbEntity
   8
LEVEL002
 370
30
   6
CONTINUOUS
  62
7
 100
AcDbCircle
  10
 59.274085374470
  20
 170.58594064254
  30
0.0
  40
 0.40000000000000
 100
AcDbArc
  50
 180.00000000002
  51
 269.99999999987
   0
LINE
   5
2E1
 100
AcDbEntity
   8
LEVEL002
 370
30
 100
AcDbLine
   6
CONTINUOUS
  62
7
  10
 59.274085374469
  20
 170.18594064254
  30
0.0
  11
 59.474085374469
  21
 170.18594064254
  31
0.0
   0
ARC
   5
2E2
 100
AcDbEntity
   8
LEVEL002
 370
30
   6
CONTINUOUS
  62
7
 100
AcDbCircle
  10
 59.474085374469
  20
 170.58594064254
  30
0.0
  40
 0.40000000000000
 100
AcDbArc
  50
 269.99999999999
  51
0.0
   0
LINE
   5
2E3
 100
AcDbEntity
   8
LEVEL002
 370
30
 100
AcDbLine
   6
CONTINUOUS
  62
7
  10
 38.624085374469
  20
 170.58594064254
  30
0.0
  11
 38.624085374469
  21
 171.40890768113
  31
0.0
   0
LINE
   5
2E4
 100
AcDbEntity
   8
LEVEL002
 370
30
 100
AcDbLine
   6
CONTINUOUS
  62
7
  10
 38.624085374469
  20
 171.40890768113
  30
0.0
  11
 41.681502970941
  21
 170.18594064254
  31
0.0
   0
LINE
   5
2E5
 100
AcDbEntity
   8
LEVEL002
 370
30
 100
AcDbLine
   6
CONTINUOUS
  62
7
  10
 41.681502970941
  20
 170.18594064254
  30
0.0
  11
 44.066667778041
  21
 170.18594064254
  31
0.0
   0
LINE
   5
2E6
 100
AcDbEntity
   8
LEVEL002
 370
30
 100
AcDbLine
   6
CONTINUOUS
  62
7
  10
 44.066667778041
  20
 170.18594064254
  30
0.0
  11
 46.374085374469
  21
 171.10890768111
  31
0.0
   0
LINE
   5
2E7
 100
AcDbEntity
   8
LEVEL002
 370
30
 100
AcDbLine
   6
CONTINUOUS
  62
7
  10
 46.374085374469
  20
 171.10890768111
  30
0.0
  11
 46.374085374469
  21
 170.58594064254
  31
0.0
   0
ARC
   5
2E8
 100
AcDbEntity
   8
LEVEL002
 370
30
   6
CONTINUOUS
  62
7
 100
AcDbCircle
  10
 71.974085374468
  20
 170.58594064254
  30
0.0
  40
 0.40000000000000
 100
AcDbArc
  50
 270.00000000017
  51
0.0
   0
LINE
   5
2E9
 100
AcDbEntity
   8
LEVEL002
 370
30
 100
AcDbLine
   6
CONTINUOUS
  62
7
  10
 71.974085374469
  20
 170.18594064254
  30
0.0
  11
 71.774085374469
  21
 170.18594064254
  31
0.0
   0
ARC
   5
2EA
 100
AcDbEntity
   8
LEVEL002
 370
30
   6
CONTINUOUS
  62
7
 100
AcDbCircle
  10
 71.774085374469
  20
 170.58594064254
  30
0.0
  40
 0.40000000000000
 100
AcDbArc
  50
 179.99999999992
  51
 270.00000000000
   0
LINE
   5
2EB
 100
AcDbEntity
   8
LEVEL002
 370
30
 100
AcDbLine
   6
CONTINUOUS
  62
7
  10
 71.374085374469
  20
 170.58594064254
  30
0.0
  11
 71.374085374469
  21
 172.18594064254
  31
0.0
   0
LINE
   5
2EC
 100
AcDbEntity
   8
LEVEL002
 370
30
 100
AcDbLine
   6
CONTINUOUS
  62
7
  10
 71.374085374469
  20
 172.18594064254
  30
0.0
  11
 59.874085374469
  21
 172.18594064254
  31
0.0
   0
LINE
   5
2ED
 100
AcDbEntity
   8
LEVEL002
 370
30
 100
AcDbLine
   6
CONTINUOUS
  62
7
  10
 59.874085374469
  20
 172.18594064254
  30
0.0
  11
 59.874085374469
  21
 170.58594064254
  31
0.0
   0
LINE
   5
2EE
 100
AcDbEntity
   8
LEVEL002
 370
30
 100
AcDbLine
   6
CONTINUOUS
  62
7
  10
 80.124085374469
  20
 170.58594064254
  30
0.0
  11
 80.124085374469
  21
 171.40890768113
  31
0.0
   0
LINE
   5
2EF
 100
AcDbEntity
   8
LEVEL002
 370
30
 100
AcDbLine
   6
CONTINUOUS
  62
7
  10
 80.124085374469
  20
 171.40890768113
  30
0.0
  11
 77.066667777997
  21
 170.18594064254
  31
0.0
   0
LINE
   5
2F0
 100
AcDbEntity
   8
LEVEL002
 370
30
 100
AcDbLine
   6
CONTINUOUS
  62
7
  10
 77.066667777997
  20
 170.18594064254
  30
0.0
  11
 74.681502970897
  21
 170.18594064254
  31
0.0
   0
LINE
   5
2F1
 100
AcDbEntity
   8
LEVEL002
 370
30
 100
AcDbLine
   6
CONTINUOUS
  62
7
  10
 74.681502970897
  20
 170.18594064254
  30
0.0
  11
 72.374085374469
  21
 171.10890768111
  31
0.0
   0
LINE
   5
2F2
 100
AcDbEntity
   8
LEVEL002
 370
30
 100
AcDbLine
   6
CONTINUOUS
  62
7
  10
 72.374085374469
  20
 171.10890768111
  30
0.0
  11
 72.374085374469
  21
 170.58594064254
  31
0.0
   0
ARC
   5
2F3
 100
AcDbEntity
   8
LEVEL002
 370
30
   6
CONTINUOUS
  62
7
 100
AcDbCircle
  10
 26.074085374469
  20
 170.76106951192
  30
0.0
  40
 0.20000000000000
 100
AcDbArc
  50
 120.00000000025
  51
 180.00000000011
   0
LINE
   5
2F4
 100
AcDbEntity
   8
LEVEL002
 370
30
 100
AcDbLine
   6
CONTINUOUS
  62
7
  10
 26.677932951581
  20
 170.18594064254
  30
0.0
  11
 26.074085374469
  21
 170.18594064254
  31
0.0
   0
LINE
   5
2F5
 100
AcDbEntity
   8
LEVEL002
 370
30
 100
AcDbLine
   6
CONTINUOUS
  62
7
  10
 25.874085374469
  20
 170.38594064254
  30
0.0
  11
 25.874085374469
  21
 170.76106951192
  31
0.0
   0
ARC
   5
2F6
 100
AcDbEntity
   8
LEVEL002
 370
30
   6
CONTINUOUS
  62
7
 100
AcDbCircle
  10
 26.074085374469
  20
 170.38594064254
  30
0.0
  40
 0.20000000000000
 100
AcDbArc
  50
 179.99999999917
  51
 270.00000000001
   0
LINE
   5
2F7
 100
AcDbEntity
   8
LEVEL002
 370
30
 100
AcDbLine
   6
CONTINUOUS
  62
7
  10
 25.974085374469
  20
 170.93427459267
  30
0.0
  11
 29.874085374469
  21
 173.18594064251
  31
0.0
   0
LINE
   5
2F8
 100
AcDbEntity
   8
LEVEL002
 370
30
 100
AcDbLine
   6
CONTINUOUS
  62
7
  10
 29.874085374469
  20
 173.18594064251
  30
0.0
  11
 39.124085374468
  21
 173.18594064254
  31
0.0
   0
ARC
   5
2F9
 100
AcDbEntity
   8
LEVEL002
 370
30
   6
CONTINUOUS
  62
7
 100
AcDbCircle
  10
 39.124085374469
  20
 172.93594064254
  30
0.0
  40
 0.25000000000000
 100
AcDbArc
  50
0.0
  51
 90.000000000156
   0
LINE
   5
2FA
 100
AcDbEntity
   8
LEVEL002
 370
30
 100
AcDbLine
   6
CONTINUOUS
  62
7
  10
 39.374085374469
  20
 172.93594064254
  30
0.0
  11
 39.374085374469
  21
 172.18594064254
  31
0.0
   0
LINE
   5
2FB
 100
AcDbEntity
   8
LEVEL002
 370
30
 100
AcDbLine
   6
CONTINUOUS
  62
7
  10
 39.374085374469
  20
 172.18594064254
  30
0.0
  11
 41.874085374469
  21
 171.18594064254
  31
0.0
   0
LINE
   5
2FC
 100
AcDbEntity
   8
LEVEL002
 370
30
 100
AcDbLine
   6
CONTINUOUS
  62
7
  10
 41.874085374469
  20
 171.18594064254
  30
0.0
  11
 43.874085374469
  21
 171.18594064254
  31
0.0
   0
LINE
   5
2FD
 100
AcDbEntity
   8
LEVEL002
 370
30
 100
AcDbLine
   6
CONTINUOUS
  62
7
  10
 43.874085374469
  20
 171.18594064254
  30
0.0
  11
 46.374085374469
  21
 172.18594064254
  31
0.0
   0
LINE
   5
2FE
 100
AcDbEntity
   8
LEVEL002
 370
30
 100
AcDbLine
   6
CONTINUOUS
  62
7
  10
 46.374085374469
  20
 172.18594064254
  30
0.0
  11
 46.374085374469
  21
 172.93594064254
  31
0.0
   0
ARC
   5
2FF
 100
AcDbEntity
   8
LEVEL002
 370
30
   6
CONTINUOUS
  62
7
 100
AcDbCircle
  10
 46.624085374470
  20
 172.93594064254
  30
0.0
  40
 0.25000000000000
 100
AcDbArc
  50
 90.000000000156
  51
 180.00000000000
   0
LINE
   5
300
 100
AcDbEntity
   8
LEVEL002
 370
30
 100
AcDbLine
   6
CONTINUOUS
  62
7
  10
 26.677932951581
  20
 170.18594064254
  30
0.0
  11
 30.142034566719
  21
 172.18594064254
  31
0.0
   0
LINE
   5
301
 100
AcDbEntity
   8
LEVEL002
 370
30
 100
AcDbLine
   6
CONTINUOUS
  62
7
  10
 30.142034566719
  20
 172.18594064254
  30
0.0
  11
 30.624085374469
  21
 172.18594064254
  31
0.0
   0
LINE
   5
302
 100
AcDbEntity
   8
LEVEL002
 370
30
 100
AcDbLine
   6
CONTINUOUS
  62
7
  10
 30.624085374469
  20
 172.18594064254
  30
0.0
  11
 30.624085374469
  21
 170.58594064254
  31
0.0
   0
ARC
   5
303
 100
AcDbEntity
   8
LEVEL002
 370
30
   6
CONTINUOUS
  62
7
 100
AcDbCircle
  10
 31.024085374470
  20
 170.58594064254
  30
0.0
  40
 0.40000000000000
 100
AcDbArc
  50
 180.00000000002
  51
 269.99999999988
   0
LINE
   5
304
 100
AcDbEntity
   8
LEVEL002
 370
30
 100
AcDbLine
   6
CONTINUOUS
  62
7
  10
 31.024085374469
  20
 170.18594064254
  30
0.0
  11
 31.224085374469
  21
 170.18594064254
  31
0.0
   0
ARC
   5
305
 100
AcDbEntity
   8
LEVEL002
 370
30
   6
CONTINUOUS
  62
7
 100
AcDbCircle
  10
 31.224085374469
  20
 170.58594064254
  30
0.0
  40
 0.40000000000000
 100
AcDbArc
  50
 269.99999999999
  51
 0.12213329976820E-10
   0
LINE
   5
306
 100
AcDbEntity
   8
LEVEL002
 370
30
 100
AcDbLine
   6
CONTINUOUS
  62
7
  10
 31.624085374469
  20
 170.58594064254
  30
0.0
  11
 31.624085374469
  21
 172.18594064254
  31
0.0
   0
LINE
   5
307
 100
AcDbEntity
   8
LEVEL002
 370
30
 100
AcDbLine
   6
CONTINUOUS
  62
7
  10
 31.624085374469
  20
 172.18594064254
  30
0.0
  11
 34.324085374686
  21
 172.18594064254
  31
0.0
   0
LINE
   5
308
 100
AcDbEntity
   8
LEVEL002
 370
30
 100
AcDbLine
   6
CONTINUOUS
  62
7
  10
 34.324085374686
  20
 172.18594064254
  30
0.0
  11
 34.624085374802
  21
 172.48594064266
  31
0.0
   0
LINE
   5
309
 100
AcDbEntity
   8
LEVEL002
 370
30
 100
AcDbLine
   6
CONTINUOUS
  62
7
  10
 34.624085374802
  20
 172.48594064266
  30
0.0
  11
 34.924085374917
  21
 172.18594064254
  31
0.0
   0
LINE
   5
30A
 100
AcDbEntity
   8
LEVEL002
 370
30
 100
AcDbLine
   6
CONTINUOUS
  62
7
  10
 34.924085374917
  20
 172.18594064254
  30
0.0
  11
 37.624085374469
  21
 172.18594064254
  31
0.0
   0
LINE
   5
30B
 100
AcDbEntity
   8
LEVEL002
 370
30
 100
AcDbLine
   6
CONTINUOUS
  62
7
  10
 37.624085374469
  20
 172.18594064254
  30
0.0
  11
 37.624085374469
  21
 170.58594064254
  31
0.0
   0
ARC
   5
30C
 100
AcDbEntity
   8
LEVEL002
 370
30
   6
CONTINUOUS
  62
7
 100
AcDbCircle
  10
 38.024085374470
  20
 170.58594064254
  30
0.0
  40
 0.40000000000000
 100
AcDbArc
  50
 180.00000000002
  51
 269.99999999982
   0
LINE
   5
30D
 100
AcDbEntity
   8
LEVEL002
 370
30
 100
AcDbLine
   6
CONTINUOUS
  62
7
  10
 38.024085374469
  20
 170.18594064254
  30
0.0
  11
 38.224085374469
  21
 170.18594064254
  31
0.0
   0
ARC
   5
30E
 100
AcDbEntity
   8
LEVEL002
 370
30
   6
CONTINUOUS
  62
7
 100
AcDbCircle
  10
 38.224085374469
  20
 170.58594064254
  30
0.0
  40
 0.40000000000000
 100
AcDbArc
  50
 269.99999999999
  51
 0.12213329976820E-10
   0
ARC
   5
30F
 100
AcDbEntity
   8
LEVEL002
 370
30
   6
CONTINUOUS
  62
7
 100
AcDbCircle
  10
 92.674085374469
  20
 170.76106951195
  30
0.0
  40
 0.20000000000000
 100
AcDbArc
  50
 0.81422199845465E-11
  51
 60.000000000043
   0
LINE
   5
310
 100
AcDbEntity
   8
LEVEL002
 370
30
 100
AcDbLine
   6
CONTINUOUS
  62
7
  10
 92.874085374469
  20
 170.76106951195
  30
0.0
  11
 92.874085374469
  21
 170.38594064254
  31
0.0
   0
LINE
   5
311
 100
AcDbEntity
   8
LEVEL002
 370
30
 100
AcDbLine
   6
CONTINUOUS
  62
7
  10
 92.674085374469
  20
 170.18594064254
  30
0.0
  11
 92.070237796946
  21
 170.18594064254
  31
0.0
   0
ARC
   5
312
 100
AcDbEntity
   8
LEVEL002
 370
30
   6
CONTINUOUS
  62
7
 100
AcDbCircle
  10
 92.674085374466
  20
 170.38594064254
  30
0.0
  40
 0.20000000000000
 100
AcDbArc
  50
 270.00000000083
  51
0.0
   0
ARC
   5
313
 100
AcDbEntity
   8
LEVEL002
 370
30
   6
CONTINUOUS
  62
7
 100
AcDbCircle
  10
 72.124085374469
  20
 172.93594064254
  30
0.0
  40
 0.25000000000000
 100
AcDbArc
  50
0.0
  51
 90.000000000156
   0
LINE
   5
314
 100
AcDbEntity
   8
LEVEL002
 370
30
 100
AcDbLine
   6
CONTINUOUS
  62
7
  10
 72.374085374469
  20
 172.93594064254
  30
0.0
  11
 72.374085374469
  21
 172.18594064254
  31
0.0
   0
LINE
   5
315
 100
AcDbEntity
   8
LEVEL002
 370
30
 100
AcDbLine
   6
CONTINUOUS
  62
7
  10
 72.374085374469
  20
 172.18594064254
  30
0.0
  11
 74.874085374469
  21
 171.18594064254
  31
0.0
   0
LINE
   5
316
 100
AcDbEntity
   8
LEVEL002
 370
30
 100
AcDbLine
   6
CONTINUOUS
  62
7
  10
 74.874085374469
  20
 171.18594064254
  30
0.0
  11
 76.874085374469
  21
 171.18594064254
  31
0.0
   0
LINE
   5
317
 100
AcDbEntity
   8
LEVEL002
 370
30
 100
AcDbLine
   6
CONTINUOUS
  62
7
  10
 76.874085374469
  20
 171.18594064254
  30
0.0
  11
 79.374085374469
  21
 172.18594064254
  31
0.0
   0
LINE
   5
318
 100
AcDbEntity
   8
LEVEL002
 370
30
 100
AcDbLine
   6
CONTINUOUS
  62
7
  10
 79.374085374469
  20
 172.18594064254
  30
0.0
  11
 79.374085374469
  21
 172.93594064254
  31
0.0
   0
LINE
   5
319
 100
AcDbEntity
   8
LEVEL002
 370
30
 100
AcDbLine
   6
CONTINUOUS
  62
7
  10
 79.624085374469
  20
 173.18594064254
  30
0.0
  11
 88.874085374469
  21
 173.18594064254
  31
0.0
   0
LINE
   5
31A
 100
AcDbEntity
   8
LEVEL002
 370
30
 100
AcDbLine
   6
CONTINUOUS
  62
7
  10
 88.874085374469
  20
 173.18594064254
  30
0.0
  11
 92.774085374469
  21
 170.93427459271
  31
0.0
   0
ARC
   5
31B
 100
AcDbEntity
   8
LEVEL002
 370
30
   6
CONTINUOUS
  62
7
 100
AcDbCircle
  10
 79.624085374468
  20
 172.93594064254
  30
0.0
  40
 0.25000000000000
 100
AcDbArc
  50
 89.999999999818
  51
 180.00000000000
   0
ARC
   5
31C
 100
AcDbEntity
   8
LEVEL002
 370
30
   6
CONTINUOUS
  62
7
 100
AcDbCircle
  10
 80.524085374469
  20
 170.58594064254
  30
0.0
  40
 0.40000000000000
 100
AcDbArc
  50
 180.00000000002
  51
 269.99999999993
   0
LINE
   5
31D
 100
AcDbEntity
   8
LEVEL002
 370
30
 100
AcDbLine
   6
CONTINUOUS
  62
7
  10
 80.524085374469
  20
 170.18594064254
  30
0.0
  11
 80.724085374469
  21
 170.18594064254
  31
0.0
   0
ARC
   5
31E
 100
AcDbEntity
   8
LEVEL002
 370
30
   6
CONTINUOUS
  62
7
 100
AcDbCircle
  10
 80.724085374469
  20
 170.58594064254
  30
0.0
  40
 0.40000000000000
 100
AcDbArc
  50
 269.99999999999
  51
 0.12213329976820E-10
   0
LINE
   5
31F
 100
AcDbEntity
   8
LEVEL002
 370
30
 100
AcDbLine
   6
CONTINUOUS
  62
7
  10
 81.124085374469
  20
 170.58594064254
  30
0.0
  11
 81.124085374469
  21
 172.18594064254
  31
0.0
   0
LINE
   5
320
 100
AcDbEntity
   8
LEVEL002
 370
30
 100
AcDbLine
   6
CONTINUOUS
  62
7
  10
 81.124085374469
  20
 172.18594064254
  30
0.0
  11
 83.824085374651
  21
 172.18594064254
  31
0.0
   0
LINE
   5
321
 100
AcDbEntity
   8
LEVEL002
 370
30
 100
AcDbLine
   6
CONTINUOUS
  62
7
  10
 83.824085374651
  20
 172.18594064254
  30
0.0
  11
 84.124085374767
  21
 172.48594064266
  31
0.0
   0
LINE
   5
322
 100
AcDbEntity
   8
LEVEL002
 370
30
 100
AcDbLine
   6
CONTINUOUS
  62
7
  10
 84.124085374767
  20
 172.48594064266
  30
0.0
  11
 84.424085374883
  21
 172.18594064254
  31
0.0
   0
LINE
   5
323
 100
AcDbEntity
   8
LEVEL002
 370
30
 100
AcDbLine
   6
CONTINUOUS
  62
7
  10
 84.424085374883
  20
 172.18594064254
  30
0.0
  11
 87.124085374469
  21
 172.18594064254
  31
0.0
   0
LINE
   5
324
 100
AcDbEntity
   8
LEVEL002
 370
30
 100
AcDbLine
   6
CONTINUOUS
  62
7
  10
 87.124085374469
  20
 172.18594064254
  30
0.0
  11
 87.124085374469
  21
 170.58594064254
  31
0.0
   0
ARC
   5
325
 100
AcDbEntity
   8
LEVEL002
 370
30
   6
CONTINUOUS
  62
7
 100
AcDbCircle
  10
 87.524085374470
  20
 170.58594064254
  30
0.0
  40
 0.40000000000000
 100
AcDbArc
  50
 180.00000000002
  51
 269.99999999991
   0
LINE
   5
326
 100
AcDbEntity
   8
LEVEL002
 370
30
 100
AcDbLine
   6
CONTINUOUS
  62
7
  10
 87.524085374469
  20
 170.18594064254
  30
0.0
  11
 87.724085374469
  21
 170.18594064254
  31
0.0
   0
LINE
   5
327
 100
AcDbEntity
   8
LEVEL002
 370
30
 100
AcDbLine
   6
CONTINUOUS
  62
7
  10
 88.124085374469
  20
 170.58594064254
  30
0.0
  11
 88.124085374469
  21
 172.18594064254
  31
0.0
   0
LINE
   5
328
 100
AcDbEntity
   8
LEVEL002
 370
30
 100
AcDbLine
   6
CONTINUOUS
  62
7
  10
 88.124085374469
  20
 172.18594064254
  30
0.0
  11
 88.606136181809
  21
 172.18594064254
  31
0.0
   0
LINE
   5
329
 100
AcDbEntity
   8
LEVEL002
 370
30
 100
AcDbLine
   6
CONTINUOUS
  62
7
  10
 88.606136181809
  20
 172.18594064254
  30
0.0
  11
 92.070237796946
  21
 170.18594064254
  31
0.0
   0
ARC
   5
32A
 100
AcDbEntity
   8
LEVEL002
 370
30
   6
CONTINUOUS
  62
7
 100
AcDbCircle
  10
 87.724085374469
  20
 170.58594064254
  30
0.0
  40
 0.40000000000000
 100
AcDbArc
  50
 269.99999999999
  51
0.0
   0
LINE
   5
32B
 100
AcDbEntity
   8
LEVEL002
 370
30
 100
AcDbLine
   6
CONTINUOUS
  62
7
  10
 46.624085374469
  20
 173.18594064254
  30
0.0
  11
 72.124085374468
  21
 173.18594064255
  31
0.0
   0
ARC
   5
32C
 100
AcDbEntity
   8
LEVEL002
 370
30
   6
CONTINUOUS
  62
7
 100
AcDbCircle
  10
 46.774085374470
  20
 170.58594064254
  30
0.0
  40
 0.40000000000000
 100
AcDbArc
  50
 180.00000000002
  51
 269.99999999988
   0
LINE
   5
32D
 100
AcDbEntity
   8
LEVEL002
 370
30
 100
AcDbLine
   6
CONTINUOUS
  62
7
  10
 46.774085374469
  20
 170.18594064254
  30
0.0
  11
 46.974085374469
  21
 170.18594064254
  31
0.0
   0
ARC
   5
32E
 100
AcDbEntity
   8
LEVEL002
 370
30
   6
CONTINUOUS
  62
7
 100
AcDbCircle
  10
 46.974085374469
  20
 170.58594064254
  30
0.0
  40
 0.40000000000000
 100
AcDbArc
  50
 269.99999999999
  51
 0.12213329976820E-10
   0
LINE
   5
32F
 100
AcDbEntity
   8
LEVEL002
 370
30
 100
AcDbLine
   6
CONTINUOUS
  62
7
  10
 47.374085374469
  20
 170.58594064254
  30
0.0
  11
 47.374085374469
  21
 172.18594064254
  31
0.0
   0
LINE
   5
330
 100
AcDbEntity
   8
LEVEL002
 370
30
 100
AcDbLine
   6
CONTINUOUS
  62
7
  10
 47.374085374469
  20
 172.18594064254
  30
0.0
  11
 58.874085374469
  21
 172.18594064254
  31
0.0
   0
LINE
   5
331
 100
AcDbEntity
   8
LEVEL002
 370
30
 100
AcDbLine
   6
CONTINUOUS
  62
7
  10
 58.874085374469
  20
 172.18594064254
  30
0.0
  11
 58.874085374469
  21
 170.58594064254
  31
0.0
   0
ARC
   5
332
 100
AcDbEntity
   8
LEVEL002
 370
30
   6
CONTINUOUS
  62
7
 100
AcDbCircle
  10
 59.274085374470
  20
 170.58594064254
  30
0.0
  40
 0.40000000000000
 100
AcDbArc
  50
 180.00000000002
  51
 269.99999999987
   0
LINE
   5
333
 100
AcDbEntity
   8
LEVEL002
 370
30
 100
AcDbLine
   6
CONTINUOUS
  62
7
  10
 59.274085374469
  20
 170.18594064254
  30
0.0
  11
 59.474085374469
  21
 170.18594064254
  31
0.0
   0
ARC
   5
334
 100
AcDbEntity
   8
LEVEL002
 370
30
   6
CONTINUOUS
  62
7
 100
AcDbCircle
  10
 59.474085374469
  20
 170.58594064254
  30
0.0
  40
 0.40000000000000
 100
AcDbArc
  50
 269.99999999999
  51
0.0
   0
LINE
   5
335
 100
AcDbEntity
   8
LEVEL002
 370
30
 100
AcDbLine
   6
CONTINUOUS
  62
7
  10
 38.624085374469
  20
 170.58594064254
  30
0.0
  11
 38.624085374469
  21
 171.40890768113
  31
0.0
   0
LINE
   5
336
 100
AcDbEntity
   8
LEVEL002
 370
30
 100
AcDbLine
   6
CONTINUOUS
  62
7
  10
 38.624085374469
  20
 171.40890768113
  30
0.0
  11
 41.681502970941
  21
 170.18594064254
  31
0.0
   0
LINE
   5
337
 100
AcDbEntity
   8
LEVEL002
 370
30
 100
AcDbLine
   6
CONTINUOUS
  62
7
  10
 41.681502970941
  20
 170.18594064254
  30
0.0
  11
 44.066667778041
  21
 170.18594064254
  31
0.0
   0
LINE
   5
338
 100
AcDbEntity
   8
LEVEL002
 370
30
 100
AcDbLine
   6
CONTINUOUS
  62
7
  10
 44.066667778041
  20
 170.18594064254
  30
0.0
  11
 46.374085374469
  21
 171.10890768111
  31
0.0
   0
LINE
   5
339
 100
AcDbEntity
   8
LEVEL002
 370
30
 100
AcDbLine
   6
CONTINUOUS
  62
7
  10
 46.374085374469
  20
 171.10890768111
  30
0.0
  11
 46.374085374469
  21
 170.58594064254
  31
0.0
   0
ARC
   5
33A
 100
AcDbEntity
   8
LEVEL002
 370
30
   6
CONTINUOUS
  62
7
 100
AcDbCircle
  10
 71.974085374468
  20
 170.58594064254
  30
0.0
  40
 0.40000000000000
 100
AcDbArc
  50
 270.00000000017
  51
0.0
   0
LINE
   5
33B
 100
AcDbEntity
   8
LEVEL002
 370
30
 100
AcDbLine
   6
CONTINUOUS
  62
7
  10
 71.974085374469
  20
 170.18594064254
  30
0.0
  11
 71.774085374469
  21
 170.18594064254
  31
0.0
   0
ARC
   5
33C
 100
AcDbEntity
   8
LEVEL002
 370
30
   6
CONTINUOUS
  62
7
 100
AcDbCircle
  10
 71.774085374469
  20
 170.58594064254
  30
0.0
  40
 0.40000000000000
 100
AcDbArc
  50
 179.99999999992
  51
 270.00000000000
   0
LINE
   5
33D
 100
AcDbEntity
   8
LEVEL002
 370
30
 100
AcDbLine
   6
CONTINUOUS
  62
7
  10
 71.374085374469
  20
 170.58594064254
  30
0.0
  11
 71.374085374469
  21
 172.18594064254
  31
0.0
   0
LINE
   5
33E
 100
AcDbEntity
   8
LEVEL002
 370
30
 100
AcDbLine
   6
CONTINUOUS
  62
7
  10
 71.374085374469
  20
 172.18594064254
  30
0.0
  11
 59.874085374469
  21
 172.18594064254
  31
0.0
   0
LINE
   5
33F
 100
AcDbEntity
   8
LEVEL002
 370
30
 100
AcDbLine
   6
CONTINUOUS
  62
7
  10
 59.874085374469
  20
 172.18594064254
  30
0.0
  11
 59.874085374469
  21
 170.58594064254
  31
0.0
   0
LINE
   5
340
 100
AcDbEntity
   8
LEVEL002
 370
30
 100
AcDbLine
   6
CONTINUOUS
  62
7
  10
 80.124085374469
  20
 170.58594064254
  30
0.0
  11
 80.124085374469
  21
 171.40890768113
  31
0.0
   0
LINE
   5
341
 100
AcDbEntity
   8
LEVEL002
 370
30
 100
AcDbLine
   6
CONTINUOUS
  62
7
  10
 80.124085374469
  20
 171.40890768113
  30
0.0
  11
 77.066667777997
  21
 170.18594064254
  31
0.0
   0
LINE
   5
342
 100
AcDbEntity
   8
LEVEL002
 370
30
 100
AcDbLine
   6
CONTINUOUS
  62
7
  10
 77.066667777997
  20
 170.18594064254
  30
0.0
  11
 74.681502970897
  21
 170.18594064254
  31
0.0
   0
LINE
   5
343
 100
AcDbEntity
   8
LEVEL002
 370
30
 100
AcDbLine
   6
CONTINUOUS
  62
7
  10
 74.681502970897
  20
 170.18594064254
  30
0.0
  11
 72.374085374469
  21
 171.10890768111
  31
0.0
   0
LINE
   5
344
 100
AcDbEntity
   8
LEVEL002
 370
30
 100
AcDbLine
   6
CONTINUOUS
  62
7
  10
 72.374085374469
  20
 171.10890768111
  30
0.0
  11
 72.374085374469
  21
 170.58594064254
  31
0.0
   0
LINE
   5
345
 100
AcDbEntity
   8
LEVEL002
 370
15
 100
AcDbLine
   6
DASHDOT
  62
8
  10
 34.624085374469
  20
 174.26758466203
  30
0.0
  11
 34.624085374469
  21
 170.70429662328
  31
0.0
   0
LINE
   5
346
 100
AcDbEntity
   8
LEVEL002
 370
15
 100
AcDbLine
   6
DASHDOT
  62
8
  10
 84.124085374469
  20
 174.26758466203
  30
0.0
  11
 84.124085374469
  21
 170.70429662328
  31
0.0
   0
LINE
   5
347
 100
AcDbEntity
   8
LEVEL002
 370
15
 100
AcDbLine
   6
DASHDOT
  62
8
  10
 59.374085374469
  20
 168.71863916418
  30
0.0
  11
 59.374085374469
  21
 175.93081021681
  31
0.0
   0
LINE
   5
348
 100
AcDbEntity
   8
LEVEL002
 370
15
 100
AcDbLine
   6
DASHDOT
  62
8
  10
 42.874085374469
  20
 167.88923949312
  30
0.0
  11
 42.874085374469
  21
 174.54246728918
  31
0.0
   0
LINE
   5
349
 100
AcDbEntity
   8
LEVEL002
 370
15
 100
AcDbLine
   6
DASHDOT
  62
8
  10
 75.874085374469
  20
 167.88923949312
  30
0.0
  11
 75.874085374469
  21
 174.54246728918
  31
0.0
   0
LINE
   5
34A
 100
AcDbEntity
   8
LEVEL002
 370
15
 100
AcDbLine
   6
DASHDOT
  62
8
  10
 34.624085374469
  20
 174.26758466203
  30
0.0
  11
 34.624085374469
  21
 170.70429662328
  31
0.0
   0
LINE
   5
34B
 100
AcDbEntity
   8
LEVEL002
 370
15
 100
AcDbLine
   6
DASHDOT
  62
8
  10
 84.124085374469
  20
 174.26758466203
  30
0.0
  11
 84.124085374469
  21
 170.70429662328
  31
0.0
   0
LINE
   5
34C
 100
AcDbEntity
   8
LEVEL002
 370
15
 100
AcDbLine
   6
DASHDOT
  62
8
  10
 42.874085374469
  20
 167.88923949312
  30
0.0
  11
 42.874085374469
  21
 174.54246728918
  31
0.0
   0
LINE
   5
34D
 100
AcDbEntity
   8
LEVEL002
 370
15
 100
AcDbLine
   6
DASHDOT
  62
8
  10
 75.874085374469
  20
 167.88923949312
  30
0.0
  11
 75.874085374469
  21
 174.54246728918
  31
0.0
   0
LINE
   5
34E
 100
AcDbEntity
   8
LEVEL002
 370
15
 100
AcDbLine
   6
DASHDOT
  62
8
  10
 59.374085374469
  20
 167.88923949312
  30
0.0
  11
 59.374085374469
  21
 175.93081021681
  31
0.0
   0
DIMENSION
   5
34F
 100
AcDbEntity
   8
LEVEL001
 370
15
   6
CONTINUOUS
  62
8
 100
AcDbDimension
   2
*D8
  10
 197.29399384157
  20
 173.18594064254
  30
0.0
  11
 197.29399384157
  21
 175.10835095504
  31
0.0
  70
128
   3
GMM003
 100
AcDbAlignedDimension
  13
 192.09399384157
  23
 170.18594064254
  33
0.0
  14
 188.29399384157
  24
 173.18594064254
  34
0.0
  50
 90.000000000000
 100
AcDbRotatedDimension
   0
DIMENSION
   5
350
 100
AcDbEntity
   8
LEVEL001
 370
15
   6
CONTINUOUS
  62
8
 100
AcDbDimension
   2
*D9
  10
 175.29399384129
  20
 183.18594064254
  30
0.0
  11
 157.29399384129
  21
 183.18594064254
  31
0.0
  70
0
   3
GMM001
 100
AcDbAlignedDimension
  13
 139.29399384129
  23
 176.09045393029
  33
0.0
  14
 175.29399384129
  24
 176.09045393029
  34
0.0
 100
AcDbRotatedDimension
   0
DIMENSION
   5
351
 100
AcDbEntity
   8
LEVEL001
 370
15
   6
CONTINUOUS
  62
8
 100
AcDbDimension
   2
*D10
  10
 142.79399384129
  20
 178.18594064254
  30
0.0
  11
 134.14355283887
  21
 178.18594064254
  31
0.0
  70
128
   3
GMM005
 100
AcDbAlignedDimension
  13
 135.79399384129
  23
 172.93594064254
  33
0.0
  14
 142.79399384129
  24
 172.93594064254
  34
0.0
 100
AcDbRotatedDimension
   0
DIMENSION
   5
352
 100
AcDbEntity
   8
LEVEL001
 370
15
   6
CONTINUOUS
  62
8
 100
AcDbDimension
   2
*D11
  10
 192.29399384129
  20
 188.18594064254
  30
0.0
  11
 157.29399384129
  21
 188.18594064254
  31
0.0
  70
0
   3
GMM001
 100
AcDbAlignedDimension
  13
 122.29399384129
  23
 170.76106951193
  33
0.0
  14
 192.29399384129
  24
 170.76106951197
  34
0.0
 100
AcDbRotatedDimension
   0
ARC
   5
353
 100
AcDbEntity
   8
LEVEL002
 370
30
   6
CONTINUOUS
  62
7
 100
AcDbCircle
  10
 122.49399384129
  20
 170.76106951192
  30
0.0
  40
 0.20000000000000
 100
AcDbArc
  50
 119.99999999928
  51
 179.99999999965
   0
LINE
   5
354
 100
AcDbEntity
   8
LEVEL002
 370
30
 100
AcDbLine
   6
CONTINUOUS
  62
7
  10
 123.09784141850
  20
 170.18594064254
  30
0.0
  11
 122.49399384129
  21
 170.18594064254
  31
0.0
   0
LINE
   5
355
 100
AcDbEntity
   8
LEVEL002
 370
30
 100
AcDbLine
   6
CONTINUOUS
  62
7
  10
 122.29399384129
  20
 170.38594064254
  30
0.0
  11
 122.29399384129
  21
 170.76106951193
  31
0.0
   0
ARC
   5
356
 100
AcDbEntity
   8
LEVEL002
 370
30
   6
CONTINUOUS
  62
7
 100
AcDbCircle
  10
 122.49399384129
  20
 170.38594064254
  30
0.0
  40
 0.20000000000000
 100
AcDbArc
  50
 179.99999999997
  51
 270.00000000001
   0
ARC
   5
357
 100
AcDbEntity
   8
LEVEL002
 370
30
   6
CONTINUOUS
  62
7
 100
AcDbCircle
  10
 192.09399384129
  20
 170.76106951197
  30
0.0
  40
 0.20000000000000
 100
AcDbArc
  50
 0.81422199845471E-11
  51
 59.999999999974
   0
LINE
   5
358
 100
AcDbEntity
   8
LEVEL002
 370
30
 100
AcDbLine
   6
CONTINUOUS
  62
7
  10
 192.29399384129
  20
 170.76106951197
  30
0.0
  11
 192.29399384129
  21
 170.38594064254
  31
0.0
   0
LINE
   5
359
 100
AcDbEntity
   8
LEVEL002
 370
30
 100
AcDbLine
   6
CONTINUOUS
  62
7
  10
 192.09399384129
  20
 170.18594064254
  30
0.0
  11
 191.49014626404
  21
 170.18594064254
  31
0.0
   0
ARC
   5
35A
 100
AcDbEntity
   8
LEVEL002
 370
30
   6
CONTINUOUS
  62
7
 100
AcDbCircle
  10
 192.09399384129
  20
 170.38594064254
  30
0.0
  40
 0.20000000000000
 100
AcDbArc
  50
 270.00000000008
  51
0.0
   0
LINE
   5
35B
 100
AcDbEntity
   8
LEVEL002
 370
30
 100
AcDbLine
   6
CONTINUOUS
  62
7
  10
 138.10141143772
  20
 170.18594064254
  30
0.0
  11
 140.48657624486
  21
 170.18594064254
  31
0.0
   0
LINE
   5
35C
 100
AcDbEntity
   8
LEVEL002
 370
30
 100
AcDbLine
   6
CONTINUOUS
  62
7
  10
 122.39399384129
  20
 170.93427459268
  30
0.0
  11
 126.29399384129
  21
 173.18594064252
  31
0.0
   0
LINE
   5
35D
 100
AcDbEntity
   8
LEVEL002
 370
30
 100
AcDbLine
   6
CONTINUOUS
  62
7
  10
 126.29399384129
  20
 173.18594064252
  30
0.0
  11
 135.54399384129
  21
 173.18594064254
  31
0.0
   0
ARC
   5
35E
 100
AcDbEntity
   8
LEVEL002
 370
30
   6
CONTINUOUS
  62
7
 100
AcDbCircle
  10
 135.54399384129
  20
 172.93594064254
  30
0.0
  40
 0.25000000000000
 100
AcDbArc
  50
0.0
  51
 90.000000000104
   0
ARC
   5
35F
 100
AcDbEntity
   8
LEVEL002
 370
30
   6
CONTINUOUS
  62
7
 100
AcDbCircle
  10
 143.04399384129
  20
 172.93594064254
  30
0.0
  40
 0.25000000000000
 100
AcDbArc
  50
 90.000000000000
  51
 179.99999999979
   0
LINE
   5
360
 100
AcDbEntity
   8
LEVEL002
 370
30
 100
AcDbLine
   6
CONTINUOUS
  62
7
  10
 135.79399384129
  20
 172.93594064254
  30
0.0
  11
 135.79399384129
  21
 172.18594064254
  31
0.0
   0
LINE
   5
361
 100
AcDbEntity
   8
LEVEL002
 370
30
 100
AcDbLine
   6
CONTINUOUS
  62
7
  10
 135.79399384129
  20
 172.18594064254
  30
0.0
  11
 138.29399384129
  21
 171.18594064254
  31
0.0
   0
LINE
   5
362
 100
AcDbEntity
   8
LEVEL002
 370
30
 100
AcDbLine
   6
CONTINUOUS
  62
7
  10
 138.29399384129
  20
 171.18594064254
  30
0.0
  11
 140.29399384129
  21
 171.18594064254
  31
0.0
   0
LINE
   5
363
 100
AcDbEntity
   8
LEVEL002
 370
30
 100
AcDbLine
   6
CONTINUOUS
  62
7
  10
 140.29399384129
  20
 171.18594064254
  30
0.0
  11
 142.79399384129
  21
 172.18594064254
  31
0.0
   0
LINE
   5
364
 100
AcDbEntity
   8
LEVEL002
 370
30
 100
AcDbLine
   6
CONTINUOUS
  62
7
  10
 142.79399384129
  20
 172.18594064254
  30
0.0
  11
 142.79399384129
  21
 172.93594064254
  31
0.0
   0
LINE
   5
365
 100
AcDbEntity
   8
LEVEL002
 370
30
 100
AcDbLine
   6
CONTINUOUS
  62
7
  10
 178.79399384129
  20
 172.93594064254
  30
0.0
  11
 178.79399384129
  21
 172.18594064254
  31
0.0
   0
LINE
   5
366
 100
AcDbEntity
   8
LEVEL002
 370
30
 100
AcDbLine
   6
CONTINUOUS
  62
7
  10
 178.79399384129
  20
 172.18594064254
  30
0.0
  11
 176.29399384129
  21
 171.18594064254
  31
0.0
   0
LINE
   5
367
 100
AcDbEntity
   8
LEVEL002
 370
30
 100
AcDbLine
   6
CONTINUOUS
  62
7
  10
 176.29399384129
  20
 171.18594064254
  30
0.0
  11
 174.29399384129
  21
 171.18594064254
  31
0.0
   0
LINE
   5
368
 100
AcDbEntity
   8
LEVEL002
 370
30
 100
AcDbLine
   6
CONTINUOUS
  62
7
  10
 174.29399384129
  20
 171.18594064254
  30
0.0
  11
 171.79399384129
  21
 172.18594064254
  31
0.0
   0
LINE
   5
369
 100
AcDbEntity
   8
LEVEL002
 370
30
 100
AcDbLine
   6
CONTINUOUS
  62
7
  10
 171.79399384129
  20
 172.18594064254
  30
0.0
  11
 171.79399384129
  21
 172.93594064254
  31
0.0
   0
ARC
   5
36A
 100
AcDbEntity
   8
LEVEL002
 370
30
   6
CONTINUOUS
  62
7
 100
AcDbCircle
  10
 171.54399384129
  20
 172.93594064254
  30
0.0
  40
 0.25000000000000
 100
AcDbArc
  50
0.0
  51
 90.000000000000
   0
LINE
   5
36B
 100
AcDbEntity
   8
LEVEL002
 370
30
 100
AcDbLine
   6
CONTINUOUS
  62
7
  10
 176.48657624486
  20
 170.18594064254
  30
0.0
  11
 174.10141143772
  21
 170.18594064254
  31
0.0
   0
ARC
   5
36C
 100
AcDbEntity
   8
LEVEL002
 370
30
   6
CONTINUOUS
  62
7
 100
AcDbCircle
  10
 179.04399384129
  20
 172.93594064254
  30
0.0
  40
 0.25000000000000
 100
AcDbArc
  50
 89.999999999870
  51
 180.00000000053
   0
LINE
   5
36D
 100
AcDbEntity
   8
LEVEL002
 370
30
 100
AcDbLine
   6
CONTINUOUS
  62
7
  10
 143.04399384129
  20
 173.18594064254
  30
0.0
  11
 171.54399384129
  21
 173.18594064255
  31
0.0
   0
LINE
   5
36E
 100
AcDbEntity
   8
LEVEL002
 370
30
 100
AcDbLine
   6
CONTINUOUS
  62
7
  10
 179.04399384129
  20
 173.18594064254
  30
0.0
  11
 188.29399384129
  21
 173.18594064257
  31
0.0
   0
LINE
   5
36F
 100
AcDbEntity
   8
LEVEL002
 370
30
 100
AcDbLine
   6
CONTINUOUS
  62
7
  10
 188.29399384129
  20
 173.18594064257
  30
0.0
  11
 192.19399384129
  21
 170.93427459273
  31
0.0
   0
ARC
   5
370
 100
AcDbEntity
   8
LEVEL002
 370
30
   6
CONTINUOUS
  62
7
 100
AcDbCircle
  10
 157.19399384129
  20
 170.58594064254
  30
0.0
  40
 0.40000000000000
 100
AcDbArc
  50
 179.99999999999
  51
 270.00000000001
   0
LINE
   5
371
 100
AcDbEntity
   8
LEVEL002
 370
30
 100
AcDbLine
   6
CONTINUOUS
  62
7
  10
 157.39399384129
  20
 170.18594064254
  30
0.0
  11
 157.19399384129
  21
 170.18594064254
  31
0.0
   0
ARC
   5
372
 100
AcDbEntity
   8
LEVEL002
 370
30
   6
CONTINUOUS
  62
7
 100
AcDbCircle
  10
 157.39399384129
  20
 170.58594064254
  30
0.0
  40
 0.40000000000000
 100
AcDbArc
  50
 270.00000000005
  51
0.0
   0
ARC
   5
373
 100
AcDbEntity
   8
LEVEL002
 370
30
   6
CONTINUOUS
  62
7
 100
AcDbCircle
  10
 134.44399384129
  20
 170.58594064254
  30
0.0
  40
 0.40000000000000
 100
AcDbArc
  50
 180.00000000000
  51
 270.00000000006
   0
LINE
   5
374
 100
AcDbEntity
   8
LEVEL002
 370
30
 100
AcDbLine
   6
CONTINUOUS
  62
7
  10
 134.44399384129
  20
 170.18594064254
  30
0.0
  11
 134.64399384129
  21
 170.18594064254
  31
0.0
   0
ARC
   5
375
 100
AcDbEntity
   8
LEVEL002
 370
30
   6
CONTINUOUS
  62
7
 100
AcDbCircle
  10
 134.64399384129
  20
 170.58594064254
  30
0.0
  40
 0.40000000000000
 100
AcDbArc
  50
 270.00000000000
  51
 0.40711099922732E-11
   0
LINE
   5
376
 100
AcDbEntity
   8
LEVEL002
 370
30
 100
AcDbLine
   6
CONTINUOUS
  62
7
  10
 134.04399384129
  20
 170.58594064254
  30
0.0
  11
 134.04399384129
  21
 172.18594064254
  31
0.0
   0
ARC
   5
377
 100
AcDbEntity
   8
LEVEL002
 370
30
   6
CONTINUOUS
  62
7
 100
AcDbCircle
  10
 127.44399384129
  20
 170.58594064254
  30
0.0
  40
 0.40000000000000
 100
AcDbArc
  50
 180.00000000000
  51
 269.99999999996
   0
LINE
   5
378
 100
AcDbEntity
   8
LEVEL002
 370
30
 100
AcDbLine
   6
CONTINUOUS
  62
7
  10
 127.44399384129
  20
 170.18594064254
  30
0.0
  11
 127.64399384129
  21
 170.18594064254
  31
0.0
   0
ARC
   5
379
 100
AcDbEntity
   8
LEVEL002
 370
30
   6
CONTINUOUS
  62
7
 100
AcDbCircle
  10
 127.64399384129
  20
 170.58594064254
  30
0.0
  40
 0.40000000000000
 100
AcDbArc
  50
 270.00000000000
  51
0.0
   0
LINE
   5
37A
 100
AcDbEntity
   8
LEVEL002
 370
30
 100
AcDbLine
   6
CONTINUOUS
  62
7
  10
 127.04399384129
  20
 170.58594064254
  30
0.0
  11
 127.04399384129
  21
 172.18594064254
  31
0.0
   0
LINE
   5
37B
 100
AcDbEntity
   8
LEVEL002
 370
30
 100
AcDbLine
   6
CONTINUOUS
  62
7
  10
 128.04399384129
  20
 170.58594064254
  30
0.0
  11
 128.04399384129
  21
 172.18594064254
  31
0.0
   0
LINE
   5
37C
 100
AcDbEntity
   8
LEVEL002
 370
30
 100
AcDbLine
   6
CONTINUOUS
  62
7
  10
 128.04399384129
  20
 172.18594064254
  30
0.0
  11
 130.74399384129
  21
 172.18594064254
  31
0.0
   0
LINE
   5
37D
 100
AcDbEntity
   8
LEVEL002
 370
30
 100
AcDbLine
   6
CONTINUOUS
  62
7
  10
 130.74399384129
  20
 172.18594064254
  30
0.0
  11
 131.04399384129
  21
 172.48594064254
  31
0.0
   0
LINE
   5
37E
 100
AcDbEntity
   8
LEVEL002
 370
30
 100
AcDbLine
   6
CONTINUOUS
  62
7
  10
 131.04399384129
  20
 172.48594064254
  30
0.0
  11
 131.34399384129
  21
 172.18594064254
  31
0.0
   0
LINE
   5
37F
 100
AcDbEntity
   8
LEVEL002
 370
30
 100
AcDbLine
   6
CONTINUOUS
  62
7
  10
 131.34399384129
  20
 172.18594064254
  30
0.0
  11
 134.04399384129
  21
 172.18594064254
  31
0.0
   0
LINE
   5
380
 100
AcDbEntity
   8
LEVEL002
 370
30
 100
AcDbLine
   6
CONTINUOUS
  62
7
  10
 123.09784141853
  20
 170.18594064254
  30
0.0
  11
 126.56194303367
  21
 172.18594064254
  31
0.0
   0
LINE
   5
381
 100
AcDbEntity
   8
LEVEL002
 370
30
 100
AcDbLine
   6
CONTINUOUS
  62
7
  10
 126.56194303367
  20
 172.18594064254
  30
0.0
  11
 127.04399384129
  21
 172.18594064254
  31
0.0
   0
LINE
   5
382
 100
AcDbEntity
   8
LEVEL002
 370
30
 100
AcDbLine
   6
CONTINUOUS
  62
7
  10
 135.04399384129
  20
 170.58594064254
  30
0.0
  11
 135.04399384129
  21
 171.40890768112
  31
0.0
   0
LINE
   5
383
 100
AcDbEntity
   8
LEVEL002
 370
30
 100
AcDbLine
   6
CONTINUOUS
  62
7
  10
 135.04399384129
  20
 171.40890768112
  30
0.0
  11
 138.10141143772
  21
 170.18594064254
  31
0.0
   0
ARC
   5
384
 100
AcDbEntity
   8
LEVEL002
 370
30
   6
CONTINUOUS
  62
7
 100
AcDbCircle
  10
 143.94399384129
  20
 170.58594064254
  30
0.0
  40
 0.40000000000000
 100
AcDbArc
  50
 180.00000000000
  51
 270.00000000001
   0
LINE
   5
385
 100
AcDbEntity
   8
LEVEL002
 370
30
 100
AcDbLine
   6
CONTINUOUS
  62
7
  10
 143.94399384129
  20
 170.18594064254
  30
0.0
  11
 144.14399384129
  21
 170.18594064254
  31
0.0
   0
ARC
   5
386
 100
AcDbEntity
   8
LEVEL002
 370
30
   6
CONTINUOUS
  62
7
 100
AcDbCircle
  10
 144.14399384129
  20
 170.58594064254
  30
0.0
  40
 0.40000000000000
 100
AcDbArc
  50
 270.00000000000
  51
 0.40711099922732E-11
   0
LINE
   5
387
 100
AcDbEntity
   8
LEVEL002
 370
30
 100
AcDbLine
   6
CONTINUOUS
  62
7
  10
 144.54399384129
  20
 170.58594064254
  30
0.0
  11
 144.54399384129
  21
 171.68594064254
  31
0.0
   0
ARC
   5
388
 100
AcDbEntity
   8
LEVEL002
 370
30
   6
CONTINUOUS
  62
7
 100
AcDbCircle
  10
 145.04399384129
  20
 171.68594064254
  30
0.0
  40
 0.50000000000000
 100
AcDbArc
  50
 90.000000000000
  51
 180.00000000000
   0
LINE
   5
389
 100
AcDbEntity
   8
LEVEL002
 370
30
 100
AcDbLine
   6
CONTINUOUS
  62
7
  10
 156.79399384129
  20
 170.58594064254
  30
0.0
  11
 156.79399384129
  21
 172.18594064254
  31
0.0
   0
LINE
   5
38A
 100
AcDbEntity
   8
LEVEL002
 370
30
 100
AcDbLine
   6
CONTINUOUS
  62
7
  10
 156.79399384129
  20
 172.18594064254
  30
0.0
  11
 145.04399384129
  21
 172.18594064254
  31
0.0
   0
LINE
   5
38B
 100
AcDbEntity
   8
LEVEL002
 370
30
 100
AcDbLine
   6
CONTINUOUS
  62
7
  10
 140.48657624486
  20
 170.18594064254
  30
0.0
  11
 143.54399384129
  21
 171.40890768112
  31
0.0
   0
LINE
   5
38C
 100
AcDbEntity
   8
LEVEL002
 370
30
 100
AcDbLine
   6
CONTINUOUS
  62
7
  10
 143.54399384129
  20
 171.40890768112
  30
0.0
  11
 143.54399384129
  21
 170.58594064254
  31
0.0
   0
ARC
   5
38D
 100
AcDbEntity
   8
LEVEL002
 370
30
   6
CONTINUOUS
  62
7
 100
AcDbCircle
  10
 170.64399384129
  20
 170.58594064254
  30
0.0
  40
 0.40000000000000
 100
AcDbArc
  50
 270.00000000004
  51
0.0
   0
LINE
   5
38E
 100
AcDbEntity
   8
LEVEL002
 370
30
 100
AcDbLine
   6
CONTINUOUS
  62
7
  10
 170.64399384129
  20
 170.18594064254
  30
0.0
  11
 170.44399384129
  21
 170.18594064254
  31
0.0
   0
ARC
   5
38F
 100
AcDbEntity
   8
LEVEL002
 370
30
   6
CONTINUOUS
  62
7
 100
AcDbCircle
  10
 170.44399384129
  20
 170.58594064254
  30
0.0
  40
 0.40000000000000
 100
AcDbArc
  50
 179.99999999996
  51
 270.00000000001
   0
LINE
   5
390
 100
AcDbEntity
   8
LEVEL002
 370
30
 100
AcDbLine
   6
CONTINUOUS
  62
7
  10
 170.04399384129
  20
 170.58594064254
  30
0.0
  11
 170.04399384129
  21
 171.68594064254
  31
0.0
   0
ARC
   5
391
 100
AcDbEntity
   8
LEVEL002
 370
30
   6
CONTINUOUS
  62
7
 100
AcDbCircle
  10
 169.54399384129
  20
 171.68594064254
  30
0.0
  40
 0.50000000000000
 100
AcDbArc
  50
0.0
  51
 89.999999999961
   0
ARC
   5
392
 100
AcDbEntity
   8
LEVEL002
 370
30
   6
CONTINUOUS
  62
7
 100
AcDbCircle
  10
 180.14399384129
  20
 170.58594064254
  30
0.0
  40
 0.40000000000000
 100
AcDbArc
  50
 270.00000000012
  51
0.0
   0
LINE
   5
393
 100
AcDbEntity
   8
LEVEL002
 370
30
 100
AcDbLine
   6
CONTINUOUS
  62
7
  10
 180.14399384129
  20
 170.18594064254
  30
0.0
  11
 179.94399384129
  21
 170.18594064254
  31
0.0
   0
ARC
   5
394
 100
AcDbEntity
   8
LEVEL002
 370
30
   6
CONTINUOUS
  62
7
 100
AcDbCircle
  10
 179.94399384129
  20
 170.58594064254
  30
0.0
  40
 0.40000000000000
 100
AcDbArc
  50
 180.00000000006
  51
 270.00000000001
   0
LINE
   5
395
 100
AcDbEntity
   8
LEVEL002
 370
30
 100
AcDbLine
   6
CONTINUOUS
  62
7
  10
 180.54399384129
  20
 170.58594064254
  30
0.0
  11
 180.54399384129
  21
 172.18594064254
  31
0.0
   0
LINE
   5
396
 100
AcDbEntity
   8
LEVEL002
 370
30
 100
AcDbLine
   6
CONTINUOUS
  62
7
  10
 183.24399384129
  20
 172.18594064254
  30
0.0
  11
 180.54399384129
  21
 172.18594064254
  31
0.0
   0
LINE
   5
397
 100
AcDbEntity
   8
LEVEL002
 370
30
 100
AcDbLine
   6
CONTINUOUS
  62
7
  10
 183.24399384129
  20
 172.18594064254
  30
0.0
  11
 183.54399384129
  21
 172.48594064254
  31
0.0
   0
LINE
   5
398
 100
AcDbEntity
   8
LEVEL002
 370
30
 100
AcDbLine
   6
CONTINUOUS
  62
7
  10
 183.54399384129
  20
 172.48594064254
  30
0.0
  11
 183.84399384129
  21
 172.18594064254
  31
0.0
   0
LINE
   5
399
 100
AcDbEntity
   8
LEVEL002
 370
30
 100
AcDbLine
   6
CONTINUOUS
  62
7
  10
 186.54399384129
  20
 170.58594064254
  30
0.0
  11
 186.54399384129
  21
 172.18594064254
  31
0.0
   0
LINE
   5
39A
 100
AcDbEntity
   8
LEVEL002
 370
30
 100
AcDbLine
   6
CONTINUOUS
  62
7
  10
 186.54399384129
  20
 172.18594064254
  30
0.0
  11
 183.84399384129
  21
 172.18594064254
  31
0.0
   0
ARC
   5
39B
 100
AcDbEntity
   8
LEVEL002
 370
30
   6
CONTINUOUS
  62
7
 100
AcDbCircle
  10
 187.14399384129
  20
 170.58594064254
  30
0.0
  40
 0.40000000000000
 100
AcDbArc
  50
 270.00000000007
  51
0.0
   0
LINE
   5
39C
 100
AcDbEntity
   8
LEVEL002
 370
30
 100
AcDbLine
   6
CONTINUOUS
  62
7
  10
 187.14399384129
  20
 170.18594064254
  30
0.0
  11
 186.94399384129
  21
 170.18594064254
  31
0.0
   0
ARC
   5
39D
 100
AcDbEntity
   8
LEVEL002
 370
30
   6
CONTINUOUS
  62
7
 100
AcDbCircle
  10
 186.94399384129
  20
 170.58594064254
  30
0.0
  40
 0.40000000000000
 100
AcDbArc
  50
 180.00000000001
  51
 270.00000000001
   0
LINE
   5
39E
 100
AcDbEntity
   8
LEVEL002
 370
30
 100
AcDbLine
   6
CONTINUOUS
  62
7
  10
 187.54399384129
  20
 170.58594064254
  30
0.0
  11
 187.54399384129
  21
 172.18594064254
  31
0.0
   0
LINE
   5
39F
 100
AcDbEntity
   8
LEVEL002
 370
30
 100
AcDbLine
   6
CONTINUOUS
  62
7
  10
 191.49014626404
  20
 170.18594064254
  30
0.0
  11
 188.02604464891
  21
 172.18594064254
  31
0.0
   0
LINE
   5
3A0
 100
AcDbEntity
   8
LEVEL002
 370
30
 100
AcDbLine
   6
CONTINUOUS
  62
7
  10
 188.02604464891
  20
 172.18594064254
  30
0.0
  11
 187.54399384129
  21
 172.18594064254
  31
0.0
   0
LINE
   5
3A1
 100
AcDbEntity
   8
LEVEL002
 370
30
 100
AcDbLine
   6
CONTINUOUS
  62
7
  10
 169.54399384129
  20
 172.18594064254
  30
0.0
  11
 157.79399384129
  21
 172.18594064254
  31
0.0
   0
LINE
   5
3A2
 100
AcDbEntity
   8
LEVEL002
 370
30
 100
AcDbLine
   6
CONTINUOUS
  62
7
  10
 157.79399384129
  20
 172.18594064254
  30
0.0
  11
 157.79399384129
  21
 170.58594064254
  31
0.0
   0
LINE
   5
3A3
 100
AcDbEntity
   8
LEVEL002
 370
30
 100
AcDbLine
   6
CONTINUOUS
  62
7
  10
 179.54399384129
  20
 170.58594064254
  30
0.0
  11
 179.54399384129
  21
 171.40890768112
  31
0.0
   0
LINE
   5
3A4
 100
AcDbEntity
   8
LEVEL002
 370
30
 100
AcDbLine
   6
CONTINUOUS
  62
7
  10
 179.54399384129
  20
 171.40890768112
  30
0.0
  11
 176.48657624486
  21
 170.18594064254
  31
0.0
   0
LINE
   5
3A5
 100
AcDbEntity
   8
LEVEL002
 370
30
 100
AcDbLine
   6
CONTINUOUS
  62
7
  10
 174.10141143772
  20
 170.18594064254
  30
0.0
  11
 171.04399384129
  21
 171.40890768112
  31
0.0
   0
LINE
   5
3A6
 100
AcDbEntity
   8
LEVEL002
 370
30
 100
AcDbLine
   6
CONTINUOUS
  62
7
  10
 171.04399384129
  20
 171.40890768112
  30
0.0
  11
 171.04399384129
  21
 170.58594064254
  31
0.0
   0
ARC
   5
3A7
 100
AcDbEntity
   8
LEVEL002
 370
30
   6
CONTINUOUS
  62
7
 100
AcDbCircle
  10
 122.49399384129
  20
 170.76106951192
  30
0.0
  40
 0.20000000000000
 100
AcDbArc
  50
 119.99999999928
  51
 179.99999999965
   0
LINE
   5
3A8
 100
AcDbEntity
   8
LEVEL002
 370
30
 100
AcDbLine
   6
CONTINUOUS
  62
7
  10
 123.09784141850
  20
 170.18594064254
  30
0.0
  11
 122.49399384129
  21
 170.18594064254
  31
0.0
   0
LINE
   5
3A9
 100
AcDbEntity
   8
LEVEL002
 370
30
 100
AcDbLine
   6
CONTINUOUS
  62
7
  10
 122.29399384129
  20
 170.38594064254
  30
0.0
  11
 122.29399384129
  21
 170.76106951193
  31
0.0
   0
ARC
   5
3AA
 100
AcDbEntity
   8
LEVEL002
 370
30
   6
CONTINUOUS
  62
7
 100
AcDbCircle
  10
 122.49399384129
  20
 170.38594064254
  30
0.0
  40
 0.20000000000000
 100
AcDbArc
  50
 179.99999999997
  51
 270.00000000001
   0
ARC
   5
3AB
 100
AcDbEntity
   8
LEVEL002
 370
30
   6
CONTINUOUS
  62
7
 100
AcDbCircle
  10
 192.09399384129
  20
 170.76106951197
  30
0.0
  40
 0.20000000000000
 100
AcDbArc
  50
 0.81422199845471E-11
  51
 59.999999999974
   0
LINE
   5
3AC
 100
AcDbEntity
   8
LEVEL002
 370
30
 100
AcDbLine
   6
CONTINUOUS
  62
7
  10
 192.29399384129
  20
 170.76106951197
  30
0.0
  11
 192.29399384129
  21
 170.38594064254
  31
0.0
   0
LINE
   5
3AD
 100
AcDbEntity
   8
LEVEL002
 370
30
 100
AcDbLine
   6
CONTINUOUS
  62
7
  10
 192.09399384129
  20
 170.18594064254
  30
0.0
  11
 191.49014626404
  21
 170.18594064254
  31
0.0
   0
ARC
   5
3AE
 100
AcDbEntity
   8
LEVEL002
 370
30
   6
CONTINUOUS
  62
7
 100
AcDbCircle
  10
 192.09399384129
  20
 170.38594064254
  30
0.0
  40
 0.20000000000000
 100
AcDbArc
  50
 270.00000000008
  51
0.0
   0
LINE
   5
3AF
 100
AcDbEntity
   8
LEVEL002
 370
30
 100
AcDbLine
   6
CONTINUOUS
  62
7
  10
 138.10141143772
  20
 170.18594064254
  30
0.0
  11
 140.48657624486
  21
 170.18594064254
  31
0.0
   0
LINE
   5
3B0
 100
AcDbEntity
   8
LEVEL002
 370
30
 100
AcDbLine
   6
CONTINUOUS
  62
7
  10
 122.39399384129
  20
 170.93427459268
  30
0.0
  11
 126.29399384129
  21
 173.18594064252
  31
0.0
   0
LINE
   5
3B1
 100
AcDbEntity
   8
LEVEL002
 370
30
 100
AcDbLine
   6
CONTINUOUS
  62
7
  10
 126.29399384129
  20
 173.18594064252
  30
0.0
  11
 135.54399384129
  21
 173.18594064254
  31
0.0
   0
ARC
   5
3B2
 100
AcDbEntity
   8
LEVEL002
 370
30
   6
CONTINUOUS
  62
7
 100
AcDbCircle
  10
 135.54399384129
  20
 172.93594064254
  30
0.0
  40
 0.25000000000000
 100
AcDbArc
  50
0.0
  51
 90.000000000104
   0
ARC
   5
3B3
 100
AcDbEntity
   8
LEVEL002
 370
30
   6
CONTINUOUS
  62
7
 100
AcDbCircle
  10
 143.04399384129
  20
 172.93594064254
  30
0.0
  40
 0.25000000000000
 100
AcDbArc
  50
 90.000000000000
  51
 179.99999999979
   0
LINE
   5
3B4
 100
AcDbEntity
   8
LEVEL002
 370
30
 100
AcDbLine
   6
CONTINUOUS
  62
7
  10
 135.79399384129
  20
 172.93594064254
  30
0.0
  11
 135.79399384129
  21
 172.18594064254
  31
0.0
   0
LINE
   5
3B5
 100
AcDbEntity
   8
LEVEL002
 370
30
 100
AcDbLine
   6
CONTINUOUS
  62
7
  10
 135.79399384129
  20
 172.18594064254
  30
0.0
  11
 138.29399384129
  21
 171.18594064254
  31
0.0
   0
LINE
   5
3B6
 100
AcDbEntity
   8
LEVEL002
 370
30
 100
AcDbLine
   6
CONTINUOUS
  62
7
  10
 138.29399384129
  20
 171.18594064254
  30
0.0
  11
 140.29399384129
  21
 171.18594064254
  31
0.0
   0
LINE
   5
3B7
 100
AcDbEntity
   8
LEVEL002
 370
30
 100
AcDbLine
   6
CONTINUOUS
  62
7
  10
 140.29399384129
  20
 171.18594064254
  30
0.0
  11
 142.79399384129
  21
 172.18594064254
  31
0.0
   0
LINE
   5
3B8
 100
AcDbEntity
   8
LEVEL002
 370
30
 100
AcDbLine
   6
CONTINUOUS
  62
7
  10
 142.79399384129
  20
 172.18594064254
  30
0.0
  11
 142.79399384129
  21
 172.93594064254
  31
0.0
   0
LINE
   5
3B9
 100
AcDbEntity
   8
LEVEL002
 370
30
 100
AcDbLine
   6
CONTINUOUS
  62
7
  10
 178.79399384129
  20
 172.93594064254
  30
0.0
  11
 178.79399384129
  21
 172.18594064254
  31
0.0
   0
LINE
   5
3BA
 100
AcDbEntity
   8
LEVEL002
 370
30
 100
AcDbLine
   6
CONTINUOUS
  62
7
  10
 178.79399384129
  20
 172.18594064254
  30
0.0
  11
 176.29399384129
  21
 171.18594064254
  31
0.0
   0
LINE
   5
3BB
 100
AcDbEntity
   8
LEVEL002
 370
30
 100
AcDbLine
   6
CONTINUOUS
  62
7
  10
 176.29399384129
  20
 171.18594064254
  30
0.0
  11
 174.29399384129
  21
 171.18594064254
  31
0.0
   0
LINE
   5
3BC
 100
AcDbEntity
   8
LEVEL002
 370
30
 100
AcDbLine
   6
CONTINUOUS
  62
7
  10
 174.29399384129
  20
 171.18594064254
  30
0.0
  11
 171.79399384129
  21
 172.18594064254
  31
0.0
   0
LINE
   5
3BD
 100
AcDbEntity
   8
LEVEL002
 370
30
 100
AcDbLine
   6
CONTINUOUS
  62
7
  10
 171.79399384129
  20
 172.18594064254
  30
0.0
  11
 171.79399384129
  21
 172.93594064254
  31
0.0
   0
ARC
   5
3BE
 100
AcDbEntity
   8
LEVEL002
 370
30
   6
CONTINUOUS
  62
7
 100
AcDbCircle
  10
 171.54399384129
  20
 172.93594064254
  30
0.0
  40
 0.25000000000000
 100
AcDbArc
  50
0.0
  51
 90.000000000000
   0
LINE
   5
3BF
 100
AcDbEntity
   8
LEVEL002
 370
30
 100
AcDbLine
   6
CONTINUOUS
  62
7
  10
 176.48657624486
  20
 170.18594064254
  30
0.0
  11
 174.10141143772
  21
 170.18594064254
  31
0.0
   0
ARC
   5
3C0
 100
AcDbEntity
   8
LEVEL002
 370
30
   6
CONTINUOUS
  62
7
 100
AcDbCircle
  10
 179.04399384129
  20
 172.93594064254
  30
0.0
  40
 0.25000000000000
 100
AcDbArc
  50
 89.999999999870
  51
 180.00000000053
   0
LINE
   5
3C1
 100
AcDbEntity
   8
LEVEL002
 370
30
 100
AcDbLine
   6
CONTINUOUS
  62
7
  10
 143.04399384129
  20
 173.18594064254
  30
0.0
  11
 171.54399384129
  21
 173.18594064255
  31
0.0
   0
LINE
   5
3C2
 100
AcDbEntity
   8
LEVEL002
 370
30
 100
AcDbLine
   6
CONTINUOUS
  62
7
  10
 179.04399384129
  20
 173.18594064254
  30
0.0
  11
 188.29399384129
  21
 173.18594064257
  31
0.0
   0
LINE
   5
3C3
 100
AcDbEntity
   8
LEVEL002
 370
30
 100
AcDbLine
   6
CONTINUOUS
  62
7
  10
 188.29399384129
  20
 173.18594064257
  30
0.0
  11
 192.19399384129
  21
 170.93427459273
  31
0.0
   0
ARC
   5
3C4
 100
AcDbEntity
   8
LEVEL002
 370
30
   6
CONTINUOUS
  62
7
 100
AcDbCircle
  10
 157.19399384129
  20
 170.58594064254
  30
0.0
  40
 0.40000000000000
 100
AcDbArc
  50
 179.99999999999
  51
 270.00000000001
   0
LINE
   5
3C5
 100
AcDbEntity
   8
LEVEL002
 370
30
 100
AcDbLine
   6
CONTINUOUS
  62
7
  10
 157.39399384129
  20
 170.18594064254
  30
0.0
  11
 157.19399384129
  21
 170.18594064254
  31
0.0
   0
ARC
   5
3C6
 100
AcDbEntity
   8
LEVEL002
 370
30
   6
CONTINUOUS
  62
7
 100
AcDbCircle
  10
 157.39399384129
  20
 170.58594064254
  30
0.0
  40
 0.40000000000000
 100
AcDbArc
  50
 270.00000000005
  51
0.0
   0
ARC
   5
3C7
 100
AcDbEntity
   8
LEVEL002
 370
30
   6
CONTINUOUS
  62
7
 100
AcDbCircle
  10
 134.44399384129
  20
 170.58594064254
  30
0.0
  40
 0.40000000000000
 100
AcDbArc
  50
 180.00000000000
  51
 270.00000000006
   0
LINE
   5
3C8
 100
AcDbEntity
   8
LEVEL002
 370
30
 100
AcDbLine
   6
CONTINUOUS
  62
7
  10
 134.44399384129
  20
 170.18594064254
  30
0.0
  11
 134.64399384129
  21
 170.18594064254
  31
0.0
   0
ARC
   5
3C9
 100
AcDbEntity
   8
LEVEL002
 370
30
   6
CONTINUOUS
  62
7
 100
AcDbCircle
  10
 134.64399384129
  20
 170.58594064254
  30
0.0
  40
 0.40000000000000
 100
AcDbArc
  50
 270.00000000000
  51
 0.40711099922732E-11
   0
LINE
   5
3CA
 100
AcDbEntity
   8
LEVEL002
 370
30
 100
AcDbLine
   6
CONTINUOUS
  62
7
  10
 134.04399384129
  20
 170.58594064254
  30
0.0
  11
 134.04399384129
  21
 172.18594064254
  31
0.0
   0
ARC
   5
3CB
 100
AcDbEntity
   8
LEVEL002
 370
30
   6
CONTINUOUS
  62
7
 100
AcDbCircle
  10
 127.44399384129
  20
 170.58594064254
  30
0.0
  40
 0.40000000000000
 100
AcDbArc
  50
 180.00000000000
  51
 269.99999999996
   0
LINE
   5
3CC
 100
AcDbEntity
   8
LEVEL002
 370
30
 100
AcDbLine
   6
CONTINUOUS
  62
7
  10
 127.44399384129
  20
 170.18594064254
  30
0.0
  11
 127.64399384129
  21
 170.18594064254
  31
0.0
   0
ARC
   5
3CD
 100
AcDbEntity
   8
LEVEL002
 370
30
   6
CONTINUOUS
  62
7
 100
AcDbCircle
  10
 127.64399384129
  20
 170.58594064254
  30
0.0
  40
 0.40000000000000
 100
AcDbArc
  50
 270.00000000000
  51
0.0
   0
LINE
   5
3CE
 100
AcDbEntity
   8
LEVEL002
 370
30
 100
AcDbLine
   6
CONTINUOUS
  62
7
  10
 127.04399384129
  20
 170.58594064254
  30
0.0
  11
 127.04399384129
  21
 172.18594064254
  31
0.0
   0
LINE
   5
3CF
 100
AcDbEntity
   8
LEVEL002
 370
30
 100
AcDbLine
   6
CONTINUOUS
  62
7
  10
 128.04399384129
  20
 170.58594064254
  30
0.0
  11
 128.04399384129
  21
 172.18594064254
  31
0.0
   0
LINE
   5
3D0
 100
AcDbEntity
   8
LEVEL002
 370
30
 100
AcDbLine
   6
CONTINUOUS
  62
7
  10
 128.04399384129
  20
 172.18594064254
  30
0.0
  11
 130.74399384129
  21
 172.18594064254
  31
0.0
   0
LINE
   5
3D1
 100
AcDbEntity
   8
LEVEL002
 370
30
 100
AcDbLine
   6
CONTINUOUS
  62
7
  10
 130.74399384129
  20
 172.18594064254
  30
0.0
  11
 131.04399384129
  21
 172.48594064254
  31
0.0
   0
LINE
   5
3D2
 100
AcDbEntity
   8
LEVEL002
 370
30
 100
AcDbLine
   6
CONTINUOUS
  62
7
  10
 131.04399384129
  20
 172.48594064254
  30
0.0
  11
 131.34399384129
  21
 172.18594064254
  31
0.0
   0
LINE
   5
3D3
 100
AcDbEntity
   8
LEVEL002
 370
30
 100
AcDbLine
   6
CONTINUOUS
  62
7
  10
 131.34399384129
  20
 172.18594064254
  30
0.0
  11
 134.04399384129
  21
 172.18594064254
  31
0.0
   0
LINE
   5
3D4
 100
AcDbEntity
   8
LEVEL002
 370
30
 100
AcDbLine
   6
CONTINUOUS
  62
7
  10
 123.09784141853
  20
 170.18594064254
  30
0.0
  11
 126.56194303367
  21
 172.18594064254
  31
0.0
   0
LINE
   5
3D5
 100
AcDbEntity
   8
LEVEL002
 370
30
 100
AcDbLine
   6
CONTINUOUS
  62
7
  10
 126.56194303367
  20
 172.18594064254
  30
0.0
  11
 127.04399384129
  21
 172.18594064254
  31
0.0
   0
LINE
   5
3D6
 100
AcDbEntity
   8
LEVEL002
 370
30
 100
AcDbLine
   6
CONTINUOUS
  62
7
  10
 135.04399384129
  20
 170.58594064254
  30
0.0
  11
 135.04399384129
  21
 171.40890768112
  31
0.0
   0
LINE
   5
3D7
 100
AcDbEntity
   8
LEVEL002
 370
30
 100
AcDbLine
   6
CONTINUOUS
  62
7
  10
 135.04399384129
  20
 171.40890768112
  30
0.0
  11
 138.10141143772
  21
 170.18594064254
  31
0.0
   0
ARC
   5
3D8
 100
AcDbEntity
   8
LEVEL002
 370
30
   6
CONTINUOUS
  62
7
 100
AcDbCircle
  10
 143.94399384129
  20
 170.58594064254
  30
0.0
  40
 0.40000000000000
 100
AcDbArc
  50
 180.00000000000
  51
 270.00000000001
   0
LINE
   5
3D9
 100
AcDbEntity
   8
LEVEL002
 370
30
 100
AcDbLine
   6
CONTINUOUS
  62
7
  10
 143.94399384129
  20
 170.18594064254
  30
0.0
  11
 144.14399384129
  21
 170.18594064254
  31
0.0
   0
ARC
   5
3DA
 100
AcDbEntity
   8
LEVEL002
 370
30
   6
CONTINUOUS
  62
7
 100
AcDbCircle
  10
 144.14399384129
  20
 170.58594064254
  30
0.0
  40
 0.40000000000000
 100
AcDbArc
  50
 270.00000000000
  51
 0.40711099922732E-11
   0
LINE
   5
3DB
 100
AcDbEntity
   8
LEVEL002
 370
30
 100
AcDbLine
   6
CONTINUOUS
  62
7
  10
 144.54399384129
  20
 170.58594064254
  30
0.0
  11
 144.54399384129
  21
 171.68594064254
  31
0.0
   0
ARC
   5
3DC
 100
AcDbEntity
   8
LEVEL002
 370
30
   6
CONTINUOUS
  62
7
 100
AcDbCircle
  10
 145.04399384129
  20
 171.68594064254
  30
0.0
  40
 0.50000000000000
 100
AcDbArc
  50
 90.000000000000
  51
 180.00000000000
   0
LINE
   5
3DD
 100
AcDbEntity
   8
LEVEL002
 370
30
 100
AcDbLine
   6
CONTINUOUS
  62
7
  10
 156.79399384129
  20
 170.58594064254
  30
0.0
  11
 156.79399384129
  21
 172.18594064254
  31
0.0
   0
LINE
   5
3DE
 100
AcDbEntity
   8
LEVEL002
 370
30
 100
AcDbLine
   6
CONTINUOUS
  62
7
  10
 156.79399384129
  20
 172.18594064254
  30
0.0
  11
 145.04399384129
  21
 172.18594064254
  31
0.0
   0
LINE
   5
3DF
 100
AcDbEntity
   8
LEVEL002
 370
30
 100
AcDbLine
   6
CONTINUOUS
  62
7
  10
 140.48657624486
  20
 170.18594064254
  30
0.0
  11
 143.54399384129
  21
 171.40890768112
  31
0.0
   0
LINE
   5
3E0
 100
AcDbEntity
   8
LEVEL002
 370
30
 100
AcDbLine
   6
CONTINUOUS
  62
7
  10
 143.54399384129
  20
 171.40890768112
  30
0.0
  11
 143.54399384129
  21
 170.58594064254
  31
0.0
   0
ARC
   5
3E1
 100
AcDbEntity
   8
LEVEL002
 370
30
   6
CONTINUOUS
  62
7
 100
AcDbCircle
  10
 170.64399384129
  20
 170.58594064254
  30
0.0
  40
 0.40000000000000
 100
AcDbArc
  50
 270.00000000004
  51
0.0
   0
LINE
   5
3E2
 100
AcDbEntity
   8
LEVEL002
 370
30
 100
AcDbLine
   6
CONTINUOUS
  62
7
  10
 170.64399384129
  20
 170.18594064254
  30
0.0
  11
 170.44399384129
  21
 170.18594064254
  31
0.0
   0
ARC
   5
3E3
 100
AcDbEntity
   8
LEVEL002
 370
30
   6
CONTINUOUS
  62
7
 100
AcDbCircle
  10
 170.44399384129
  20
 170.58594064254
  30
0.0
  40
 0.40000000000000
 100
AcDbArc
  50
 179.99999999996
  51
 270.00000000001
   0
LINE
   5
3E4
 100
AcDbEntity
   8
LEVEL002
 370
30
 100
AcDbLine
   6
CONTINUOUS
  62
7
  10
 170.04399384129
  20
 170.58594064254
  30
0.0
  11
 170.04399384129
  21
 171.68594064254
  31
0.0
   0
ARC
   5
3E5
 100
AcDbEntity
   8
LEVEL002
 370
30
   6
CONTINUOUS
  62
7
 100
AcDbCircle
  10
 169.54399384129
  20
 171.68594064254
  30
0.0
  40
 0.50000000000000
 100
AcDbArc
  50
0.0
  51
 89.999999999961
   0
ARC
   5
3E6
 100
AcDbEntity
   8
LEVEL002
 370
30
   6
CONTINUOUS
  62
7
 100
AcDbCircle
  10
 180.14399384129
  20
 170.58594064254
  30
0.0
  40
 0.40000000000000
 100
AcDbArc
  50
 270.00000000012
  51
0.0
   0
LINE
   5
3E7
 100
AcDbEntity
   8
LEVEL002
 370
30
 100
AcDbLine
   6
CONTINUOUS
  62
7
  10
 180.14399384129
  20
 170.18594064254
  30
0.0
  11
 179.94399384129
  21
 170.18594064254
  31
0.0
   0
ARC
   5
3E8
 100
AcDbEntity
   8
LEVEL002
 370
30
   6
CONTINUOUS
  62
7
 100
AcDbCircle
  10
 179.94399384129
  20
 170.58594064254
  30
0.0
  40
 0.40000000000000
 100
AcDbArc
  50
 180.00000000006
  51
 270.00000000001
   0
LINE
   5
3E9
 100
AcDbEntity
   8
LEVEL002
 370
30
 100
AcDbLine
   6
CONTINUOUS
  62
7
  10
 180.54399384129
  20
 170.58594064254
  30
0.0
  11
 180.54399384129
  21
 172.18594064254
  31
0.0
   0
LINE
   5
3EA
 100
AcDbEntity
   8
LEVEL002
 370
30
 100
AcDbLine
   6
CONTINUOUS
  62
7
  10
 183.24399384129
  20
 172.18594064254
  30
0.0
  11
 180.54399384129
  21
 172.18594064254
  31
0.0
   0
LINE
   5
3EB
 100
AcDbEntity
   8
LEVEL002
 370
30
 100
AcDbLine
   6
CONTINUOUS
  62
7
  10
 183.24399384129
  20
 172.18594064254
  30
0.0
  11
 183.54399384129
  21
 172.48594064254
  31
0.0
   0
LINE
   5
3EC
 100
AcDbEntity
   8
LEVEL002
 370
30
 100
AcDbLine
   6
CONTINUOUS
  62
7
  10
 183.54399384129
  20
 172.48594064254
  30
0.0
  11
 183.84399384129
  21
 172.18594064254
  31
0.0
   0
LINE
   5
3ED
 100
AcDbEntity
   8
LEVEL002
 370
30
 100
AcDbLine
   6
CONTINUOUS
  62
7
  10
 186.54399384129
  20
 170.58594064254
  30
0.0
  11
 186.54399384129
  21
 172.18594064254
  31
0.0
   0
LINE
   5
3EE
 100
AcDbEntity
   8
LEVEL002
 370
30
 100
AcDbLine
   6
CONTINUOUS
  62
7
  10
 186.54399384129
  20
 172.18594064254
  30
0.0
  11
 183.84399384129
  21
 172.18594064254
  31
0.0
   0
ARC
   5
3EF
 100
AcDbEntity
   8
LEVEL002
 370
30
   6
CONTINUOUS
  62
7
 100
AcDbCircle
  10
 187.14399384129
  20
 170.58594064254
  30
0.0
  40
 0.40000000000000
 100
AcDbArc
  50
 270.00000000007
  51
0.0
   0
LINE
   5
3F0
 100
AcDbEntity
   8
LEVEL002
 370
30
 100
AcDbLine
   6
CONTINUOUS
  62
7
  10
 187.14399384129
  20
 170.18594064254
  30
0.0
  11
 186.94399384129
  21
 170.18594064254
  31
0.0
   0
ARC
   5
3F1
 100
AcDbEntity
   8
LEVEL002
 370
30
   6
CONTINUOUS
  62
7
 100
AcDbCircle
  10
 186.94399384129
  20
 170.58594064254
  30
0.0
  40
 0.40000000000000
 100
AcDbArc
  50
 180.00000000001
  51
 270.00000000001
   0
LINE
   5
3F2
 100
AcDbEntity
   8
LEVEL002
 370
30
 100
AcDbLine
   6
CONTINUOUS
  62
7
  10
 187.54399384129
  20
 170.58594064254
  30
0.0
  11
 187.54399384129
  21
 172.18594064254
  31
0.0
   0
LINE
   5
3F3
 100
AcDbEntity
   8
LEVEL002
 370
30
 100
AcDbLine
   6
CONTINUOUS
  62
7
  10
 191.49014626404
  20
 170.18594064254
  30
0.0
  11
 188.02604464891
  21
 172.18594064254
  31
0.0
   0
LINE
   5
3F4
 100
AcDbEntity
   8
LEVEL002
 370
30
 100
AcDbLine
   6
CONTINUOUS
  62
7
  10
 188.02604464891
  20
 172.18594064254
  30
0.0
  11
 187.54399384129
  21
 172.18594064254
  31
0.0
   0
LINE
   5
3F5
 100
AcDbEntity
   8
LEVEL002
 370
30
 100
AcDbLine
   6
CONTINUOUS
  62
7
  10
 169.54399384129
  20
 172.18594064254
  30
0.0
  11
 157.79399384129
  21
 172.18594064254
  31
0.0
   0
LINE
   5
3F6
 100
AcDbEntity
   8
LEVEL002
 370
30
 100
AcDbLine
   6
CONTINUOUS
  62
7
  10
 157.79399384129
  20
 172.18594064254
  30
0.0
  11
 157.79399384129
  21
 170.58594064254
  31
0.0
   0
LINE
   5
3F7
 100
AcDbEntity
   8
LEVEL002
 370
30
 100
AcDbLine
   6
CONTINUOUS
  62
7
  10
 179.54399384129
  20
 170.58594064254
  30
0.0
  11
 179.54399384129
  21
 171.40890768112
  31
0.0
   0
LINE
   5
3F8
 100
AcDbEntity
   8
LEVEL002
 370
30
 100
AcDbLine
   6
CONTINUOUS
  62
7
  10
 179.54399384129
  20
 171.40890768112
  30
0.0
  11
 176.48657624486
  21
 170.18594064254
  31
0.0
   0
LINE
   5
3F9
 100
AcDbEntity
   8
LEVEL002
 370
30
 100
AcDbLine
   6
CONTINUOUS
  62
7
  10
 174.10141143772
  20
 170.18594064254
  30
0.0
  11
 171.04399384129
  21
 171.40890768112
  31
0.0
   0
LINE
   5
3FA
 100
AcDbEntity
   8
LEVEL002
 370
30
 100
AcDbLine
   6
CONTINUOUS
  62
7
  10
 171.04399384129
  20
 171.40890768112
  30
0.0
  11
 171.04399384129
  21
 170.58594064254
  31
0.0
   0
LINE
   5
3FB
 100
AcDbEntity
   8
LEVEL002
 370
15
 100
AcDbLine
   6
DASHDOT
  62
8
  10
 131.04399384129
  20
 176.09045393029
  30
0.0
  11
 131.04399384129
  21
 167.81603109369
  31
0.0
   0
LINE
   5
3FC
 100
AcDbEntity
   8
LEVEL002
 370
15
 100
AcDbLine
   6
DASHDOT
  62
8
  10
 183.54399384129
  20
 176.09045393029
  30
0.0
  11
 183.54399384129
  21
 167.81603109369
  31
0.0
   0
LINE
   5
3FD
 100
AcDbEntity
   8
LEVEL002
 370
15
 100
AcDbLine
   6
DASHDOT
  62
8
  10
 157.29399384129
  20
 176.09045393029
  30
0.0
  11
 157.29399384129
  21
 167.81603109369
  31
0.0
   0
LINE
   5
3FE
 100
AcDbEntity
   8
LEVEL002
 370
15
 100
AcDbLine
   6
DASHDOT
  62
8
  10
 139.29399384129
  20
 176.09045393029
  30
0.0
  11
 139.29399384129
  21
 167.81603109369
  31
0.0
   0
LINE
   5
3FF
 100
AcDbEntity
   8
LEVEL002
 370
15
 100
AcDbLine
   6
DASHDOT
  62
8
  10
 175.29399384129
  20
 176.09045393029
  30
0.0
  11
 175.29399384129
  21
 167.81603109369
  31
0.0
   0
LINE
   5
400
 100
AcDbEntity
   8
LEVEL002
 370
15
 100
AcDbLine
   6
DASHDOT
  62
8
  10
 131.04399384129
  20
 176.09045393029
  30
0.0
  11
 131.04399384129
  21
 167.81603109369
  31
0.0
   0
LINE
   5
401
 100
AcDbEntity
   8
LEVEL002
 370
15
 100
AcDbLine
   6
DASHDOT
  62
8
  10
 183.54399384129
  20
 176.09045393029
  30
0.0
  11
 183.54399384129
  21
 167.81603109369
  31
0.0
   0
LINE
   5
402
 100
AcDbEntity
   8
LEVEL002
 370
15
 100
AcDbLine
   6
DASHDOT
  62
8
  10
 157.29399384129
  20
 176.09045393029
  30
0.0
  11
 157.29399384129
  21
 167.81603109369
  31
0.0
   0
LINE
   5
403
 100
AcDbEntity
   8
LEVEL002
 370
15
 100
AcDbLine
   6
DASHDOT
  62
8
  10
 139.29399384129
  20
 176.09045393029
  30
0.0
  11
 139.29399384129
  21
 167.81603109369
  31
0.0
   0
LINE
   5
404
 100
AcDbEntity
   8
LEVEL002
 370
15
 100
AcDbLine
   6
DASHDOT
  62
8
  10
 175.29399384129
  20
 176.09045393029
  30
0.0
  11
 175.29399384129
  21
 167.81603109369
  31
0.0
   0
DIMENSION
   5
405
 100
AcDbEntity
   8
LEVEL001
 370
15
   6
CONTINUOUS
  62
8
 100
AcDbDimension
   2
*D12
  10
 296.61321580925
  20
 173.18594064257
  30
0.0
  11
 296.61321580925
  21
 174.65179829573
  31
0.0
  70
128
   3
GMM006
 100
AcDbAlignedDimension
  13
 291.41321580925
  23
 170.18594064254
  33
0.0
  14
 287.61321580925
  24
 173.18594064257
  34
0.0
  50
 90.000000000000
 100
AcDbRotatedDimension
   0
ARC
   5
406
 100
AcDbEntity
   8
LEVEL002
 370
30
   6
CONTINUOUS
  62
7
 100
AcDbCircle
  10
 255.01321580925
  20
 170.58594064254
  30
0.0
  40
 0.40000000000000
 100
AcDbArc
  50
 179.99999999998
  51
 270.00000000000
   0
LINE
   5
407
 100
AcDbEntity
   8
LEVEL002
 370
30
 100
AcDbLine
   6
CONTINUOUS
  62
7
  10
 255.21321580925
  20
 170.18594064254
  30
0.0
  11
 255.01321580925
  21
 170.18594064254
  31
0.0
   0
ARC
   5
408
 100
AcDbEntity
   8
LEVEL002
 370
30
   6
CONTINUOUS
  62
7
 100
AcDbCircle
  10
 255.21321580925
  20
 170.58594064254
  30
0.0
  40
 0.40000000000000
 100
AcDbArc
  50
 270.00000000005
  51
 0.40711099922732E-11
   0
ARC
   5
409
 100
AcDbEntity
   8
LEVEL002
 370
30
   6
CONTINUOUS
  62
7
 100
AcDbCircle
  10
 218.81321580925
  20
 170.76106951193
  30
0.0
  40
 0.20000000000000
 100
AcDbArc
  50
 119.99999999991
  51
 179.99999999997
   0
LINE
   5
40A
 100
AcDbEntity
   8
LEVEL002
 370
30
 100
AcDbLine
   6
CONTINUOUS
  62
7
  10
 219.41706338647
  20
 170.18594064254
  30
0.0
  11
 218.81321580925
  21
 170.18594064254
  31
0.0
   0
LINE
   5
40B
 100
AcDbEntity
   8
LEVEL002
 370
30
 100
AcDbLine
   6
CONTINUOUS
  62
7
  10
 218.61321580925
  20
 170.38594064254
  30
0.0
  11
 218.61321580925
  21
 170.76106951193
  31
0.0
   0
ARC
   5
40C
 100
AcDbEntity
   8
LEVEL002
 370
30
   6
CONTINUOUS
  62
7
 100
AcDbCircle
  10
 218.81321580925
  20
 170.38594064254
  30
0.0
  40
 0.20000000000000
 100
AcDbArc
  50
 179.99999999956
  51
 269.99999999998
   0
LINE
   5
40D
 100
AcDbEntity
   8
LEVEL002
 370
30
 100
AcDbLine
   6
CONTINUOUS
  62
7
  10
 218.71321580925
  20
 170.93427459268
  30
0.0
  11
 222.61321580925
  21
 173.18594064252
  31
0.0
   0
LINE
   5
40E
 100
AcDbEntity
   8
LEVEL002
 370
30
 100
AcDbLine
   6
CONTINUOUS
  62
7
  10
 222.61321580925
  20
 173.18594064252
  30
0.0
  11
 231.86321580925
  21
 173.18594064254
  31
0.0
   0
ARC
   5
40F
 100
AcDbEntity
   8
LEVEL002
 370
30
   6
CONTINUOUS
  62
7
 100
AcDbCircle
  10
 231.86321580925
  20
 172.93594064254
  30
0.0
  40
 0.25000000000000
 100
AcDbArc
  50
0.0
  51
 90.000000000130
   0
LINE
   5
410
 100
AcDbEntity
   8
LEVEL002
 370
30
 100
AcDbLine
   6
CONTINUOUS
  62
7
  10
 232.11321580925
  20
 172.93594064254
  30
0.0
  11
 232.11321580925
  21
 172.18594064254
  31
0.0
   0
LINE
   5
411
 100
AcDbEntity
   8
LEVEL002
 370
30
 100
AcDbLine
   6
CONTINUOUS
  62
7
  10
 232.11321580925
  20
 172.18594064254
  30
0.0
  11
 234.61321580925
  21
 171.18594064254
  31
0.0
   0
LINE
   5
412
 100
AcDbEntity
   8
LEVEL002
 370
30
 100
AcDbLine
   6
CONTINUOUS
  62
7
  10
 234.61321580925
  20
 171.18594064254
  30
0.0
  11
 236.61321580925
  21
 171.18594064254
  31
0.0
   0
LINE
   5
413
 100
AcDbEntity
   8
LEVEL002
 370
30
 100
AcDbLine
   6
CONTINUOUS
  62
7
  10
 236.61321580925
  20
 171.18594064254
  30
0.0
  11
 239.11321580925
  21
 172.18594064254
  31
0.0
   0
LINE
   5
414
 100
AcDbEntity
   8
LEVEL002
 370
30
 100
AcDbLine
   6
CONTINUOUS
  62
7
  10
 239.11321580925
  20
 172.18594064254
  30
0.0
  11
 239.11321580925
  21
 172.93594064254
  31
0.0
   0
ARC
   5
415
 100
AcDbEntity
   8
LEVEL002
 370
30
   6
CONTINUOUS
  62
7
 100
AcDbCircle
  10
 230.76321580925
  20
 170.58594064254
  30
0.0
  40
 0.40000000000000
 100
AcDbArc
  50
 180.00000000000
  51
 270.00000000003
   0
LINE
   5
416
 100
AcDbEntity
   8
LEVEL002
 370
30
 100
AcDbLine
   6
CONTINUOUS
  62
7
  10
 230.76321580925
  20
 170.18594064254
  30
0.0
  11
 230.96321580925
  21
 170.18594064254
  31
0.0
   0
ARC
   5
417
 100
AcDbEntity
   8
LEVEL002
 370
30
   6
CONTINUOUS
  62
7
 100
AcDbCircle
  10
 230.96321580925
  20
 170.58594064254
  30
0.0
  40
 0.40000000000000
 100
AcDbArc
  50
 270.00000000000
  51
0.0
   0
LINE
   5
418
 100
AcDbEntity
   8
LEVEL002
 370
30
 100
AcDbLine
   6
CONTINUOUS
  62
7
  10
 230.36321580925
  20
 170.58594064254
  30
0.0
  11
 230.36321580925
  21
 172.18594064254
  31
0.0
   0
ARC
   5
419
 100
AcDbEntity
   8
LEVEL002
 370
30
   6
CONTINUOUS
  62
7
 100
AcDbCircle
  10
 223.76321580925
  20
 170.58594064254
  30
0.0
  40
 0.40000000000000
 100
AcDbArc
  50
 180.00000000000
  51
 270.00000000008
   0
LINE
   5
41A
 100
AcDbEntity
   8
LEVEL002
 370
30
 100
AcDbLine
   6
CONTINUOUS
  62
7
  10
 223.76321580925
  20
 170.18594064254
  30
0.0
  11
 223.96321580925
  21
 170.18594064254
  31
0.0
   0
ARC
   5
41B
 100
AcDbEntity
   8
LEVEL002
 370
30
   6
CONTINUOUS
  62
7
 100
AcDbCircle
  10
 223.96321580925
  20
 170.58594064254
  30
0.0
  40
 0.40000000000000
 100
AcDbArc
  50
 270.00000000000
  51
 0.40711099922732E-11
   0
LINE
   5
41C
 100
AcDbEntity
   8
LEVEL002
 370
30
 100
AcDbLine
   6
CONTINUOUS
  62
7
  10
 223.36321580925
  20
 170.58594064254
  30
0.0
  11
 223.36321580925
  21
 172.18594064254
  31
0.0
   0
LINE
   5
41D
 100
AcDbEntity
   8
LEVEL002
 370
30
 100
AcDbLine
   6
CONTINUOUS
  62
7
  10
 224.36321580925
  20
 170.58594064254
  30
0.0
  11
 224.36321580925
  21
 172.18594064254
  31
0.0
   0
LINE
   5
41E
 100
AcDbEntity
   8
LEVEL002
 370
30
 100
AcDbLine
   6
CONTINUOUS
  62
7
  10
 224.36321580925
  20
 172.18594064254
  30
0.0
  11
 227.06321580925
  21
 172.18594064254
  31
0.0
   0
LINE
   5
41F
 100
AcDbEntity
   8
LEVEL002
 370
30
 100
AcDbLine
   6
CONTINUOUS
  62
7
  10
 227.06321580925
  20
 172.18594064254
  30
0.0
  11
 227.36321580925
  21
 172.48594064254
  31
0.0
   0
LINE
   5
420
 100
AcDbEntity
   8
LEVEL002
 370
30
 100
AcDbLine
   6
CONTINUOUS
  62
7
  10
 227.36321580925
  20
 172.48594064254
  30
0.0
  11
 227.66321580925
  21
 172.18594064254
  31
0.0
   0
LINE
   5
421
 100
AcDbEntity
   8
LEVEL002
 370
30
 100
AcDbLine
   6
CONTINUOUS
  62
7
  10
 227.66321580925
  20
 172.18594064254
  30
0.0
  11
 230.36321580925
  21
 172.18594064254
  31
0.0
   0
LINE
   5
422
 100
AcDbEntity
   8
LEVEL002
 370
30
 100
AcDbLine
   6
CONTINUOUS
  62
7
  10
 219.41706338650
  20
 170.18594064254
  30
0.0
  11
 222.88116500164
  21
 172.18594064254
  31
0.0
   0
LINE
   5
423
 100
AcDbEntity
   8
LEVEL002
 370
30
 100
AcDbLine
   6
CONTINUOUS
  62
7
  10
 222.88116500164
  20
 172.18594064254
  30
0.0
  11
 223.36321580925
  21
 172.18594064254
  31
0.0
   0
LINE
   5
424
 100
AcDbEntity
   8
LEVEL002
 370
30
 100
AcDbLine
   6
CONTINUOUS
  62
7
  10
 231.36321580925
  20
 170.58594064254
  30
0.0
  11
 231.36321580925
  21
 171.40890768112
  31
0.0
   0
LINE
   5
425
 100
AcDbEntity
   8
LEVEL002
 370
30
 100
AcDbLine
   6
CONTINUOUS
  62
7
  10
 231.36321580925
  20
 171.40890768112
  30
0.0
  11
 234.42063340569
  21
 170.18594064254
  31
0.0
   0
ARC
   5
426
 100
AcDbEntity
   8
LEVEL002
 370
30
   6
CONTINUOUS
  62
7
 100
AcDbCircle
  10
 239.36321580925
  20
 172.93594064254
  30
0.0
  40
 0.25000000000000
 100
AcDbArc
  50
 90.000000000000
  51
 179.99999999980
   0
ARC
   5
427
 100
AcDbEntity
   8
LEVEL002
 370
30
   6
CONTINUOUS
  62
7
 100
AcDbCircle
  10
 240.26321580925
  20
 170.58594064254
  30
0.0
  40
 0.40000000000000
 100
AcDbArc
  50
 180.00000000000
  51
 269.99999999998
   0
LINE
   5
428
 100
AcDbEntity
   8
LEVEL002
 370
30
 100
AcDbLine
   6
CONTINUOUS
  62
7
  10
 240.26321580925
  20
 170.18594064254
  30
0.0
  11
 240.46321580925
  21
 170.18594064254
  31
0.0
   0
ARC
   5
429
 100
AcDbEntity
   8
LEVEL002
 370
30
   6
CONTINUOUS
  62
7
 100
AcDbCircle
  10
 240.46321580925
  20
 170.58594064254
  30
0.0
  40
 0.40000000000000
 100
AcDbArc
  50
 270.00000000000
  51
 0.40711099922732E-11
   0
LINE
   5
42A
 100
AcDbEntity
   8
LEVEL002
 370
30
 100
AcDbLine
   6
CONTINUOUS
  62
7
  10
 240.86321580925
  20
 170.58594064254
  30
0.0
  11
 240.86321580925
  21
 171.68594064254
  31
0.0
   0
ARC
   5
42B
 100
AcDbEntity
   8
LEVEL002
 370
30
   6
CONTINUOUS
  62
7
 100
AcDbCircle
  10
 241.36321580925
  20
 171.68594064254
  30
0.0
  40
 0.50000000000000
 100
AcDbArc
  50
 90.000000000013
  51
 180.00000000000
   0
LINE
   5
42C
 100
AcDbEntity
   8
LEVEL002
 370
30
 100
AcDbLine
   6
CONTINUOUS
  62
7
  10
 234.42063340569
  20
 170.18594064254
  30
0.0
  11
 236.80579821282
  21
 170.18594064254
  31
0.0
   0
LINE
   5
42D
 100
AcDbEntity
   8
LEVEL002
 370
30
 100
AcDbLine
   6
CONTINUOUS
  62
7
  10
 236.80579821282
  20
 170.18594064254
  30
0.0
  11
 239.86321580925
  21
 171.40890768112
  31
0.0
   0
LINE
   5
42E
 100
AcDbEntity
   8
LEVEL002
 370
30
 100
AcDbLine
   6
CONTINUOUS
  62
7
  10
 239.86321580925
  20
 171.40890768112
  30
0.0
  11
 239.86321580925
  21
 170.58594064254
  31
0.0
   0
LINE
   5
42F
 100
AcDbEntity
   8
LEVEL002
 370
30
 100
AcDbLine
   6
CONTINUOUS
  62
7
  10
 278.11321580925
  20
 172.93594064254
  30
0.0
  11
 278.11321580925
  21
 172.18594064254
  31
0.0
   0
LINE
   5
430
 100
AcDbEntity
   8
LEVEL002
 370
30
 100
AcDbLine
   6
CONTINUOUS
  62
7
  10
 278.11321580925
  20
 172.18594064254
  30
0.0
  11
 275.61321580925
  21
 171.18594064254
  31
0.0
   0
LINE
   5
431
 100
AcDbEntity
   8
LEVEL002
 370
30
 100
AcDbLine
   6
CONTINUOUS
  62
7
  10
 275.61321580925
  20
 171.18594064254
  30
0.0
  11
 273.61321580925
  21
 171.18594064254
  31
0.0
   0
LINE
   5
432
 100
AcDbEntity
   8
LEVEL002
 370
30
 100
AcDbLine
   6
CONTINUOUS
  62
7
  10
 273.61321580925
  20
 171.18594064254
  30
0.0
  11
 271.11321580925
  21
 172.18594064254
  31
0.0
   0
LINE
   5
433
 100
AcDbEntity
   8
LEVEL002
 370
30
 100
AcDbLine
   6
CONTINUOUS
  62
7
  10
 271.11321580925
  20
 172.18594064254
  30
0.0
  11
 271.11321580925
  21
 172.93594064254
  31
0.0
   0
ARC
   5
434
 100
AcDbEntity
   8
LEVEL002
 370
30
   6
CONTINUOUS
  62
7
 100
AcDbCircle
  10
 270.86321580925
  20
 172.93594064254
  30
0.0
  40
 0.25000000000000
 100
AcDbArc
  50
0.0
  51
 90.000000000000
   0
ARC
   5
435
 100
AcDbEntity
   8
LEVEL002
 370
30
   6
CONTINUOUS
  62
7
 100
AcDbCircle
  10
 269.96321580925
  20
 170.58594064254
  30
0.0
  40
 0.40000000000000
 100
AcDbArc
  50
 270.00000000003
  51
 0.40711099922735E-11
   0
LINE
   5
436
 100
AcDbEntity
   8
LEVEL002
 370
30
 100
AcDbLine
   6
CONTINUOUS
  62
7
  10
 269.96321580925
  20
 170.18594064254
  30
0.0
  11
 269.76321580925
  21
 170.18594064254
  31
0.0
   0
ARC
   5
437
 100
AcDbEntity
   8
LEVEL002
 370
30
   6
CONTINUOUS
  62
7
 100
AcDbCircle
  10
 269.76321580925
  20
 170.58594064254
  30
0.0
  40
 0.40000000000000
 100
AcDbArc
  50
 180.00000000014
  51
 270.00000000000
   0
LINE
   5
438
 100
AcDbEntity
   8
LEVEL002
 370
30
 100
AcDbLine
   6
CONTINUOUS
  62
7
  10
 269.36321580925
  20
 170.58594064254
  30
0.0
  11
 269.36321580925
  21
 171.68594064254
  31
0.0
   0
ARC
   5
439
 100
AcDbEntity
   8
LEVEL002
 370
30
   6
CONTINUOUS
  62
7
 100
AcDbCircle
  10
 268.86321580925
  20
 171.68594064254
  30
0.0
  40
 0.50000000000000
 100
AcDbArc
  50
0.0
  51
 90.000000000065
   0
LINE
   5
43A
 100
AcDbEntity
   8
LEVEL002
 370
30
 100
AcDbLine
   6
CONTINUOUS
  62
7
  10
 273.42063340569
  20
 170.18594064254
  30
0.0
  11
 270.36321580925
  21
 171.40890768112
  31
0.0
   0
LINE
   5
43B
 100
AcDbEntity
   8
LEVEL002
 370
30
 100
AcDbLine
   6
CONTINUOUS
  62
7
  10
 270.36321580925
  20
 171.40890768112
  30
0.0
  11
 270.36321580925
  21
 170.58594064254
  31
0.0
   0
ARC
   5
43C
 100
AcDbEntity
   8
LEVEL002
 370
30
   6
CONTINUOUS
  62
7
 100
AcDbCircle
  10
 278.36321580925
  20
 172.93594064254
  30
0.0
  40
 0.25000000000000
 100
AcDbArc
  50
 89.999999999844
  51
 180.00000000017
   0
LINE
   5
43D
 100
AcDbEntity
   8
LEVEL002
 370
30
 100
AcDbLine
   6
CONTINUOUS
  62
7
  10
 278.36321580925
  20
 173.18594064254
  30
0.0
  11
 287.61321580925
  21
 173.18594064257
  31
0.0
   0
LINE
   5
43E
 100
AcDbEntity
   8
LEVEL002
 370
30
 100
AcDbLine
   6
CONTINUOUS
  62
7
  10
 287.61321580925
  20
 173.18594064257
  30
0.0
  11
 291.51321580925
  21
 170.93427459273
  31
0.0
   0
ARC
   5
43F
 100
AcDbEntity
   8
LEVEL002
 370
30
   6
CONTINUOUS
  62
7
 100
AcDbCircle
  10
 279.46321580925
  20
 170.58594064254
  30
0.0
  40
 0.40000000000000
 100
AcDbArc
  50
 270.00000000002
  51
 0.40711099922735E-11
   0
LINE
   5
440
 100
AcDbEntity
   8
LEVEL002
 370
30
 100
AcDbLine
   6
CONTINUOUS
  62
7
  10
 279.46321580925
  20
 170.18594064254
  30
0.0
  11
 279.26321580925
  21
 170.18594064254
  31
0.0
   0
ARC
   5
441
 100
AcDbEntity
   8
LEVEL002
 370
30
   6
CONTINUOUS
  62
7
 100
AcDbCircle
  10
 279.26321580925
  20
 170.58594064254
  30
0.0
  40
 0.40000000000000
 100
AcDbArc
  50
 180.00000000010
  51
 270.00000000002
   0
LINE
   5
442
 100
AcDbEntity
   8
LEVEL002
 370
30
 100
AcDbLine
   6
CONTINUOUS
  62
7
  10
 279.86321580925
  20
 170.58594064254
  30
0.0
  11
 279.86321580925
  21
 172.18594064254
  31
0.0
   0
LINE
   5
443
 100
AcDbEntity
   8
LEVEL002
 370
30
 100
AcDbLine
   6
CONTINUOUS
  62
7
  10
 282.56321580925
  20
 172.18594064254
  30
0.0
  11
 279.86321580925
  21
 172.18594064254
  31
0.0
   0
LINE
   5
444
 100
AcDbEntity
   8
LEVEL002
 370
30
 100
AcDbLine
   6
CONTINUOUS
  62
7
  10
 278.86321580925
  20
 170.58594064254
  30
0.0
  11
 278.86321580925
  21
 171.40890768112
  31
0.0
   0
LINE
   5
445
 100
AcDbEntity
   8
LEVEL002
 370
30
 100
AcDbLine
   6
CONTINUOUS
  62
7
  10
 278.86321580925
  20
 171.40890768112
  30
0.0
  11
 275.80579821282
  21
 170.18594064254
  31
0.0
   0
LINE
   5
446
 100
AcDbEntity
   8
LEVEL002
 370
30
 100
AcDbLine
   6
CONTINUOUS
  62
7
  10
 275.80579821282
  20
 170.18594064254
  30
0.0
  11
 273.42063340569
  21
 170.18594064254
  31
0.0
   0
ARC
   5
447
 100
AcDbEntity
   8
LEVEL002
 370
30
   6
CONTINUOUS
  62
7
 100
AcDbCircle
  10
 291.41321580925
  20
 170.76106951198
  30
0.0
  40
 0.20000000000000
 100
AcDbArc
  50
0.0
  51
 59.999999999598
   0
LINE
   5
448
 100
AcDbEntity
   8
LEVEL002
 370
30
 100
AcDbLine
   6
CONTINUOUS
  62
7
  10
 291.61321580925
  20
 170.76106951197
  30
0.0
  11
 291.61321580925
  21
 170.38594064254
  31
0.0
   0
LINE
   5
449
 100
AcDbEntity
   8
LEVEL002
 370
30
 100
AcDbLine
   6
CONTINUOUS
  62
7
  10
 291.41321580925
  20
 170.18594064254
  30
0.0
  11
 290.80936823201
  21
 170.18594064254
  31
0.0
   0
ARC
   5
44A
 100
AcDbEntity
   8
LEVEL002
 370
30
   6
CONTINUOUS
  62
7
 100
AcDbCircle
  10
 291.41321580925
  20
 170.38594064254
  30
0.0
  40
 0.20000000000000
 100
AcDbArc
  50
 270.00000000054
  51
 0.16284439969094E-10
   0
LINE
   5
44B
 100
AcDbEntity
   8
LEVEL002
 370
30
 100
AcDbLine
   6
CONTINUOUS
  62
7
  10
 282.56321580925
  20
 172.18594064254
  30
0.0
  11
 282.86321580925
  21
 172.48594064254
  31
0.0
   0
LINE
   5
44C
 100
AcDbEntity
   8
LEVEL002
 370
30
 100
AcDbLine
   6
CONTINUOUS
  62
7
  10
 282.86321580925
  20
 172.48594064254
  30
0.0
  11
 283.16321580925
  21
 172.18594064254
  31
0.0
   0
LINE
   5
44D
 100
AcDbEntity
   8
LEVEL002
 370
30
 100
AcDbLine
   6
CONTINUOUS
  62
7
  10
 285.86321580925
  20
 170.58594064254
  30
0.0
  11
 285.86321580925
  21
 172.18594064254
  31
0.0
   0
LINE
   5
44E
 100
AcDbEntity
   8
LEVEL002
 370
30
 100
AcDbLine
   6
CONTINUOUS
  62
7
  10
 285.86321580925
  20
 172.18594064254
  30
0.0
  11
 283.16321580925
  21
 172.18594064254
  31
0.0
   0
ARC
   5
44F
 100
AcDbEntity
   8
LEVEL002
 370
30
   6
CONTINUOUS
  62
7
 100
AcDbCircle
  10
 286.46321580925
  20
 170.58594064254
  30
0.0
  40
 0.40000000000000
 100
AcDbArc
  50
 269.99999999997
  51
 0.40711099922735E-11
   0
LINE
   5
450
 100
AcDbEntity
   8
LEVEL002
 370
30
 100
AcDbLine
   6
CONTINUOUS
  62
7
  10
 286.46321580925
  20
 170.18594064254
  30
0.0
  11
 286.26321580925
  21
 170.18594064254
  31
0.0
   0
ARC
   5
451
 100
AcDbEntity
   8
LEVEL002
 370
30
   6
CONTINUOUS
  62
7
 100
AcDbCircle
  10
 286.26321580925
  20
 170.58594064254
  30
0.0
  40
 0.40000000000000
 100
AcDbArc
  50
 180.00000000005
  51
 270.00000000002
   0
LINE
   5
452
 100
AcDbEntity
   8
LEVEL002
 370
30
 100
AcDbLine
   6
CONTINUOUS
  62
7
  10
 286.86321580925
  20
 170.58594064254
  30
0.0
  11
 286.86321580925
  21
 172.18594064254
  31
0.0
   0
LINE
   5
453
 100
AcDbEntity
   8
LEVEL002
 370
30
 100
AcDbLine
   6
CONTINUOUS
  62
7
  10
 290.80936823201
  20
 170.18594064254
  30
0.0
  11
 287.34526661687
  21
 172.18594064254
  31
0.0
   0
LINE
   5
454
 100
AcDbEntity
   8
LEVEL002
 370
30
 100
AcDbLine
   6
CONTINUOUS
  62
7
  10
 287.34526661687
  20
 172.18594064254
  30
0.0
  11
 286.86321580925
  21
 172.18594064254
  31
0.0
   0
LINE
   5
455
 100
AcDbEntity
   8
LEVEL002
 370
30
 100
AcDbLine
   6
CONTINUOUS
  62
7
  10
 268.86321580925
  20
 172.18594064254
  30
0.0
  11
 255.61321580925
  21
 172.18594064254
  31
0.0
   0
LINE
   5
456
 100
AcDbEntity
   8
LEVEL002
 370
30
 100
AcDbLine
   6
CONTINUOUS
  62
7
  10
 255.61321580925
  20
 172.18594064254
  30
0.0
  11
 255.61321580925
  21
 170.58594064254
  31
0.0
   0
LINE
   5
457
 100
AcDbEntity
   8
LEVEL002
 370
30
 100
AcDbLine
   6
CONTINUOUS
  62
7
  10
 239.36321580925
  20
 173.18594064254
  30
0.0
  11
 270.86321580925
  21
 173.18594064255
  31
0.0
   0
LINE
   5
458
 100
AcDbEntity
   8
LEVEL002
 370
30
 100
AcDbLine
   6
CONTINUOUS
  62
7
  10
 254.61321580925
  20
 170.58594064254
  30
0.0
  11
 254.61321580925
  21
 172.18594064254
  31
0.0
   0
LINE
   5
459
 100
AcDbEntity
   8
LEVEL002
 370
30
 100
AcDbLine
   6
CONTINUOUS
  62
7
  10
 254.61321580925
  20
 172.18594064254
  30
0.0
  11
 241.36321580925
  21
 172.18594064254
  31
0.0
   0
ARC
   5
45A
 100
AcDbEntity
   8
LEVEL002
 370
30
   6
CONTINUOUS
  62
7
 100
AcDbCircle
  10
 255.01321580925
  20
 170.58594064254
  30
0.0
  40
 0.40000000000000
 100
AcDbArc
  50
 179.99999999998
  51
 270.00000000000
   0
LINE
   5
45B
 100
AcDbEntity
   8
LEVEL002
 370
30
 100
AcDbLine
   6
CONTINUOUS
  62
7
  10
 255.21321580925
  20
 170.18594064254
  30
0.0
  11
 255.01321580925
  21
 170.18594064254
  31
0.0
   0
ARC
   5
45C
 100
AcDbEntity
   8
LEVEL002
 370
30
   6
CONTINUOUS
  62
7
 100
AcDbCircle
  10
 255.21321580925
  20
 170.58594064254
  30
0.0
  40
 0.40000000000000
 100
AcDbArc
  50
 270.00000000005
  51
 0.40711099922732E-11
   0
ARC
   5
45D
 100
AcDbEntity
   8
LEVEL002
 370
30
   6
CONTINUOUS
  62
7
 100
AcDbCircle
  10
 218.81321580925
  20
 170.76106951193
  30
0.0
  40
 0.20000000000000
 100
AcDbArc
  50
 119.99999999991
  51
 179.99999999997
   0
LINE
   5
45E
 100
AcDbEntity
   8
LEVEL002
 370
30
 100
AcDbLine
   6
CONTINUOUS
  62
7
  10
 219.41706338647
  20
 170.18594064254
  30
0.0
  11
 218.81321580925
  21
 170.18594064254
  31
0.0
   0
LINE
   5
45F
 100
AcDbEntity
   8
LEVEL002
 370
30
 100
AcDbLine
   6
CONTINUOUS
  62
7
  10
 218.61321580925
  20
 170.38594064254
  30
0.0
  11
 218.61321580925
  21
 170.76106951193
  31
0.0
   0
ARC
   5
460
 100
AcDbEntity
   8
LEVEL002
 370
30
   6
CONTINUOUS
  62
7
 100
AcDbCircle
  10
 218.81321580925
  20
 170.38594064254
  30
0.0
  40
 0.20000000000000
 100
AcDbArc
  50
 179.99999999956
  51
 269.99999999998
   0
LINE
   5
461
 100
AcDbEntity
   8
LEVEL002
 370
30
 100
AcDbLine
   6
CONTINUOUS
  62
7
  10
 218.71321580925
  20
 170.93427459268
  30
0.0
  11
 222.61321580925
  21
 173.18594064252
  31
0.0
   0
LINE
   5
462
 100
AcDbEntity
   8
LEVEL002
 370
30
 100
AcDbLine
   6
CONTINUOUS
  62
7
  10
 222.61321580925
  20
 173.18594064252
  30
0.0
  11
 231.86321580925
  21
 173.18594064254
  31
0.0
   0
ARC
   5
463
 100
AcDbEntity
   8
LEVEL002
 370
30
   6
CONTINUOUS
  62
7
 100
AcDbCircle
  10
 231.86321580925
  20
 172.93594064254
  30
0.0
  40
 0.25000000000000
 100
AcDbArc
  50
0.0
  51
 90.000000000130
   0
LINE
   5
464
 100
AcDbEntity
   8
LEVEL002
 370
30
 100
AcDbLine
   6
CONTINUOUS
  62
7
  10
 232.11321580925
  20
 172.93594064254
  30
0.0
  11
 232.11321580925
  21
 172.18594064254
  31
0.0
   0
LINE
   5
465
 100
AcDbEntity
   8
LEVEL002
 370
30
 100
AcDbLine
   6
CONTINUOUS
  62
7
  10
 232.11321580925
  20
 172.18594064254
  30
0.0
  11
 234.61321580925
  21
 171.18594064254
  31
0.0
   0
LINE
   5
466
 100
AcDbEntity
   8
LEVEL002
 370
30
 100
AcDbLine
   6
CONTINUOUS
  62
7
  10
 234.61321580925
  20
 171.18594064254
  30
0.0
  11
 236.61321580925
  21
 171.18594064254
  31
0.0
   0
LINE
   5
467
 100
AcDbEntity
   8
LEVEL002
 370
30
 100
AcDbLine
   6
CONTINUOUS
  62
7
  10
 236.61321580925
  20
 171.18594064254
  30
0.0
  11
 239.11321580925
  21
 172.18594064254
  31
0.0
   0
LINE
   5
468
 100
AcDbEntity
   8
LEVEL002
 370
30
 100
AcDbLine
   6
CONTINUOUS
  62
7
  10
 239.11321580925
  20
 172.18594064254
  30
0.0
  11
 239.11321580925
  21
 172.93594064254
  31
0.0
   0
ARC
   5
469
 100
AcDbEntity
   8
LEVEL002
 370
30
   6
CONTINUOUS
  62
7
 100
AcDbCircle
  10
 230.76321580925
  20
 170.58594064254
  30
0.0
  40
 0.40000000000000
 100
AcDbArc
  50
 180.00000000000
  51
 270.00000000003
   0
LINE
   5
46A
 100
AcDbEntity
   8
LEVEL002
 370
30
 100
AcDbLine
   6
CONTINUOUS
  62
7
  10
 230.76321580925
  20
 170.18594064254
  30
0.0
  11
 230.96321580925
  21
 170.18594064254
  31
0.0
   0
ARC
   5
46B
 100
AcDbEntity
   8
LEVEL002
 370
30
   6
CONTINUOUS
  62
7
 100
AcDbCircle
  10
 230.96321580925
  20
 170.58594064254
  30
0.0
  40
 0.40000000000000
 100
AcDbArc
  50
 270.00000000000
  51
0.0
   0
LINE
   5
46C
 100
AcDbEntity
   8
LEVEL002
 370
30
 100
AcDbLine
   6
CONTINUOUS
  62
7
  10
 230.36321580925
  20
 170.58594064254
  30
0.0
  11
 230.36321580925
  21
 172.18594064254
  31
0.0
   0
ARC
   5
46D
 100
AcDbEntity
   8
LEVEL002
 370
30
   6
CONTINUOUS
  62
7
 100
AcDbCircle
  10
 223.76321580925
  20
 170.58594064254
  30
0.0
  40
 0.40000000000000
 100
AcDbArc
  50
 180.00000000000
  51
 270.00000000008
   0
LINE
   5
46E
 100
AcDbEntity
   8
LEVEL002
 370
30
 100
AcDbLine
   6
CONTINUOUS
  62
7
  10
 223.76321580925
  20
 170.18594064254
  30
0.0
  11
 223.96321580925
  21
 170.18594064254
  31
0.0
   0
ARC
   5
46F
 100
AcDbEntity
   8
LEVEL002
 370
30
   6
CONTINUOUS
  62
7
 100
AcDbCircle
  10
 223.96321580925
  20
 170.58594064254
  30
0.0
  40
 0.40000000000000
 100
AcDbArc
  50
 270.00000000000
  51
 0.40711099922732E-11
   0
LINE
   5
470
 100
AcDbEntity
   8
LEVEL002
 370
30
 100
AcDbLine
   6
CONTINUOUS
  62
7
  10
 223.36321580925
  20
 170.58594064254
  30
0.0
  11
 223.36321580925
  21
 172.18594064254
  31
0.0
   0
LINE
   5
471
 100
AcDbEntity
   8
LEVEL002
 370
30
 100
AcDbLine
   6
CONTINUOUS
  62
7
  10
 224.36321580925
  20
 170.58594064254
  30
0.0
  11
 224.36321580925
  21
 172.18594064254
  31
0.0
   0
LINE
   5
472
 100
AcDbEntity
   8
LEVEL002
 370
30
 100
AcDbLine
   6
CONTINUOUS
  62
7
  10
 224.36321580925
  20
 172.18594064254
  30
0.0
  11
 227.06321580925
  21
 172.18594064254
  31
0.0
   0
LINE
   5
473
 100
AcDbEntity
   8
LEVEL002
 370
30
 100
AcDbLine
   6
CONTINUOUS
  62
7
  10
 227.06321580925
  20
 172.18594064254
  30
0.0
  11
 227.36321580925
  21
 172.48594064254
  31
0.0
   0
LINE
   5
474
 100
AcDbEntity
   8
LEVEL002
 370
30
 100
AcDbLine
   6
CONTINUOUS
  62
7
  10
 227.36321580925
  20
 172.48594064254
  30
0.0
  11
 227.66321580925
  21
 172.18594064254
  31
0.0
   0
LINE
   5
475
 100
AcDbEntity
   8
LEVEL002
 370
30
 100
AcDbLine
   6
CONTINUOUS
  62
7
  10
 227.66321580925
  20
 172.18594064254
  30
0.0
  11
 230.36321580925
  21
 172.18594064254
  31
0.0
   0
LINE
   5
476
 100
AcDbEntity
   8
LEVEL002
 370
30
 100
AcDbLine
   6
CONTINUOUS
  62
7
  10
 219.41706338650
  20
 170.18594064254
  30
0.0
  11
 222.88116500164
  21
 172.18594064254
  31
0.0
   0
LINE
   5
477
 100
AcDbEntity
   8
LEVEL002
 370
30
 100
AcDbLine
   6
CONTINUOUS
  62
7
  10
 222.88116500164
  20
 172.18594064254
  30
0.0
  11
 223.36321580925
  21
 172.18594064254
  31
0.0
   0
LINE
   5
478
 100
AcDbEntity
   8
LEVEL002
 370
30
 100
AcDbLine
   6
CONTINUOUS
  62
7
  10
 231.36321580925
  20
 170.58594064254
  30
0.0
  11
 231.36321580925
  21
 171.40890768112
  31
0.0
   0
LINE
   5
479
 100
AcDbEntity
   8
LEVEL002
 370
30
 100
AcDbLine
   6
CONTINUOUS
  62
7
  10
 231.36321580925
  20
 171.40890768112
  30
0.0
  11
 234.42063340569
  21
 170.18594064254
  31
0.0
   0
ARC
   5
47A
 100
AcDbEntity
   8
LEVEL002
 370
30
   6
CONTINUOUS
  62
7
 100
AcDbCircle
  10
 239.36321580925
  20
 172.93594064254
  30
0.0
  40
 0.25000000000000
 100
AcDbArc
  50
 90.000000000000
  51
 179.99999999980
   0
ARC
   5
47B
 100
AcDbEntity
   8
LEVEL002
 370
30
   6
CONTINUOUS
  62
7
 100
AcDbCircle
  10
 240.26321580925
  20
 170.58594064254
  30
0.0
  40
 0.40000000000000
 100
AcDbArc
  50
 180.00000000000
  51
 269.99999999998
   0
LINE
   5
47C
 100
AcDbEntity
   8
LEVEL002
 370
30
 100
AcDbLine
   6
CONTINUOUS
  62
7
  10
 240.26321580925
  20
 170.18594064254
  30
0.0
  11
 240.46321580925
  21
 170.18594064254
  31
0.0
   0
ARC
   5
47D
 100
AcDbEntity
   8
LEVEL002
 370
30
   6
CONTINUOUS
  62
7
 100
AcDbCircle
  10
 240.46321580925
  20
 170.58594064254
  30
0.0
  40
 0.40000000000000
 100
AcDbArc
  50
 270.00000000000
  51
 0.40711099922732E-11
   0
LINE
   5
47E
 100
AcDbEntity
   8
LEVEL002
 370
30
 100
AcDbLine
   6
CONTINUOUS
  62
7
  10
 240.86321580925
  20
 170.58594064254
  30
0.0
  11
 240.86321580925
  21
 171.68594064254
  31
0.0
   0
ARC
   5
47F
 100
AcDbEntity
   8
LEVEL002
 370
30
   6
CONTINUOUS
  62
7
 100
AcDbCircle
  10
 241.36321580925
  20
 171.68594064254
  30
0.0
  40
 0.50000000000000
 100
AcDbArc
  50
 90.000000000013
  51
 180.00000000000
   0
LINE
   5
480
 100
AcDbEntity
   8
LEVEL002
 370
30
 100
AcDbLine
   6
CONTINUOUS
  62
7
  10
 234.42063340569
  20
 170.18594064254
  30
0.0
  11
 236.80579821282
  21
 170.18594064254
  31
0.0
   0
LINE
   5
481
 100
AcDbEntity
   8
LEVEL002
 370
30
 100
AcDbLine
   6
CONTINUOUS
  62
7
  10
 236.80579821282
  20
 170.18594064254
  30
0.0
  11
 239.86321580925
  21
 171.40890768112
  31
0.0
   0
LINE
   5
482
 100
AcDbEntity
   8
LEVEL002
 370
30
 100
AcDbLine
   6
CONTINUOUS
  62
7
  10
 239.86321580925
  20
 171.40890768112
  30
0.0
  11
 239.86321580925
  21
 170.58594064254
  31
0.0
   0
LINE
   5
483
 100
AcDbEntity
   8
LEVEL002
 370
30
 100
AcDbLine
   6
CONTINUOUS
  62
7
  10
 278.11321580925
  20
 172.93594064254
  30
0.0
  11
 278.11321580925
  21
 172.18594064254
  31
0.0
   0
LINE
   5
484
 100
AcDbEntity
   8
LEVEL002
 370
30
 100
AcDbLine
   6
CONTINUOUS
  62
7
  10
 278.11321580925
  20
 172.18594064254
  30
0.0
  11
 275.61321580925
  21
 171.18594064254
  31
0.0
   0
LINE
   5
485
 100
AcDbEntity
   8
LEVEL002
 370
30
 100
AcDbLine
   6
CONTINUOUS
  62
7
  10
 275.61321580925
  20
 171.18594064254
  30
0.0
  11
 273.61321580925
  21
 171.18594064254
  31
0.0
   0
LINE
   5
486
 100
AcDbEntity
   8
LEVEL002
 370
30
 100
AcDbLine
   6
CONTINUOUS
  62
7
  10
 273.61321580925
  20
 171.18594064254
  30
0.0
  11
 271.11321580925
  21
 172.18594064254
  31
0.0
   0
LINE
   5
487
 100
AcDbEntity
   8
LEVEL002
 370
30
 100
AcDbLine
   6
CONTINUOUS
  62
7
  10
 271.11321580925
  20
 172.18594064254
  30
0.0
  11
 271.11321580925
  21
 172.93594064254
  31
0.0
   0
ARC
   5
488
 100
AcDbEntity
   8
LEVEL002
 370
30
   6
CONTINUOUS
  62
7
 100
AcDbCircle
  10
 270.86321580925
  20
 172.93594064254
  30
0.0
  40
 0.25000000000000
 100
AcDbArc
  50
0.0
  51
 90.000000000000
   0
ARC
   5
489
 100
AcDbEntity
   8
LEVEL002
 370
30
   6
CONTINUOUS
  62
7
 100
AcDbCircle
  10
 269.96321580925
  20
 170.58594064254
  30
0.0
  40
 0.40000000000000
 100
AcDbArc
  50
 270.00000000003
  51
 0.40711099922735E-11
   0
LINE
   5
48A
 100
AcDbEntity
   8
LEVEL002
 370
30
 100
AcDbLine
   6
CONTINUOUS
  62
7
  10
 269.96321580925
  20
 170.18594064254
  30
0.0
  11
 269.76321580925
  21
 170.18594064254
  31
0.0
   0
ARC
   5
48B
 100
AcDbEntity
   8
LEVEL002
 370
30
   6
CONTINUOUS
  62
7
 100
AcDbCircle
  10
 269.76321580925
  20
 170.58594064254
  30
0.0
  40
 0.40000000000000
 100
AcDbArc
  50
 180.00000000014
  51
 270.00000000000
   0
LINE
   5
48C
 100
AcDbEntity
   8
LEVEL002
 370
30
 100
AcDbLine
   6
CONTINUOUS
  62
7
  10
 269.36321580925
  20
 170.58594064254
  30
0.0
  11
 269.36321580925
  21
 171.68594064254
  31
0.0
   0
ARC
   5
48D
 100
AcDbEntity
   8
LEVEL002
 370
30
   6
CONTINUOUS
  62
7
 100
AcDbCircle
  10
 268.86321580925
  20
 171.68594064254
  30
0.0
  40
 0.50000000000000
 100
AcDbArc
  50
0.0
  51
 90.000000000065
   0
LINE
   5
48E
 100
AcDbEntity
   8
LEVEL002
 370
30
 100
AcDbLine
   6
CONTINUOUS
  62
7
  10
 273.42063340569
  20
 170.18594064254
  30
0.0
  11
 270.36321580925
  21
 171.40890768112
  31
0.0
   0
LINE
   5
48F
 100
AcDbEntity
   8
LEVEL002
 370
30
 100
AcDbLine
   6
CONTINUOUS
  62
7
  10
 270.36321580925
  20
 171.40890768112
  30
0.0
  11
 270.36321580925
  21
 170.58594064254
  31
0.0
   0
ARC
   5
490
 100
AcDbEntity
   8
LEVEL002
 370
30
   6
CONTINUOUS
  62
7
 100
AcDbCircle
  10
 278.36321580925
  20
 172.93594064254
  30
0.0
  40
 0.25000000000000
 100
AcDbArc
  50
 89.999999999844
  51
 180.00000000017
   0
LINE
   5
491
 100
AcDbEntity
   8
LEVEL002
 370
30
 100
AcDbLine
   6
CONTINUOUS
  62
7
  10
 278.36321580925
  20
 173.18594064254
  30
0.0
  11
 287.61321580925
  21
 173.18594064257
  31
0.0
   0
LINE
   5
492
 100
AcDbEntity
   8
LEVEL002
 370
30
 100
AcDbLine
   6
CONTINUOUS
  62
7
  10
 287.61321580925
  20
 173.18594064257
  30
0.0
  11
 291.51321580925
  21
 170.93427459273
  31
0.0
   0
ARC
   5
493
 100
AcDbEntity
   8
LEVEL002
 370
30
   6
CONTINUOUS
  62
7
 100
AcDbCircle
  10
 279.46321580925
  20
 170.58594064254
  30
0.0
  40
 0.40000000000000
 100
AcDbArc
  50
 270.00000000002
  51
 0.40711099922735E-11
   0
LINE
   5
494
 100
AcDbEntity
   8
LEVEL002
 370
30
 100
AcDbLine
   6
CONTINUOUS
  62
7
  10
 279.46321580925
  20
 170.18594064254
  30
0.0
  11
 279.26321580925
  21
 170.18594064254
  31
0.0
   0
ARC
   5
495
 100
AcDbEntity
   8
LEVEL002
 370
30
   6
CONTINUOUS
  62
7
 100
AcDbCircle
  10
 279.26321580925
  20
 170.58594064254
  30
0.0
  40
 0.40000000000000
 100
AcDbArc
  50
 180.00000000010
  51
 270.00000000002
   0
LINE
   5
496
 100
AcDbEntity
   8
LEVEL002
 370
30
 100
AcDbLine
   6
CONTINUOUS
  62
7
  10
 279.86321580925
  20
 170.58594064254
  30
0.0
  11
 279.86321580925
  21
 172.18594064254
  31
0.0
   0
LINE
   5
497
 100
AcDbEntity
   8
LEVEL002
 370
30
 100
AcDbLine
   6
CONTINUOUS
  62
7
  10
 282.56321580925
  20
 172.18594064254
  30
0.0
  11
 279.86321580925
  21
 172.18594064254
  31
0.0
   0
LINE
   5
498
 100
AcDbEntity
   8
LEVEL002
 370
30
 100
AcDbLine
   6
CONTINUOUS
  62
7
  10
 278.86321580925
  20
 170.58594064254
  30
0.0
  11
 278.86321580925
  21
 171.40890768112
  31
0.0
   0
LINE
   5
499
 100
AcDbEntity
   8
LEVEL002
 370
30
 100
AcDbLine
   6
CONTINUOUS
  62
7
  10
 278.86321580925
  20
 171.40890768112
  30
0.0
  11
 275.80579821282
  21
 170.18594064254
  31
0.0
   0
LINE
   5
49A
 100
AcDbEntity
   8
LEVEL002
 370
30
 100
AcDbLine
   6
CONTINUOUS
  62
7
  10
 275.80579821282
  20
 170.18594064254
  30
0.0
  11
 273.42063340569
  21
 170.18594064254
  31
0.0
   0
ARC
   5
49B
 100
AcDbEntity
   8
LEVEL002
 370
30
   6
CONTINUOUS
  62
7
 100
AcDbCircle
  10
 291.41321580925
  20
 170.76106951198
  30
0.0
  40
 0.20000000000000
 100
AcDbArc
  50
0.0
  51
 59.999999999598
   0
LINE
   5
49C
 100
AcDbEntity
   8
LEVEL002
 370
30
 100
AcDbLine
   6
CONTINUOUS
  62
7
  10
 291.61321580925
  20
 170.76106951197
  30
0.0
  11
 291.61321580925
  21
 170.38594064254
  31
0.0
   0
LINE
   5
49D
 100
AcDbEntity
   8
LEVEL002
 370
30
 100
AcDbLine
   6
CONTINUOUS
  62
7
  10
 291.41321580925
  20
 170.18594064254
  30
0.0
  11
 290.80936823201
  21
 170.18594064254
  31
0.0
   0
ARC
   5
49E
 100
AcDbEntity
   8
LEVEL002
 370
30
   6
CONTINUOUS
  62
7
 100
AcDbCircle
  10
 291.41321580925
  20
 170.38594064254
  30
0.0
  40
 0.20000000000000
 100
AcDbArc
  50
 270.00000000054
  51
 0.16284439969094E-10
   0
LINE
   5
49F
 100
AcDbEntity
   8
LEVEL002
 370
30
 100
AcDbLine
   6
CONTINUOUS
  62
7
  10
 282.56321580925
  20
 172.18594064254
  30
0.0
  11
 282.86321580925
  21
 172.48594064254
  31
0.0
   0
LINE
   5
4A0
 100
AcDbEntity
   8
LEVEL002
 370
30
 100
AcDbLine
   6
CONTINUOUS
  62
7
  10
 282.86321580925
  20
 172.48594064254
  30
0.0
  11
 283.16321580925
  21
 172.18594064254
  31
0.0
   0
LINE
   5
4A1
 100
AcDbEntity
   8
LEVEL002
 370
30
 100
AcDbLine
   6
CONTINUOUS
  62
7
  10
 285.86321580925
  20
 170.58594064254
  30
0.0
  11
 285.86321580925
  21
 172.18594064254
  31
0.0
   0
LINE
   5
4A2
 100
AcDbEntity
   8
LEVEL002
 370
30
 100
AcDbLine
   6
CONTINUOUS
  62
7
  10
 285.86321580925
  20
 172.18594064254
  30
0.0
  11
 283.16321580925
  21
 172.18594064254
  31
0.0
   0
ARC
   5
4A3
 100
AcDbEntity
   8
LEVEL002
 370
30
   6
CONTINUOUS
  62
7
 100
AcDbCircle
  10
 286.46321580925
  20
 170.58594064254
  30
0.0
  40
 0.40000000000000
 100
AcDbArc
  50
 269.99999999997
  51
 0.40711099922735E-11
   0
LINE
   5
4A4
 100
AcDbEntity
   8
LEVEL002
 370
30
 100
AcDbLine
   6
CONTINUOUS
  62
7
  10
 286.46321580925
  20
 170.18594064254
  30
0.0
  11
 286.26321580925
  21
 170.18594064254
  31
0.0
   0
ARC
   5
4A5
 100
AcDbEntity
   8
LEVEL002
 370
30
   6
CONTINUOUS
  62
7
 100
AcDbCircle
  10
 286.26321580925
  20
 170.58594064254
  30
0.0
  40
 0.40000000000000
 100
AcDbArc
  50
 180.00000000005
  51
 270.00000000002
   0
LINE
   5
4A6
 100
AcDbEntity
   8
LEVEL002
 370
30
 100
AcDbLine
   6
CONTINUOUS
  62
7
  10
 286.86321580925
  20
 170.58594064254
  30
0.0
  11
 286.86321580925
  21
 172.18594064254
  31
0.0
   0
LINE
   5
4A7
 100
AcDbEntity
   8
LEVEL002
 370
30
 100
AcDbLine
   6
CONTINUOUS
  62
7
  10
 290.80936823201
  20
 170.18594064254
  30
0.0
  11
 287.34526661687
  21
 172.18594064254
  31
0.0
   0
LINE
   5
4A8
 100
AcDbEntity
   8
LEVEL002
 370
30
 100
AcDbLine
   6
CONTINUOUS
  62
7
  10
 287.34526661687
  20
 172.18594064254
  30
0.0
  11
 286.86321580925
  21
 172.18594064254
  31
0.0
   0
LINE
   5
4A9
 100
AcDbEntity
   8
LEVEL002
 370
30
 100
AcDbLine
   6
CONTINUOUS
  62
7
  10
 268.86321580925
  20
 172.18594064254
  30
0.0
  11
 255.61321580925
  21
 172.18594064254
  31
0.0
   0
LINE
   5
4AA
 100
AcDbEntity
   8
LEVEL002
 370
30
 100
AcDbLine
   6
CONTINUOUS
  62
7
  10
 255.61321580925
  20
 172.18594064254
  30
0.0
  11
 255.61321580925
  21
 170.58594064254
  31
0.0
   0
LINE
   5
4AB
 100
AcDbEntity
   8
LEVEL002
 370
30
 100
AcDbLine
   6
CONTINUOUS
  62
7
  10
 239.36321580925
  20
 173.18594064254
  30
0.0
  11
 270.86321580925
  21
 173.18594064255
  31
0.0
   0
LINE
   5
4AC
 100
AcDbEntity
   8
LEVEL002
 370
30
 100
AcDbLine
   6
CONTINUOUS
  62
7
  10
 254.61321580925
  20
 170.58594064254
  30
0.0
  11
 254.61321580925
  21
 172.18594064254
  31
0.0
   0
LINE
   5
4AD
 100
AcDbEntity
   8
LEVEL002
 370
30
 100
AcDbLine
   6
CONTINUOUS
  62
7
  10
 254.61321580925
  20
 172.18594064254
  30
0.0
  11
 241.36321580925
  21
 172.18594064254
  31
0.0
   0
LINE
   5
4AE
 100
AcDbEntity
   8
LEVEL002
 370
15
 100
AcDbLine
   6
DASHDOT
  62
8
  10
 227.36321580925
  20
 176.09045393029
  30
0.0
  11
 227.36321580925
  21
 167.81603109369
  31
0.0
   0
LINE
   5
4AF
 100
AcDbEntity
   8
LEVEL002
 370
15
 100
AcDbLine
   6
DASHDOT
  62
8
  10
 282.86321580925
  20
 176.09045393029
  30
0.0
  11
 282.86321580925
  21
 167.81603109369
  31
0.0
   0
LINE
   5
4B0
 100
AcDbEntity
   8
LEVEL002
 370
15
 100
AcDbLine
   6
DASHDOT
  62
8
  10
 255.11321580925
  20
 167.80217268029
  30
0.0
  11
 255.11321580925
  21
 175.56970860480
  31
0.0
   0
LINE
   5
4B1
 100
AcDbEntity
   8
LEVEL002
 370
15
 100
AcDbLine
   6
DASHDOT
  62
8
  10
 235.61321580925
  20
 167.65792925923
  30
0.0
  11
 235.61321580925
  21
 175.71395202585
  31
0.0
   0
LINE
   5
4B2
 100
AcDbEntity
   8
LEVEL002
 370
15
 100
AcDbLine
   6
DASHDOT
  62
8
  10
 274.61321580925
  20
 167.65792925923
  30
0.0
  11
 274.61321580925
  21
 175.71395202585
  31
0.0
   0
LINE
   5
4B3
 100
AcDbEntity
   8
LEVEL002
 370
15
 100
AcDbLine
   6
DASHDOT
  62
8
  10
 227.36321580925
  20
 176.09045393029
  30
0.0
  11
 227.36321580925
  21
 167.81603109369
  31
0.0
   0
LINE
   5
4B4
 100
AcDbEntity
   8
LEVEL002
 370
15
 100
AcDbLine
   6
DASHDOT
  62
8
  10
 282.86321580925
  20
 176.09045393029
  30
0.0
  11
 282.86321580925
  21
 167.81603109369
  31
0.0
   0
LINE
   5
4B5
 100
AcDbEntity
   8
LEVEL002
 370
15
 100
AcDbLine
   6
DASHDOT
  62
8
  10
 255.11321580925
  20
 167.80217268029
  30
0.0
  11
 255.11321580925
  21
 175.56970860480
  31
0.0
   0
LINE
   5
4B6
 100
AcDbEntity
   8
LEVEL002
 370
15
 100
AcDbLine
   6
DASHDOT
  62
8
  10
 235.61321580925
  20
 167.65792925923
  30
0.0
  11
 235.61321580925
  21
 175.71395202585
  31
0.0
   0
LINE
   5
4B7
 100
AcDbEntity
   8
LEVEL002
 370
15
 100
AcDbLine
   6
DASHDOT
  62
8
  10
 274.61321580925
  20
 167.65792925923
  30
0.0
  11
 274.61321580925
  21
 175.71395202585
  31
0.0
   0
DIMENSION
   5
4B8
 100
AcDbEntity
   8
LEVEL001
 370
15
   6
CONTINUOUS
  62
8
 100
AcDbDimension
   2
*D13
  10
 274.61321580925
  20
 183.18594064254
  30
0.0
  11
 255.11321580925
  21
 183.18594064254
  31
0.0
  70
0
   3
GMM001
 100
AcDbAlignedDimension
  13
 235.61321580925
  23
 175.71395202585
  33
0.0
  14
 274.61321580925
  24
 175.71395202585
  34
0.0
 100
AcDbRotatedDimension
   0
DIMENSION
   5
4B9
 100
AcDbEntity
   8
LEVEL001
 370
15
   6
CONTINUOUS
  62
8
 100
AcDbDimension
   2
*D14
  10
 239.11321580925
  20
 178.18594064254
  30
0.0
  11
 229.20639429640
  21
 178.18594064254
  31
0.0
  70
128
   3
GMM007
 100
AcDbAlignedDimension
  13
 232.11321580925
  23
 172.93594064254
  33
0.0
  14
 239.11321580925
  24
 172.93594064254
  34
0.0
 100
AcDbRotatedDimension
   0
DIMENSION
   5
4BA
 100
AcDbEntity
   8
LEVEL001
 370
15
   6
CONTINUOUS
  62
8
 100
AcDbDimension
   2
*D15
  10
 291.61321580925
  20
 188.18594064254
  30
0.0
  11
 255.11321580925
  21
 188.18594064254
  31
0.0
  70
0
   3
GMM001
 100
AcDbAlignedDimension
  13
 218.61321580925
  23
 170.76106951193
  33
0.0
  14
 291.61321580925
  24
 170.76106951197
  34
0.0
 100
AcDbRotatedDimension
   0
MTEXT
   5
4BC
 100
AcDbEntity
   8
LEVEL001
 370
15
  62
8
 100
AcDbMText
  10
 208.46666666662
  20
 211.75000000000
  30
0.0
  40
 3.0000000000000
  41
0.0
  71
4
  72
1
   1
\T1.000000;　ＡＭＷ３９
   7
GMM002
  44
 0.79999984000003
   0
MTEXT
   5
4BE
 100
AcDbEntity
   8
LEVEL001
 370
15
  62
8
 100
AcDbMText
  10
 15.799999999950
  20
 211.75000000000
  30
0.0
  40
 3.0000000000000
  41
0.0
  71
4
  72
1
   1
\W0.500000;\T1.000000; \W1.000000;\T1.000000;　ＡＭＷ３３／ＡＭＷ３３Ｍ
   7
GMM002
  44
 0.79999984000003
   0
MTEXT
   5
4C0
 100
AcDbEntity
   8
LEVEL001
 370
15
  62
8
 100
AcDbMText
  10
 112.13333333328
  20
 211.75000000000
  30
0.0
  40
 3.0000000000000
  41
0.0
  71
4
  72
1
   1
\T1.000000;　ＡＭＷ３６／ＡＭＷ３６Ｍ
   7
GMM002
  44
 0.79999984000003
   0
MTEXT
   5
4C2
 100
AcDbEntity
   8
LEVEL001
 370
15
  62
8
 100
AcDbMText
  10
 15.799999999950
  20
 280.00000000000
  30
0.0
  40
 3.0000000000000
  41
0.0
  71
4
  72
1
   1
\W0.500000;\T1.000000; \W1.000000;\T1.000000;　ＡＭＳ１７／ＡＭＳ１７Ｍ
   7
GMM002
  44
 0.79999984000003
   0
DIMENSION
   5
4C3
 100
AcDbEntity
   8
LEVEL001
 370
15
   6
CONTINUOUS
  62
8
 100
AcDbDimension
   2
*D16
  10
 282.70668560639
  20
 116.15067516533
  30
0.0
  11
 229.70668560639
  21
 116.15067516533
  31
0.0
  70
0
   3
GMM008
 100
AcDbAlignedDimension
  13
 176.70668560639
  23
 98.725804034615
  33
0.0
  14
 282.70668560639
  24
 98.725804034824
  34
0.0
 100
AcDbRotatedDimension
   0
DIMENSION
   5
4C4
 100
AcDbEntity
   8
LEVEL001
 370
15
   6
CONTINUOUS
  62
8
 100
AcDbDimension
   2
*D17
  10
 197.20668560639
  20
 106.15067516533
  30
0.0
  11
 188.31924738519
  21
 106.15067516533
  31
0.0
  70
128
   3
GMM009
 100
AcDbAlignedDimension
  13
 190.20668560639
  23
 100.90067516533
  33
0.0
  14
 197.20668560639
  24
 100.90067516533
  34
0.0
 100
AcDbRotatedDimension
   0
DIMENSION
   5
4C5
 100
AcDbEntity
   8
LEVEL001
 370
15
   6
CONTINUOUS
  62
8
 100
AcDbDimension
   2
*D18
  10
 229.70668560639
  20
 111.15067516533
  30
0.0
  11
 211.70668560639
  21
 111.15067516533
  31
0.0
  70
0
   3
GMM008
 100
AcDbAlignedDimension
  13
 193.70668560639
  23
 103.79973857912
  33
0.0
  14
 229.70668560639
  24
 104.29973857912
  34
0.0
 100
AcDbRotatedDimension
   0
DIMENSION
   5
4C6
 100
AcDbEntity
   8
LEVEL001
 370
15
   6
CONTINUOUS
  62
8
 100
AcDbDimension
   2
*D19
  10
 265.70668560639
  20
 111.15067516533
  30
0.0
  11
 247.70668560639
  21
 111.15067516533
  31
0.0
  70
0
   3
GMM008
 100
AcDbAlignedDimension
  13
 229.70668560639
  23
 104.29973857912
  33
0.0
  14
 265.70668560639
  24
 105.49860553818
  34
0.0
 100
AcDbRotatedDimension
   0
DIMENSION
   5
4C7
 100
AcDbEntity
   8
LEVEL001
 370
15
   6
CONTINUOUS
  62
8
 100
AcDbDimension
   2
*D20
  10
 288.57809841486
  20
 101.15067516542
  30
0.0
  11
 288.57809841486
  21
 103.86072692668
  31
0.0
  70
128
   3
GMM010
 100
AcDbAlignedDimension
  13
 282.50668560639
  23
 98.150675165334
  33
0.0
  14
 278.70668560639
  24
 101.15067516542
  34
0.0
  50
 90.000000000000
 100
AcDbRotatedDimension
   0
ARC
   5
4C8
 100
AcDbEntity
   8
LEVEL002
 370
30
   6
CONTINUOUS
  62
7
 100
AcDbCircle
  10
 282.50668560639
  20
 98.350675165334
  30
0.0
  40
 0.20000000000000
 100
AcDbArc
  50
 270.00000000000
  51
0.0
   0
ARC
   5
4C9
 100
AcDbEntity
   8
LEVEL002
 370
30
   6
CONTINUOUS
  62
7
 100
AcDbCircle
  10
 282.50668560639
  20
 98.725804034824
  30
0.0
  40
 0.20000000000000
 100
AcDbArc
  50
0.0
  51
 60.000000000010
   0
LINE
   5
4CA
 100
AcDbEntity
   8
LEVEL002
 370
30
 100
AcDbLine
   6
CONTINUOUS
  62
7
  10
 282.70668560639
  20
 98.725804034824
  30
0.0
  11
 282.70668560639
  21
 98.350675165334
  31
0.0
   0
ARC
   5
4CB
 100
AcDbEntity
   8
LEVEL002
 370
30
   6
CONTINUOUS
  62
7
 100
AcDbCircle
  10
 176.90668560639
  20
 98.725804034615
  30
0.0
  40
 0.20000000000000
 100
AcDbArc
  50
 119.99999999999
  51
 179.99999999998
   0
LINE
   5
4CC
 100
AcDbEntity
   8
LEVEL002
 370
30
 100
AcDbLine
   6
CONTINUOUS
  62
7
  10
 176.70668560639
  20
 98.725804034615
  30
0.0
  11
 176.70668560639
  21
 98.350675165334
  31
0.0
   0
ARC
   5
4CD
 100
AcDbEntity
   8
LEVEL002
 370
30
   6
CONTINUOUS
  62
7
 100
AcDbCircle
  10
 176.90668560639
  20
 98.350675165334
  30
0.0
  40
 0.20000000000000
 100
AcDbArc
  50
 180.00000000000
  51
 270.00000000000
   0
LINE
   5
4CE
 100
AcDbEntity
   8
LEVEL002
 370
30
 100
AcDbLine
   6
CONTINUOUS
  62
7
  10
 181.45668560639
  20
 98.550675165334
  30
0.0
  11
 181.45668560639
  21
 100.15067516533
  31
0.0
   0
LINE
   5
4CF
 100
AcDbEntity
   8
LEVEL002
 370
30
 100
AcDbLine
   6
CONTINUOUS
  62
7
  10
 181.45668560639
  20
 100.15067516533
  30
0.0
  11
 180.97463479915
  21
 100.15067516533
  31
0.0
   0
LINE
   5
4D0
 100
AcDbEntity
   8
LEVEL002
 370
30
 100
AcDbLine
   6
CONTINUOUS
  62
7
  10
 180.97463479915
  20
 100.15067516533
  30
0.0
  11
 177.51053318401
  21
 98.150675165334
  31
0.0
   0
LINE
   5
4D1
 100
AcDbEntity
   8
LEVEL002
 370
30
 100
AcDbLine
   6
CONTINUOUS
  62
7
  10
 177.51053318401
  20
 98.150675165334
  30
0.0
  11
 176.90668560639
  21
 98.150675165334
  31
0.0
   0
ARC
   5
4D2
 100
AcDbEntity
   8
LEVEL002
 370
30
   6
CONTINUOUS
  62
7
 100
AcDbCircle
  10
 181.85668560639
  20
 98.550675165335
  30
0.0
  40
 0.40000000000000
 100
AcDbArc
  50
 180.00000000003
  51
 270.00000000000
   0
LINE
   5
4D3
 100
AcDbEntity
   8
LEVEL002
 370
30
 100
AcDbLine
   6
CONTINUOUS
  62
7
  10
 182.05668560639
  20
 98.150675165334
  30
0.0
  11
 181.85668560639
  21
 98.150675165334
  31
0.0
   0
ARC
   5
4D4
 100
AcDbEntity
   8
LEVEL002
 370
30
   6
CONTINUOUS
  62
7
 100
AcDbCircle
  10
 182.05668560639
  20
 98.550675165334
  30
0.0
  40
 0.40000000000000
 100
AcDbArc
  50
 270.00000000000
  51
0.0
   0
LINE
   5
4D5
 100
AcDbEntity
   8
LEVEL002
 370
30
 100
AcDbLine
   6
CONTINUOUS
  62
7
  10
 188.45668560639
  20
 98.550675165334
  30
0.0
  11
 188.45668560639
  21
 100.15067516533
  31
0.0
   0
LINE
   5
4D6
 100
AcDbEntity
   8
LEVEL002
 370
30
 100
AcDbLine
   6
CONTINUOUS
  62
7
  10
 188.45668560639
  20
 100.15067516533
  30
0.0
  11
 185.75668560639
  21
 100.15067516533
  31
0.0
   0
LINE
   5
4D7
 100
AcDbEntity
   8
LEVEL002
 370
30
 100
AcDbLine
   6
CONTINUOUS
  62
7
  10
 185.75668560639
  20
 100.15067516533
  30
0.0
  11
 185.45668560639
  21
 100.45067516533
  31
0.0
   0
LINE
   5
4D8
 100
AcDbEntity
   8
LEVEL002
 370
30
 100
AcDbLine
   6
CONTINUOUS
  62
7
  10
 185.45668560639
  20
 100.45067516533
  30
0.0
  11
 185.15668560639
  21
 100.15067516533
  31
0.0
   0
LINE
   5
4D9
 100
AcDbEntity
   8
LEVEL002
 370
30
 100
AcDbLine
   6
CONTINUOUS
  62
7
  10
 185.15668560639
  20
 100.15067516533
  30
0.0
  11
 182.45668560639
  21
 100.15067516533
  31
0.0
   0
LINE
   5
4DA
 100
AcDbEntity
   8
LEVEL002
 370
30
 100
AcDbLine
   6
CONTINUOUS
  62
7
  10
 182.45668560639
  20
 100.15067516533
  30
0.0
  11
 182.45668560639
  21
 98.550675165334
  31
0.0
   0
ARC
   5
4DB
 100
AcDbEntity
   8
LEVEL002
 370
30
   6
CONTINUOUS
  62
7
 100
AcDbCircle
  10
 188.85668560639
  20
 98.550675165334
  30
0.0
  40
 0.40000000000000
 100
AcDbArc
  50
 180.00000000001
  51
 270.00000000000
   0
LINE
   5
4DC
 100
AcDbEntity
   8
LEVEL002
 370
30
 100
AcDbLine
   6
CONTINUOUS
  62
7
  10
 189.05668560639
  20
 98.150675165334
  30
0.0
  11
 188.85668560639
  21
 98.150675165334
  31
0.0
   0
ARC
   5
4DD
 100
AcDbEntity
   8
LEVEL002
 370
30
   6
CONTINUOUS
  62
7
 100
AcDbCircle
  10
 189.05668560639
  20
 98.550675165334
  30
0.0
  40
 0.40000000000000
 100
AcDbArc
  50
 270.00000000000
  51
0.0
   0
LINE
   5
4DE
 100
AcDbEntity
   8
LEVEL002
 370
30
 100
AcDbLine
   6
CONTINUOUS
  62
7
  10
 197.95668560639
  20
 98.550675165334
  30
0.0
  11
 197.95668560639
  21
 99.373642203947
  31
0.0
   0
LINE
   5
4DF
 100
AcDbEntity
   8
LEVEL002
 370
30
 100
AcDbLine
   6
CONTINUOUS
  62
7
  10
 197.95668560639
  20
 99.373642203947
  30
0.0
  11
 194.89926800986
  21
 98.150675165334
  31
0.0
   0
LINE
   5
4E0
 100
AcDbEntity
   8
LEVEL002
 370
30
 100
AcDbLine
   6
CONTINUOUS
  62
7
  10
 194.89926800986
  20
 98.150675165334
  30
0.0
  11
 192.51410320280
  21
 98.150675165334
  31
0.0
   0
LINE
   5
4E1
 100
AcDbEntity
   8
LEVEL002
 370
30
 100
AcDbLine
   6
CONTINUOUS
  62
7
  10
 192.51410320280
  20
 98.150675165334
  30
0.0
  11
 189.45668560639
  21
 99.373642203898
  31
0.0
   0
LINE
   5
4E2
 100
AcDbEntity
   8
LEVEL002
 370
30
 100
AcDbLine
   6
CONTINUOUS
  62
7
  10
 189.45668560639
  20
 99.373642203898
  30
0.0
  11
 189.45668560639
  21
 98.550675165334
  31
0.0
   0
ARC
   5
4E3
 100
AcDbEntity
   8
LEVEL002
 370
30
   6
CONTINUOUS
  62
7
 100
AcDbCircle
  10
 198.35668560639
  20
 98.550675165334
  30
0.0
  40
 0.40000000000000
 100
AcDbArc
  50
 180.00000000002
  51
 270.00000000000
   0
LINE
   5
4E4
 100
AcDbEntity
   8
LEVEL002
 370
30
 100
AcDbLine
   6
CONTINUOUS
  62
7
  10
 198.55668560639
  20
 98.150675165334
  30
0.0
  11
 198.35668560639
  21
 98.150675165334
  31
0.0
   0
ARC
   5
4E5
 100
AcDbEntity
   8
LEVEL002
 370
30
   6
CONTINUOUS
  62
7
 100
AcDbCircle
  10
 198.55668560639
  20
 98.550675165334
  30
0.0
  40
 0.40000000000000
 100
AcDbArc
  50
 270.00000000000
  51
0.0
   0
LINE
   5
4E6
 100
AcDbEntity
   8
LEVEL002
 370
30
 100
AcDbLine
   6
CONTINUOUS
  62
7
  10
 204.95668560639
  20
 98.550675165334
  30
0.0
  11
 204.95668560639
  21
 100.15067516533
  31
0.0
   0
LINE
   5
4E7
 100
AcDbEntity
   8
LEVEL002
 370
30
 100
AcDbLine
   6
CONTINUOUS
  62
7
  10
 204.95668560639
  20
 100.15067516533
  30
0.0
  11
 202.25668560639
  21
 100.15067516533
  31
0.0
   0
LINE
   5
4E8
 100
AcDbEntity
   8
LEVEL002
 370
30
 100
AcDbLine
   6
CONTINUOUS
  62
7
  10
 202.25668560639
  20
 100.15067516533
  30
0.0
  11
 201.95668560639
  21
 100.45067516533
  31
0.0
   0
LINE
   5
4E9
 100
AcDbEntity
   8
LEVEL002
 370
30
 100
AcDbLine
   6
CONTINUOUS
  62
7
  10
 201.95668560639
  20
 100.45067516533
  30
0.0
  11
 201.65668560639
  21
 100.15067516533
  31
0.0
   0
LINE
   5
4EA
 100
AcDbEntity
   8
LEVEL002
 370
30
 100
AcDbLine
   6
CONTINUOUS
  62
7
  10
 201.65668560639
  20
 100.15067516533
  30
0.0
  11
 198.95668560639
  21
 100.15067516533
  31
0.0
   0
LINE
   5
4EB
 100
AcDbEntity
   8
LEVEL002
 370
30
 100
AcDbLine
   6
CONTINUOUS
  62
7
  10
 198.95668560639
  20
 100.15067516533
  30
0.0
  11
 198.95668560639
  21
 98.550675165334
  31
0.0
   0
ARC
   5
4EC
 100
AcDbEntity
   8
LEVEL002
 370
30
   6
CONTINUOUS
  62
7
 100
AcDbCircle
  10
 205.35668560639
  20
 98.550675165334
  30
0.0
  40
 0.40000000000000
 100
AcDbArc
  50
 179.99999999999
  51
 270.00000000000
   0
LINE
   5
4ED
 100
AcDbEntity
   8
LEVEL002
 370
30
 100
AcDbLine
   6
CONTINUOUS
  62
7
  10
 205.55668560639
  20
 98.150675165334
  30
0.0
  11
 205.35668560639
  21
 98.150675165334
  31
0.0
   0
ARC
   5
4EE
 100
AcDbEntity
   8
LEVEL002
 370
30
   6
CONTINUOUS
  62
7
 100
AcDbCircle
  10
 205.55668560639
  20
 98.550675165334
  30
0.0
  40
 0.40000000000000
 100
AcDbArc
  50
 270.00000000000
  51
0.0
   0
LINE
   5
4EF
 100
AcDbEntity
   8
LEVEL002
 370
30
 100
AcDbLine
   6
CONTINUOUS
  62
7
  10
 224.45668560639
  20
 98.550675165334
  30
0.0
  11
 224.45668560639
  21
 100.15067516533
  31
0.0
   0
LINE
   5
4F0
 100
AcDbEntity
   8
LEVEL002
 370
30
 100
AcDbLine
   6
CONTINUOUS
  62
7
  10
 224.45668560639
  20
 100.15067516533
  30
0.0
  11
 205.95668560639
  21
 100.15067516533
  31
0.0
   0
LINE
   5
4F1
 100
AcDbEntity
   8
LEVEL002
 370
30
 100
AcDbLine
   6
CONTINUOUS
  62
7
  10
 205.95668560639
  20
 100.15067516533
  30
0.0
  11
 205.95668560639
  21
 98.550675165334
  31
0.0
   0
ARC
   5
4F2
 100
AcDbEntity
   8
LEVEL002
 370
30
   6
CONTINUOUS
  62
7
 100
AcDbCircle
  10
 224.85668560639
  20
 98.550675165336
  30
0.0
  40
 0.40000000000000
 100
AcDbArc
  50
 180.00000000017
  51
 270.00000000000
   0
LINE
   5
4F3
 100
AcDbEntity
   8
LEVEL002
 370
30
 100
AcDbLine
   6
CONTINUOUS
  62
7
  10
 225.05668560639
  20
 98.150675165334
  30
0.0
  11
 224.85668560639
  21
 98.150675165334
  31
0.0
   0
ARC
   5
4F4
 100
AcDbEntity
   8
LEVEL002
 370
30
   6
CONTINUOUS
  62
7
 100
AcDbCircle
  10
 225.05668560639
  20
 98.550675165334
  30
0.0
  40
 0.40000000000000
 100
AcDbArc
  50
 270.00000000000
  51
0.0
   0
LINE
   5
4F5
 100
AcDbEntity
   8
LEVEL002
 370
30
 100
AcDbLine
   6
CONTINUOUS
  62
7
  10
 233.95668560639
  20
 98.550675165334
  30
0.0
  11
 233.95668560639
  21
 99.373642203908
  31
0.0
   0
LINE
   5
4F6
 100
AcDbEntity
   8
LEVEL002
 370
30
 100
AcDbLine
   6
CONTINUOUS
  62
7
  10
 233.95668560639
  20
 99.373642203908
  30
0.0
  11
 230.89926800995
  21
 98.150675165334
  31
0.0
   0
LINE
   5
4F7
 100
AcDbEntity
   8
LEVEL002
 370
30
 100
AcDbLine
   6
CONTINUOUS
  62
7
  10
 230.89926800995
  20
 98.150675165334
  30
0.0
  11
 228.51410320289
  21
 98.150675165334
  31
0.0
   0
LINE
   5
4F8
 100
AcDbEntity
   8
LEVEL002
 370
30
 100
AcDbLine
   6
CONTINUOUS
  62
7
  10
 228.51410320289
  20
 98.150675165334
  30
0.0
  11
 225.45668560639
  21
 99.373642203937
  31
0.0
   0
LINE
   5
4F9
 100
AcDbEntity
   8
LEVEL002
 370
30
 100
AcDbLine
   6
CONTINUOUS
  62
7
  10
 225.45668560639
  20
 99.373642203937
  30
0.0
  11
 225.45668560639
  21
 98.550675165334
  31
0.0
   0
ARC
   5
4FA
 100
AcDbEntity
   8
LEVEL002
 370
30
   6
CONTINUOUS
  62
7
 100
AcDbCircle
  10
 234.35668560639
  20
 98.550675165335
  30
0.0
  40
 0.40000000000000
 100
AcDbArc
  50
 180.00000000013
  51
 270.00000000000
   0
LINE
   5
4FB
 100
AcDbEntity
   8
LEVEL002
 370
30
 100
AcDbLine
   6
CONTINUOUS
  62
7
  10
 234.55668560639
  20
 98.150675165334
  30
0.0
  11
 234.35668560639
  21
 98.150675165334
  31
0.0
   0
ARC
   5
4FC
 100
AcDbEntity
   8
LEVEL002
 370
30
   6
CONTINUOUS
  62
7
 100
AcDbCircle
  10
 234.55668560639
  20
 98.550675165334
  30
0.0
  40
 0.40000000000000
 100
AcDbArc
  50
 270.00000000000
  51
0.0
   0
LINE
   5
4FD
 100
AcDbEntity
   8
LEVEL002
 370
30
 100
AcDbLine
   6
CONTINUOUS
  62
7
  10
 253.45668560639
  20
 98.550675165334
  30
0.0
  11
 253.45668560639
  21
 100.15067516533
  31
0.0
   0
LINE
   5
4FE
 100
AcDbEntity
   8
LEVEL002
 370
30
 100
AcDbLine
   6
CONTINUOUS
  62
7
  10
 253.45668560639
  20
 100.15067516533
  30
0.0
  11
 234.95668560639
  21
 100.15067516533
  31
0.0
   0
LINE
   5
4FF
 100
AcDbEntity
   8
LEVEL002
 370
30
 100
AcDbLine
   6
CONTINUOUS
  62
7
  10
 234.95668560639
  20
 100.15067516533
  30
0.0
  11
 234.95668560639
  21
 98.550675165334
  31
0.0
   0
ARC
   5
500
 100
AcDbEntity
   8
LEVEL002
 370
30
   6
CONTINUOUS
  62
7
 100
AcDbCircle
  10
 253.85668560639
  20
 98.550675165336
  30
0.0
  40
 0.40000000000000
 100
AcDbArc
  50
 180.00000000018
  51
 270.00000000000
   0
LINE
   5
501
 100
AcDbEntity
   8
LEVEL002
 370
30
 100
AcDbLine
   6
CONTINUOUS
  62
7
  10
 254.05668560639
  20
 98.150675165334
  30
0.0
  11
 253.85668560639
  21
 98.150675165334
  31
0.0
   0
ARC
   5
502
 100
AcDbEntity
   8
LEVEL002
 370
30
   6
CONTINUOUS
  62
7
 100
AcDbCircle
  10
 254.05668560639
  20
 98.550675165334
  30
0.0
  40
 0.40000000000000
 100
AcDbArc
  50
 270.00000000000
  51
0.0
   0
LINE
   5
503
 100
AcDbEntity
   8
LEVEL002
 370
30
 100
AcDbLine
   6
CONTINUOUS
  62
7
  10
 260.45668560639
  20
 98.550675165334
  30
0.0
  11
 260.45668560639
  21
 100.15067516533
  31
0.0
   0
LINE
   5
504
 100
AcDbEntity
   8
LEVEL002
 370
30
 100
AcDbLine
   6
CONTINUOUS
  62
7
  10
 260.45668560639
  20
 100.15067516533
  30
0.0
  11
 257.75668560639
  21
 100.15067516533
  31
0.0
   0
LINE
   5
505
 100
AcDbEntity
   8
LEVEL002
 370
30
 100
AcDbLine
   6
CONTINUOUS
  62
7
  10
 257.75668560639
  20
 100.15067516533
  30
0.0
  11
 257.45668560639
  21
 100.45067516533
  31
0.0
   0
LINE
   5
506
 100
AcDbEntity
   8
LEVEL002
 370
30
 100
AcDbLine
   6
CONTINUOUS
  62
7
  10
 257.45668560639
  20
 100.45067516533
  30
0.0
  11
 257.15668560639
  21
 100.15067516533
  31
0.0
   0
LINE
   5
507
 100
AcDbEntity
   8
LEVEL002
 370
30
 100
AcDbLine
   6
CONTINUOUS
  62
7
  10
 257.15668560639
  20
 100.15067516533
  30
0.0
  11
 254.45668560639
  21
 100.15067516533
  31
0.0
   0
LINE
   5
508
 100
AcDbEntity
   8
LEVEL002
 370
30
 100
AcDbLine
   6
CONTINUOUS
  62
7
  10
 254.45668560639
  20
 100.15067516533
  30
0.0
  11
 254.45668560639
  21
 98.550675165334
  31
0.0
   0
ARC
   5
509
 100
AcDbEntity
   8
LEVEL002
 370
30
   6
CONTINUOUS
  62
7
 100
AcDbCircle
  10
 260.85668560639
  20
 98.550675165335
  30
0.0
  40
 0.40000000000000
 100
AcDbArc
  50
 180.00000000013
  51
 270.00000000000
   0
LINE
   5
50A
 100
AcDbEntity
   8
LEVEL002
 370
30
 100
AcDbLine
   6
CONTINUOUS
  62
7
  10
 261.05668560639
  20
 98.150675165334
  30
0.0
  11
 260.85668560639
  21
 98.150675165334
  31
0.0
   0
ARC
   5
50B
 100
AcDbEntity
   8
LEVEL002
 370
30
   6
CONTINUOUS
  62
7
 100
AcDbCircle
  10
 261.05668560639
  20
 98.550675165334
  30
0.0
  40
 0.40000000000000
 100
AcDbArc
  50
 269.99999999999
  51
0.0
   0
LINE
   5
50C
 100
AcDbEntity
   8
LEVEL002
 370
30
 100
AcDbLine
   6
CONTINUOUS
  62
7
  10
 269.95668560639
  20
 98.550675165334
  30
0.0
  11
 269.95668560639
  21
 99.373642203932
  31
0.0
   0
LINE
   5
50D
 100
AcDbEntity
   8
LEVEL002
 370
30
 100
AcDbLine
   6
CONTINUOUS
  62
7
  10
 269.95668560639
  20
 99.373642203932
  30
0.0
  11
 266.89926800989
  21
 98.150675165334
  31
0.0
   0
LINE
   5
50E
 100
AcDbEntity
   8
LEVEL002
 370
30
 100
AcDbLine
   6
CONTINUOUS
  62
7
  10
 266.89926800989
  20
 98.150675165334
  30
0.0
  11
 264.51410320268
  21
 98.150675165334
  31
0.0
   0
LINE
   5
50F
 100
AcDbEntity
   8
LEVEL002
 370
30
 100
AcDbLine
   6
CONTINUOUS
  62
7
  10
 264.51410320268
  20
 98.150675165334
  30
0.0
  11
 261.45668560639
  21
 99.373642203850
  31
0.0
   0
LINE
   5
510
 100
AcDbEntity
   8
LEVEL002
 370
30
 100
AcDbLine
   6
CONTINUOUS
  62
7
  10
 261.45668560639
  20
 99.373642203850
  30
0.0
  11
 261.45668560639
  21
 98.550675165334
  31
0.0
   0
ARC
   5
511
 100
AcDbEntity
   8
LEVEL002
 370
30
   6
CONTINUOUS
  62
7
 100
AcDbCircle
  10
 270.35668560639
  20
 98.550675165335
  30
0.0
  40
 0.40000000000000
 100
AcDbArc
  50
 180.00000000009
  51
 270.00000000000
   0
LINE
   5
512
 100
AcDbEntity
   8
LEVEL002
 370
30
 100
AcDbLine
   6
CONTINUOUS
  62
7
  10
 270.55668560639
  20
 98.150675165334
  30
0.0
  11
 270.35668560639
  21
 98.150675165334
  31
0.0
   0
ARC
   5
513
 100
AcDbEntity
   8
LEVEL002
 370
30
   6
CONTINUOUS
  62
7
 100
AcDbCircle
  10
 270.55668560639
  20
 98.550675165334
  30
0.0
  40
 0.40000000000000
 100
AcDbArc
  50
 269.99999999999
  51
0.0
   0
LINE
   5
514
 100
AcDbEntity
   8
LEVEL002
 370
30
 100
AcDbLine
   6
CONTINUOUS
  62
7
  10
 276.95668560639
  20
 98.550675165334
  30
0.0
  11
 276.95668560639
  21
 100.15067516533
  31
0.0
   0
LINE
   5
515
 100
AcDbEntity
   8
LEVEL002
 370
30
 100
AcDbLine
   6
CONTINUOUS
  62
7
  10
 276.95668560639
  20
 100.15067516533
  30
0.0
  11
 274.25668560639
  21
 100.15067516533
  31
0.0
   0
LINE
   5
516
 100
AcDbEntity
   8
LEVEL002
 370
30
 100
AcDbLine
   6
CONTINUOUS
  62
7
  10
 274.25668560639
  20
 100.15067516533
  30
0.0
  11
 273.95668560639
  21
 100.45067516533
  31
0.0
   0
LINE
   5
517
 100
AcDbEntity
   8
LEVEL002
 370
30
 100
AcDbLine
   6
CONTINUOUS
  62
7
  10
 273.95668560639
  20
 100.45067516533
  30
0.0
  11
 273.65668560639
  21
 100.15067516533
  31
0.0
   0
LINE
   5
518
 100
AcDbEntity
   8
LEVEL002
 370
30
 100
AcDbLine
   6
CONTINUOUS
  62
7
  10
 273.65668560639
  20
 100.15067516533
  30
0.0
  11
 270.95668560639
  21
 100.15067516533
  31
0.0
   0
LINE
   5
519
 100
AcDbEntity
   8
LEVEL002
 370
30
 100
AcDbLine
   6
CONTINUOUS
  62
7
  10
 270.95668560639
  20
 100.15067516533
  30
0.0
  11
 270.95668560639
  21
 98.550675165334
  31
0.0
   0
ARC
   5
51A
 100
AcDbEntity
   8
LEVEL002
 370
30
   6
CONTINUOUS
  62
7
 100
AcDbCircle
  10
 277.35668560639
  20
 98.550675165335
  30
0.0
  40
 0.40000000000000
 100
AcDbArc
  50
 180.00000000003
  51
 270.00000000000
   0
LINE
   5
51B
 100
AcDbEntity
   8
LEVEL002
 370
30
 100
AcDbLine
   6
CONTINUOUS
  62
7
  10
 282.50668560639
  20
 98.150675165334
  30
0.0
  11
 281.90283802936
  21
 98.150675165334
  31
0.0
   0
LINE
   5
51C
 100
AcDbEntity
   8
LEVEL002
 370
30
 100
AcDbLine
   6
CONTINUOUS
  62
7
  10
 281.90283802936
  20
 98.150675165334
  30
0.0
  11
 278.43873641422
  21
 100.15067516533
  31
0.0
   0
LINE
   5
51D
 100
AcDbEntity
   8
LEVEL002
 370
30
 100
AcDbLine
   6
CONTINUOUS
  62
7
  10
 278.43873641422
  20
 100.15067516533
  30
0.0
  11
 277.95668560639
  21
 100.15067516533
  31
0.0
   0
LINE
   5
51E
 100
AcDbEntity
   8
LEVEL002
 370
30
 100
AcDbLine
   6
CONTINUOUS
  62
7
  10
 277.95668560639
  20
 100.15067516533
  30
0.0
  11
 277.95668560639
  21
 98.550675165334
  31
0.0
   0
LINE
   5
51F
 100
AcDbEntity
   8
LEVEL002
 370
30
 100
AcDbLine
   6
CONTINUOUS
  62
7
  10
 277.55668560639
  20
 98.150675165334
  30
0.0
  11
 277.35668560639
  21
 98.150675165334
  31
0.0
   0
ARC
   5
520
 100
AcDbEntity
   8
LEVEL002
 370
30
   6
CONTINUOUS
  62
7
 100
AcDbCircle
  10
 277.55668560639
  20
 98.550675165334
  30
0.0
  40
 0.40000000000000
 100
AcDbArc
  50
 269.99999999999
  51
0.0
   0
LINE
   5
521
 100
AcDbEntity
   8
LEVEL002
 370
30
 100
AcDbLine
   6
CONTINUOUS
  62
7
  10
 282.60668560639
  20
 98.899009115581
  30
0.0
  11
 278.70668560639
  21
 101.15067516542
  31
0.0
   0
LINE
   5
522
 100
AcDbEntity
   8
LEVEL002
 370
30
 100
AcDbLine
   6
CONTINUOUS
  62
7
  10
 278.70668560639
  20
 101.15067516542
  30
0.0
  11
 269.45668560639
  21
 101.15067516534
  31
0.0
   0
ARC
   5
523
 100
AcDbEntity
   8
LEVEL002
 370
30
   6
CONTINUOUS
  62
7
 100
AcDbCircle
  10
 269.45668560639
  20
 100.90067516534
  30
0.0
  40
 0.25000000000000
 100
AcDbArc
  50
 90.000000000521
  51
 179.99999999982
   0
LINE
   5
524
 100
AcDbEntity
   8
LEVEL002
 370
30
 100
AcDbLine
   6
CONTINUOUS
  62
7
  10
 269.20668560639
  20
 100.90067516534
  30
0.0
  11
 269.20668560639
  21
 100.15067516533
  31
0.0
   0
LINE
   5
525
 100
AcDbEntity
   8
LEVEL002
 370
30
 100
AcDbLine
   6
CONTINUOUS
  62
7
  10
 269.20668560639
  20
 100.15067516533
  30
0.0
  11
 266.70668560639
  21
 99.150675165334
  31
0.0
   0
LINE
   5
526
 100
AcDbEntity
   8
LEVEL002
 370
30
 100
AcDbLine
   6
CONTINUOUS
  62
7
  10
 266.70668560639
  20
 99.150675165334
  30
0.0
  11
 264.70668560639
  21
 99.150675165334
  31
0.0
   0
LINE
   5
527
 100
AcDbEntity
   8
LEVEL002
 370
30
 100
AcDbLine
   6
CONTINUOUS
  62
7
  10
 264.70668560639
  20
 99.150675165334
  30
0.0
  11
 262.20668560639
  21
 100.15067516533
  31
0.0
   0
LINE
   5
528
 100
AcDbEntity
   8
LEVEL002
 370
30
 100
AcDbLine
   6
CONTINUOUS
  62
7
  10
 262.20668560639
  20
 100.15067516533
  30
0.0
  11
 262.20668560639
  21
 100.90067516533
  31
0.0
   0
ARC
   5
529
 100
AcDbEntity
   8
LEVEL002
 370
30
   6
CONTINUOUS
  62
7
 100
AcDbCircle
  10
 261.95668560639
  20
 100.90067516533
  30
0.0
  40
 0.25000000000000
 100
AcDbArc
  50
0.0
  51
 90.000000000456
   0
LINE
   5
52A
 100
AcDbEntity
   8
LEVEL002
 370
30
 100
AcDbLine
   6
CONTINUOUS
  62
7
  10
 261.95668560639
  20
 101.15067516533
  30
0.0
  11
 233.45668560639
  21
 101.15067516533
  31
0.0
   0
ARC
   5
52B
 100
AcDbEntity
   8
LEVEL002
 370
30
   6
CONTINUOUS
  62
7
 100
AcDbCircle
  10
 233.45668560639
  20
 100.90067516533
  30
0.0
  40
 0.25000000000000
 100
AcDbArc
  50
 90.000000000000
  51
 179.99999999982
   0
LINE
   5
52C
 100
AcDbEntity
   8
LEVEL002
 370
30
 100
AcDbLine
   6
CONTINUOUS
  62
7
  10
 233.20668560639
  20
 100.90067516533
  30
0.0
  11
 233.20668560639
  21
 100.15067516533
  31
0.0
   0
LINE
   5
52D
 100
AcDbEntity
   8
LEVEL002
 370
30
 100
AcDbLine
   6
CONTINUOUS
  62
7
  10
 233.20668560639
  20
 100.15067516533
  30
0.0
  11
 230.70668560639
  21
 99.150675165334
  31
0.0
   0
LINE
   5
52E
 100
AcDbEntity
   8
LEVEL002
 370
30
 100
AcDbLine
   6
CONTINUOUS
  62
7
  10
 230.70668560639
  20
 99.150675165334
  30
0.0
  11
 228.70668560639
  21
 99.150675165334
  31
0.0
   0
LINE
   5
52F
 100
AcDbEntity
   8
LEVEL002
 370
30
 100
AcDbLine
   6
CONTINUOUS
  62
7
  10
 228.70668560639
  20
 99.150675165334
  30
0.0
  11
 226.20668560639
  21
 100.15067516533
  31
0.0
   0
LINE
   5
530
 100
AcDbEntity
   8
LEVEL002
 370
30
 100
AcDbLine
   6
CONTINUOUS
  62
7
  10
 226.20668560639
  20
 100.15067516533
  30
0.0
  11
 226.20668560639
  21
 100.90067516533
  31
0.0
   0
ARC
   5
531
 100
AcDbEntity
   8
LEVEL002
 370
30
   6
CONTINUOUS
  62
7
 100
AcDbCircle
  10
 225.95668560639
  20
 100.90067516533
  30
0.0
  40
 0.25000000000000
 100
AcDbArc
  50
0.0
  51
 90.000000000033
   0
LINE
   5
532
 100
AcDbEntity
   8
LEVEL002
 370
30
 100
AcDbLine
   6
CONTINUOUS
  62
7
  10
 225.95668560639
  20
 101.15067516533
  30
0.0
  11
 197.45668560639
  21
 101.15067516533
  31
0.0
   0
ARC
   5
533
 100
AcDbEntity
   8
LEVEL002
 370
30
   6
CONTINUOUS
  62
7
 100
AcDbCircle
  10
 197.45668560639
  20
 100.90067516534
  30
0.0
  40
 0.25000000000000
 100
AcDbArc
  50
 90.000000000000
  51
 180.00000000013
   0
LINE
   5
534
 100
AcDbEntity
   8
LEVEL002
 370
30
 100
AcDbLine
   6
CONTINUOUS
  62
7
  10
 197.20668560639
  20
 100.90067516533
  30
0.0
  11
 197.20668560639
  21
 100.15067516533
  31
0.0
   0
LINE
   5
535
 100
AcDbEntity
   8
LEVEL002
 370
30
 100
AcDbLine
   6
CONTINUOUS
  62
7
  10
 197.20668560639
  20
 100.15067516533
  30
0.0
  11
 194.70668560639
  21
 99.150675165334
  31
0.0
   0
LINE
   5
536
 100
AcDbEntity
   8
LEVEL002
 370
30
 100
AcDbLine
   6
CONTINUOUS
  62
7
  10
 194.70668560639
  20
 99.150675165334
  30
0.0
  11
 192.70668560639
  21
 99.150675165334
  31
0.0
   0
LINE
   5
537
 100
AcDbEntity
   8
LEVEL002
 370
30
 100
AcDbLine
   6
CONTINUOUS
  62
7
  10
 192.70668560639
  20
 99.150675165334
  30
0.0
  11
 190.20668560639
  21
 100.15067516533
  31
0.0
   0
LINE
   5
538
 100
AcDbEntity
   8
LEVEL002
 370
30
 100
AcDbLine
   6
CONTINUOUS
  62
7
  10
 190.20668560639
  20
 100.15067516533
  30
0.0
  11
 190.20668560639
  21
 100.90067516533
  31
0.0
   0
LINE
   5
539
 100
AcDbEntity
   8
LEVEL002
 370
30
 100
AcDbLine
   6
CONTINUOUS
  62
7
  10
 189.95668560638
  20
 101.15067516533
  30
0.0
  11
 180.70668560639
  21
 101.15067516521
  31
0.0
   0
LINE
   5
53A
 100
AcDbEntity
   8
LEVEL002
 370
30
 100
AcDbLine
   6
CONTINUOUS
  62
7
  10
 180.70668560639
  20
 101.15067516521
  30
0.0
  11
 176.80668560639
  21
 98.899009115372
  31
0.0
   0
ARC
   5
53B
 100
AcDbEntity
   8
LEVEL002
 370
30
   6
CONTINUOUS
  62
7
 100
AcDbCircle
  10
 189.95668560639
  20
 100.90067516533
  30
0.0
  40
 0.25000000000000
 100
AcDbArc
  50
0.0
  51
 90.000000000749
   0
LINE
   5
53C
 100
AcDbEntity
   8
LEVEL002
 370
15
 100
AcDbLine
   6
DASHDOT
  62
8
  10
 273.95668560639
  20
 103.79973857912
  30
0.0
  11
 273.95668560639
  21
 95.501611751635
  31
0.0
   0
LINE
   5
53D
 100
AcDbEntity
   8
LEVEL002
 370
15
 100
AcDbLine
   6
DASHDOT
  62
8
  10
 257.45668560639
  20
 103.79973857912
  30
0.0
  11
 257.45668560639
  21
 95.501611751635
  31
0.0
   0
LINE
   5
53E
 100
AcDbEntity
   8
LEVEL002
 370
15
 100
AcDbLine
   6
DASHDOT
  62
8
  10
 229.70668560639
  20
 103.79973857912
  30
0.0
  11
 229.70668560639
  21
 95.501611751635
  31
0.0
   0
LINE
   5
53F
 100
AcDbEntity
   8
LEVEL002
 370
15
 100
AcDbLine
   6
DASHDOT
  62
8
  10
 201.95668560639
  20
 103.79973857912
  30
0.0
  11
 201.95668560639
  21
 95.501611751635
  31
0.0
   0
LINE
   5
540
 100
AcDbEntity
   8
LEVEL002
 370
15
 100
AcDbLine
   6
DASHDOT
  62
8
  10
 193.70668560639
  20
 103.79973857912
  30
0.0
  11
 193.70668560639
  21
 95.501611751635
  31
0.0
   0
LINE
   5
541
 100
AcDbEntity
   8
LEVEL002
 370
15
 100
AcDbLine
   6
DASHDOT
  62
8
  10
 185.45668560639
  20
 103.79973857912
  30
0.0
  11
 185.45668560639
  21
 95.501611751635
  31
0.0
   0
LINE
   5
542
 100
AcDbEntity
   8
LEVEL002
 370
15
 100
AcDbLine
   6
DASHDOT
  62
8
  10
 265.70668560639
  20
 105.49860553818
  30
0.0
  11
 265.70668560639
  21
 95.501611751635
  31
0.0
   0
DIMENSION
   5
543
 100
AcDbEntity
   8
LEVEL001
 370
15
   6
CONTINUOUS
  62
8
 100
AcDbDimension
   2
*D21
  10
 58.462758143348
  20
 106.15067516533
  30
0.0
  11
 49.888073824949
  21
 106.15067516533
  31
0.0
  70
128
   3
GMM011
 100
AcDbAlignedDimension
  13
 51.462758143348
  23
 100.90067516533
  33
0.0
  14
 58.462758143348
  24
 100.90067516533
  34
0.0
 100
AcDbRotatedDimension
   0
DIMENSION
   5
544
 100
AcDbEntity
   8
LEVEL001
 370
15
   6
CONTINUOUS
  62
8
 100
AcDbDimension
   2
*D22
  10
 87.962758143348
  20
 111.15067516533
  30
0.0
  11
 71.462758143348
  21
 111.15067516533
  31
0.0
  70
0
   3
GMM008
 100
AcDbAlignedDimension
  13
 54.962758143348
  23
 102.80227564550
  33
0.0
  14
 87.962758143348
  24
 102.80227564550
  34
0.0
 100
AcDbRotatedDimension
   0
DIMENSION
   5
545
 100
AcDbEntity
   8
LEVEL001
 370
15
   6
CONTINUOUS
  62
8
 100
AcDbDimension
   2
*D23
  10
 120.96275814335
  20
 111.15067516533
  30
0.0
  11
 104.46275814335
  21
 111.15067516533
  31
0.0
  70
0
   3
GMM008
 100
AcDbAlignedDimension
  13
 87.962758143348
  23
 102.80227564550
  33
0.0
  14
 120.96275814335
  24
 102.80227564550
  34
0.0
 100
AcDbRotatedDimension
   0
DIMENSION
   5
546
 100
AcDbEntity
   8
LEVEL001
 370
15
   6
CONTINUOUS
  62
8
 100
AcDbDimension
   2
*D24
  10
 137.96275814335
  20
 116.15067516533
  30
0.0
  11
 87.962758143349
  21
 116.15067516533
  31
0.0
  70
0
   3
GMM008
 100
AcDbAlignedDimension
  13
 37.962758143348
  23
 98.725804034615
  33
0.0
  14
 137.96275814335
  24
 98.725804034824
  34
0.0
 100
AcDbRotatedDimension
   0
DIMENSION
   5
547
 100
AcDbEntity
   8
LEVEL001
 370
15
   6
CONTINUOUS
  62
8
 100
AcDbDimension
   2
*D25
  10
 143.83417095182
  20
 101.15067516542
  30
0.0
  11
 143.83417095182
  21
 103.86072692668
  31
0.0
  70
128
   3
GMM010
 100
AcDbAlignedDimension
  13
 137.76275814335
  23
 98.150675165334
  33
0.0
  14
 133.96275814335
  24
 101.15067516542
  34
0.0
  50
 90.000000000000
 100
AcDbRotatedDimension
   0
ARC
   5
548
 100
AcDbEntity
   8
LEVEL002
 370
30
   6
CONTINUOUS
  62
7
 100
AcDbCircle
  10
 137.76275814335
  20
 98.350675165334
  30
0.0
  40
 0.20000000000000
 100
AcDbArc
  50
 270.00000000034
  51
0.0
   0
ARC
   5
549
 100
AcDbEntity
   8
LEVEL002
 370
30
   6
CONTINUOUS
  62
7
 100
AcDbCircle
  10
 137.76275814335
  20
 98.725804034825
  30
0.0
  40
 0.20000000000000
 100
AcDbArc
  50
0.0
  51
 59.999999999879
   0
LINE
   5
54A
 100
AcDbEntity
   8
LEVEL002
 370
30
 100
AcDbLine
   6
CONTINUOUS
  62
7
  10
 137.96275814335
  20
 98.725804034824
  30
0.0
  11
 137.96275814335
  21
 98.350675165334
  31
0.0
   0
ARC
   5
54B
 100
AcDbEntity
   8
LEVEL002
 370
30
   6
CONTINUOUS
  62
7
 100
AcDbCircle
  10
 132.61275814335
  20
 98.550675165336
  30
0.0
  40
 0.40000000000000
 100
AcDbArc
  50
 180.00000000030
  51
 270.00000000000
   0
LINE
   5
54C
 100
AcDbEntity
   8
LEVEL002
 370
30
 100
AcDbLine
   6
CONTINUOUS
  62
7
  10
 132.81275814335
  20
 98.150675165334
  30
0.0
  11
 132.61275814335
  21
 98.150675165334
  31
0.0
   0
ARC
   5
54D
 100
AcDbEntity
   8
LEVEL002
 370
30
   6
CONTINUOUS
  62
7
 100
AcDbCircle
  10
 132.81275814335
  20
 98.550675165334
  30
0.0
  40
 0.40000000000000
 100
AcDbArc
  50
 270.00000000003
  51
 0.40711099922732E-11
   0
LINE
   5
54E
 100
AcDbEntity
   8
LEVEL002
 370
30
 100
AcDbLine
   6
CONTINUOUS
  62
7
  10
 137.86275814335
  20
 98.899009115581
  30
0.0
  11
 133.96275814335
  21
 101.15067516542
  31
0.0
   0
LINE
   5
54F
 100
AcDbEntity
   8
LEVEL002
 370
30
 100
AcDbLine
   6
CONTINUOUS
  62
7
  10
 133.96275814335
  20
 101.15067516542
  30
0.0
  11
 124.71275814335
  21
 101.15067516534
  31
0.0
   0
LINE
   5
550
 100
AcDbEntity
   8
LEVEL002
 370
30
 100
AcDbLine
   6
CONTINUOUS
  62
7
  10
 137.76275814335
  20
 98.150675165334
  30
0.0
  11
 137.15891056632
  21
 98.150675165334
  31
0.0
   0
LINE
   5
551
 100
AcDbEntity
   8
LEVEL002
 370
30
 100
AcDbLine
   6
CONTINUOUS
  62
7
  10
 137.15891056632
  20
 98.150675165334
  30
0.0
  11
 133.69480895118
  21
 100.15067516533
  31
0.0
   0
LINE
   5
552
 100
AcDbEntity
   8
LEVEL002
 370
30
 100
AcDbLine
   6
CONTINUOUS
  62
7
  10
 133.69480895118
  20
 100.15067516533
  30
0.0
  11
 133.21275814335
  21
 100.15067516533
  31
0.0
   0
LINE
   5
553
 100
AcDbEntity
   8
LEVEL002
 370
30
 100
AcDbLine
   6
CONTINUOUS
  62
7
  10
 133.21275814335
  20
 100.15067516533
  30
0.0
  11
 133.21275814335
  21
 98.550675165334
  31
0.0
   0
ARC
   5
554
 100
AcDbEntity
   8
LEVEL002
 370
30
   6
CONTINUOUS
  62
7
 100
AcDbCircle
  10
 59.612758143348
  20
 98.550675165334
  30
0.0
  40
 0.40000000000000
 100
AcDbArc
  50
 179.99999999996
  51
 270.00000000000
   0
LINE
   5
555
 100
AcDbEntity
   8
LEVEL002
 370
30
 100
AcDbLine
   6
CONTINUOUS
  62
7
  10
 59.812758143348
  20
 98.150675165334
  30
0.0
  11
 59.612758143348
  21
 98.150675165334
  31
0.0
   0
ARC
   5
556
 100
AcDbEntity
   8
LEVEL002
 370
30
   6
CONTINUOUS
  62
7
 100
AcDbCircle
  10
 59.812758143349
  20
 98.550675165334
  30
0.0
  40
 0.40000000000000
 100
AcDbArc
  50
 270.00000000000
  51
 0.40711099922733E-11
   0
ARC
   5
557
 100
AcDbEntity
   8
LEVEL002
 370
30
   6
CONTINUOUS
  62
7
 100
AcDbCircle
  10
 66.612758143348
  20
 98.550675165335
  30
0.0
  40
 0.40000000000000
 100
AcDbArc
  50
 180.00000000005
  51
 270.00000000000
   0
LINE
   5
558
 100
AcDbEntity
   8
LEVEL002
 370
30
 100
AcDbLine
   6
CONTINUOUS
  62
7
  10
 66.812758143348
  20
 98.150675165334
  30
0.0
  11
 66.612758143348
  21
 98.150675165334
  31
0.0
   0
ARC
   5
559
 100
AcDbEntity
   8
LEVEL002
 370
30
   6
CONTINUOUS
  62
7
 100
AcDbCircle
  10
 66.812758143348
  20
 98.550675165334
  30
0.0
  40
 0.40000000000000
 100
AcDbArc
  50
 270.00000000004
  51
 0.40711099922732E-11
   0
ARC
   5
55A
 100
AcDbEntity
   8
LEVEL002
 370
30
   6
CONTINUOUS
  62
7
 100
AcDbCircle
  10
 83.112758143348
  20
 98.550675165336
  30
0.0
  40
 0.40000000000000
 100
AcDbArc
  50
 180.00000000018
  51
 270.00000000000
   0
LINE
   5
55B
 100
AcDbEntity
   8
LEVEL002
 370
30
 100
AcDbLine
   6
CONTINUOUS
  62
7
  10
 83.312758143348
  20
 98.150675165334
  30
0.0
  11
 83.112758143348
  21
 98.150675165334
  31
0.0
   0
ARC
   5
55C
 100
AcDbEntity
   8
LEVEL002
 370
30
   6
CONTINUOUS
  62
7
 100
AcDbCircle
  10
 83.312758143349
  20
 98.550675165334
  30
0.0
  40
 0.40000000000000
 100
AcDbArc
  50
 270.00000000000
  51
 0.40711099922732E-11
   0
ARC
   5
55D
 100
AcDbEntity
   8
LEVEL002
 370
30
   6
CONTINUOUS
  62
7
 100
AcDbCircle
  10
 92.612758143348
  20
 98.550675165335
  30
0.0
  40
 0.40000000000000
 100
AcDbArc
  50
 180.00000000013
  51
 270.00000000000
   0
LINE
   5
55E
 100
AcDbEntity
   8
LEVEL002
 370
30
 100
AcDbLine
   6
CONTINUOUS
  62
7
  10
 92.812758143348
  20
 98.150675165334
  30
0.0
  11
 92.612758143348
  21
 98.150675165334
  31
0.0
   0
ARC
   5
55F
 100
AcDbEntity
   8
LEVEL002
 370
30
   6
CONTINUOUS
  62
7
 100
AcDbCircle
  10
 92.812758143349
  20
 98.550675165334
  30
0.0
  40
 0.40000000000000
 100
AcDbArc
  50
 270.00000000000
  51
 0.40711099922732E-11
   0
ARC
   5
560
 100
AcDbEntity
   8
LEVEL002
 370
30
   6
CONTINUOUS
  62
7
 100
AcDbCircle
  10
 109.11275814335
  20
 98.550675165337
  30
0.0
  40
 0.40000000000000
 100
AcDbArc
  50
 180.00000000044
  51
 270.00000000000
   0
LINE
   5
561
 100
AcDbEntity
   8
LEVEL002
 370
30
 100
AcDbLine
   6
CONTINUOUS
  62
7
  10
 109.31275814335
  20
 98.150675165334
  30
0.0
  11
 109.11275814335
  21
 98.150675165334
  31
0.0
   0
ARC
   5
562
 100
AcDbEntity
   8
LEVEL002
 370
30
   6
CONTINUOUS
  62
7
 100
AcDbCircle
  10
 109.31275814335
  20
 98.550675165334
  30
0.0
  40
 0.40000000000000
 100
AcDbArc
  50
 270.00000000000
  51
 0.40711099922732E-11
   0
ARC
   5
563
 100
AcDbEntity
   8
LEVEL002
 370
30
   6
CONTINUOUS
  62
7
 100
AcDbCircle
  10
 116.11275814335
  20
 98.550675165335
  30
0.0
  40
 0.40000000000000
 100
AcDbArc
  50
 180.00000000006
  51
 270.00000000000
   0
LINE
   5
564
 100
AcDbEntity
   8
LEVEL002
 370
30
 100
AcDbLine
   6
CONTINUOUS
  62
7
  10
 116.31275814335
  20
 98.150675165334
  30
0.0
  11
 116.11275814335
  21
 98.150675165334
  31
0.0
   0
ARC
   5
565
 100
AcDbEntity
   8
LEVEL002
 370
30
   6
CONTINUOUS
  62
7
 100
AcDbCircle
  10
 116.31275814335
  20
 98.550675165334
  30
0.0
  40
 0.40000000000000
 100
AcDbArc
  50
 270.00000000000
  51
 0.40711099922732E-11
   0
ARC
   5
566
 100
AcDbEntity
   8
LEVEL002
 370
30
   6
CONTINUOUS
  62
7
 100
AcDbCircle
  10
 125.61275814335
  20
 98.550675165334
  30
0.0
  40
 0.40000000000000
 100
AcDbArc
  50
 180.00000000000
  51
 270.00000000000
   0
LINE
   5
567
 100
AcDbEntity
   8
LEVEL002
 370
30
 100
AcDbLine
   6
CONTINUOUS
  62
7
  10
 125.81275814335
  20
 98.150675165334
  30
0.0
  11
 125.61275814335
  21
 98.150675165334
  31
0.0
   0
ARC
   5
568
 100
AcDbEntity
   8
LEVEL002
 370
30
   6
CONTINUOUS
  62
7
 100
AcDbCircle
  10
 125.81275814335
  20
 98.550675165334
  30
0.0
  40
 0.40000000000000
 100
AcDbArc
  50
 270.00000000000
  51
 0.40711099922732E-11
   0
ARC
   5
569
 100
AcDbEntity
   8
LEVEL002
 370
30
   6
CONTINUOUS
  62
7
 100
AcDbCircle
  10
 124.71275814335
  20
 100.90067516533
  30
0.0
  40
 0.25000000000000
 100
AcDbArc
  50
 90.000000000521
  51
 179.99999999944
   0
ARC
   5
56A
 100
AcDbEntity
   8
LEVEL002
 370
30
   6
CONTINUOUS
  62
7
 100
AcDbCircle
  10
 117.21275814335
  20
 100.90067516533
  30
0.0
  40
 0.25000000000000
 100
AcDbArc
  50
0.0
  51
 90.000000000443
   0
LINE
   5
56B
 100
AcDbEntity
   8
LEVEL002
 370
30
 100
AcDbLine
   6
CONTINUOUS
  62
7
  10
 117.21275814335
  20
 101.15067516533
  30
0.0
  11
 91.712758143348
  21
 101.15067516533
  31
0.0
   0
ARC
   5
56C
 100
AcDbEntity
   8
LEVEL002
 370
30
   6
CONTINUOUS
  62
7
 100
AcDbCircle
  10
 91.712758143348
  20
 100.90067516533
  30
0.0
  40
 0.25000000000000
 100
AcDbArc
  50
 90.000000000000
  51
 179.99999999982
   0
ARC
   5
56D
 100
AcDbEntity
   8
LEVEL002
 370
30
   6
CONTINUOUS
  62
7
 100
AcDbCircle
  10
 84.212758143349
  20
 100.90067516533
  30
0.0
  40
 0.25000000000000
 100
AcDbArc
  50
0.0
  51
 90.000000000026
   0
LINE
   5
56E
 100
AcDbEntity
   8
LEVEL002
 370
30
 100
AcDbLine
   6
CONTINUOUS
  62
7
  10
 84.212758143348
  20
 101.15067516533
  30
0.0
  11
 58.712758143348
  21
 101.15067516533
  31
0.0
   0
ARC
   5
56F
 100
AcDbEntity
   8
LEVEL002
 370
30
   6
CONTINUOUS
  62
7
 100
AcDbCircle
  10
 58.712758143348
  20
 100.90067516533
  30
0.0
  40
 0.25000000000000
 100
AcDbArc
  50
 90.000000000000
  51
 180.00000000001
   0
LINE
   5
570
 100
AcDbEntity
   8
LEVEL002
 370
30
 100
AcDbLine
   6
CONTINUOUS
  62
7
  10
 58.462758143348
  20
 100.90067516533
  30
0.0
  11
 58.462758143348
  21
 100.15067516533
  31
0.0
   0
LINE
   5
571
 100
AcDbEntity
   8
LEVEL002
 370
30
 100
AcDbLine
   6
CONTINUOUS
  62
7
  10
 58.462758143348
  20
 100.15067516533
  30
0.0
  11
 55.962758143348
  21
 99.150675165334
  31
0.0
   0
LINE
   5
572
 100
AcDbEntity
   8
LEVEL002
 370
30
 100
AcDbLine
   6
CONTINUOUS
  62
7
  10
 55.962758143348
  20
 99.150675165334
  30
0.0
  11
 53.962758143348
  21
 99.150675165334
  31
0.0
   0
LINE
   5
573
 100
AcDbEntity
   8
LEVEL002
 370
30
 100
AcDbLine
   6
CONTINUOUS
  62
7
  10
 91.462758143348
  20
 100.90067516533
  30
0.0
  11
 91.462758143348
  21
 100.15067516533
  31
0.0
   0
LINE
   5
574
 100
AcDbEntity
   8
LEVEL002
 370
30
 100
AcDbLine
   6
CONTINUOUS
  62
7
  10
 91.462758143348
  20
 100.15067516533
  30
0.0
  11
 88.962758143348
  21
 99.150675165334
  31
0.0
   0
LINE
   5
575
 100
AcDbEntity
   8
LEVEL002
 370
30
 100
AcDbLine
   6
CONTINUOUS
  62
7
  10
 88.962758143348
  20
 99.150675165334
  30
0.0
  11
 86.962758143348
  21
 99.150675165334
  31
0.0
   0
LINE
   5
576
 100
AcDbEntity
   8
LEVEL002
 370
30
 100
AcDbLine
   6
CONTINUOUS
  62
7
  10
 86.962758143348
  20
 99.150675165334
  30
0.0
  11
 84.462758143348
  21
 100.15067516533
  31
0.0
   0
LINE
   5
577
 100
AcDbEntity
   8
LEVEL002
 370
30
 100
AcDbLine
   6
CONTINUOUS
  62
7
  10
 84.462758143348
  20
 100.15067516533
  30
0.0
  11
 84.462758143348
  21
 100.90067516533
  31
0.0
   0
LINE
   5
578
 100
AcDbEntity
   8
LEVEL002
 370
30
 100
AcDbLine
   6
CONTINUOUS
  62
7
  10
 124.46275814335
  20
 100.90067516534
  30
0.0
  11
 124.46275814335
  21
 100.15067516533
  31
0.0
   0
LINE
   5
579
 100
AcDbEntity
   8
LEVEL002
 370
30
 100
AcDbLine
   6
CONTINUOUS
  62
7
  10
 124.46275814335
  20
 100.15067516533
  30
0.0
  11
 121.96275814335
  21
 99.150675165334
  31
0.0
   0
LINE
   5
57A
 100
AcDbEntity
   8
LEVEL002
 370
30
 100
AcDbLine
   6
CONTINUOUS
  62
7
  10
 121.96275814335
  20
 99.150675165334
  30
0.0
  11
 119.96275814335
  21
 99.150675165334
  31
0.0
   0
LINE
   5
57B
 100
AcDbEntity
   8
LEVEL002
 370
30
 100
AcDbLine
   6
CONTINUOUS
  62
7
  10
 119.96275814335
  20
 99.150675165334
  30
0.0
  11
 117.46275814335
  21
 100.15067516533
  31
0.0
   0
LINE
   5
57C
 100
AcDbEntity
   8
LEVEL002
 370
30
 100
AcDbLine
   6
CONTINUOUS
  62
7
  10
 117.46275814335
  20
 100.15067516533
  30
0.0
  11
 117.46275814335
  21
 100.90067516533
  31
0.0
   0
LINE
   5
57D
 100
AcDbEntity
   8
LEVEL002
 370
30
 100
AcDbLine
   6
CONTINUOUS
  62
7
  10
 132.21275814335
  20
 98.550675165334
  30
0.0
  11
 132.21275814335
  21
 100.15067516533
  31
0.0
   0
LINE
   5
57E
 100
AcDbEntity
   8
LEVEL002
 370
30
 100
AcDbLine
   6
CONTINUOUS
  62
7
  10
 132.21275814335
  20
 100.15067516533
  30
0.0
  11
 129.51275814335
  21
 100.15067516533
  31
0.0
   0
LINE
   5
57F
 100
AcDbEntity
   8
LEVEL002
 370
30
 100
AcDbLine
   6
CONTINUOUS
  62
7
  10
 129.51275814335
  20
 100.15067516533
  30
0.0
  11
 129.21275814335
  21
 100.45067516533
  31
0.0
   0
LINE
   5
580
 100
AcDbEntity
   8
LEVEL002
 370
30
 100
AcDbLine
   6
CONTINUOUS
  62
7
  10
 129.21275814335
  20
 100.45067516533
  30
0.0
  11
 128.91275814335
  21
 100.15067516533
  31
0.0
   0
LINE
   5
581
 100
AcDbEntity
   8
LEVEL002
 370
30
 100
AcDbLine
   6
CONTINUOUS
  62
7
  10
 128.91275814335
  20
 100.15067516533
  30
0.0
  11
 126.21275814335
  21
 100.15067516533
  31
0.0
   0
LINE
   5
582
 100
AcDbEntity
   8
LEVEL002
 370
30
 100
AcDbLine
   6
CONTINUOUS
  62
7
  10
 126.21275814335
  20
 100.15067516533
  30
0.0
  11
 126.21275814335
  21
 98.550675165334
  31
0.0
   0
LINE
   5
583
 100
AcDbEntity
   8
LEVEL002
 370
30
 100
AcDbLine
   6
CONTINUOUS
  62
7
  10
 125.21275814335
  20
 98.550675165334
  30
0.0
  11
 125.21275814335
  21
 99.373642203932
  31
0.0
   0
LINE
   5
584
 100
AcDbEntity
   8
LEVEL002
 370
30
 100
AcDbLine
   6
CONTINUOUS
  62
7
  10
 125.21275814335
  20
 99.373642203932
  30
0.0
  11
 122.15534054685
  21
 98.150675165334
  31
0.0
   0
LINE
   5
585
 100
AcDbEntity
   8
LEVEL002
 370
30
 100
AcDbLine
   6
CONTINUOUS
  62
7
  10
 122.15534054685
  20
 98.150675165334
  30
0.0
  11
 119.77017573964
  21
 98.150675165334
  31
0.0
   0
LINE
   5
586
 100
AcDbEntity
   8
LEVEL002
 370
30
 100
AcDbLine
   6
CONTINUOUS
  62
7
  10
 119.77017573964
  20
 98.150675165334
  30
0.0
  11
 116.71275814335
  21
 99.373642203850
  31
0.0
   0
LINE
   5
587
 100
AcDbEntity
   8
LEVEL002
 370
30
 100
AcDbLine
   6
CONTINUOUS
  62
7
  10
 116.71275814335
  20
 99.373642203850
  30
0.0
  11
 116.71275814335
  21
 98.550675165334
  31
0.0
   0
LINE
   5
588
 100
AcDbEntity
   8
LEVEL002
 370
30
 100
AcDbLine
   6
CONTINUOUS
  62
7
  10
 115.71275814335
  20
 98.550675165334
  30
0.0
  11
 115.71275814335
  21
 100.15067516533
  31
0.0
   0
LINE
   5
589
 100
AcDbEntity
   8
LEVEL002
 370
30
 100
AcDbLine
   6
CONTINUOUS
  62
7
  10
 115.71275814335
  20
 100.15067516533
  30
0.0
  11
 113.01275814335
  21
 100.15067516533
  31
0.0
   0
LINE
   5
58A
 100
AcDbEntity
   8
LEVEL002
 370
30
 100
AcDbLine
   6
CONTINUOUS
  62
7
  10
 113.01275814335
  20
 100.15067516533
  30
0.0
  11
 112.71275814335
  21
 100.45067516533
  31
0.0
   0
LINE
   5
58B
 100
AcDbEntity
   8
LEVEL002
 370
30
 100
AcDbLine
   6
CONTINUOUS
  62
7
  10
 112.71275814335
  20
 100.45067516533
  30
0.0
  11
 112.41275814335
  21
 100.15067516533
  31
0.0
   0
LINE
   5
58C
 100
AcDbEntity
   8
LEVEL002
 370
30
 100
AcDbLine
   6
CONTINUOUS
  62
7
  10
 112.41275814335
  20
 100.15067516533
  30
0.0
  11
 109.71275814335
  21
 100.15067516533
  31
0.0
   0
LINE
   5
58D
 100
AcDbEntity
   8
LEVEL002
 370
30
 100
AcDbLine
   6
CONTINUOUS
  62
7
  10
 109.71275814335
  20
 100.15067516533
  30
0.0
  11
 109.71275814335
  21
 98.550675165334
  31
0.0
   0
LINE
   5
58E
 100
AcDbEntity
   8
LEVEL002
 370
30
 100
AcDbLine
   6
CONTINUOUS
  62
7
  10
 108.71275814335
  20
 98.550675165334
  30
0.0
  11
 108.71275814335
  21
 100.15067516533
  31
0.0
   0
LINE
   5
58F
 100
AcDbEntity
   8
LEVEL002
 370
30
 100
AcDbLine
   6
CONTINUOUS
  62
7
  10
 108.71275814335
  20
 100.15067516533
  30
0.0
  11
 93.212758143348
  21
 100.15067516533
  31
0.0
   0
LINE
   5
590
 100
AcDbEntity
   8
LEVEL002
 370
30
 100
AcDbLine
   6
CONTINUOUS
  62
7
  10
 93.212758143348
  20
 100.15067516533
  30
0.0
  11
 93.212758143348
  21
 98.550675165334
  31
0.0
   0
LINE
   5
591
 100
AcDbEntity
   8
LEVEL002
 370
30
 100
AcDbLine
   6
CONTINUOUS
  62
7
  10
 92.212758143348
  20
 98.550675165334
  30
0.0
  11
 92.212758143348
  21
 99.373642203908
  31
0.0
   0
LINE
   5
592
 100
AcDbEntity
   8
LEVEL002
 370
30
 100
AcDbLine
   6
CONTINUOUS
  62
7
  10
 92.212758143348
  20
 99.373642203908
  30
0.0
  11
 89.155340546914
  21
 98.150675165334
  31
0.0
   0
LINE
   5
593
 100
AcDbEntity
   8
LEVEL002
 370
30
 100
AcDbLine
   6
CONTINUOUS
  62
7
  10
 89.155340546914
  20
 98.150675165334
  30
0.0
  11
 86.770175739855
  21
 98.150675165334
  31
0.0
   0
LINE
   5
594
 100
AcDbEntity
   8
LEVEL002
 370
30
 100
AcDbLine
   6
CONTINUOUS
  62
7
  10
 86.770175739855
  20
 98.150675165334
  30
0.0
  11
 83.712758143348
  21
 99.373642203937
  31
0.0
   0
LINE
   5
595
 100
AcDbEntity
   8
LEVEL002
 370
30
 100
AcDbLine
   6
CONTINUOUS
  62
7
  10
 83.712758143348
  20
 99.373642203937
  30
0.0
  11
 83.712758143348
  21
 98.550675165334
  31
0.0
   0
LINE
   5
596
 100
AcDbEntity
   8
LEVEL002
 370
30
 100
AcDbLine
   6
CONTINUOUS
  62
7
  10
 82.712758143348
  20
 98.550675165334
  30
0.0
  11
 82.712758143348
  21
 100.15067516533
  31
0.0
   0
LINE
   5
597
 100
AcDbEntity
   8
LEVEL002
 370
30
 100
AcDbLine
   6
CONTINUOUS
  62
7
  10
 82.712758143348
  20
 100.15067516533
  30
0.0
  11
 67.212758143348
  21
 100.15067516533
  31
0.0
   0
LINE
   5
598
 100
AcDbEntity
   8
LEVEL002
 370
30
 100
AcDbLine
   6
CONTINUOUS
  62
7
  10
 67.212758143348
  20
 100.15067516533
  30
0.0
  11
 67.212758143348
  21
 98.550675165334
  31
0.0
   0
LINE
   5
599
 100
AcDbEntity
   8
LEVEL002
 370
30
 100
AcDbLine
   6
CONTINUOUS
  62
7
  10
 66.212758143348
  20
 98.550675165334
  30
0.0
  11
 66.212758143348
  21
 100.15067516533
  31
0.0
   0
LINE
   5
59A
 100
AcDbEntity
   8
LEVEL002
 370
30
 100
AcDbLine
   6
CONTINUOUS
  62
7
  10
 66.212758143348
  20
 100.15067516533
  30
0.0
  11
 63.512758143348
  21
 100.15067516533
  31
0.0
   0
LINE
   5
59B
 100
AcDbEntity
   8
LEVEL002
 370
30
 100
AcDbLine
   6
CONTINUOUS
  62
7
  10
 63.512758143348
  20
 100.15067516533
  30
0.0
  11
 63.212758143348
  21
 100.45067516533
  31
0.0
   0
LINE
   5
59C
 100
AcDbEntity
   8
LEVEL002
 370
30
 100
AcDbLine
   6
CONTINUOUS
  62
7
  10
 63.212758143348
  20
 100.45067516533
  30
0.0
  11
 62.912758143348
  21
 100.15067516533
  31
0.0
   0
LINE
   5
59D
 100
AcDbEntity
   8
LEVEL002
 370
30
 100
AcDbLine
   6
CONTINUOUS
  62
7
  10
 62.912758143348
  20
 100.15067516533
  30
0.0
  11
 60.212758143348
  21
 100.15067516533
  31
0.0
   0
LINE
   5
59E
 100
AcDbEntity
   8
LEVEL002
 370
30
 100
AcDbLine
   6
CONTINUOUS
  62
7
  10
 60.212758143348
  20
 100.15067516533
  30
0.0
  11
 60.212758143348
  21
 98.550675165334
  31
0.0
   0
LINE
   5
59F
 100
AcDbEntity
   8
LEVEL002
 370
30
 100
AcDbLine
   6
CONTINUOUS
  62
7
  10
 59.212758143348
  20
 98.550675165334
  30
0.0
  11
 59.212758143348
  21
 99.373642203947
  31
0.0
   0
LINE
   5
5A0
 100
AcDbEntity
   8
LEVEL002
 370
30
 100
AcDbLine
   6
CONTINUOUS
  62
7
  10
 59.212758143348
  20
 99.373642203947
  30
0.0
  11
 56.155340546818
  21
 98.150675165334
  31
0.0
   0
LINE
   5
5A1
 100
AcDbEntity
   8
LEVEL002
 370
30
 100
AcDbLine
   6
CONTINUOUS
  62
7
  10
 56.155340546818
  20
 98.150675165334
  30
0.0
  11
 53.770175739758
  21
 98.150675165334
  31
0.0
   0
ARC
   5
5A2
 100
AcDbEntity
   8
LEVEL002
 370
30
   6
CONTINUOUS
  62
7
 100
AcDbCircle
  10
 38.162758143348
  20
 98.725804034615
  30
0.0
  40
 0.20000000000000
 100
AcDbArc
  50
 120.00000000003
  51
 180.00000000006
   0
LINE
   5
5A3
 100
AcDbEntity
   8
LEVEL002
 370
30
 100
AcDbLine
   6
CONTINUOUS
  62
7
  10
 37.962758143348
  20
 98.725804034615
  30
0.0
  11
 37.962758143348
  21
 98.350675165334
  31
0.0
   0
ARC
   5
5A4
 100
AcDbEntity
   8
LEVEL002
 370
30
   6
CONTINUOUS
  62
7
 100
AcDbCircle
  10
 38.162758143349
  20
 98.350675165334
  30
0.0
  40
 0.20000000000000
 100
AcDbArc
  50
 180.00000000000
  51
 270.00000000000
   0
ARC
   5
5A5
 100
AcDbEntity
   8
LEVEL002
 370
30
   6
CONTINUOUS
  62
7
 100
AcDbCircle
  10
 43.112758143348
  20
 98.550675165335
  30
0.0
  40
 0.40000000000000
 100
AcDbArc
  50
 180.00000000004
  51
 270.00000000000
   0
LINE
   5
5A6
 100
AcDbEntity
   8
LEVEL002
 370
30
 100
AcDbLine
   6
CONTINUOUS
  62
7
  10
 43.312758143348
  20
 98.150675165334
  30
0.0
  11
 43.112758143348
  21
 98.150675165334
  31
0.0
   0
ARC
   5
5A7
 100
AcDbEntity
   8
LEVEL002
 370
30
   6
CONTINUOUS
  62
7
 100
AcDbCircle
  10
 43.312758143349
  20
 98.550675165334
  30
0.0
  40
 0.40000000000000
 100
AcDbArc
  50
 270.00000000000
  51
 0.40711099922733E-11
   0
ARC
   5
5A8
 100
AcDbEntity
   8
LEVEL002
 370
30
   6
CONTINUOUS
  62
7
 100
AcDbCircle
  10
 50.112758143348
  20
 98.550675165335
  30
0.0
  40
 0.40000000000000
 100
AcDbArc
  50
 180.00000000003
  51
 270.00000000000
   0
LINE
   5
5A9
 100
AcDbEntity
   8
LEVEL002
 370
30
 100
AcDbLine
   6
CONTINUOUS
  62
7
  10
 50.312758143348
  20
 98.150675165334
  30
0.0
  11
 50.112758143348
  21
 98.150675165334
  31
0.0
   0
ARC
   5
5AA
 100
AcDbEntity
   8
LEVEL002
 370
30
   6
CONTINUOUS
  62
7
 100
AcDbCircle
  10
 50.312758143349
  20
 98.550675165334
  30
0.0
  40
 0.40000000000000
 100
AcDbArc
  50
 270.00000000000
  51
 0.40711099922733E-11
   0
ARC
   5
5AB
 100
AcDbEntity
   8
LEVEL002
 370
30
   6
CONTINUOUS
  62
7
 100
AcDbCircle
  10
 51.212758143348
  20
 100.90067516533
  30
0.0
  40
 0.25000000000000
 100
AcDbArc
  50
0.0
  51
 90.000000000743
   0
LINE
   5
5AC
 100
AcDbEntity
   8
LEVEL002
 370
30
 100
AcDbLine
   6
CONTINUOUS
  62
7
  10
 51.212758143345
  20
 101.15067516533
  30
0.0
  11
 41.962758143348
  21
 101.15067516521
  31
0.0
   0
LINE
   5
5AD
 100
AcDbEntity
   8
LEVEL002
 370
30
 100
AcDbLine
   6
CONTINUOUS
  62
7
  10
 41.962758143348
  20
 101.15067516521
  30
0.0
  11
 38.062758143348
  21
 98.899009115372
  31
0.0
   0
LINE
   5
5AE
 100
AcDbEntity
   8
LEVEL002
 370
30
 100
AcDbLine
   6
CONTINUOUS
  62
7
  10
 53.962758143348
  20
 99.150675165334
  30
0.0
  11
 51.462758143348
  21
 100.15067516533
  31
0.0
   0
LINE
   5
5AF
 100
AcDbEntity
   8
LEVEL002
 370
30
 100
AcDbLine
   6
CONTINUOUS
  62
7
  10
 51.462758143348
  20
 100.15067516533
  30
0.0
  11
 51.462758143348
  21
 100.90067516533
  31
0.0
   0
LINE
   5
5B0
 100
AcDbEntity
   8
LEVEL002
 370
30
 100
AcDbLine
   6
CONTINUOUS
  62
7
  10
 53.770175739758
  20
 98.150675165334
  30
0.0
  11
 50.712758143348
  21
 99.373642203898
  31
0.0
   0
LINE
   5
5B1
 100
AcDbEntity
   8
LEVEL002
 370
30
 100
AcDbLine
   6
CONTINUOUS
  62
7
  10
 50.712758143348
  20
 99.373642203898
  30
0.0
  11
 50.712758143348
  21
 98.550675165334
  31
0.0
   0
LINE
   5
5B2
 100
AcDbEntity
   8
LEVEL002
 370
30
 100
AcDbLine
   6
CONTINUOUS
  62
7
  10
 49.712758143348
  20
 98.550675165334
  30
0.0
  11
 49.712758143348
  21
 100.15067516533
  31
0.0
   0
LINE
   5
5B3
 100
AcDbEntity
   8
LEVEL002
 370
30
 100
AcDbLine
   6
CONTINUOUS
  62
7
  10
 49.712758143348
  20
 100.15067516533
  30
0.0
  11
 47.012758143348
  21
 100.15067516533
  31
0.0
   0
LINE
   5
5B4
 100
AcDbEntity
   8
LEVEL002
 370
30
 100
AcDbLine
   6
CONTINUOUS
  62
7
  10
 47.012758143348
  20
 100.15067516533
  30
0.0
  11
 46.712758143348
  21
 100.45067516533
  31
0.0
   0
LINE
   5
5B5
 100
AcDbEntity
   8
LEVEL002
 370
30
 100
AcDbLine
   6
CONTINUOUS
  62
7
  10
 46.712758143348
  20
 100.45067516533
  30
0.0
  11
 46.412758143348
  21
 100.15067516533
  31
0.0
   0
LINE
   5
5B6
 100
AcDbEntity
   8
LEVEL002
 370
30
 100
AcDbLine
   6
CONTINUOUS
  62
7
  10
 46.412758143348
  20
 100.15067516533
  30
0.0
  11
 43.712758143348
  21
 100.15067516533
  31
0.0
   0
LINE
   5
5B7
 100
AcDbEntity
   8
LEVEL002
 370
30
 100
AcDbLine
   6
CONTINUOUS
  62
7
  10
 43.712758143348
  20
 100.15067516533
  30
0.0
  11
 43.712758143348
  21
 98.550675165334
  31
0.0
   0
LINE
   5
5B8
 100
AcDbEntity
   8
LEVEL002
 370
30
 100
AcDbLine
   6
CONTINUOUS
  62
7
  10
 42.712758143348
  20
 98.550675165334
  30
0.0
  11
 42.712758143348
  21
 100.15067516533
  31
0.0
   0
LINE
   5
5B9
 100
AcDbEntity
   8
LEVEL002
 370
30
 100
AcDbLine
   6
CONTINUOUS
  62
7
  10
 42.712758143348
  20
 100.15067516533
  30
0.0
  11
 42.230707336108
  21
 100.15067516533
  31
0.0
   0
LINE
   5
5BA
 100
AcDbEntity
   8
LEVEL002
 370
30
 100
AcDbLine
   6
CONTINUOUS
  62
7
  10
 42.230707336108
  20
 100.15067516533
  30
0.0
  11
 38.766605720971
  21
 98.150675165334
  31
0.0
   0
LINE
   5
5BB
 100
AcDbEntity
   8
LEVEL002
 370
30
 100
AcDbLine
   6
CONTINUOUS
  62
7
  10
 38.766605720971
  20
 98.150675165334
  30
0.0
  11
 38.162758143348
  21
 98.150675165334
  31
0.0
   0
LINE
   5
5BC
 100
AcDbEntity
   8
LEVEL002
 370
15
 100
AcDbLine
   6
DASHDOT
  62
8
  10
 46.712758143348
  20
 102.80227564550
  30
0.0
  11
 46.712758143348
  21
 98.150675165334
  31
0.0
   0
LINE
   5
5BD
 100
AcDbEntity
   8
LEVEL002
 370
15
 100
AcDbLine
   6
DASHDOT
  62
8
  10
 63.212758143348
  20
 102.80227564550
  30
0.0
  11
 63.212758143348
  21
 98.150675165334
  31
0.0
   0
LINE
   5
5BE
 100
AcDbEntity
   8
LEVEL002
 370
15
 100
AcDbLine
   6
DASHDOT
  62
8
  10
 112.71275814335
  20
 102.80227564550
  30
0.0
  11
 112.71275814335
  21
 98.150675165334
  31
0.0
   0
LINE
   5
5BF
 100
AcDbEntity
   8
LEVEL002
 370
15
 100
AcDbLine
   6
DASHDOT
  62
8
  10
 129.21275814335
  20
 102.80227564550
  30
0.0
  11
 129.21275814335
  21
 98.150675165334
  31
0.0
   0
LINE
   5
5C0
 100
AcDbEntity
   8
LEVEL002
 370
15
 100
AcDbLine
   6
DASHDOT
  62
8
  10
 54.962758143348
  20
 102.80227564550
  30
0.0
  11
 54.962758143348
  21
 96.576493799581
  31
0.0
   0
LINE
   5
5C1
 100
AcDbEntity
   8
LEVEL002
 370
15
 100
AcDbLine
   6
DASHDOT
  62
8
  10
 87.962758143348
  20
 102.80227564550
  30
0.0
  11
 87.962758143348
  21
 96.576493799581
  31
0.0
   0
LINE
   5
5C2
 100
AcDbEntity
   8
LEVEL002
 370
15
 100
AcDbLine
   6
DASHDOT
  62
8
  10
 120.96275814335
  20
 102.80227564550
  30
0.0
  11
 120.96275814335
  21
 96.576493799581
  31
0.0
   0
MTEXT
   5
5C4
 100
AcDbEntity
   8
LEVEL001
 370
15
  62
8
 100
AcDbMText
  10
 15.799999999950
  20
 143.50000000001
  30
0.0
  40
 3.0000000000000
  41
0.0
  71
4
  72
1
   1
\W0.500000;\T1.000000; \W1.000000;\T1.000000;　ＡＭＴ３３／ＡＭＴ３３Ｍ
   7
GMM002
  44
 0.79999984000003
   0
MTEXT
   5
5C6
 100
AcDbEntity
   8
LEVEL001
 370
15
  62
8
 100
AcDbMText
  10
 160.29999999995
  20
 143.50000000001
  30
0.0
  40
 3.0000000000000
  41
0.0
  71
4
  72
1
   1
\W0.500000;\T1.000000; \W1.000000;\T1.000000;　ＡＭＴ３６／ＡＭＴ３６Ｍ
   7
GMM002
  44
 0.79999984000003
   0
MTEXT
   5
5C8
 100
AcDbEntity
   8
LEVEL002
 370
15
  62
8
 100
AcDbMText
  10
 319.49999999995
  20
 207.91666666670
  30
0.0
  40
 3.5000000000000
  41
0.0
  71
1
  72
1
   3
{\W1.000000;\T1.000000;材質：Ａ６０６３Ｓ－Ｔ５}\P\P{\W1.000000;\T1.000000;仕上：アルマイト処理}\P{\W1.000000;\T1.000000;　　　フッ素樹脂塗装}\P\P{\W1.000000;\T1.000000;　　　アルマイト処理}\P{\W1.000000;\T1.000000;　色：Ｂ２　シルバー}\P{\W1.000000;
   3
\T1.000000;　　　ＵＢ　アーバンブラウン}\P{\W1.000000;\T1.000000;　　　フッ素樹脂塗装}\P{\W1.000000;\T1.000000;　色：ＬＢ　ライトブラウン}\P{\W1.000000;\T1.000000;　　　ＭＢ　ミディアムブラウン}\P{\W1.000000;\T1.000000;　　}\P{\W1.000000;\T1.000000;
   3
長さ（定尺）：１８３０\W0.500000;\T1.000000;mm}\P{\W1.000000;\T1.000000;　　　　　　　２７４０\W0.500000;\T1.000000;mm}\P{\W1.000000;\T1.000000;　　　　　　　３６６０\W0.500000;\T1.000000;mm}\P{\W1.000000;\T1.000000;　　　　　　　２０１０\W0.500000;\
   3
T1.000000;mm}\P{\W1.000000;\T1.000000;　　　　　　　３０１０\W0.500000;\T1.000000;mm}\P{\W1.000000;\T1.000000;　　　　　　　４０２０\W0.500000;\T1.000000;mm}\P\P{\W1.000000;\T1.000000;備考：レール}\P{\W1.000000;\T1.000000;　　　加齢対応薄型}\P{\W1.00
   1
0000;\T1.000000;　　　ＳＵＳ皿木ネジ（２\W0.500000;\T1.000000;.\W1.000000;\T1.000000;７×１６×穴数）}
   7
GMM002
  44
 0.79999984000003
   0
MTEXT
   5
5CA
 100
AcDbEntity
   8
LEVEL002
 370
15
  62
8
 100
AcDbMText
  10
 379.49999999995
  20
 20.083333333345
  30
0.0
  40
 2.5000000000000
  41
0.0
  71
5
  72
1
   1
\T1.000000;ＰＦ－４
   7
GMM002
  44
 0.79999984000003
   0
ENDSEC
  0
SECTION
  2
OBJECTS
  0
DICTIONARY
  5
C
100
AcDbDictionary
  3
ACAD_GROUP
350
D
  3
ACAD_MLINESTYLE
350
1B
  3
DWGPROPS
350
1C
  0
DICTIONARY
  5
D
102
{ACAD_REACTORS
330
C
102
}
100
AcDbDictionary
  0
DICTIONARY
  5
1B
102
{ACAD_REACTORS
330
C
102
}
100
AcDbDictionary
  3
STANDARD
350
1D
  0
MLINESTYLE
  5
1D
102
{ACAD_REACTORS
330
1B
102
}
100
AcDbMlineStyle
  2
STANDARD
 70
     0
  3

 62
   256
 51
90.0
 52
90.0
 71
     2
 49
0.5
 62
   256
  6
BYLAYER
 49
-0.5
 62
   256
  6
BYLAYER
   0
XRECORD
   5
1C
 102
{ACAD_REACTORS
 330
C
 102
}
 330
C
 100
AcDbXrecord
 280
1
   1
DWGPROPS COOKIE
   2
 
   3
 
   4
haruna
   6
 
   7
ﾊﾟﾙﾌﾗｯﾄﾚｰﾙ-V溝(Mﾀｲﾌﾟ③)(AM型)
   8
haruna
   9

 300
 = 
 301
 = 
 302
 = 
 303
 = 
 304
 = 
 305
 = 
 306
 = 
 307
 = 
 308
 = 
 309
 = 
  40
0.0
  41
 2459766.5000000
  42
 2459850.5000000
   1

  90
10
   0
ENDSEC
   0
EOF
