   0
SECTION
   2
HEADER
   9
$ACADVER
   1
AC1015
   9
$DWGCODEPAGE
   3
ANSI_932
   9
$LIMMIN
  10
0.0
  20
0.0
   9
$LIMMAX
  10
 420.00000000000
  20
 297.00000000000
   9
$EXTMIN
  10
0.0
  20
0.0
  30
0.0
   9
$EXTMAX
  10
 420.00000000000
  20
 297.00000000000
  30
0.0
   9
$LTSCALE
  40
 8.4000000000000
   9
$HANDSEED
   5
3FA
   0
ENDSEC
   0
SECTION
   2
TABLES
  0
TABLE
  2
VPORT
  5
8
100
AcDbSymbolTable
 70
     1
  0
VPORT
  5
3F9
100
AcDbSymbolTableRecord
100
AcDbViewportTableRecord
  2
*ACTIVE
 70
     0
 10
0.0
 20
0.0
 11
1.0
 21
1.0
  12
 210.00000000000
  22
 148.50000000000
 13
0.0
 23
0.0
 14
1.0
 24
1.0
 15
0.0
 25
0.0
 16
0.0
 26
0.0
 36
1.0
 17
0.0
 27
0.0
 37
0.0
  40
 420.00000000000
  41
 1.4787878787879
 42
50.0
 43
0.0
 44
0.0
 50
0.0
 51
0.0
 71
     0
 72
   100
 73
     1
 74
     1
 75
     0
 76
     0
 77
     0
 78
     0
  0
ENDTAB
  0
TABLE
  2
LTYPE
  5
5
100
AcDbSymbolTable
 70
    25
  0
LTYPE
  5
12
100
AcDbSymbolTableRecord
100
AcDbLinetypeTableRecord
  2
BYBLOCK
 70
     0
  3

 72
    65
 73
     0
 40
0.0
  0
LTYPE
  5
13
100
AcDbSymbolTableRecord
100
AcDbLinetypeTableRecord
  2
BYLAYER
 70
     0
  3

 72
    65
 73
     0
 40
0.0
  0
LTYPE
  5
14
100
AcDbSymbolTableRecord
100
AcDbLinetypeTableRecord
  2
CONTINUOUS
 70
     0
  3
Solid line
 72
    65
 73
     0
 40
0.0
  0
LTYPE
  5
20
100
AcDbSymbolTableRecord
100
AcDbLinetypeTableRecord
  2
BORDER
 70
     0
  3
__ __ . __ __ . __ __ . __ __ . __ __ . __ __ .
 72
    65
 73
     6
 40
1.75
 49
0.5
 74
     0
 49
-0.25
 74
     0
 49
0.5
 74
     0
 49
-0.25
 74
     0
 49
0.0
 74
     0
 49
-0.25
 74
     0
  0
LTYPE
  5
21
100
AcDbSymbolTableRecord
100
AcDbLinetypeTableRecord
  2
BORDER2
 70
     0
  3
__.__.__.__.__.__.__.__.__.__.__.__.__.__.__.__
 72
    65
 73
     6
 40
0.875
 49
0.25
 74
     0
 49
-0.125
 74
     0
 49
0.25
 74
     0
 49
-0.125
 74
     0
 49
0.0
 74
     0
 49
-0.125
 74
     0
  0
LTYPE
  5
22
100
AcDbSymbolTableRecord
100
AcDbLinetypeTableRecord
  2
BORDERX2
 70
     0
  3
____  ____  .  ____  ____  .  ____  ____  .  __
 72
    65
 73
     6
 40
3.5
 49
1.0
 74
     0
 49
-0.5
 74
     0
 49
1.0
 74
     0
 49
-0.5
 74
     0
 49
0.0
 74
     0
 49
-0.5
 74
     0
  0
LTYPE
  5
23
100
AcDbSymbolTableRecord
100
AcDbLinetypeTableRecord
  2
CENTER
 70
     0
  3
____ _ ____ _ ____ _ ____ _ ____ _ ____ _ ____ 
 72
    65
 73
     4
 40
2.0
 49
1.25
 74
     0
 49
-0.25
 74
     0
 49
0.25
 74
     0
 49
-0.25
 74
     0
  0
LTYPE
  5
24
100
AcDbSymbolTableRecord
100
AcDbLinetypeTableRecord
  2
CENTER2
 70
     0
  3
___ _ ___ _ ___ _ ___ _ ___ _ ___ _ ___ _ ___ _
 72
    65
 73
     4
 40
1.125
 49
0.75
 74
     0
 49
-0.125
 74
     0
 49
0.125
 74
     0
 49
-0.125
 74
     0
  0
LTYPE
  5
25
100
AcDbSymbolTableRecord
100
AcDbLinetypeTableRecord
  2
CENTERX2
 70
     0
  3
________  __  ________  __  ________  __  _____
 72
    65
 73
     4
 40
4.0
 49
2.5
 74
     0
 49
-0.5
 74
     0
 49
0.5
 74
     0
 49
-0.5
 74
     0
  0
LTYPE
  5
26
100
AcDbSymbolTableRecord
100
AcDbLinetypeTableRecord
  2
DASHDOT
 70
     0
  3
__ . __ . __ . __ . __ . __ . __ . __ . __ . __
 72
    65
 73
     4
 40
1.0
 49
0.5
 74
     0
 49
-0.25
 74
     0
 49
0.0
 74
     0
 49
-0.25
 74
     0
  0
LTYPE
  5
27
100
AcDbSymbolTableRecord
100
AcDbLinetypeTableRecord
  2
DASHDOT2
 70
     0
  3
_._._._._._._._._._._._._._._._._._._._._._._._
 72
    65
 73
     4
 40
0.5
 49
0.25
 74
     0
 49
-0.125
 74
     0
 49
0.0
 74
     0
 49
-0.125
 74
     0
  0
LTYPE
  5
28
100
AcDbSymbolTableRecord
100
AcDbLinetypeTableRecord
  2
DASHDOTX2
 70
     0
  3
____  .  ____  .  ____  .  ____  .  ____  .  __
 72
    65
 73
     4
 40
2.0
 49
1.0
 74
     0
 49
-0.5
 74
     0
 49
0.0
 74
     0
 49
-0.5
 74
     0
  0
LTYPE
  5
29
100
AcDbSymbolTableRecord
100
AcDbLinetypeTableRecord
  2
DASHED
 70
     0
  3
__ __ __ __ __ __ __ __ __ __ __ __ __ __ __ __
 72
    65
 73
     2
 40
0.75
 49
0.5
 74
     0
 49
-0.25
 74
     0
  0
LTYPE
  5
2A
100
AcDbSymbolTableRecord
100
AcDbLinetypeTableRecord
  2
DASHED2
 70
     0
  3
_ _ _ _ _ _ _ _ _ _ _ _ _ _ _ _ _ _ _ _ _ _ _ _
 72
    65
 73
     2
 40
0.375
 49
0.25
 74
     0
 49
-0.125
 74
     0
  0
LTYPE
  5
2B
100
AcDbSymbolTableRecord
100
AcDbLinetypeTableRecord
  2
DASHEDX2
 70
     0
  3
____  ____  ____  ____  ____  ____  ____  ____ 
 72
    65
 73
     2
 40
1.5
 49
1.0
 74
     0
 49
-0.5
 74
     0
  0
LTYPE
  5
2C
100
AcDbSymbolTableRecord
100
AcDbLinetypeTableRecord
  2
DIVIDE
 70
     0
  3
____ . . ____ . . ____ . . ____ . . ____ . . __
 72
    65
 73
     6
 40
1.25
 49
0.5
 74
     0
 49
-0.25
 74
     0
 49
0.0
 74
     0
 49
-0.25
 74
     0
 49
0.0
 74
     0
 49
-0.25
 74
     0
  0
LTYPE
  5
2D
100
AcDbSymbolTableRecord
100
AcDbLinetypeTableRecord
  2
DIVIDE2
 70
     0
  3
__..__..__..__..__..__..__..__..__..__..__..__.
 72
    65
 73
     6
 40
0.625
 49
0.25
 74
     0
 49
-0.125
 74
     0
 49
0.0
 74
     0
 49
-0.125
 74
     0
 49
0.0
 74
     0
 49
-0.125
 74
     0
  0
LTYPE
  5
2E
100
AcDbSymbolTableRecord
100
AcDbLinetypeTableRecord
  2
DIVIDEX2
 70
     0
  3
________  .  .  ________  .  .  ________  .  . 
 72
    65
 73
     6
 40
2.5
 49
1.0
 74
     0
 49
-0.5
 74
     0
 49
0.0
 74
     0
 49
-0.5
 74
     0
 49
0.0
 74
     0
 49
-0.5
 74
     0
  0
LTYPE
  5
2F
100
AcDbSymbolTableRecord
100
AcDbLinetypeTableRecord
  2
DOT
 70
     0
  3
. . . . . . . . . . . . . . . . . . . . . . . .
 72
    65
 73
     2
 40
0.25
 49
0.0
 74
     0
 49
-0.25
 74
     0
  0
LTYPE
  5
30
100
AcDbSymbolTableRecord
100
AcDbLinetypeTableRecord
  2
DOT2
 70
     0
  3
...............................................
 72
    65
 73
     2
 40
0.125
 49
0.0
 74
     0
 49
-0.125
 74
     0
  0
LTYPE
  5
31
100
AcDbSymbolTableRecord
100
AcDbLinetypeTableRecord
  2
DOTX2
 70
     0
  3
.  .  .  .  .  .  .  .  .  .  .  .  .  .  .  . 
 72
    65
 73
     2
 40
0.5
 49
0.0
 74
     0
 49
-0.5
 74
     0
  0
LTYPE
  5
32
100
AcDbSymbolTableRecord
100
AcDbLinetypeTableRecord
  2
HIDDEN
 70
     0
  3
__ __ __ __ __ __ __ __ __ __ __ __ __ __ __ __
 72
    65
 73
     2
 40
0.375
 49
0.25
 74
     0
 49
-0.125
 74
     0
  0
LTYPE
  5
33
100
AcDbSymbolTableRecord
100
AcDbLinetypeTableRecord
  2
HIDDEN2
 70
     0
  3
_ _ _ _ _ _ _ _ _ _ _ _ _ _ _ _ _ _ _ _ _ _ _ _
 72
    65
 73
     2
 40
0.1875
 49
0.125
 74
     0
 49
-0.0625
 74
     0
  0
LTYPE
  5
34
100
AcDbSymbolTableRecord
100
AcDbLinetypeTableRecord
  2
HIDDENX2
 70
     0
  3
____ ____ ____ ____ ____ ____ ____ ____ ____ __
 72
    65
 73
     2
 40
0.75
 49
0.5
 74
     0
 49
-0.25
 74
     0
  0
LTYPE
  5
35
100
AcDbSymbolTableRecord
100
AcDbLinetypeTableRecord
  2
PHANTOM
 70
     0
  3
______  __  __  ______  __  __  ______  __  __ 
 72
    65
 73
     6
 40
2.5
 49
1.25
 74
     0
 49
-0.25
 74
     0
 49
0.25
 74
     0
 49
-0.25
 74
     0
 49
0.25
 74
     0
 49
-0.25
 74
     0
  0
LTYPE
  5
36
100
AcDbSymbolTableRecord
100
AcDbLinetypeTableRecord
  2
PHANTOM2
 70
     0
  3
___ _ _ ___ _ _ ___ _ _ ___ _ _ ___ _ _ ___ _ _
 72
    65
 73
     6
 40
1.25
 49
0.625
 74
     0
 49
-0.125
 74
     0
 49
0.125
 74
     0
 49
-0.125
 74
     0
 49
0.125
 74
     0
 49
-0.125
 74
     0
  0
LTYPE
  5
37
100
AcDbSymbolTableRecord
100
AcDbLinetypeTableRecord
  2
PHANTOMX2
 70
     0
  3
____________    ____    ____    ____________   
 72
    65
 73
     6
 40
5.0
 49
2.5
 74
     0
 49
-0.5
 74
     0
 49
0.5
 74
     0
 49
-0.5
 74
     0
 49
0.5
 74
     0
 49
-0.5
 74
     0
  0
ENDTAB
   0
TABLE
   2
LAYER
   5
2
 100
AcDbSymbolTable
  70
6
   0
LAYER
   5
E
 100
AcDbSymbolTableRecord
 100
AcDbLayerTableRecord
   2
0
  70
0
  62
7
   6
CONTINUOUS
 390
30
   0
LAYER
   5
39
 100
AcDbSymbolTableRecord
 100
AcDbLayerTableRecord
   2
LEVEL001
  70
0
  62
7
   6
CONTINUOUS
 390
30
   0
LAYER
   5
3A
 100
AcDbSymbolTableRecord
 100
AcDbLayerTableRecord
   2
LEVEL002
  70
0
  62
7
   6
CONTINUOUS
 390
30
   0
LAYER
   5
3B
 100
AcDbSymbolTableRecord
 100
AcDbLayerTableRecord
   2
LEVEL003
  70
0
  62
7
   6
CONTINUOUS
 390
30
   0
LAYER
   5
3C
 100
AcDbSymbolTableRecord
 100
AcDbLayerTableRecord
   2
LEVEL004
  70
0
  62
7
   6
CONTINUOUS
 390
30
   0
LAYER
   5
3D
 100
AcDbSymbolTableRecord
 100
AcDbLayerTableRecord
   2
LEVEL005
  70
0
  62
7
   6
CONTINUOUS
 390
30
   0
ENDTAB
  0
TABLE
  2
STYLE
  5
3
100
AcDbSymbolTable
  70
6
  0
STYLE
  5
F
100
AcDbSymbolTableRecord
100
AcDbTextStyleTableRecord
  2
STANDARD
 70
     0
 40
0.0
 41
1.0
 50
0.0
 71
     0
 42
0.2
  3
TXT
  4
BIGFONT
  0
STYLE
  5
38
100
AcDbSymbolTableRecord
100
AcDbTextStyleTableRecord
  2
STANDARD1
 70
     4
 40
0.0
 41
1.0
 50
0.0
 71
     0
 42
0.2
  3
TXT
  4
BIGFONT
   0
STYLE
   5
3E
 100
AcDbSymbolTableRecord
 100
AcDbTextStyleTableRecord
   2
GMM001
  70
0
  40
0.0
  41
 0.80000000000000
  50
0.0
  71
     0
  42
1.0
   3
txt.shx
   4
bigfont.shx
   0
STYLE
   5
3F
 100
AcDbSymbolTableRecord
 100
AcDbTextStyleTableRecord
   2
GMM002
  70
0
  40
0.0
  41
 1.0000000000000
  50
0.0
  71
     0
  42
1.0
   3
txt.shx
   4
bigfont.shx
   0
STYLE
   5
40
 100
AcDbSymbolTableRecord
 100
AcDbTextStyleTableRecord
   2
GMM003
  70
0
  40
0.0
  41
 1.0714285714286
  50
0.0
  71
     0
  42
1.0
   3
txt.shx
   4
bigfont.shx
   0
STYLE
   5
41
 100
AcDbSymbolTableRecord
 100
AcDbTextStyleTableRecord
   2
GMM004
  70
0
  40
0.0
  41
 0.88888888888889
  50
0.0
  71
     0
  42
1.0
   3
txt.shx
   4
bigfont.shx
   0
ENDTAB
  0
TABLE
  2
VIEW
  5
6
100
AcDbSymbolTable
 70
     0
  0
ENDTAB
  0
TABLE
  2
UCS
  5
7
100
AcDbSymbolTable
 70
     0
  0
ENDTAB
  0
TABLE
  2
APPID
  5
9
100
AcDbSymbolTable
 70
     1
  0
APPID
  5
10
100
AcDbSymbolTableRecord
100
AcDbRegAppTableRecord
  2
ACAD
 70
     0
  0
ENDTAB
   0
TABLE
   2
DIMSTYLE
   5
A
 100
AcDbSymbolTable
  70
13
 100
AcDbDimStyleTable
  0
DIMSTYLE
105
1D
100
AcDbSymbolTableRecord
100
AcDbDimStyleTableRecord
  2
STANDARD
 70
     0
  3

  4

  5

  6

  7

 40
1.0
 41
0.18
 42
0.0625
 43
0.38
 44
0.18
 45
0.0
 46
0.0
 47
0.0
 48
0.0
140
0.18
141
0.09
142
0.0
143
25.4
144
1.0
145
0.0
146
1.0
147
0.09
 71
     0
 72
     0
 73
     1
 74
     1
 75
     0
 76
     0
 77
     0
 78
     0
170
     0
171
     2
172
     0
173
     0
174
     0
175
     0
176
     0
177
     0
178
     0
270
     2
271
     4
272
     4
273
     2
274
     2
340
F
275
     0
280
     0
281
     0
282
     0
283
     1
284
     0
285
     0
286
     0
287
     3
288
     0
   0
DIMSTYLE
 105
42
 100
AcDbSymbolTableRecord
 100
AcDbDimStyleTableRecord
   2
GMM001
  70
0
   3

   4

   5

   6

   7

  40
 1.0000000000000
  41
 2.0000000000000
  42
 1.0000000000000
  43
 8.0000000000000
  44
 1.0000000000000
  45
0.0
  46
0.0
  47
0.0
  48
0.0
 140
 2.5000000000000
 141
 1.0000000000000
 142
0.0
 143
 0.39400000000000E-1
 144
 1.0000000000000
 145
0.0
 146
 1.0000000000000
 147
 1.0000000000000
  71
0
  72
0
  73
0
  74
0
  75
0
  76
0
  77
3
  78
8
 170
0
 171
2
 172
1
 173
1
 174
0
 175
0
 176
8
 177
8
 178
8
 270
2
 271
6
 272
0
 273
2
 274
2
 340
3F
 275
0
 280
0
 281
0
 282
0
 283
1
 284
0
 285
0
 286
0
 287
3
 288
0
   0
DIMSTYLE
 105
43
 100
AcDbSymbolTableRecord
 100
AcDbDimStyleTableRecord
   2
GMM002
  70
0
   3

   4

   5

   6
_NONE
   7

  40
 1.0000000000000
  41
 2.0000000000000
  42
 1.0000000000000
  43
 8.0000000000000
  44
 1.0000000000000
  45
0.0
  46
0.0
  47
0.0
  48
0.0
 140
 2.5000000000000
 141
 1.0000000000000
 142
0.0
 143
 0.39400000000000E-1
 144
 1.0000000000000
 145
0.0
 146
 1.0000000000000
 147
 0.70863490641381
  71
0
  72
0
  73
0
  74
0
  75
0
  76
0
  77
3
  78
8
 170
0
 171
2
 172
1
 173
1
 174
0
 175
0
 176
8
 177
8
 178
8
 270
2
 271
6
 272
0
 273
2
 274
2
 340
3F
 275
0
 280
0
 281
0
 282
0
 283
1
 284
0
 285
0
 286
0
 287
3
 288
1
   0
DIMSTYLE
 105
44
 100
AcDbSymbolTableRecord
 100
AcDbDimStyleTableRecord
   2
GMM003
  70
0
   3

   4

   5

   6

   7

  40
 1.0000000000000
  41
 2.0000000000000
  42
 1.0000000000000
  43
 8.0000000000000
  44
 1.0000000000000
  45
0.0
  46
0.0
  47
0.0
  48
0.0
 140
 2.5000000000000
 141
 1.0000000000000
 142
0.0
 143
 0.39400000000000E-1
 144
 1.0000000000000
 145
0.0
 146
 1.0000000000000
 147
0.0
  71
0
  72
0
  73
0
  74
0
  75
0
  76
0
  77
1
  78
8
 170
0
 171
2
 172
1
 173
1
 174
0
 175
0
 176
8
 177
8
 178
8
 270
2
 271
6
 272
0
 273
2
 274
2
 340
3F
 275
0
 280
0
 281
0
 282
0
 283
1
 284
0
 285
0
 286
0
 287
3
 288
0
   0
DIMSTYLE
 105
45
 100
AcDbSymbolTableRecord
 100
AcDbDimStyleTableRecord
   2
GMM004
  70
0
   3

   4

   5

   6

   7
_NONE
  40
 1.0000000000000
  41
 2.0000000000000
  42
 1.0000000000000
  43
 8.0000000000000
  44
 1.0000000000000
  45
0.0
  46
0.0
  47
0.0
  48
0.0
 140
 2.5000000000000
 141
 1.0000000000000
 142
0.0
 143
 0.39400000000000E-1
 144
 1.0000000000000
 145
0.0
 146
 1.0000000000000
 147
 0.60860860860873
  71
0
  72
0
  73
0
  74
0
  75
0
  76
0
  77
3
  78
0
 170
0
 171
2
 172
1
 173
1
 174
0
 175
0
 176
8
 177
8
 178
8
 270
2
 271
0
 272
0
 273
2
 274
2
 340
3F
 275
1
 280
0
 281
0
 282
0
 283
1
 284
0
 285
0
 286
0
 287
3
 288
1
   0
DIMSTYLE
 105
46
 100
AcDbSymbolTableRecord
 100
AcDbDimStyleTableRecord
   2
GMM005
  70
0
   3

   4

   5

   6
_DOT
   7

  40
 1.0000000000000
  41
 2.0000000000000
  42
 1.0000000000000
  43
 8.0000000000000
  44
 1.0000000000000
  45
0.0
  46
0.0
  47
0.0
  48
0.0
 140
 2.5000000000000
 141
 1.0000000000000
 142
0.0
 143
 0.39400000000000E-1
 144
 1.0000000000000
 145
0.0
 146
 1.0000000000000
 147
 0.89689689689709
  71
0
  72
0
  73
0
  74
0
  75
0
  76
0
  77
3
  78
0
 170
0
 171
2
 172
1
 173
1
 174
0
 175
0
 176
8
 177
8
 178
8
 270
2
 271
0
 272
0
 273
2
 274
2
 340
3F
 275
1
 280
0
 281
0
 282
0
 283
1
 284
0
 285
0
 286
0
 287
3
 288
1
   0
DIMSTYLE
 105
47
 100
AcDbSymbolTableRecord
 100
AcDbDimStyleTableRecord
   2
GMM006
  70
0
   3

   4

   5

   6

   7

  40
 1.0000000000000
  41
 2.0000000000000
  42
 1.0000000000000
  43
 8.0000000000000
  44
 1.0000000000000
  45
0.0
  46
0.0
  47
0.0
  48
0.0
 140
 2.5000000000000
 141
 1.0000000000000
 142
0.0
 143
 0.39400000000000E-1
 144
 1.0000000000000
 145
0.0
 146
 1.0000000000000
 147
0.0
  71
0
  72
0
  73
0
  74
0
  75
0
  76
0
  77
1
  78
0
 170
0
 171
2
 172
1
 173
1
 174
0
 175
0
 176
8
 177
8
 178
8
 270
2
 271
0
 272
0
 273
2
 274
2
 340
3F
 275
1
 280
0
 281
0
 282
0
 283
1
 284
0
 285
0
 286
0
 287
3
 288
0
   0
DIMSTYLE
 105
48
 100
AcDbSymbolTableRecord
 100
AcDbDimStyleTableRecord
   2
GMM007
  70
0
   3

   4

   5

   6

   7

  40
 1.0000000000000
  41
 2.0000000000000
  42
 1.0000000000000
  43
 8.0000000000000
  44
 1.0000000000000
  45
0.0
  46
0.0
  47
0.0
  48
0.0
 140
 2.5000000000000
 141
 1.0000000000000
 142
0.0
 143
 0.39400000000000E-1
 144
 1.0000000000000
 145
0.0
 146
 1.0000000000000
 147
 1.0000000000000
  71
0
  72
0
  73
0
  74
0
  75
0
  76
0
  77
3
  78
0
 170
0
 171
2
 172
1
 173
1
 174
0
 175
0
 176
8
 177
8
 178
8
 270
2
 271
0
 272
0
 273
2
 274
2
 340
3F
 275
1
 280
0
 281
0
 282
0
 283
1
 284
0
 285
0
 286
0
 287
3
 288
0
   0
DIMSTYLE
 105
49
 100
AcDbSymbolTableRecord
 100
AcDbDimStyleTableRecord
   2
GMM008
  70
0
   3

   4

   5

   6

   7

  40
 1.0000000000000
  41
 2.0000000000000
  42
 1.0000000000000
  43
 8.0000000000000
  44
 1.0000000000000
  45
0.0
  46
0.0
  47
0.0
  48
0.0
 140
 2.5000000000000
 141
 1.0000000000000
 142
0.0
 143
 0.39400000000000E-1
 144
 1.0000000000000
 145
0.0
 146
 1.0000000000000
 147
 1.1825512715943
  71
0
  72
0
  73
0
  74
0
  75
0
  76
0
  77
3
  78
8
 170
0
 171
2
 172
1
 173
1
 174
0
 175
0
 176
8
 177
8
 178
8
 270
2
 271
6
 272
0
 273
2
 274
2
 340
3F
 275
1
 280
0
 281
0
 282
0
 283
1
 284
0
 285
0
 286
0
 287
3
 288
1
   0
DIMSTYLE
 105
4A
 100
AcDbSymbolTableRecord
 100
AcDbDimStyleTableRecord
   2
GMM009
  70
0
   3

   4

   5

   6

   7

  40
 1.0000000000000
  41
 2.0000000000000
  42
 1.0000000000000
  43
 8.0000000000000
  44
 1.0000000000000
  45
0.0
  46
0.0
  47
0.0
  48
0.0
 140
 2.5000000000000
 141
 1.0000000000000
 142
0.0
 143
 0.39400000000000E-1
 144
 1.0000000000000
 145
0.0
 146
 1.0000000000000
 147
 0.33859086063666
  71
0
  72
0
  73
0
  74
0
  75
0
  76
0
  77
3
  78
8
 170
0
 171
2
 172
1
 173
1
 174
0
 175
0
 176
8
 177
8
 178
8
 270
2
 271
6
 272
0
 273
2
 274
2
 340
3F
 275
0
 280
0
 281
0
 282
0
 283
1
 284
0
 285
0
 286
0
 287
3
 288
1
   0
DIMSTYLE
 105
4B
 100
AcDbSymbolTableRecord
 100
AcDbDimStyleTableRecord
   2
GMM010
  70
0
   3

   4

   5

   6

   7

  40
 1.0000000000000
  41
 2.0000000000000
  42
 1.0000000000000
  43
 8.0000000000000
  44
 1.0000000000000
  45
0.0
  46
0.0
  47
0.0
  48
0.0
 140
 2.5000000000000
 141
 1.0000000000000
 142
0.0
 143
 0.39400000000000E-1
 144
 1.0000000000000
 145
0.0
 146
 1.0000000000000
 147
 1.0000000000000
  71
0
  72
0
  73
0
  74
0
  75
0
  76
0
  77
3
  78
8
 170
0
 171
2
 172
1
 173
1
 174
0
 175
0
 176
8
 177
8
 178
8
 270
2
 271
6
 272
0
 273
2
 274
2
 340
3F
 275
0
 280
0
 281
0
 282
0
 283
1
 284
0
 285
0
 286
0
 287
3
 288
0
   0
DIMSTYLE
 105
4C
 100
AcDbSymbolTableRecord
 100
AcDbDimStyleTableRecord
   2
GMM011
  70
0
   3

   4

   5

   6

   7

  40
 1.0000000000000
  41
 2.0000000000000
  42
 1.0000000000000
  43
 8.0000000000000
  44
 1.0000000000000
  45
0.0
  46
0.0
  47
0.0
  48
0.0
 140
 2.5000000000000
 141
 1.0000000000000
 142
0.0
 143
 0.39400000000000E-1
 144
 1.0000000000000
 145
0.0
 146
 1.0000000000000
 147
 0.63872690811795
  71
0
  72
0
  73
0
  74
0
  75
0
  76
0
  77
3
  78
8
 170
0
 171
2
 172
1
 173
1
 174
0
 175
0
 176
8
 177
8
 178
8
 270
2
 271
6
 272
0
 273
2
 274
2
 340
3F
 275
0
 280
0
 281
0
 282
0
 283
1
 284
0
 285
0
 286
0
 287
3
 288
1
   0
ENDTAB
  0
TABLE
  2
BLOCK_RECORD
  5
1
100
AcDbSymbolTable
 70
     0
  0
BLOCK_RECORD
  5
18
100
AcDbSymbolTableRecord
100
AcDbBlockTableRecord
  2
*MODEL_SPACE
  0
BLOCK_RECORD
  5
15
100
AcDbSymbolTableRecord
100
AcDbBlockTableRecord
  2
*PAPER_SPACE
   0
BLOCK_RECORD
   5
4D
 100
AcDbSymbolTableRecord
 100
AcDbBlockTableRecord
   2
*D1
   0
BLOCK_RECORD
   5
4E
 100
AcDbSymbolTableRecord
 100
AcDbBlockTableRecord
   2
*D2
   0
BLOCK_RECORD
   5
4F
 100
AcDbSymbolTableRecord
 100
AcDbBlockTableRecord
   2
*D3
   0
BLOCK_RECORD
   5
50
 100
AcDbSymbolTableRecord
 100
AcDbBlockTableRecord
   2
*D4
   0
BLOCK_RECORD
   5
51
 100
AcDbSymbolTableRecord
 100
AcDbBlockTableRecord
   2
*D5
   0
BLOCK_RECORD
   5
52
 100
AcDbSymbolTableRecord
 100
AcDbBlockTableRecord
   2
*D6
   0
BLOCK_RECORD
   5
53
 100
AcDbSymbolTableRecord
 100
AcDbBlockTableRecord
   2
*D10
   0
BLOCK_RECORD
   5
54
 100
AcDbSymbolTableRecord
 100
AcDbBlockTableRecord
   2
BLOCK001
   0
BLOCK_RECORD
   5
55
 100
AcDbSymbolTableRecord
 100
AcDbBlockTableRecord
   2
BLOCK002
   0
BLOCK_RECORD
   5
56
 100
AcDbSymbolTableRecord
 100
AcDbBlockTableRecord
   2
*D11
   0
BLOCK_RECORD
   5
57
 100
AcDbSymbolTableRecord
 100
AcDbBlockTableRecord
   2
*D12
   0
BLOCK_RECORD
   5
58
 100
AcDbSymbolTableRecord
 100
AcDbBlockTableRecord
   2
*D14
   0
BLOCK_RECORD
   5
59
 100
AcDbSymbolTableRecord
 100
AcDbBlockTableRecord
   2
*D15
   0
BLOCK_RECORD
   5
5A
 100
AcDbSymbolTableRecord
 100
AcDbBlockTableRecord
   2
*D16
   0
BLOCK_RECORD
   5
5B
 100
AcDbSymbolTableRecord
 100
AcDbBlockTableRecord
   2
*D17
   0
BLOCK_RECORD
   5
5C
 100
AcDbSymbolTableRecord
 100
AcDbBlockTableRecord
   2
*D18
   0
BLOCK_RECORD
   5
5D
 100
AcDbSymbolTableRecord
 100
AcDbBlockTableRecord
   2
*D19
   0
BLOCK_RECORD
   5
5E
 100
AcDbSymbolTableRecord
 100
AcDbBlockTableRecord
   2
*D20
   0
BLOCK_RECORD
   5
5F
 100
AcDbSymbolTableRecord
 100
AcDbBlockTableRecord
   2
*D21
   0
BLOCK_RECORD
   5
60
 100
AcDbSymbolTableRecord
 100
AcDbBlockTableRecord
   2
*D22
   0
BLOCK_RECORD
   5
61
 100
AcDbSymbolTableRecord
 100
AcDbBlockTableRecord
   2
_ARCHTICK
   0
BLOCK_RECORD
   5
62
 100
AcDbSymbolTableRecord
 100
AcDbBlockTableRecord
   2
_BOXBLANK
   0
BLOCK_RECORD
   5
63
 100
AcDbSymbolTableRecord
 100
AcDbBlockTableRecord
   2
_BOXFILLED
   0
BLOCK_RECORD
   5
64
 100
AcDbSymbolTableRecord
 100
AcDbBlockTableRecord
   2
_CLOSED
   0
BLOCK_RECORD
   5
65
 100
AcDbSymbolTableRecord
 100
AcDbBlockTableRecord
   2
_CLOSEDBLANK
   0
BLOCK_RECORD
   5
66
 100
AcDbSymbolTableRecord
 100
AcDbBlockTableRecord
   2
_DATUMBLANK
   0
BLOCK_RECORD
   5
67
 100
AcDbSymbolTableRecord
 100
AcDbBlockTableRecord
   2
_DATUMFILLED
   0
BLOCK_RECORD
   5
68
 100
AcDbSymbolTableRecord
 100
AcDbBlockTableRecord
   2
_DOT
   0
BLOCK_RECORD
   5
69
 100
AcDbSymbolTableRecord
 100
AcDbBlockTableRecord
   2
_DOTBLANK
   0
BLOCK_RECORD
   5
6A
 100
AcDbSymbolTableRecord
 100
AcDbBlockTableRecord
   2
_DOTSMALL
   0
BLOCK_RECORD
   5
6B
 100
AcDbSymbolTableRecord
 100
AcDbBlockTableRecord
   2
_INTEGRAL
   0
BLOCK_RECORD
   5
6C
 100
AcDbSymbolTableRecord
 100
AcDbBlockTableRecord
   2
_NONE
   0
BLOCK_RECORD
   5
6D
 100
AcDbSymbolTableRecord
 100
AcDbBlockTableRecord
   2
_OBLIQUE
   0
BLOCK_RECORD
   5
6E
 100
AcDbSymbolTableRecord
 100
AcDbBlockTableRecord
   2
_OPEN
   0
BLOCK_RECORD
   5
6F
 100
AcDbSymbolTableRecord
 100
AcDbBlockTableRecord
   2
_OPEN30
   0
BLOCK_RECORD
   5
70
 100
AcDbSymbolTableRecord
 100
AcDbBlockTableRecord
   2
_OPEN90
   0
BLOCK_RECORD
   5
71
 100
AcDbSymbolTableRecord
 100
AcDbBlockTableRecord
   2
_ORIGIN
   0
ENDTAB
   0
ENDSEC
  0
SECTION
  2
BLOCKS
  0
BLOCK
  5
19
100
AcDbEntity
  8
0
100
AcDbBlockBegin
  2
*MODEL_SPACE
 70
     0
 10
0.0
 20
0.0
 30
0.0
  3
*MODEL_SPACE
  1

  0
ENDBLK
  5
1A
100
AcDbEntity
  8
0
100
AcDbBlockEnd
  0
BLOCK
  5
16
100
AcDbEntity
 67
     1
  8
0
100
AcDbBlockBegin
  2
*PAPER_SPACE
 70
     0
 10
0.0
 20
0.0
 30
0.0
  3
*PAPER_SPACE
  1

  0
ENDBLK
  5
17
100
AcDbEntity
 67
     1
  8
0
100
AcDbBlockEnd
   0
BLOCK
   5
72
 100
AcDbEntity
   8
0
 100
AcDbBlockBegin
   2
_ARCHTICK
  70
0
  10
0.0
  20
0.0
  30
0.0
   3
_ARCHTICK
   0
POLYLINE
   5
73
 100
AcDbEntity
   8
0
 370
-2
   6
BYBLOCK
  62
0
 100
AcDb2dPolyline
  66
1
  10
0.0
  20
0.0
  30
0.0
  70
1
  40
 0.15000000000000
  41
 0.15000000000000
   0
VERTEX
   5
74
 100
AcDbEntity
   8
0
   6
BYBLOCK
  62
0
 100
AcDbVertex
 100
AcDb2dVertex
  10
-0.50000000000000
  20
-0.50000000000000
  30
0.0
  40
 0.15000000000000
  41
 0.15000000000000
   0
VERTEX
   5
75
 100
AcDbEntity
   8
0
   6
BYBLOCK
  62
0
 100
AcDbVertex
 100
AcDb2dVertex
  10
 0.50000000000000
  20
 0.50000000000000
  30
0.0
  40
 0.15000000000000
  41
 0.15000000000000
   0
SEQEND
   5
76
 100
AcDbEntity
   8
0
   6
BYBLOCK
  62
0
   0
ENDBLK
   5
77
 100
AcDbEntity
   8
0
 100
AcDbBlockEnd
   0
BLOCK
   5
78
 100
AcDbEntity
   8
0
 100
AcDbBlockBegin
   2
_OBLIQUE
  70
0
  10
0.0
  20
0.0
  30
0.0
   3
_OBLIQUE
   0
LINE
   5
79
 100
AcDbEntity
   8
0
 370
-2
 100
AcDbLine
   6
BYBLOCK
  62
0
  10
-0.50000000000000
  20
-0.50000000000000
  30
0.0
  11
 0.50000000000000
  21
 0.50000000000000
  31
0.0
   0
ENDBLK
   5
7A
 100
AcDbEntity
   8
0
 100
AcDbBlockEnd
   0
BLOCK
   5
7B
 100
AcDbEntity
   8
0
 100
AcDbBlockBegin
   2
_BOXBLANK
  70
0
  10
0.0
  20
0.0
  30
0.0
   3
_BOXBLANK
   0
LINE
   5
7C
 100
AcDbEntity
   8
0
 370
-2
 100
AcDbLine
   6
BYBLOCK
  62
0
  10
-0.50000000000000
  20
-0.50000000000000
  30
0.0
  11
 0.50000000000000
  21
-0.50000000000000
  31
0.0
   0
LINE
   5
7D
 100
AcDbEntity
   8
0
 370
-2
 100
AcDbLine
   6
BYBLOCK
  62
0
  10
 0.50000000000000
  20
-0.50000000000000
  30
0.0
  11
 0.50000000000000
  21
 0.50000000000000
  31
0.0
   0
LINE
   5
7E
 100
AcDbEntity
   8
0
 370
-2
 100
AcDbLine
   6
BYBLOCK
  62
0
  10
 0.50000000000000
  20
 0.50000000000000
  30
0.0
  11
-0.50000000000000
  21
 0.50000000000000
  31
0.0
   0
LINE
   5
7F
 100
AcDbEntity
   8
0
 370
-2
 100
AcDbLine
   6
BYBLOCK
  62
0
  10
-0.50000000000000
  20
 0.50000000000000
  30
0.0
  11
-0.50000000000000
  21
-0.50000000000000
  31
0.0
   0
LINE
   5
80
 100
AcDbEntity
   8
0
 370
-2
 100
AcDbLine
   6
BYBLOCK
  62
0
  10
-0.50000000000000
  20
0.0
  30
0.0
  11
-1.0000000000000
  21
0.0
  31
0.0
   0
ENDBLK
   5
81
 100
AcDbEntity
   8
0
 100
AcDbBlockEnd
   0
BLOCK
   5
82
 100
AcDbEntity
   8
0
 100
AcDbBlockBegin
   2
_BOXFILLED
  70
0
  10
0.0
  20
0.0
  30
0.0
   3
_BOXFILLED
   0
SOLID
   5
83
 100
AcDbEntity
   8
0
 100
AcDbTrace
   6
BYBLOCK
  62
0
  10
-0.50000000000000
  20
 0.50000000000000
  30
0.0
  11
 0.50000000000000
  21
 0.50000000000000
  31
0.0
  12
-0.50000000000000
  22
-0.50000000000000
  32
0.0
  13
 0.50000000000000
  23
-0.50000000000000
  33
0.0
   0
LINE
   5
84
 100
AcDbEntity
   8
0
 370
-2
 100
AcDbLine
   6
BYBLOCK
  62
0
  10
-0.50000000000000
  20
0.0
  30
0.0
  11
-1.0000000000000
  21
0.0
  31
0.0
   0
ENDBLK
   5
85
 100
AcDbEntity
   8
0
 100
AcDbBlockEnd
   0
BLOCK
   5
86
 100
AcDbEntity
   8
0
 100
AcDbBlockBegin
   2
_CLOSED
  70
0
  10
0.0
  20
0.0
  30
0.0
   3
_CLOSED
   0
LINE
   5
87
 100
AcDbEntity
   8
0
 370
-2
 100
AcDbLine
   6
BYBLOCK
  62
0
  10
-1.0000000000000
  20
 0.16666666666667
  30
0.0
  11
0.0
  21
0.0
  31
0.0
   0
LINE
   5
88
 100
AcDbEntity
   8
0
 370
-2
 100
AcDbLine
   6
BYBLOCK
  62
0
  10
0.0
  20
0.0
  30
0.0
  11
-1.0000000000000
  21
-0.16666666666667
  31
0.0
   0
LINE
   5
89
 100
AcDbEntity
   8
0
 370
-2
 100
AcDbLine
   6
BYBLOCK
  62
0
  10
-1.0000000000000
  20
 0.16666666666667
  30
0.0
  11
-1.0000000000000
  21
-0.16666666666667
  31
0.0
   0
LINE
   5
8A
 100
AcDbEntity
   8
0
 370
-2
 100
AcDbLine
   6
BYBLOCK
  62
0
  10
0.0
  20
0.0
  30
0.0
  11
-1.0000000000000
  21
0.0
  31
0.0
   0
ENDBLK
   5
8B
 100
AcDbEntity
   8
0
 100
AcDbBlockEnd
   0
BLOCK
   5
8C
 100
AcDbEntity
   8
0
 100
AcDbBlockBegin
   2
_OPEN
  70
0
  10
0.0
  20
0.0
  30
0.0
   3
_OPEN
   0
LINE
   5
8D
 100
AcDbEntity
   8
0
 370
-2
 100
AcDbLine
   6
BYBLOCK
  62
0
  10
-1.0000000000000
  20
 0.16666666666667
  30
0.0
  11
0.0
  21
0.0
  31
0.0
   0
LINE
   5
8E
 100
AcDbEntity
   8
0
 370
-2
 100
AcDbLine
   6
BYBLOCK
  62
0
  10
0.0
  20
0.0
  30
0.0
  11
-1.0000000000000
  21
-0.16666666666667
  31
0.0
   0
LINE
   5
8F
 100
AcDbEntity
   8
0
 370
-2
 100
AcDbLine
   6
BYBLOCK
  62
0
  10
0.0
  20
0.0
  30
0.0
  11
-1.0000000000000
  21
0.0
  31
0.0
   0
ENDBLK
   5
90
 100
AcDbEntity
   8
0
 100
AcDbBlockEnd
   0
BLOCK
   5
91
 100
AcDbEntity
   8
0
 100
AcDbBlockBegin
   2
_OPEN30
  70
0
  10
0.0
  20
0.0
  30
0.0
   3
_OPEN30
   0
LINE
   5
92
 100
AcDbEntity
   8
0
 370
-2
 100
AcDbLine
   6
BYBLOCK
  62
0
  10
-1.0000000000000
  20
 0.26794919243110
  30
0.0
  11
0.0
  21
0.0
  31
0.0
   0
LINE
   5
93
 100
AcDbEntity
   8
0
 370
-2
 100
AcDbLine
   6
BYBLOCK
  62
0
  10
0.0
  20
0.0
  30
0.0
  11
-1.0000000000000
  21
-0.26794919243110
  31
0.0
   0
LINE
   5
94
 100
AcDbEntity
   8
0
 370
-2
 100
AcDbLine
   6
BYBLOCK
  62
0
  10
0.0
  20
0.0
  30
0.0
  11
-1.0000000000000
  21
0.0
  31
0.0
   0
ENDBLK
   5
95
 100
AcDbEntity
   8
0
 100
AcDbBlockEnd
   0
BLOCK
   5
96
 100
AcDbEntity
   8
0
 100
AcDbBlockBegin
   2
_OPEN90
  70
0
  10
0.0
  20
0.0
  30
0.0
   3
_OPEN90
   0
LINE
   5
97
 100
AcDbEntity
   8
0
 370
-2
 100
AcDbLine
   6
BYBLOCK
  62
0
  10
-0.50000000000000
  20
 0.50000000000000
  30
0.0
  11
0.0
  21
0.0
  31
0.0
   0
LINE
   5
98
 100
AcDbEntity
   8
0
 370
-2
 100
AcDbLine
   6
BYBLOCK
  62
0
  10
0.0
  20
0.0
  30
0.0
  11
-0.50000000000000
  21
-0.50000000000000
  31
0.0
   0
LINE
   5
99
 100
AcDbEntity
   8
0
 370
-2
 100
AcDbLine
   6
BYBLOCK
  62
0
  10
0.0
  20
0.0
  30
0.0
  11
-1.0000000000000
  21
0.0
  31
0.0
   0
ENDBLK
   5
9A
 100
AcDbEntity
   8
0
 100
AcDbBlockEnd
   0
BLOCK
   5
9B
 100
AcDbEntity
   8
0
 100
AcDbBlockBegin
   2
_CLOSEDBLANK
  70
0
  10
0.0
  20
0.0
  30
0.0
   3
_CLOSEDBLANK
   0
LINE
   5
9C
 100
AcDbEntity
   8
0
 370
-2
 100
AcDbLine
   6
BYBLOCK
  62
0
  10
-1.0000000000000
  20
 0.16666666666667
  30
0.0
  11
0.0
  21
0.0
  31
0.0
   0
LINE
   5
9D
 100
AcDbEntity
   8
0
 370
-2
 100
AcDbLine
   6
BYBLOCK
  62
0
  10
0.0
  20
0.0
  30
0.0
  11
-1.0000000000000
  21
-0.16666666666667
  31
0.0
   0
LINE
   5
9E
 100
AcDbEntity
   8
0
 370
-2
 100
AcDbLine
   6
BYBLOCK
  62
0
  10
-1.0000000000000
  20
 0.16666666666667
  30
0.0
  11
-1.0000000000000
  21
-0.16666666666667
  31
0.0
   0
ENDBLK
   5
9F
 100
AcDbEntity
   8
0
 100
AcDbBlockEnd
   0
BLOCK
   5
A0
 100
AcDbEntity
   8
0
 100
AcDbBlockBegin
   2
_DOT
  70
0
  10
0.0
  20
0.0
  30
0.0
   3
_DOT
   0
POLYLINE
   5
A1
 100
AcDbEntity
   8
0
 370
-2
   6
BYBLOCK
  62
0
 100
AcDb2dPolyline
  66
1
  10
0.0
  20
0.0
  30
0.0
  70
1
  40
 0.50000000000000
  41
 0.50000000000000
   0
VERTEX
   5
A2
 100
AcDbEntity
   8
0
   6
BYBLOCK
  62
0
 100
AcDbVertex
 100
AcDb2dVertex
  10
-0.25000000000000
  20
0.0
  30
0.0
  42
 1.0000000000000
  40
 0.50000000000000
  41
 0.50000000000000
   0
VERTEX
   5
A3
 100
AcDbEntity
   8
0
   6
BYBLOCK
  62
0
 100
AcDbVertex
 100
AcDb2dVertex
  10
 0.25000000000000
  20
0.0
  30
0.0
  42
 1.0000000000000
  40
 0.50000000000000
  41
 0.50000000000000
   0
SEQEND
   5
A4
 100
AcDbEntity
   8
0
   6
BYBLOCK
  62
0
   0
LINE
   5
A5
 100
AcDbEntity
   8
0
 370
-2
 100
AcDbLine
   6
BYBLOCK
  62
0
  10
-0.50000000000000
  20
0.0
  30
0.0
  11
-1.0000000000000
  21
0.0
  31
0.0
   0
ENDBLK
   5
A6
 100
AcDbEntity
   8
0
 100
AcDbBlockEnd
   0
BLOCK
   5
A7
 100
AcDbEntity
   8
0
 100
AcDbBlockBegin
   2
_DOTSMALL
  70
0
  10
0.0
  20
0.0
  30
0.0
   3
_DOTSMALL
   0
POLYLINE
   5
A8
 100
AcDbEntity
   8
0
 370
-2
   6
BYBLOCK
  62
0
 100
AcDb2dPolyline
  66
1
  10
0.0
  20
0.0
  30
0.0
  70
1
  40
 0.50000000000000
  41
 0.50000000000000
   0
VERTEX
   5
A9
 100
AcDbEntity
   8
0
   6
BYBLOCK
  62
0
 100
AcDbVertex
 100
AcDb2dVertex
  10
-0.62500000000000E-1
  20
0.0
  30
0.0
  42
 1.0000000000000
  40
 0.50000000000000
  41
 0.50000000000000
   0
VERTEX
   5
AA
 100
AcDbEntity
   8
0
   6
BYBLOCK
  62
0
 100
AcDbVertex
 100
AcDb2dVertex
  10
 0.62500000000000E-1
  20
0.0
  30
0.0
  42
 1.0000000000000
  40
 0.50000000000000
  41
 0.50000000000000
   0
SEQEND
   5
AB
 100
AcDbEntity
   8
0
   6
BYBLOCK
  62
0
   0
ENDBLK
   5
AC
 100
AcDbEntity
   8
0
 100
AcDbBlockEnd
   0
BLOCK
   5
AD
 100
AcDbEntity
   8
0
 100
AcDbBlockBegin
   2
_DATUMBLANK
  70
0
  10
0.0
  20
0.0
  30
0.0
   3
_DATUMBLANK
   0
LINE
   5
AE
 100
AcDbEntity
   8
0
 370
-2
 100
AcDbLine
   6
BYBLOCK
  62
0
  10
0.0
  20
 0.57735027000000
  30
0.0
  11
-1.0000000000000
  21
0.0
  31
0.0
   0
LINE
   5
AF
 100
AcDbEntity
   8
0
 370
-2
 100
AcDbLine
   6
BYBLOCK
  62
0
  10
-1.0000000000000
  20
0.0
  30
0.0
  11
0.0
  21
-0.57735027000000
  31
0.0
   0
LINE
   5
B0
 100
AcDbEntity
   8
0
 370
-2
 100
AcDbLine
   6
BYBLOCK
  62
0
  10
0.0
  20
-0.57735027000000
  30
0.0
  11
0.0
  21
 0.57735027000000
  31
0.0
   0
ENDBLK
   5
B1
 100
AcDbEntity
   8
0
 100
AcDbBlockEnd
   0
BLOCK
   5
B2
 100
AcDbEntity
   8
0
 100
AcDbBlockBegin
   2
_DATUMFILLED
  70
0
  10
0.0
  20
0.0
  30
0.0
   3
_DATUMFILLED
   0
SOLID
   5
B3
 100
AcDbEntity
   8
0
 100
AcDbTrace
   6
BYBLOCK
  62
0
  10
0.0
  20
 0.57735027000000
  30
0.0
  11
-1.0000000000000
  21
0.0
  31
0.0
  12
0.0
  22
-0.57735027000000
  32
0.0
  13
0.0
  23
-0.57735027000000
  33
0.0
   0
ENDBLK
   5
B4
 100
AcDbEntity
   8
0
 100
AcDbBlockEnd
   0
BLOCK
   5
B5
 100
AcDbEntity
   8
0
 100
AcDbBlockBegin
   2
_ORIGIN
  70
0
  10
0.0
  20
0.0
  30
0.0
   3
_ORIGIN
   0
CIRCLE
   5
B6
 100
AcDbEntity
   8
0
 370
-2
 100
AcDbCircle
   6
BYBLOCK
  62
0
  10
0.0
  20
0.0
  30
0.0
  40
 0.50000000000000
   0
LINE
   5
B7
 100
AcDbEntity
   8
0
 370
-2
 100
AcDbLine
   6
BYBLOCK
  62
0
  10
0.0
  20
0.0
  30
0.0
  11
-1.0000000000000
  21
0.0
  31
0.0
   0
ENDBLK
   5
B8
 100
AcDbEntity
   8
0
 100
AcDbBlockEnd
   0
BLOCK
   5
B9
 100
AcDbEntity
   8
0
 100
AcDbBlockBegin
   2
_NONE
  70
0
  10
0.0
  20
0.0
  30
0.0
   3
_NONE
   0
CIRCLE
   5
BA
 100
AcDbEntity
   8
0
 370
-2
 100
AcDbCircle
   6
BYBLOCK
  62
0
  10
0.0
  20
0.0
  30
0.0
  40
 0.25000000000000
   0
ENDBLK
   5
BB
 100
AcDbEntity
   8
0
 100
AcDbBlockEnd
   0
BLOCK
   5
BC
 100
AcDbEntity
   8
0
 100
AcDbBlockBegin
   2
_DOTBLANK
  70
0
  10
0.0
  20
0.0
  30
0.0
   3
_DOTBLANK
   0
CIRCLE
   5
BD
 100
AcDbEntity
   8
0
 370
-2
 100
AcDbCircle
   6
BYBLOCK
  62
0
  10
0.0
  20
0.0
  30
0.0
  40
 0.50000000000000
   0
LINE
   5
BE
 100
AcDbEntity
   8
0
 370
-2
 100
AcDbLine
   6
BYBLOCK
  62
0
  10
-0.50000000000000
  20
0.0
  30
0.0
  11
-1.0000000000000
  21
0.0
  31
0.0
   0
ENDBLK
   5
BF
 100
AcDbEntity
   8
0
 100
AcDbBlockEnd
   0
BLOCK
   5
C0
 100
AcDbEntity
   8
0
 100
AcDbBlockBegin
   2
_INTEGRAL
  70
0
  10
0.0
  20
0.0
  30
0.0
   3
_INTEGRAL
   0
ARC
   5
C1
 100
AcDbEntity
   8
0
 370
-2
   6
BYBLOCK
  62
0
 100
AcDbCircle
  10
 0.44488800000000
  20
-0.91335000000000E-1
  30
0.0
  40
 0.45416700000000
 100
AcDbArc
  50
 102.00000000000
  51
 168.00000000000
   0
ARC
   5
C2
 100
AcDbEntity
   8
0
 370
-2
   6
BYBLOCK
  62
0
 100
AcDbCircle
  10
-0.44488800000000
  20
 0.91335000000000E-1
  30
0.0
  40
 0.45416700000000
 100
AcDbArc
  50
 282.00000000000
  51
 348.00000000000
   0
ENDBLK
   5
C3
 100
AcDbEntity
   8
0
 100
AcDbBlockEnd
   0
BLOCK
   5
C4
 100
AcDbEntity
   8
0
 100
AcDbBlockBegin
   2
*D1
  70
65
  10
0.0
  20
0.0
  30
0.0
   3
*D1
   0
LINE
   5
C5
 100
AcDbEntity
   8
LEVEL001
 370
15
 100
AcDbLine
   6
CONTINUOUS
  62
8
  10
 89.140575469313
  20
 115.58665589728
  30
0.0
  11
 89.140575469313
  21
 110.58665589728
  31
0.0
   0
LINE
   5
C6
 100
AcDbEntity
   8
LEVEL001
 370
15
 100
AcDbLine
   6
CONTINUOUS
  62
8
  10
 89.140575469313
  20
 111.58665589728
  30
0.0
  11
 101.64057546931
  21
 111.58665589728
  31
0.0
   0
LINE
   5
C7
 100
AcDbEntity
   8
LEVEL001
 370
15
 100
AcDbLine
   6
CONTINUOUS
  62
8
  10
 114.14057546932
  20
 111.58665589728
  30
0.0
  11
 101.64057546931
  21
 111.58665589728
  31
0.0
   0
SOLID
   5
C8
 100
AcDbEntity
   8
LEVEL001
 100
AcDbTrace
   6
CONTINUOUS
  62
8
  10
 89.140575469313
  20
 111.58665589728
  30
0.0
  11
 91.140575469313
  21
 111.23400193587
  31
0.0
  12
 91.140575469313
  22
 111.93930985870
  32
0.0
  13
 91.140575469313
  23
 111.93930985870
  33
0.0
   0
SOLID
   5
C9
 100
AcDbEntity
   8
LEVEL001
 100
AcDbTrace
   6
CONTINUOUS
  62
8
  10
 114.14057546932
  20
 111.58665589728
  30
0.0
  11
 112.14057546932
  21
 111.93930985870
  31
0.0
  12
 112.14057546932
  22
 111.23400193587
  32
0.0
  13
 112.14057546932
  23
 111.23400193587
  33
0.0
   0
MTEXT
   5
CA
 100
AcDbEntity
   8
LEVEL001
 370
15
  62
8
 100
AcDbMText
  10
 101.64057546931
  20
 112.58665589728
  30
0.0
  40
 2.5000000000000
  41
0.0
  71
8
  72
1
   1
\A1;50
   7
GMM002
   0
ENDBLK
   5
CB
 100
AcDbEntity
   8
0
 100
AcDbBlockEnd
   0
BLOCK
   5
CC
 100
AcDbEntity
   8
0
 100
AcDbBlockBegin
   2
*D2
  70
65
  10
0.0
  20
0.0
  30
0.0
   3
*D2
   0
LINE
   5
CD
 100
AcDbEntity
   8
LEVEL001
 370
15
 100
AcDbLine
   6
CONTINUOUS
  62
8
  10
 114.14057546932
  20
 116.08665589728
  30
0.0
  11
 114.14057546932
  21
 110.58665589728
  31
0.0
   0
LINE
   5
CE
 100
AcDbEntity
   8
LEVEL001
 370
15
 100
AcDbLine
   6
CONTINUOUS
  62
8
  10
 115.64057546932
  20
 115.58665589728
  30
0.0
  11
 115.64057546932
  21
 110.58665589728
  31
0.0
   0
LINE
   5
CF
 100
AcDbEntity
   8
LEVEL001
 370
15
 100
AcDbLine
   6
CONTINUOUS
  62
8
  10
 114.14057546932
  20
 111.58665589728
  30
0.0
  11
 114.89057546932
  21
 111.58665589728
  31
0.0
   0
LINE
   5
D0
 100
AcDbEntity
   8
LEVEL001
 370
15
 100
AcDbLine
   6
CONTINUOUS
  62
8
  10
 134.93083101478
  20
 111.58665589728
  30
0.0
  11
 114.89057546932
  21
 111.58665589728
  31
0.0
   0
SOLID
   5
D1
 100
AcDbEntity
   8
LEVEL001
 100
AcDbTrace
   6
CONTINUOUS
  62
8
  10
 115.64057546932
  20
 111.58665589728
  30
0.0
  11
 117.64057546932
  21
 111.23400193587
  31
0.0
  12
 117.64057546932
  22
 111.93930985870
  32
0.0
  13
 117.64057546932
  23
 111.93930985870
  33
0.0
   0
MTEXT
   5
D2
 100
AcDbEntity
   8
LEVEL001
 370
15
  62
8
 100
AcDbMText
  10
 117.43083101478
  20
 112.29529080370
  30
0.0
  40
 2.5000000000000
  41
0.0
  71
7
  72
1
   1
\A1;3(飲み込み)
   7
GMM002
   0
ENDBLK
   5
D3
 100
AcDbEntity
   8
0
 100
AcDbBlockEnd
   0
BLOCK
   5
D4
 100
AcDbEntity
   8
0
 100
AcDbBlockBegin
   2
*D3
  70
65
  10
0.0
  20
0.0
  30
0.0
   3
*D3
   0
LINE
   5
D5
 100
AcDbEntity
   8
LEVEL001
 370
15
 100
AcDbLine
   6
CONTINUOUS
  62
8
  10
 208.19427734218
  20
 115.58665589728
  30
0.0
  11
 208.19427734218
  21
 105.58665589728
  31
0.0
   0
LINE
   5
D6
 100
AcDbEntity
   8
LEVEL001
 370
15
 100
AcDbLine
   6
CONTINUOUS
  62
8
  10
 234.69427734218
  20
 115.58665589728
  30
0.0
  11
 234.69427734218
  21
 105.58665589728
  31
0.0
   0
LINE
   5
D7
 100
AcDbEntity
   8
LEVEL001
 370
15
 100
AcDbLine
   6
CONTINUOUS
  62
8
  10
 208.19427734218
  20
 106.58665589728
  30
0.0
  11
 221.44427734218
  21
 106.58665589728
  31
0.0
   0
LINE
   5
D8
 100
AcDbEntity
   8
LEVEL001
 370
15
 100
AcDbLine
   6
CONTINUOUS
  62
8
  10
 234.69427734218
  20
 106.58665589728
  30
0.0
  11
 221.44427734218
  21
 106.58665589728
  31
0.0
   0
SOLID
   5
D9
 100
AcDbEntity
   8
LEVEL001
 100
AcDbTrace
   6
CONTINUOUS
  62
8
  10
 208.19427734218
  20
 106.58665589728
  30
0.0
  11
 210.19427734218
  21
 106.23400193587
  31
0.0
  12
 210.19427734218
  22
 106.93930985870
  32
0.0
  13
 210.19427734218
  23
 106.93930985870
  33
0.0
   0
SOLID
   5
DA
 100
AcDbEntity
   8
LEVEL001
 100
AcDbTrace
   6
CONTINUOUS
  62
8
  10
 234.69427734218
  20
 106.58665589728
  30
0.0
  11
 232.69427734218
  21
 106.93930985870
  31
0.0
  12
 232.69427734218
  22
 106.23400193587
  32
0.0
  13
 232.69427734218
  23
 106.23400193587
  33
0.0
   0
MTEXT
   5
DB
 100
AcDbEntity
   8
LEVEL001
 370
15
  62
8
 100
AcDbMText
  10
 221.44427734218
  20
 107.58665589728
  30
0.0
  40
 2.5000000000000
  41
0.0
  71
8
  72
1
   1
\A1;53
   7
GMM002
   0
ENDBLK
   5
DC
 100
AcDbEntity
   8
0
 100
AcDbBlockEnd
   0
BLOCK
   5
DD
 100
AcDbEntity
   8
0
 100
AcDbBlockBegin
   2
*D4
  70
65
  10
0.0
  20
0.0
  30
0.0
   3
*D4
   0
LINE
   5
DE
 100
AcDbEntity
   8
LEVEL001
 370
15
 100
AcDbLine
   6
CONTINUOUS
  62
8
  10
 89.140575469313
  20
 113.08665589728
  30
0.0
  11
 89.140575469313
  21
 105.58665589728
  31
0.0
   0
LINE
   5
DF
 100
AcDbEntity
   8
LEVEL001
 370
15
 100
AcDbLine
   6
CONTINUOUS
  62
8
  10
 115.64057546932
  20
 113.08665589728
  30
0.0
  11
 115.64057546932
  21
 105.58665589728
  31
0.0
   0
LINE
   5
E0
 100
AcDbEntity
   8
LEVEL001
 370
15
 100
AcDbLine
   6
CONTINUOUS
  62
8
  10
 89.140575469313
  20
 106.58665589728
  30
0.0
  11
 102.39057546931
  21
 106.58665589728
  31
0.0
   0
LINE
   5
E1
 100
AcDbEntity
   8
LEVEL001
 370
15
 100
AcDbLine
   6
CONTINUOUS
  62
8
  10
 115.64057546932
  20
 106.58665589728
  30
0.0
  11
 102.39057546931
  21
 106.58665589728
  31
0.0
   0
SOLID
   5
E2
 100
AcDbEntity
   8
LEVEL001
 100
AcDbTrace
   6
CONTINUOUS
  62
8
  10
 89.140575469313
  20
 106.58665589728
  30
0.0
  11
 91.140575469313
  21
 106.23400193587
  31
0.0
  12
 91.140575469313
  22
 106.93930985870
  32
0.0
  13
 91.140575469313
  23
 106.93930985870
  33
0.0
   0
SOLID
   5
E3
 100
AcDbEntity
   8
LEVEL001
 100
AcDbTrace
   6
CONTINUOUS
  62
8
  10
 115.64057546932
  20
 106.58665589728
  30
0.0
  11
 113.64057546932
  21
 106.93930985870
  31
0.0
  12
 113.64057546932
  22
 106.23400193587
  32
0.0
  13
 113.64057546932
  23
 106.23400193587
  33
0.0
   0
MTEXT
   5
E4
 100
AcDbEntity
   8
LEVEL001
 370
15
  62
8
 100
AcDbMText
  10
 102.39057546931
  20
 107.58665589728
  30
0.0
  40
 2.5000000000000
  41
0.0
  71
8
  72
1
   1
\A1;53
   7
GMM002
   0
ENDBLK
   5
E5
 100
AcDbEntity
   8
0
 100
AcDbBlockEnd
   0
BLOCK
   5
E6
 100
AcDbEntity
   8
0
 100
AcDbBlockBegin
   2
*D5
  70
65
  10
0.0
  20
0.0
  30
0.0
   3
*D5
   0
LINE
   5
E7
 100
AcDbEntity
   8
LEVEL001
 370
15
 100
AcDbLine
   6
CONTINUOUS
  62
8
  10
 88.140575469313
  20
 116.58665589728
  30
0.0
  11
 80.901249821133
  21
 116.58665589728
  31
0.0
   0
LINE
   5
E8
 100
AcDbEntity
   8
LEVEL001
 370
15
 100
AcDbLine
   6
CONTINUOUS
  62
8
  10
 88.140575469313
  20
 134.58665589728
  30
0.0
  11
 80.901249821133
  21
 134.58665589728
  31
0.0
   0
LINE
   5
E9
 100
AcDbEntity
   8
LEVEL001
 370
15
 100
AcDbLine
   6
CONTINUOUS
  62
8
  10
 81.901249821133
  20
 116.58665589728
  30
0.0
  11
 81.901249821133
  21
 125.58665589728
  31
0.0
   0
LINE
   5
EA
 100
AcDbEntity
   8
LEVEL001
 370
15
 100
AcDbLine
   6
CONTINUOUS
  62
8
  10
 81.901249821133
  20
 134.58665589728
  30
0.0
  11
 81.901249821133
  21
 125.58665589728
  31
0.0
   0
SOLID
   5
EB
 100
AcDbEntity
   8
LEVEL001
 100
AcDbTrace
   6
CONTINUOUS
  62
8
  10
 81.901249821133
  20
 116.58665589728
  30
0.0
  11
 82.253903782550
  21
 118.58665589728
  31
0.0
  12
 81.548595859717
  22
 118.58665589728
  32
0.0
  13
 81.548595859717
  23
 118.58665589728
  33
0.0
   0
SOLID
   5
EC
 100
AcDbEntity
   8
LEVEL001
 100
AcDbTrace
   6
CONTINUOUS
  62
8
  10
 81.901249821133
  20
 134.58665589728
  30
0.0
  11
 81.548595859717
  21
 132.58665589728
  31
0.0
  12
 82.253903782550
  22
 132.58665589728
  32
0.0
  13
 82.253903782550
  23
 132.58665589728
  33
0.0
   0
MTEXT
   5
ED
 100
AcDbEntity
   8
LEVEL001
 370
15
  62
8
 100
AcDbMText
  10
 80.901249821133
  20
 125.58665589728
  30
0.0
  40
 2.5000000000000
  41
0.0
  71
8
  72
1
   1
\A1;36
   7
GMM002
  11
0.0
  21
 1.0000000000000
  31
0.0
   0
ENDBLK
   5
EE
 100
AcDbEntity
   8
0
 100
AcDbBlockEnd
   0
BLOCK
   5
EF
 100
AcDbEntity
   8
0
 100
AcDbBlockBegin
   2
*D6
  70
65
  10
0.0
  20
0.0
  30
0.0
   3
*D6
   0
LINE
   5
F0
 100
AcDbEntity
   8
LEVEL001
 370
15
 100
AcDbLine
   6
CONTINUOUS
  62
8
  10
 89.140575469313
  20
 135.58665589728
  30
0.0
  11
 89.140575469313
  21
 151.01199914671
  31
0.0
   0
LINE
   5
F1
 100
AcDbEntity
   8
LEVEL001
 370
15
 100
AcDbLine
   6
CONTINUOUS
  62
8
  10
 234.69427734218
  20
 135.58665589728
  30
0.0
  11
 234.69427734218
  21
 151.01199914671
  31
0.0
   0
LINE
   5
F2
 100
AcDbEntity
   8
LEVEL001
 370
15
 100
AcDbLine
   6
CONTINUOUS
  62
8
  10
 89.140575469313
  20
 150.01199914671
  30
0.0
  11
 161.91742640575
  21
 150.01199914671
  31
0.0
   0
LINE
   5
F3
 100
AcDbEntity
   8
LEVEL001
 370
15
 100
AcDbLine
   6
CONTINUOUS
  62
8
  10
 234.69427734218
  20
 150.01199914671
  30
0.0
  11
 161.91742640575
  21
 150.01199914671
  31
0.0
   0
SOLID
   5
F4
 100
AcDbEntity
   8
LEVEL001
 100
AcDbTrace
   6
CONTINUOUS
  62
8
  10
 89.140575469313
  20
 150.01199914671
  30
0.0
  11
 91.140575469313
  21
 149.65934518530
  31
0.0
  12
 91.140575469313
  22
 150.36465310813
  32
0.0
  13
 91.140575469313
  23
 150.36465310813
  33
0.0
   0
SOLID
   5
F5
 100
AcDbEntity
   8
LEVEL001
 100
AcDbTrace
   6
CONTINUOUS
  62
8
  10
 234.69427734218
  20
 150.01199914671
  30
0.0
  11
 232.69427734218
  21
 150.36465310813
  31
0.0
  12
 232.69427734218
  22
 149.65934518530
  32
0.0
  13
 232.69427734218
  23
 149.65934518530
  33
0.0
   0
MTEXT
   5
F6
 100
AcDbEntity
   8
LEVEL001
 370
15
  62
8
 100
AcDbMText
  10
 161.91742640575
  20
 151.01199914671
  30
0.0
  40
 2.5000000000000
  41
0.0
  71
8
  72
1
   1
\A1;L
   7
GMM002
   0
ENDBLK
   5
F7
 100
AcDbEntity
   8
0
 100
AcDbBlockEnd
   0
BLOCK
   5
F8
 100
AcDbEntity
   8
0
 100
AcDbBlockBegin
   2
*D10
  70
65
  10
0.0
  20
0.0
  30
0.0
   3
*D10
   0
LINE
   5
F9
 100
AcDbEntity
   8
LEVEL001
 370
15
 100
AcDbLine
   6
CONTINUOUS
  62
8
  10
 115.64057546932
  20
 110.58665589728
  30
0.0
  11
 115.64057546932
  21
 105.58665589728
  31
0.0
   0
LINE
   5
FA
 100
AcDbEntity
   8
LEVEL001
 370
15
 100
AcDbLine
   6
CONTINUOUS
  62
8
  10
 208.19427734218
  20
 113.08665589728
  30
0.0
  11
 208.19427734218
  21
 105.58665589728
  31
0.0
   0
LINE
   5
FB
 100
AcDbEntity
   8
LEVEL001
 370
15
 100
AcDbLine
   6
CONTINUOUS
  62
8
  10
 115.64057546932
  20
 106.58665589728
  30
0.0
  11
 161.91742640575
  21
 106.58665589728
  31
0.0
   0
LINE
   5
FC
 100
AcDbEntity
   8
LEVEL001
 370
15
 100
AcDbLine
   6
CONTINUOUS
  62
8
  10
 208.19427734218
  20
 106.58665589728
  30
0.0
  11
 161.91742640575
  21
 106.58665589728
  31
0.0
   0
SOLID
   5
FD
 100
AcDbEntity
   8
LEVEL001
 100
AcDbTrace
   6
CONTINUOUS
  62
8
  10
 115.64057546932
  20
 106.58665589728
  30
0.0
  11
 117.64057546932
  21
 106.23400193587
  31
0.0
  12
 117.64057546932
  22
 106.93930985870
  32
0.0
  13
 117.64057546932
  23
 106.93930985870
  33
0.0
   0
SOLID
   5
FE
 100
AcDbEntity
   8
LEVEL001
 100
AcDbTrace
   6
CONTINUOUS
  62
8
  10
 208.19427734218
  20
 106.58665589728
  30
0.0
  11
 206.19427734218
  21
 106.93930985870
  31
0.0
  12
 206.19427734218
  22
 106.23400193587
  32
0.0
  13
 206.19427734218
  23
 106.23400193587
  33
0.0
   0
MTEXT
   5
FF
 100
AcDbEntity
   8
LEVEL001
 370
15
  62
8
 100
AcDbMText
  10
 161.91742640575
  20
 107.58665589728
  30
0.0
  40
 2.5000000000000
  41
0.0
  71
8
  72
1
   1
\A1;レール寸法X=L-100
   7
GMM002
   0
ENDBLK
   5
100
 100
AcDbEntity
   8
0
 100
AcDbBlockEnd
   0
BLOCK
   5
101
 100
AcDbEntity
   8
0
 100
AcDbBlockBegin
   2
BLOCK001
  70
64
  10
0.0
  20
0.0
  30
0.0
   3
BLOCK001
   0
LINE
   5
102
 100
AcDbEntity
   8
LEVEL001
 370
15
 100
AcDbLine
   6
CONTINUOUS
  62
2
  10
 43.685210314238
  20
 228.91138937531
  30
0.0
  11
 45.003322038069
  21
 230.22950109914
  31
0.0
   0
LINE
   5
103
 100
AcDbEntity
   8
LEVEL001
 370
15
 100
AcDbLine
   6
CONTINUOUS
  62
2
  10
 43.138759066858
  20
 229.07204490911
  30
0.0
  11
 44.842666504263
  21
 230.77595234652
  31
0.0
   0
LINE
   5
104
 100
AcDbEntity
   8
LEVEL001
 370
15
 100
AcDbLine
   6
CONTINUOUS
  62
2
  10
 42.761205258899
  20
 229.40159788234
  30
0.0
  11
 44.513113531036
  21
 231.15350615448
  31
0.0
   0
LINE
   5
105
 100
AcDbEntity
   8
LEVEL001
 370
15
 100
AcDbLine
   6
CONTINUOUS
  62
2
  10
 42.536099376857
  20
 229.88359878149
  30
0.0
  11
 44.031112631891
  21
 231.37861203652
  31
0.0
   0
LINE
   5
106
 100
AcDbEntity
   8
LEVEL001
 370
15
 100
AcDbLine
   6
CONTINUOUS
  62
2
  10
 42.613450864154
  20
 230.66805704997
  30
0.0
  11
 43.246654363407
  21
 231.30126054922
  31
0.0
   0
ENDBLK
   5
107
 100
AcDbEntity
   8
0
 100
AcDbBlockEnd
   0
BLOCK
   5
108
 100
AcDbEntity
   8
0
 100
AcDbBlockBegin
   2
BLOCK002
  70
64
  10
0.0
  20
0.0
  30
0.0
   3
BLOCK002
   0
LINE
   5
109
 100
AcDbEntity
   8
LEVEL001
 370
15
 100
AcDbLine
   6
CONTINUOUS
  62
2
  10
 49.568819397664
  20
 228.91138937531
  30
0.0
  11
 50.886931121495
  21
 230.22950109914
  31
0.0
   0
LINE
   5
10A
 100
AcDbEntity
   8
LEVEL001
 370
15
 100
AcDbLine
   6
CONTINUOUS
  62
2
  10
 49.022368150284
  20
 229.07204490911
  30
0.0
  11
 50.726275587689
  21
 230.77595234652
  31
0.0
   0
LINE
   5
10B
 100
AcDbEntity
   8
LEVEL001
 370
15
 100
AcDbLine
   6
CONTINUOUS
  62
2
  10
 48.644814342324
  20
 229.40159788234
  30
0.0
  11
 50.396722614462
  21
 231.15350615448
  31
0.0
   0
LINE
   5
10C
 100
AcDbEntity
   8
LEVEL001
 370
15
 100
AcDbLine
   6
CONTINUOUS
  62
2
  10
 48.419708460283
  20
 229.88359878149
  30
0.0
  11
 49.914721715317
  21
 231.37861203652
  31
0.0
   0
LINE
   5
10D
 100
AcDbEntity
   8
LEVEL001
 370
15
 100
AcDbLine
   6
CONTINUOUS
  62
2
  10
 48.497059947580
  20
 230.66805704997
  30
0.0
  11
 49.130263446832
  21
 231.30126054922
  31
0.0
   0
ENDBLK
   5
10E
 100
AcDbEntity
   8
0
 100
AcDbBlockEnd
   0
BLOCK
   5
10F
 100
AcDbEntity
   8
0
 100
AcDbBlockBegin
   2
*D11
  70
65
  10
0.0
  20
0.0
  30
0.0
   3
*D11
   0
LINE
   5
110
 100
AcDbEntity
   8
LEVEL001
 370
15
 100
AcDbLine
   6
CONTINUOUS
  62
8
  10
 64.497092474741
  20
 227.81442506018
  30
0.0
  11
 70.748748809656
  21
 227.81442506018
  31
0.0
   0
LINE
   5
111
 100
AcDbEntity
   8
LEVEL001
 370
15
 100
AcDbLine
   6
CONTINUOUS
  62
8
  10
 69.748748809656
  20
 223.40030143045
  30
0.0
  11
 69.748748809656
  21
 229.31442506018
  31
0.0
   0
LINE
   5
112
 100
AcDbEntity
   8
LEVEL001
 370
15
 100
AcDbLine
   6
CONTINUOUS
  62
8
  10
 69.748748809656
  20
 230.81442506018
  30
0.0
  11
 69.748748809656
  21
 229.31442506018
  31
0.0
   0
SOLID
   5
113
 100
AcDbEntity
   8
LEVEL001
 100
AcDbTrace
   6
CONTINUOUS
  62
8
  10
 69.748748809656
  20
 227.81442506018
  30
0.0
  11
 69.396094848239
  21
 225.81442506018
  31
0.0
  12
 70.101402771073
  22
 225.81442506018
  32
0.0
  13
 70.101402771073
  23
 225.81442506018
  33
0.0
   0
MTEXT
   5
114
 100
AcDbEntity
   8
LEVEL001
 370
15
  62
8
 100
AcDbMText
  10
 69.140140201047
  20
 225.90030143045
  30
0.0
  40
 2.5000000000000
  41
0.0
  71
9
  72
1
   1
\A1;3
   7
GMM002
  11
0.0
  21
 1.0000000000000
  31
0.0
   0
ENDBLK
   5
115
 100
AcDbEntity
   8
0
 100
AcDbBlockEnd
   0
BLOCK
   5
116
 100
AcDbEntity
   8
0
 100
AcDbBlockBegin
   2
*D12
  70
65
  10
0.0
  20
0.0
  30
0.0
   3
*D12
   0
LINE
   5
117
 100
AcDbEntity
   8
LEVEL001
 370
15
 100
AcDbLine
   6
CONTINUOUS
  62
8
  10
 60.697092474741
  20
 230.81442506018
  30
0.0
  11
 70.748748809656
  21
 230.81442506018
  31
0.0
   0
LINE
   5
118
 100
AcDbEntity
   8
LEVEL001
 370
15
 100
AcDbLine
   6
CONTINUOUS
  62
8
  10
 51.876401842166
  20
 231.88511569276
  30
0.0
  11
 70.748748809656
  21
 231.88511569276
  31
0.0
   0
LINE
   5
119
 100
AcDbEntity
   8
LEVEL001
 370
15
 100
AcDbLine
   6
CONTINUOUS
  62
8
  10
 69.748748809656
  20
 230.81442506018
  30
0.0
  11
 69.748748809656
  21
 231.34977037647
  31
0.0
   0
LINE
   5
11A
 100
AcDbEntity
   8
LEVEL001
 370
15
 100
AcDbLine
   6
CONTINUOUS
  62
8
  10
 69.748748809656
  20
 236.50440553455
  30
0.0
  11
 69.748748809656
  21
 231.34977037647
  31
0.0
   0
INSERT
   5
11B
 100
AcDbEntity
   8
LEVEL001
   6
CONTINUOUS
  62
8
 100
AcDbBlockReference
   2
_DOT
  10
 69.748748809656
  20
 230.81442506018
  30
0.0
  41
 0.53333333333333
  42
 0.53333333333333
  43
 0.53333333333333
  50
 270.00000000000
   0
SOLID
   5
11C
 100
AcDbEntity
   8
LEVEL001
 100
AcDbTrace
   6
CONTINUOUS
  62
8
  10
 69.748748809656
  20
 231.88511569276
  30
0.0
  11
 70.101402771073
  21
 233.88511569276
  31
0.0
  12
 69.396094848239
  22
 233.88511569276
  32
0.0
  13
 69.396094848239
  23
 233.88511569276
  33
0.0
   0
MTEXT
   5
11D
 100
AcDbEntity
   8
LEVEL001
 370
15
  62
8
 100
AcDbMText
  10
 68.851851912759
  20
 234.00440553455
  30
0.0
  40
 2.5000000000000
  41
0.0
  71
7
  72
1
   1
\A1;1
   7
GMM002
  11
0.0
  21
 1.0000000000000
  31
0.0
   0
ENDBLK
   5
11E
 100
AcDbEntity
   8
0
 100
AcDbBlockEnd
   0
BLOCK
   5
11F
 100
AcDbEntity
   8
0
 100
AcDbBlockBegin
   2
*D14
  70
65
  10
0.0
  20
0.0
  30
0.0
   3
*D14
   0
LINE
   5
120
 100
AcDbEntity
   8
LEVEL001
 370
15
 100
AcDbLine
   6
CONTINUOUS
  62
8
  10
 29.697092474741
  20
 243.25087422547
  30
0.0
  11
 29.697092474741
  21
 252.88511569276
  31
0.0
   0
LINE
   5
121
 100
AcDbEntity
   8
LEVEL001
 370
15
 100
AcDbLine
   6
CONTINUOUS
  62
8
  10
 63.697092474741
  20
 229.50502398342
  30
0.0
  11
 63.697092474741
  21
 252.88511569276
  31
0.0
   0
LINE
   5
122
 100
AcDbEntity
   8
LEVEL001
 370
15
 100
AcDbLine
   6
CONTINUOUS
  62
8
  10
 29.697092474741
  20
 251.88511569276
  30
0.0
  11
 46.697092474741
  21
 251.88511569276
  31
0.0
   0
LINE
   5
123
 100
AcDbEntity
   8
LEVEL001
 370
15
 100
AcDbLine
   6
CONTINUOUS
  62
8
  10
 63.697092474741
  20
 251.88511569276
  30
0.0
  11
 46.697092474741
  21
 251.88511569276
  31
0.0
   0
SOLID
   5
124
 100
AcDbEntity
   8
LEVEL001
 100
AcDbTrace
   6
CONTINUOUS
  62
8
  10
 29.697092474741
  20
 251.88511569276
  30
0.0
  11
 31.697092474741
  21
 251.53246173134
  31
0.0
  12
 31.697092474741
  22
 252.23776965417
  32
0.0
  13
 31.697092474741
  23
 252.23776965417
  33
0.0
   0
SOLID
   5
125
 100
AcDbEntity
   8
LEVEL001
 100
AcDbTrace
   6
CONTINUOUS
  62
8
  10
 63.697092474741
  20
 251.88511569276
  30
0.0
  11
 61.697092474741
  21
 252.23776965417
  31
0.0
  12
 61.697092474741
  22
 251.53246173134
  32
0.0
  13
 61.697092474741
  23
 251.53246173134
  33
0.0
   0
MTEXT
   5
126
 100
AcDbEntity
   8
LEVEL001
 370
15
  62
8
 100
AcDbMText
  10
 46.697092474741
  20
 252.88511569276
  30
0.0
  40
 2.5000000000000
  41
0.0
  71
8
  72
1
   1
\A1;34
   7
GMM002
   0
ENDBLK
   5
127
 100
AcDbEntity
   8
0
 100
AcDbBlockEnd
   0
BLOCK
   5
128
 100
AcDbEntity
   8
0
 100
AcDbBlockBegin
   2
*D15
  70
65
  10
0.0
  20
0.0
  30
0.0
   3
*D15
   0
LINE
   5
129
 100
AcDbEntity
   8
LEVEL001
 370
15
 100
AcDbLine
   6
CONTINUOUS
  62
8
  10
 29.697092474741
  20
 229.50502398342
  30
0.0
  11
 29.697092474741
  21
 247.88511569276
  31
0.0
   0
LINE
   5
12A
 100
AcDbEntity
   8
LEVEL001
 370
15
 100
AcDbLine
   6
CONTINUOUS
  62
8
  10
 46.697092474741
  20
 233.50182174702
  30
0.0
  11
 46.697092474741
  21
 247.88511569276
  31
0.0
   0
LINE
   5
12B
 100
AcDbEntity
   8
LEVEL001
 370
15
 100
AcDbLine
   6
CONTINUOUS
  62
8
  10
 29.697092474741
  20
 246.88511569276
  30
0.0
  11
 38.197092474741
  21
 246.88511569276
  31
0.0
   0
LINE
   5
12C
 100
AcDbEntity
   8
LEVEL001
 370
15
 100
AcDbLine
   6
CONTINUOUS
  62
8
  10
 46.697092474741
  20
 246.88511569276
  30
0.0
  11
 38.197092474741
  21
 246.88511569276
  31
0.0
   0
SOLID
   5
12D
 100
AcDbEntity
   8
LEVEL001
 100
AcDbTrace
   6
CONTINUOUS
  62
8
  10
 29.697092474741
  20
 246.88511569276
  30
0.0
  11
 31.697092474741
  21
 246.53246173134
  31
0.0
  12
 31.697092474741
  22
 247.23776965417
  32
0.0
  13
 31.697092474741
  23
 247.23776965417
  33
0.0
   0
SOLID
   5
12E
 100
AcDbEntity
   8
LEVEL001
 100
AcDbTrace
   6
CONTINUOUS
  62
8
  10
 46.697092474741
  20
 246.88511569276
  30
0.0
  11
 44.697092474741
  21
 247.23776965417
  31
0.0
  12
 44.697092474741
  22
 246.53246173134
  32
0.0
  13
 44.697092474741
  23
 246.53246173134
  33
0.0
   0
MTEXT
   5
12F
 100
AcDbEntity
   8
LEVEL001
 370
15
  62
8
 100
AcDbMText
  10
 38.197092474741
  20
 247.88511569276
  30
0.0
  40
 2.5000000000000
  41
0.0
  71
8
  72
1
   1
\A1;17
   7
GMM002
   0
ENDBLK
   5
130
 100
AcDbEntity
   8
0
 100
AcDbBlockEnd
   0
BLOCK
   5
131
 100
AcDbEntity
   8
0
 100
AcDbBlockBegin
   2
*D16
  70
65
  10
0.0
  20
0.0
  30
0.0
   3
*D16
   0
LINE
   5
132
 100
AcDbEntity
   8
LEVEL001
 370
15
 100
AcDbLine
   6
CONTINUOUS
  62
8
  10
 43.447092474741
  20
 232.58511569276
  30
0.0
  11
 43.447092474741
  21
 242.88511569276
  31
0.0
   0
LINE
   5
133
 100
AcDbEntity
   8
LEVEL001
 370
15
 100
AcDbLine
   6
CONTINUOUS
  62
8
  10
 49.947092474741
  20
 232.58511569276
  30
0.0
  11
 49.947092474741
  21
 242.88511569276
  31
0.0
   0
LINE
   5
134
 100
AcDbEntity
   8
LEVEL001
 370
15
 100
AcDbLine
   6
CONTINUOUS
  62
8
  10
 40.947092474741
  20
 241.88511569276
  30
0.0
  11
 46.697092474741
  21
 241.88511569276
  31
0.0
   0
LINE
   5
135
 100
AcDbEntity
   8
LEVEL001
 370
15
 100
AcDbLine
   6
CONTINUOUS
  62
8
  10
 56.626233364615
  20
 241.88511569276
  30
0.0
  11
 46.697092474741
  21
 241.88511569276
  31
0.0
   0
SOLID
   5
136
 100
AcDbEntity
   8
LEVEL001
 100
AcDbTrace
   6
CONTINUOUS
  62
8
  10
 43.447092474741
  20
 241.88511569276
  30
0.0
  11
 41.447092474741
  21
 242.23776965417
  31
0.0
  12
 41.447092474741
  22
 241.53246173134
  32
0.0
  13
 41.447092474741
  23
 241.53246173134
  33
0.0
   0
SOLID
   5
137
 100
AcDbEntity
   8
LEVEL001
 100
AcDbTrace
   6
CONTINUOUS
  62
8
  10
 49.947092474741
  20
 241.88511569276
  30
0.0
  11
 51.947092474741
  21
 241.53246173134
  31
0.0
  12
 51.947092474741
  22
 242.23776965417
  32
0.0
  13
 51.947092474741
  23
 242.23776965417
  33
0.0
   0
MTEXT
   5
138
 100
AcDbEntity
   8
LEVEL001
 370
15
  62
8
 100
AcDbMText
  10
 51.126233364615
  20
 243.06766696435
  30
0.0
  40
 2.5000000000000
  41
0.0
  71
7
  72
1
   1
\A1;6.5
   7
GMM002
   0
ENDBLK
   5
139
 100
AcDbEntity
   8
0
 100
AcDbBlockEnd
   0
BLOCK
   5
13A
 100
AcDbEntity
   8
0
 100
AcDbBlockBegin
   2
*D17
  70
65
  10
0.0
  20
0.0
  30
0.0
   3
*D17
   0
LINE
   5
13B
 100
AcDbEntity
   8
LEVEL001
 370
15
 100
AcDbLine
   6
CONTINUOUS
  62
8
  10
 45.441325037961
  20
 229.81442506018
  30
0.0
  11
 45.441325037961
  21
 237.88511569276
  31
0.0
   0
LINE
   5
13C
 100
AcDbEntity
   8
LEVEL001
 370
15
 100
AcDbLine
   6
CONTINUOUS
  62
8
  10
 47.952859911520
  20
 229.81442506018
  30
0.0
  11
 47.952859911520
  21
 237.88511569276
  31
0.0
   0
LINE
   5
13D
 100
AcDbEntity
   8
LEVEL001
 370
15
 100
AcDbLine
   6
CONTINUOUS
  62
8
  10
 42.941325037961
  20
 236.88511569276
  30
0.0
  11
 46.697092474741
  21
 236.88511569276
  31
0.0
   0
LINE
   5
13E
 100
AcDbEntity
   8
LEVEL001
 370
15
 100
AcDbLine
   6
CONTINUOUS
  62
8
  10
 56.675172435618
  20
 236.88511569276
  30
0.0
  11
 46.697092474741
  21
 236.88511569276
  31
0.0
   0
SOLID
   5
13F
 100
AcDbEntity
   8
LEVEL001
 100
AcDbTrace
   6
CONTINUOUS
  62
8
  10
 45.441325037961
  20
 236.88511569276
  30
0.0
  11
 43.441325037961
  21
 237.23776965417
  31
0.0
  12
 43.441325037961
  22
 236.53246173134
  32
0.0
  13
 43.441325037961
  23
 236.53246173134
  33
0.0
   0
SOLID
   5
140
 100
AcDbEntity
   8
LEVEL001
 100
AcDbTrace
   6
CONTINUOUS
  62
8
  10
 47.952859911520
  20
 236.88511569276
  30
0.0
  11
 49.952859911520
  21
 236.53246173134
  31
0.0
  12
 49.952859911520
  22
 237.23776965417
  32
0.0
  13
 49.952859911520
  23
 237.23776965417
  33
0.0
   0
MTEXT
   5
141
 100
AcDbEntity
   8
LEVEL001
 370
15
  62
8
 100
AcDbMText
  10
 51.175172435618
  20
 237.22370655339
  30
0.0
  40
 2.5000000000000
  41
0.0
  71
7
  72
1
   1
\A1;2.5
   7
GMM002
   0
ENDBLK
   5
142
 100
AcDbEntity
   8
0
 100
AcDbBlockEnd
   0
BLOCK
   5
143
 100
AcDbEntity
   8
0
 100
AcDbBlockBegin
   2
*D18
  70
65
  10
0.0
  20
0.0
  30
0.0
   3
*D18
   0
LINE
   5
144
 100
AcDbEntity
   8
LEVEL001
 370
15
 100
AcDbLine
   6
CONTINUOUS
  62
8
  10
 110.00954352267
  20
 264.24948631146
  30
0.0
  11
 105.00954352267
  21
 264.24948631146
  31
0.0
   0
LINE
   5
145
 100
AcDbEntity
   8
LEVEL001
 370
15
 100
AcDbLine
   6
CONTINUOUS
  62
8
  10
 110.00954352267
  20
 228.24948631146
  30
0.0
  11
 105.00954352267
  21
 228.24948631146
  31
0.0
   0
LINE
   5
146
 100
AcDbEntity
   8
LEVEL001
 370
15
 100
AcDbLine
   6
CONTINUOUS
  62
8
  10
 106.00954352267
  20
 264.24948631146
  30
0.0
  11
 106.00954352267
  21
 246.24948631146
  31
0.0
   0
LINE
   5
147
 100
AcDbEntity
   8
LEVEL001
 370
15
 100
AcDbLine
   6
CONTINUOUS
  62
8
  10
 106.00954352267
  20
 228.24948631146
  30
0.0
  11
 106.00954352267
  21
 246.24948631146
  31
0.0
   0
SOLID
   5
148
 100
AcDbEntity
   8
LEVEL001
 100
AcDbTrace
   6
CONTINUOUS
  62
8
  10
 106.00954352267
  20
 264.24948631146
  30
0.0
  11
 105.65688956125
  21
 262.24948631146
  31
0.0
  12
 106.36219748408
  22
 262.24948631146
  32
0.0
  13
 106.36219748408
  23
 262.24948631146
  33
0.0
   0
SOLID
   5
149
 100
AcDbEntity
   8
LEVEL001
 100
AcDbTrace
   6
CONTINUOUS
  62
8
  10
 106.00954352267
  20
 228.24948631146
  30
0.0
  11
 106.36219748408
  21
 230.24948631146
  31
0.0
  12
 105.65688956125
  22
 230.24948631146
  32
0.0
  13
 105.65688956125
  23
 230.24948631146
  33
0.0
   0
MTEXT
   5
14A
 100
AcDbEntity
   8
LEVEL001
 370
15
  62
8
 100
AcDbMText
  10
 105.00954352267
  20
 246.24948631146
  30
0.0
  40
 2.5000000000000
  41
0.0
  71
8
  72
1
   1
\A1;36
   7
GMM002
  11
0.0
  21
 1.0000000000000
  31
0.0
   0
ENDBLK
   5
14B
 100
AcDbEntity
   8
0
 100
AcDbBlockEnd
   0
BLOCK
   5
14C
 100
AcDbEntity
   8
0
 100
AcDbBlockBegin
   2
*D19
  70
65
  10
0.0
  20
0.0
  30
0.0
   3
*D19
   0
LINE
   5
14D
 100
AcDbEntity
   8
LEVEL001
 370
15
 100
AcDbLine
   6
CONTINUOUS
  62
8
  10
 128.73434197087
  20
 263.24948631146
  30
0.0
  11
 123.73434197087
  21
 263.24948631146
  31
0.0
   0
LINE
   5
14E
 100
AcDbEntity
   8
LEVEL001
 370
15
 100
AcDbLine
   6
CONTINUOUS
  62
8
  10
 128.73434197087
  20
 229.24948631146
  30
0.0
  11
 123.73434197087
  21
 229.24948631146
  31
0.0
   0
LINE
   5
14F
 100
AcDbEntity
   8
LEVEL001
 370
15
 100
AcDbLine
   6
CONTINUOUS
  62
8
  10
 124.73434197087
  20
 263.24948631146
  30
0.0
  11
 124.73434197087
  21
 246.24948631146
  31
0.0
   0
LINE
   5
150
 100
AcDbEntity
   8
LEVEL001
 370
15
 100
AcDbLine
   6
CONTINUOUS
  62
8
  10
 124.73434197087
  20
 229.24948631146
  30
0.0
  11
 124.73434197087
  21
 246.24948631146
  31
0.0
   0
SOLID
   5
151
 100
AcDbEntity
   8
LEVEL001
 100
AcDbTrace
   6
CONTINUOUS
  62
8
  10
 124.73434197087
  20
 263.24948631146
  30
0.0
  11
 124.38168800945
  21
 261.24948631146
  31
0.0
  12
 125.08699593228
  22
 261.24948631146
  32
0.0
  13
 125.08699593228
  23
 261.24948631146
  33
0.0
   0
SOLID
   5
152
 100
AcDbEntity
   8
LEVEL001
 100
AcDbTrace
   6
CONTINUOUS
  62
8
  10
 124.73434197087
  20
 229.24948631146
  30
0.0
  11
 125.08699593228
  21
 231.24948631146
  31
0.0
  12
 124.38168800945
  22
 231.24948631146
  32
0.0
  13
 124.38168800945
  23
 231.24948631146
  33
0.0
   0
MTEXT
   5
153
 100
AcDbEntity
   8
LEVEL001
 370
15
  62
8
 100
AcDbMText
  10
 123.73434197087
  20
 246.24948631146
  30
0.0
  40
 2.5000000000000
  41
0.0
  71
8
  72
1
   1
\A1;34
   7
GMM002
  11
0.0
  21
 1.0000000000000
  31
0.0
   0
ENDBLK
   5
154
 100
AcDbEntity
   8
0
 100
AcDbBlockEnd
   0
BLOCK
   5
155
 100
AcDbEntity
   8
0
 100
AcDbBlockBegin
   2
*D20
  70
65
  10
0.0
  20
0.0
  30
0.0
   3
*D20
   0
LINE
   5
156
 100
AcDbEntity
   8
LEVEL001
 370
15
 100
AcDbLine
   6
CONTINUOUS
  62
8
  10
 111.00954352267
  20
 227.24948631146
  30
0.0
  11
 111.00954352267
  21
 217.24948631146
  31
0.0
   0
LINE
   5
157
 100
AcDbEntity
   8
LEVEL001
 370
15
 100
AcDbLine
   6
CONTINUOUS
  62
8
  10
 115.00954352267
  20
 231.98153711903
  30
0.0
  11
 115.00954352267
  21
 217.24948631146
  31
0.0
   0
LINE
   5
158
 100
AcDbEntity
   8
LEVEL001
 370
15
 100
AcDbLine
   6
CONTINUOUS
  62
8
  10
 108.50954352267
  20
 218.24948631146
  30
0.0
  11
 113.00954352267
  21
 218.24948631146
  31
0.0
   0
LINE
   5
159
 100
AcDbEntity
   8
LEVEL001
 370
15
 100
AcDbLine
   6
CONTINUOUS
  62
8
  10
 117.50954352267
  20
 218.24948631146
  30
0.0
  11
 113.00954352267
  21
 218.24948631146
  31
0.0
   0
SOLID
   5
15A
 100
AcDbEntity
   8
LEVEL001
 100
AcDbTrace
   6
CONTINUOUS
  62
8
  10
 111.00954352267
  20
 218.24948631146
  30
0.0
  11
 109.00954352267
  21
 218.60214027288
  31
0.0
  12
 109.00954352267
  22
 217.89683235004
  32
0.0
  13
 109.00954352267
  23
 217.89683235004
  33
0.0
   0
SOLID
   5
15B
 100
AcDbEntity
   8
LEVEL001
 100
AcDbTrace
   6
CONTINUOUS
  62
8
  10
 115.00954352267
  20
 218.24948631146
  30
0.0
  11
 117.00954352267
  21
 217.89683235004
  31
0.0
  12
 117.00954352267
  22
 218.60214027288
  32
0.0
  13
 117.00954352267
  23
 218.60214027288
  33
0.0
   0
MTEXT
   5
15C
 100
AcDbEntity
   8
LEVEL001
 370
15
  62
8
 100
AcDbMText
  10
 113.00954352267
  20
 219.24948631146
  30
0.0
  40
 2.5000000000000
  41
0.0
  71
8
  72
1
   1
\A1;4
   7
GMM002
   0
ENDBLK
   5
15D
 100
AcDbEntity
   8
0
 100
AcDbBlockEnd
   0
BLOCK
   5
15E
 100
AcDbEntity
   8
0
 100
AcDbBlockBegin
   2
*D21
  70
65
  10
0.0
  20
0.0
  30
0.0
   3
*D21
   0
LINE
   5
15F
 100
AcDbEntity
   8
LEVEL001
 370
15
 100
AcDbLine
   6
CONTINUOUS
  62
8
  10
 129.73434197087
  20
 227.24948631146
  30
0.0
  11
 129.73434197087
  21
 217.24948631146
  31
0.0
   0
LINE
   5
160
 100
AcDbEntity
   8
LEVEL001
 370
15
 100
AcDbLine
   6
CONTINUOUS
  62
8
  10
 182.73434197087
  20
 227.24948631146
  30
0.0
  11
 182.73434197087
  21
 217.24948631146
  31
0.0
   0
LINE
   5
161
 100
AcDbEntity
   8
LEVEL001
 370
15
 100
AcDbLine
   6
CONTINUOUS
  62
8
  10
 129.73434197087
  20
 218.24948631146
  30
0.0
  11
 156.23434197087
  21
 218.24948631146
  31
0.0
   0
LINE
   5
162
 100
AcDbEntity
   8
LEVEL001
 370
15
 100
AcDbLine
   6
CONTINUOUS
  62
8
  10
 182.73434197087
  20
 218.24948631146
  30
0.0
  11
 156.23434197087
  21
 218.24948631146
  31
0.0
   0
SOLID
   5
163
 100
AcDbEntity
   8
LEVEL001
 100
AcDbTrace
   6
CONTINUOUS
  62
8
  10
 129.73434197087
  20
 218.24948631146
  30
0.0
  11
 131.73434197087
  21
 217.89683235004
  31
0.0
  12
 131.73434197087
  22
 218.60214027288
  32
0.0
  13
 131.73434197087
  23
 218.60214027288
  33
0.0
   0
SOLID
   5
164
 100
AcDbEntity
   8
LEVEL001
 100
AcDbTrace
   6
CONTINUOUS
  62
8
  10
 182.73434197087
  20
 218.24948631146
  30
0.0
  11
 180.73434197087
  21
 218.60214027288
  31
0.0
  12
 180.73434197087
  22
 217.89683235004
  32
0.0
  13
 180.73434197087
  23
 217.89683235004
  33
0.0
   0
MTEXT
   5
165
 100
AcDbEntity
   8
LEVEL001
 370
15
  62
8
 100
AcDbMText
  10
 156.23434197087
  20
 219.24948631146
  30
0.0
  40
 2.5000000000000
  41
0.0
  71
8
  72
1
   1
\A1;53
   7
GMM002
   0
ENDBLK
   5
166
 100
AcDbEntity
   8
0
 100
AcDbBlockEnd
   0
BLOCK
   5
167
 100
AcDbEntity
   8
0
 100
AcDbBlockBegin
   2
*D22
  70
65
  10
0.0
  20
0.0
  30
0.0
   3
*D22
   0
LINE
   5
168
 100
AcDbEntity
   8
LEVEL001
 370
15
 100
AcDbLine
   6
CONTINUOUS
  62
8
  10
 129.73434197087
  20
 227.24948631146
  30
0.0
  11
 129.73434197087
  21
 222.24948631146
  31
0.0
   0
LINE
   5
169
 100
AcDbEntity
   8
LEVEL001
 370
15
 100
AcDbLine
   6
CONTINUOUS
  62
8
  10
 132.73434197087
  20
 228.24948631146
  30
0.0
  11
 132.73434197087
  21
 222.24948631146
  31
0.0
   0
LINE
   5
16A
 100
AcDbEntity
   8
LEVEL001
 370
15
 100
AcDbLine
   6
CONTINUOUS
  62
8
  10
 127.23434197087
  20
 223.24948631146
  30
0.0
  11
 131.23434197087
  21
 223.24948631146
  31
0.0
   0
LINE
   5
16B
 100
AcDbEntity
   8
LEVEL001
 370
15
 100
AcDbLine
   6
CONTINUOUS
  62
8
  10
 149.80329286118
  20
 223.24948631146
  30
0.0
  11
 131.23434197087
  21
 223.24948631146
  31
0.0
   0
SOLID
   5
16C
 100
AcDbEntity
   8
LEVEL001
 100
AcDbTrace
   6
CONTINUOUS
  62
8
  10
 129.73434197087
  20
 223.24948631146
  30
0.0
  11
 127.73434197087
  21
 223.60214027288
  31
0.0
  12
 127.73434197087
  22
 222.89683235004
  32
0.0
  13
 127.73434197087
  23
 222.89683235004
  33
0.0
   0
SOLID
   5
16D
 100
AcDbEntity
   8
LEVEL001
 100
AcDbTrace
   6
CONTINUOUS
  62
8
  10
 132.73434197087
  20
 223.24948631146
  30
0.0
  11
 134.73434197087
  21
 222.89683235004
  31
0.0
  12
 134.73434197087
  22
 223.60214027288
  32
0.0
  13
 134.73434197087
  23
 223.60214027288
  33
0.0
   0
MTEXT
   5
16E
 100
AcDbEntity
   8
LEVEL001
 370
15
  62
8
 100
AcDbMText
  10
 135.30329286118
  20
 223.88821321958
  30
0.0
  40
 2.5000000000000
  41
0.0
  71
7
  72
1
   1
\A1;3(飲み込み)
   7
GMM002
   0
ENDBLK
   5
16F
 100
AcDbEntity
   8
0
 100
AcDbBlockEnd
   0
ENDSEC
   0
SECTION
   2
ENTITIES
   0
LINE
   5
170
 100
AcDbEntity
   8
LEVEL002
 370
30
 100
AcDbLine
   6
CONTINUOUS
  62
7
  10
 344.15000000000
  20
 272.07500000000
  30
0.0
  11
 336.95000000000
  21
 272.07500000000
  31
0.0
   0
LINE
   5
171
 100
AcDbEntity
   8
LEVEL002
 370
30
 100
AcDbLine
   6
CONTINUOUS
  62
7
  10
 336.95000000000
  20
 272.07500000000
  30
0.0
  11
 336.95000000000
  21
 261.27500000000
  31
0.0
   0
LINE
   5
172
 100
AcDbEntity
   8
LEVEL002
 370
30
 100
AcDbLine
   6
CONTINUOUS
  62
7
  10
 336.95000000000
  20
 261.27500000000
  30
0.0
  11
 340.55000000000
  21
 261.27500000000
  31
0.0
   0
LINE
   5
173
 100
AcDbEntity
   8
LEVEL002
 370
30
 100
AcDbLine
   6
CONTINUOUS
  62
7
  10
 340.55000000000
  20
 261.27500000000
  30
0.0
  11
 340.55000000000
  21
 263.07500000000
  31
0.0
   0
LINE
   5
174
 100
AcDbEntity
   8
LEVEL002
 370
30
 100
AcDbLine
   6
CONTINUOUS
  62
7
  10
 340.55000000000
  20
 263.07500000000
  30
0.0
  11
 344.15000000000
  21
 263.07500000000
  31
0.0
   0
ARC
   5
175
 100
AcDbEntity
   8
LEVEL002
 370
30
   6
CONTINUOUS
  62
7
 100
AcDbCircle
  10
 344.15000000000
  20
 267.57500000000
  30
0.0
  40
 4.5000000000000
 100
AcDbArc
  50
 270.00000000000
  51
 90.000000000000
   0
LINE
   5
176
 100
AcDbEntity
   8
LEVEL002
 370
30
 100
AcDbLine
   6
CONTINUOUS
  62
7
  10
 340.55000000000
  20
 266.67500000000
  30
0.0
  11
 344.15000000000
  21
 266.67500000000
  31
0.0
   0
ARC
   5
177
 100
AcDbEntity
   8
LEVEL002
 370
30
   6
CONTINUOUS
  62
7
 100
AcDbCircle
  10
 344.15000000000
  20
 267.57500000000
  30
0.0
  40
 0.90000000000000
 100
AcDbArc
  50
 270.00000000000
  51
 90.000000000000
   0
LINE
   5
178
 100
AcDbEntity
   8
LEVEL002
 370
30
 100
AcDbLine
   6
CONTINUOUS
  62
7
  10
 344.15000000000
  20
 268.47500000000
  30
0.0
  11
 340.55000000000
  21
 268.47500000000
  31
0.0
   0
LINE
   5
179
 100
AcDbEntity
   8
LEVEL002
 370
30
 100
AcDbLine
   6
CONTINUOUS
  62
7
  10
 340.55000000000
  20
 268.47500000000
  30
0.0
  11
 340.55000000000
  21
 266.67500000000
  31
0.0
   0
LINE
   5
17A
 100
AcDbEntity
   8
LEVEL002
 370
30
 100
AcDbLine
   6
CONTINUOUS
  62
7
  10
 345.95000000000
  20
 261.27500000000
  30
0.0
  11
 353.15000000000
  21
 272.07500000000
  31
0.0
   0
LINE
   5
17B
 100
AcDbEntity
   8
LEVEL002
 370
30
 100
AcDbLine
   6
CONTINUOUS
  62
7
  10
 353.15000000000
  20
 272.07500000000
  30
0.0
  11
 362.15000000000
  21
 272.07500000000
  31
0.0
   0
LINE
   5
17C
 100
AcDbEntity
   8
LEVEL002
 370
30
 100
AcDbLine
   6
CONTINUOUS
  62
7
  10
 362.15000000000
  20
 272.07500000000
  30
0.0
  11
 362.15000000000
  21
 264.87500000000
  31
0.0
   0
LINE
   5
17D
 100
AcDbEntity
   8
LEVEL002
 370
30
 100
AcDbLine
   6
CONTINUOUS
  62
7
  10
 362.15000000000
  20
 264.87500000000
  30
0.0
  11
 367.55000000000
  21
 264.87500000000
  31
0.0
   0
LINE
   5
17E
 100
AcDbEntity
   8
LEVEL002
 370
30
 100
AcDbLine
   6
CONTINUOUS
  62
7
  10
 367.55000000000
  20
 264.87500000000
  30
0.0
  11
 367.55000000000
  21
 268.47500000000
  31
0.0
   0
LINE
   5
17F
 100
AcDbEntity
   8
LEVEL002
 370
30
 100
AcDbLine
   6
CONTINUOUS
  62
7
  10
 367.55000000000
  20
 268.47500000000
  30
0.0
  11
 363.95000000000
  21
 268.47500000000
  31
0.0
   0
LINE
   5
180
 100
AcDbEntity
   8
LEVEL002
 370
30
 100
AcDbLine
   6
CONTINUOUS
  62
7
  10
 363.95000000000
  20
 268.47500000000
  30
0.0
  11
 363.95000000000
  21
 272.07500000000
  31
0.0
   0
LINE
   5
181
 100
AcDbEntity
   8
LEVEL002
 370
30
 100
AcDbLine
   6
CONTINUOUS
  62
7
  10
 363.95000000000
  20
 272.07500000000
  30
0.0
  11
 385.55000000000
  21
 272.07500000000
  31
0.0
   0
LINE
   5
182
 100
AcDbEntity
   8
LEVEL002
 370
30
 100
AcDbLine
   6
CONTINUOUS
  62
7
  10
 385.55000000000
  20
 272.07500000000
  30
0.0
  11
 385.55000000000
  21
 268.47500000000
  31
0.0
   0
LINE
   5
183
 100
AcDbEntity
   8
LEVEL002
 370
30
 100
AcDbLine
   6
CONTINUOUS
  62
7
  10
 385.55000000000
  20
 268.47500000000
  30
0.0
  11
 378.35000000000
  21
 268.47500000000
  31
0.0
   0
LINE
   5
184
 100
AcDbEntity
   8
LEVEL002
 370
30
 100
AcDbLine
   6
CONTINUOUS
  62
7
  10
 378.35000000000
  20
 268.47500000000
  30
0.0
  11
 378.35000000000
  21
 267.57500000000
  31
0.0
   0
LINE
   5
185
 100
AcDbEntity
   8
LEVEL002
 370
30
 100
AcDbLine
   6
CONTINUOUS
  62
7
  10
 378.35000000000
  20
 267.57500000000
  30
0.0
  11
 384.65000000000
  21
 267.57500000000
  31
0.0
   0
LINE
   5
186
 100
AcDbEntity
   8
LEVEL002
 370
30
 100
AcDbLine
   6
CONTINUOUS
  62
7
  10
 384.65000000000
  20
 267.57500000000
  30
0.0
  11
 384.65000000000
  21
 265.77500000000
  31
0.0
   0
LINE
   5
187
 100
AcDbEntity
   8
LEVEL002
 370
30
 100
AcDbLine
   6
CONTINUOUS
  62
7
  10
 384.65000000000
  20
 265.77500000000
  30
0.0
  11
 378.35000000000
  21
 265.77500000000
  31
0.0
   0
LINE
   5
188
 100
AcDbEntity
   8
LEVEL002
 370
30
 100
AcDbLine
   6
CONTINUOUS
  62
7
  10
 378.35000000000
  20
 265.77500000000
  30
0.0
  11
 378.35000000000
  21
 264.87500000000
  31
0.0
   0
LINE
   5
189
 100
AcDbEntity
   8
LEVEL002
 370
30
 100
AcDbLine
   6
CONTINUOUS
  62
7
  10
 378.35000000000
  20
 264.87500000000
  30
0.0
  11
 385.55000000000
  21
 264.87500000000
  31
0.0
   0
LINE
   5
18A
 100
AcDbEntity
   8
LEVEL002
 370
30
 100
AcDbLine
   6
CONTINUOUS
  62
7
  10
 385.55000000000
  20
 264.87500000000
  30
0.0
  11
 385.55000000000
  21
 261.27500000000
  31
0.0
   0
LINE
   5
18B
 100
AcDbEntity
   8
LEVEL002
 370
30
 100
AcDbLine
   6
CONTINUOUS
  62
7
  10
 385.55000000000
  20
 261.27500000000
  30
0.0
  11
 374.75000000000
  21
 261.27500000000
  31
0.0
   0
LINE
   5
18C
 100
AcDbEntity
   8
LEVEL002
 370
30
 100
AcDbLine
   6
CONTINUOUS
  62
7
  10
 374.75000000000
  20
 261.27500000000
  30
0.0
  11
 374.75000000000
  21
 268.47500000000
  31
0.0
   0
LINE
   5
18D
 100
AcDbEntity
   8
LEVEL002
 370
30
 100
AcDbLine
   6
CONTINUOUS
  62
7
  10
 374.75000000000
  20
 268.47500000000
  30
0.0
  11
 371.15000000000
  21
 268.47500000000
  31
0.0
   0
LINE
   5
18E
 100
AcDbEntity
   8
LEVEL002
 370
30
 100
AcDbLine
   6
CONTINUOUS
  62
7
  10
 371.15000000000
  20
 268.47500000000
  30
0.0
  11
 371.15000000000
  21
 261.27500000000
  31
0.0
   0
LINE
   5
18F
 100
AcDbEntity
   8
LEVEL002
 370
30
 100
AcDbLine
   6
CONTINUOUS
  62
7
  10
 371.15000000000
  20
 261.27500000000
  30
0.0
  11
 358.55000000000
  21
 261.27500000000
  31
0.0
   0
LINE
   5
190
 100
AcDbEntity
   8
LEVEL002
 370
30
 100
AcDbLine
   6
CONTINUOUS
  62
7
  10
 358.55000000000
  20
 261.27500000000
  30
0.0
  11
 358.55000000000
  21
 272.07500000000
  31
0.0
   0
LINE
   5
191
 100
AcDbEntity
   8
LEVEL002
 370
30
 100
AcDbLine
   6
CONTINUOUS
  62
7
  10
 358.55000000000
  20
 272.07500000000
  30
0.0
  11
 351.35000000000
  21
 261.27500000000
  31
0.0
   0
LINE
   5
192
 100
AcDbEntity
   8
LEVEL002
 370
30
 100
AcDbLine
   6
CONTINUOUS
  62
7
  10
 351.35000000000
  20
 261.27500000000
  30
0.0
  11
 345.95000000000
  21
 261.27500000000
  31
0.0
   0
LINE
   5
193
 100
AcDbEntity
   8
LEVEL002
 370
30
 100
AcDbLine
   6
CONTINUOUS
  62
7
  10
 357.35000000000
  20
 268.11166923470
  30
0.0
  11
 352.79222051020
  21
 261.27500000000
  31
0.0
   0
LINE
   5
194
 100
AcDbEntity
   8
LEVEL002
 370
30
 100
AcDbLine
   6
CONTINUOUS
  62
7
  10
 352.79222051020
  20
 261.27500000000
  30
0.0
  11
 357.35000000000
  21
 261.27500000000
  31
0.0
   0
LINE
   5
195
 100
AcDbEntity
   8
LEVEL002
 370
30
 100
AcDbLine
   6
CONTINUOUS
  62
7
  10
 357.35000000000
  20
 261.27500000000
  30
0.0
  11
 357.35000000000
  21
 268.11166923470
  31
0.0
   0
ARC
   5
196
 100
AcDbEntity
   8
LEVEL002
 370
30
   6
CONTINUOUS
  62
7
 100
AcDbCircle
  10
 390.95000000000
  20
 266.67500000000
  30
0.0
  40
 5.4000000000000
 100
AcDbArc
  50
 90.000000000000
  51
 270.00000000000
   0
ARC
   5
197
 100
AcDbEntity
   8
LEVEL002
 370
30
   6
CONTINUOUS
  62
7
 100
AcDbCircle
  10
 390.95000000000
  20
 266.67500000000
  30
0.0
  40
 1.8000000000000
 100
AcDbArc
  50
 90.000000000000
  51
 270.00000000000
   0
LINE
   5
198
 100
AcDbEntity
   8
LEVEL002
 370
30
 100
AcDbLine
   6
CONTINUOUS
  62
7
  10
 390.95000000000
  20
 272.07500000000
  30
0.0
  11
 396.35000000000
  21
 272.07500000000
  31
0.0
   0
LINE
   5
199
 100
AcDbEntity
   8
LEVEL002
 370
30
 100
AcDbLine
   6
CONTINUOUS
  62
7
  10
 396.35000000000
  20
 272.07500000000
  30
0.0
  11
 396.35000000000
  21
 268.47500000000
  31
0.0
   0
LINE
   5
19A
 100
AcDbEntity
   8
LEVEL002
 370
30
 100
AcDbLine
   6
CONTINUOUS
  62
7
  10
 396.35000000000
  20
 268.47500000000
  30
0.0
  11
 390.95000000000
  21
 268.47500000000
  31
0.0
   0
LINE
   5
19B
 100
AcDbEntity
   8
LEVEL002
 370
30
 100
AcDbLine
   6
CONTINUOUS
  62
7
  10
 336.95000000000
  20
 272.07500000000
  30
0.0
  11
 336.95000000000
  21
 261.27500000000
  31
0.0
   0
LINE
   5
19C
 100
AcDbEntity
   8
LEVEL002
 370
30
 100
AcDbLine
   6
CONTINUOUS
  62
7
  10
 336.95000000000
  20
 261.27500000000
  30
0.0
  11
 340.55000000000
  21
 261.27500000000
  31
0.0
   0
LINE
   5
19D
 100
AcDbEntity
   8
LEVEL002
 370
30
 100
AcDbLine
   6
CONTINUOUS
  62
7
  10
 340.55000000000
  20
 261.27500000000
  30
0.0
  11
 340.55000000000
  21
 263.07500000000
  31
0.0
   0
LINE
   5
19E
 100
AcDbEntity
   8
LEVEL002
 370
30
 100
AcDbLine
   6
CONTINUOUS
  62
7
  10
 340.55000000000
  20
 263.07500000000
  30
0.0
  11
 344.15000000000
  21
 263.07500000000
  31
0.0
   0
ARC
   5
19F
 100
AcDbEntity
   8
LEVEL002
 370
30
   6
CONTINUOUS
  62
7
 100
AcDbCircle
  10
 344.15000000000
  20
 267.57500000000
  30
0.0
  40
 4.5000000000000
 100
AcDbArc
  50
 270.00000000000
  51
 90.000000000000
   0
LINE
   5
1A0
 100
AcDbEntity
   8
LEVEL002
 370
30
 100
AcDbLine
   6
CONTINUOUS
  62
7
  10
 344.15000000000
  20
 272.07500000000
  30
0.0
  11
 336.95000000000
  21
 272.07500000000
  31
0.0
   0
LINE
   5
1A1
 100
AcDbEntity
   8
LEVEL002
 370
30
 100
AcDbLine
   6
CONTINUOUS
  62
7
  10
 340.55000000000
  20
 268.47500000000
  30
0.0
  11
 340.55000000000
  21
 266.67500000000
  31
0.0
   0
LINE
   5
1A2
 100
AcDbEntity
   8
LEVEL002
 370
30
 100
AcDbLine
   6
CONTINUOUS
  62
7
  10
 340.55000000000
  20
 266.67500000000
  30
0.0
  11
 344.15000000000
  21
 266.67500000000
  31
0.0
   0
ARC
   5
1A3
 100
AcDbEntity
   8
LEVEL002
 370
30
   6
CONTINUOUS
  62
7
 100
AcDbCircle
  10
 344.15000000000
  20
 267.57500000000
  30
0.0
  40
 0.90000000000000
 100
AcDbArc
  50
 270.00000000000
  51
 90.000000000000
   0
LINE
   5
1A4
 100
AcDbEntity
   8
LEVEL002
 370
30
 100
AcDbLine
   6
CONTINUOUS
  62
7
  10
 344.15000000000
  20
 268.47500000000
  30
0.0
  11
 340.55000000000
  21
 268.47500000000
  31
0.0
   0
LINE
   5
1A5
 100
AcDbEntity
   8
LEVEL002
 370
30
 100
AcDbLine
   6
CONTINUOUS
  62
7
  10
 353.15000000000
  20
 272.07500000000
  30
0.0
  11
 345.95000000000
  21
 261.27500000000
  31
0.0
   0
LINE
   5
1A6
 100
AcDbEntity
   8
LEVEL002
 370
30
 100
AcDbLine
   6
CONTINUOUS
  62
7
  10
 345.95000000000
  20
 261.27500000000
  30
0.0
  11
 351.35000000000
  21
 261.27500000000
  31
0.0
   0
LINE
   5
1A7
 100
AcDbEntity
   8
LEVEL002
 370
30
 100
AcDbLine
   6
CONTINUOUS
  62
7
  10
 351.35000000000
  20
 261.27500000000
  30
0.0
  11
 358.55000000000
  21
 272.07500000000
  31
0.0
   0
LINE
   5
1A8
 100
AcDbEntity
   8
LEVEL002
 370
30
 100
AcDbLine
   6
CONTINUOUS
  62
7
  10
 358.55000000000
  20
 272.07500000000
  30
0.0
  11
 353.15000000000
  21
 272.07500000000
  31
0.0
   0
LINE
   5
1A9
 100
AcDbEntity
   8
LEVEL002
 370
30
 100
AcDbLine
   6
CONTINUOUS
  62
7
  10
 357.35000000000
  20
 261.27500000000
  30
0.0
  11
 357.35000000000
  21
 268.11166923470
  31
0.0
   0
LINE
   5
1AA
 100
AcDbEntity
   8
LEVEL002
 370
30
 100
AcDbLine
   6
CONTINUOUS
  62
7
  10
 357.35000000000
  20
 268.11166923470
  30
0.0
  11
 352.79222051020
  21
 261.27500000000
  31
0.0
   0
LINE
   5
1AB
 100
AcDbEntity
   8
LEVEL002
 370
30
 100
AcDbLine
   6
CONTINUOUS
  62
7
  10
 352.79222051020
  20
 261.27500000000
  30
0.0
  11
 357.35000000000
  21
 261.27500000000
  31
0.0
   0
LINE
   5
1AC
 100
AcDbEntity
   8
LEVEL002
 370
30
 100
AcDbLine
   6
CONTINUOUS
  62
7
  10
 358.55000000000
  20
 261.27500000000
  30
0.0
  11
 371.15000000000
  21
 261.27500000000
  31
0.0
   0
LINE
   5
1AD
 100
AcDbEntity
   8
LEVEL002
 370
30
 100
AcDbLine
   6
CONTINUOUS
  62
7
  10
 371.15000000000
  20
 261.27500000000
  30
0.0
  11
 371.15000000000
  21
 268.47500000000
  31
0.0
   0
LINE
   5
1AE
 100
AcDbEntity
   8
LEVEL002
 370
30
 100
AcDbLine
   6
CONTINUOUS
  62
7
  10
 371.15000000000
  20
 268.47500000000
  30
0.0
  11
 374.75000000000
  21
 268.47500000000
  31
0.0
   0
LINE
   5
1AF
 100
AcDbEntity
   8
LEVEL002
 370
30
 100
AcDbLine
   6
CONTINUOUS
  62
7
  10
 374.75000000000
  20
 268.47500000000
  30
0.0
  11
 374.75000000000
  21
 261.27500000000
  31
0.0
   0
LINE
   5
1B0
 100
AcDbEntity
   8
LEVEL002
 370
30
 100
AcDbLine
   6
CONTINUOUS
  62
7
  10
 374.75000000000
  20
 261.27500000000
  30
0.0
  11
 385.55000000000
  21
 261.27500000000
  31
0.0
   0
LINE
   5
1B1
 100
AcDbEntity
   8
LEVEL002
 370
30
 100
AcDbLine
   6
CONTINUOUS
  62
7
  10
 385.55000000000
  20
 261.27500000000
  30
0.0
  11
 385.55000000000
  21
 264.87500000000
  31
0.0
   0
LINE
   5
1B2
 100
AcDbEntity
   8
LEVEL002
 370
30
 100
AcDbLine
   6
CONTINUOUS
  62
7
  10
 385.55000000000
  20
 264.87500000000
  30
0.0
  11
 378.35000000000
  21
 264.87500000000
  31
0.0
   0
LINE
   5
1B3
 100
AcDbEntity
   8
LEVEL002
 370
30
 100
AcDbLine
   6
CONTINUOUS
  62
7
  10
 378.35000000000
  20
 264.87500000000
  30
0.0
  11
 378.35000000000
  21
 265.77500000000
  31
0.0
   0
LINE
   5
1B4
 100
AcDbEntity
   8
LEVEL002
 370
30
 100
AcDbLine
   6
CONTINUOUS
  62
7
  10
 378.35000000000
  20
 265.77500000000
  30
0.0
  11
 384.65000000000
  21
 265.77500000000
  31
0.0
   0
LINE
   5
1B5
 100
AcDbEntity
   8
LEVEL002
 370
30
 100
AcDbLine
   6
CONTINUOUS
  62
7
  10
 384.65000000000
  20
 265.77500000000
  30
0.0
  11
 384.65000000000
  21
 267.57500000000
  31
0.0
   0
LINE
   5
1B6
 100
AcDbEntity
   8
LEVEL002
 370
30
 100
AcDbLine
   6
CONTINUOUS
  62
7
  10
 384.65000000000
  20
 267.57500000000
  30
0.0
  11
 378.35000000000
  21
 267.57500000000
  31
0.0
   0
LINE
   5
1B7
 100
AcDbEntity
   8
LEVEL002
 370
30
 100
AcDbLine
   6
CONTINUOUS
  62
7
  10
 378.35000000000
  20
 267.57500000000
  30
0.0
  11
 378.35000000000
  21
 268.47500000000
  31
0.0
   0
LINE
   5
1B8
 100
AcDbEntity
   8
LEVEL002
 370
30
 100
AcDbLine
   6
CONTINUOUS
  62
7
  10
 378.35000000000
  20
 268.47500000000
  30
0.0
  11
 385.55000000000
  21
 268.47500000000
  31
0.0
   0
LINE
   5
1B9
 100
AcDbEntity
   8
LEVEL002
 370
30
 100
AcDbLine
   6
CONTINUOUS
  62
7
  10
 385.55000000000
  20
 268.47500000000
  30
0.0
  11
 385.55000000000
  21
 272.07500000000
  31
0.0
   0
LINE
   5
1BA
 100
AcDbEntity
   8
LEVEL002
 370
30
 100
AcDbLine
   6
CONTINUOUS
  62
7
  10
 385.55000000000
  20
 272.07500000000
  30
0.0
  11
 363.95000000000
  21
 272.07500000000
  31
0.0
   0
LINE
   5
1BB
 100
AcDbEntity
   8
LEVEL002
 370
30
 100
AcDbLine
   6
CONTINUOUS
  62
7
  10
 363.95000000000
  20
 272.07500000000
  30
0.0
  11
 363.95000000000
  21
 268.47500000000
  31
0.0
   0
LINE
   5
1BC
 100
AcDbEntity
   8
LEVEL002
 370
30
 100
AcDbLine
   6
CONTINUOUS
  62
7
  10
 363.95000000000
  20
 268.47500000000
  30
0.0
  11
 367.55000000000
  21
 268.47500000000
  31
0.0
   0
LINE
   5
1BD
 100
AcDbEntity
   8
LEVEL002
 370
30
 100
AcDbLine
   6
CONTINUOUS
  62
7
  10
 367.55000000000
  20
 268.47500000000
  30
0.0
  11
 367.55000000000
  21
 264.87500000000
  31
0.0
   0
LINE
   5
1BE
 100
AcDbEntity
   8
LEVEL002
 370
30
 100
AcDbLine
   6
CONTINUOUS
  62
7
  10
 367.55000000000
  20
 264.87500000000
  30
0.0
  11
 362.15000000000
  21
 264.87500000000
  31
0.0
   0
LINE
   5
1BF
 100
AcDbEntity
   8
LEVEL002
 370
30
 100
AcDbLine
   6
CONTINUOUS
  62
7
  10
 362.15000000000
  20
 264.87500000000
  30
0.0
  11
 362.15000000000
  21
 272.07500000000
  31
0.0
   0
LINE
   5
1C0
 100
AcDbEntity
   8
LEVEL002
 370
30
 100
AcDbLine
   6
CONTINUOUS
  62
7
  10
 362.15000000000
  20
 272.07500000000
  30
0.0
  11
 358.55000000000
  21
 272.07500000000
  31
0.0
   0
LINE
   5
1C1
 100
AcDbEntity
   8
LEVEL002
 370
30
 100
AcDbLine
   6
CONTINUOUS
  62
7
  10
 358.55000000000
  20
 272.07500000000
  30
0.0
  11
 358.55000000000
  21
 261.27500000000
  31
0.0
   0
LINE
   5
1C2
 100
AcDbEntity
   8
LEVEL002
 370
30
 100
AcDbLine
   6
CONTINUOUS
  62
7
  10
 390.95000000000
  20
 261.27500000000
  30
0.0
  11
 396.35000000000
  21
 261.27500000000
  31
0.0
   0
LINE
   5
1C3
 100
AcDbEntity
   8
LEVEL002
 370
30
 100
AcDbLine
   6
CONTINUOUS
  62
7
  10
 396.35000000000
  20
 261.27500000000
  30
0.0
  11
 396.35000000000
  21
 264.87500000000
  31
0.0
   0
LINE
   5
1C4
 100
AcDbEntity
   8
LEVEL002
 370
30
 100
AcDbLine
   6
CONTINUOUS
  62
7
  10
 396.35000000000
  20
 264.87500000000
  30
0.0
  11
 390.95000000000
  21
 264.87500000000
  31
0.0
   0
ARC
   5
1C5
 100
AcDbEntity
   8
LEVEL002
 370
30
   6
CONTINUOUS
  62
7
 100
AcDbCircle
  10
 390.95000000000
  20
 266.67500000000
  30
0.0
  40
 1.8000000000000
 100
AcDbArc
  50
 90.000000000000
  51
 270.00000000000
   0
LINE
   5
1C6
 100
AcDbEntity
   8
LEVEL002
 370
30
 100
AcDbLine
   6
CONTINUOUS
  62
7
  10
 390.95000000000
  20
 268.47500000000
  30
0.0
  11
 396.35000000000
  21
 268.47500000000
  31
0.0
   0
LINE
   5
1C7
 100
AcDbEntity
   8
LEVEL002
 370
30
 100
AcDbLine
   6
CONTINUOUS
  62
7
  10
 396.35000000000
  20
 268.47500000000
  30
0.0
  11
 396.35000000000
  21
 272.07500000000
  31
0.0
   0
LINE
   5
1C8
 100
AcDbEntity
   8
LEVEL002
 370
30
 100
AcDbLine
   6
CONTINUOUS
  62
7
  10
 396.35000000000
  20
 272.07500000000
  30
0.0
  11
 390.95000000000
  21
 272.07500000000
  31
0.0
   0
ARC
   5
1C9
 100
AcDbEntity
   8
LEVEL002
 370
30
   6
CONTINUOUS
  62
7
 100
AcDbCircle
  10
 390.95000000000
  20
 266.67500000000
  30
0.0
  40
 5.4000000000000
 100
AcDbArc
  50
 90.000000000000
  51
 270.00000000000
   0
MTEXT
   5
1CB
 100
AcDbEntity
   8
LEVEL002
 370
30
  62
7
 100
AcDbMText
  10
 336.95000000000
  20
 273.87500000000
  30
0.0
  40
 3.7500000000000
  41
0.0
  71
7
  72
1
   1
\T1.000000;ケージーパルテック株式会社
   7
GMM001
  44
 0.79999984000003
   0
LINE
   5
1CC
 100
AcDbEntity
   8
LEVEL002
 370
30
 100
AcDbLine
   6
CONTINUOUS
  62
7
  10
 333.35000000000
  20
 263.67500000000
  30
0.0
  11
 328.85000000000
  21
 270.87500000000
  31
0.0
   0
LINE
   5
1CD
 100
AcDbEntity
   8
LEVEL002
 370
30
 100
AcDbLine
   6
CONTINUOUS
  62
7
  10
 328.85000000000
  20
 270.87500000000
  30
0.0
  11
 333.35000000000
  21
 270.87500000000
  31
0.0
   0
LINE
   5
1CE
 100
AcDbEntity
   8
LEVEL002
 370
30
 100
AcDbLine
   6
CONTINUOUS
  62
7
  10
 333.35000000000
  20
 270.87500000000
  30
0.0
  11
 333.35000000000
  21
 263.67500000000
  31
0.0
   0
LINE
   5
1CF
 100
AcDbEntity
   8
LEVEL002
 370
30
 100
AcDbLine
   6
CONTINUOUS
  62
7
  10
 328.85000000000
  20
 270.87500000000
  30
0.0
  11
 333.35000000000
  21
 263.67500000000
  31
0.0
   0
LINE
   5
1D0
 100
AcDbEntity
   8
LEVEL002
 370
30
 100
AcDbLine
   6
CONTINUOUS
  62
7
  10
 333.35000000000
  20
 263.67500000000
  30
0.0
  11
 333.35000000000
  21
 270.87500000000
  31
0.0
   0
LINE
   5
1D1
 100
AcDbEntity
   8
LEVEL002
 370
30
 100
AcDbLine
   6
CONTINUOUS
  62
7
  10
 333.35000000000
  20
 270.87500000000
  30
0.0
  11
 328.85000000000
  21
 270.87500000000
  31
0.0
   0
LINE
   5
1D2
 100
AcDbEntity
   8
LEVEL002
 370
30
 100
AcDbLine
   6
CONTINUOUS
  62
7
  10
 319.05000000000
  20
 280.47500000000
  30
0.0
  11
 312.65000000000
  21
 270.87500000000
  31
0.0
   0
LINE
   5
1D3
 100
AcDbEntity
   8
LEVEL002
 370
30
 100
AcDbLine
   6
CONTINUOUS
  62
7
  10
 312.65000000000
  20
 270.87500000000
  30
0.0
  11
 319.05000000000
  21
 261.27500000000
  31
0.0
   0
LINE
   5
1D4
 100
AcDbEntity
   8
LEVEL002
 370
30
 100
AcDbLine
   6
CONTINUOUS
  62
7
  10
 324.45000000000
  20
 261.27500000000
  30
0.0
  11
 318.05000000000
  21
 270.87500000000
  31
0.0
   0
LINE
   5
1D5
 100
AcDbEntity
   8
LEVEL002
 370
30
 100
AcDbLine
   6
CONTINUOUS
  62
7
  10
 318.05000000000
  20
 270.87500000000
  30
0.0
  11
 324.45000000000
  21
 280.47500000000
  31
0.0
   0
LINE
   5
1D6
 100
AcDbEntity
   8
LEVEL002
 370
30
 100
AcDbLine
   6
CONTINUOUS
  62
7
  10
 327.15000000000
  20
 280.47500000000
  30
0.0
  11
 320.75000000000
  21
 270.87500000000
  31
0.0
   0
LINE
   5
1D7
 100
AcDbEntity
   8
LEVEL002
 370
30
 100
AcDbLine
   6
CONTINUOUS
  62
7
  10
 320.75000000000
  20
 270.87500000000
  30
0.0
  11
 327.15000000000
  21
 261.27500000000
  31
0.0
   0
LINE
   5
1D8
 100
AcDbEntity
   8
LEVEL002
 370
30
 100
AcDbLine
   6
CONTINUOUS
  62
7
  10
 332.55000000000
  20
 261.27500000000
  30
0.0
  11
 326.15000000000
  21
 270.87500000000
  31
0.0
   0
LINE
   5
1D9
 100
AcDbEntity
   8
LEVEL002
 370
30
 100
AcDbLine
   6
CONTINUOUS
  62
7
  10
 326.15000000000
  20
 270.87500000000
  30
0.0
  11
 332.55000000000
  21
 280.47500000000
  31
0.0
   0
LINE
   5
1DA
 100
AcDbEntity
   8
LEVEL002
 370
30
 100
AcDbLine
   6
CONTINUOUS
  62
7
  10
 319.05000000000
  20
 261.27500000000
  30
0.0
  11
 312.65000000000
  21
 270.87500000000
  31
0.0
   0
LINE
   5
1DB
 100
AcDbEntity
   8
LEVEL002
 370
30
 100
AcDbLine
   6
CONTINUOUS
  62
7
  10
 312.65000000000
  20
 270.87500000000
  30
0.0
  11
 319.05000000000
  21
 280.47500000000
  31
0.0
   0
LINE
   5
1DC
 100
AcDbEntity
   8
LEVEL002
 370
30
 100
AcDbLine
   6
CONTINUOUS
  62
7
  10
 319.05000000000
  20
 280.47500000000
  30
0.0
  11
 324.45000000000
  21
 280.47500000000
  31
0.0
   0
LINE
   5
1DD
 100
AcDbEntity
   8
LEVEL002
 370
30
 100
AcDbLine
   6
CONTINUOUS
  62
7
  10
 324.45000000000
  20
 280.47500000000
  30
0.0
  11
 318.05000000000
  21
 270.87500000000
  31
0.0
   0
LINE
   5
1DE
 100
AcDbEntity
   8
LEVEL002
 370
30
 100
AcDbLine
   6
CONTINUOUS
  62
7
  10
 318.05000000000
  20
 270.87500000000
  30
0.0
  11
 324.45000000000
  21
 261.27500000000
  31
0.0
   0
LINE
   5
1DF
 100
AcDbEntity
   8
LEVEL002
 370
30
 100
AcDbLine
   6
CONTINUOUS
  62
7
  10
 324.45000000000
  20
 261.27500000000
  30
0.0
  11
 319.05000000000
  21
 261.27500000000
  31
0.0
   0
LINE
   5
1E0
 100
AcDbEntity
   8
LEVEL002
 370
30
 100
AcDbLine
   6
CONTINUOUS
  62
7
  10
 327.15000000000
  20
 261.27500000000
  30
0.0
  11
 320.75000000000
  21
 270.87500000000
  31
0.0
   0
LINE
   5
1E1
 100
AcDbEntity
   8
LEVEL002
 370
30
 100
AcDbLine
   6
CONTINUOUS
  62
7
  10
 320.75000000000
  20
 270.87500000000
  30
0.0
  11
 327.15000000000
  21
 280.47500000000
  31
0.0
   0
LINE
   5
1E2
 100
AcDbEntity
   8
LEVEL002
 370
30
 100
AcDbLine
   6
CONTINUOUS
  62
7
  10
 327.15000000000
  20
 280.47500000000
  30
0.0
  11
 332.55000000000
  21
 280.47500000000
  31
0.0
   0
LINE
   5
1E3
 100
AcDbEntity
   8
LEVEL002
 370
30
 100
AcDbLine
   6
CONTINUOUS
  62
7
  10
 332.55000000000
  20
 280.47500000000
  30
0.0
  11
 326.15000000000
  21
 270.87500000000
  31
0.0
   0
LINE
   5
1E4
 100
AcDbEntity
   8
LEVEL002
 370
30
 100
AcDbLine
   6
CONTINUOUS
  62
7
  10
 326.15000000000
  20
 270.87500000000
  30
0.0
  11
 332.55000000000
  21
 261.27500000000
  31
0.0
   0
LINE
   5
1E5
 100
AcDbEntity
   8
LEVEL002
 370
30
 100
AcDbLine
   6
CONTINUOUS
  62
7
  10
 332.55000000000
  20
 261.27500000000
  30
0.0
  11
 327.15000000000
  21
 261.27500000000
  31
0.0
   0
LINE
   5
1E6
 100
AcDbEntity
   8
LEVEL001
 370
30
 100
AcDbLine
   6
DOT
  62
7
  10
0.0
  20
0.0
  30
0.0
  11
 420.00000000000
  21
0.0
  31
0.0
   0
LINE
   5
1E7
 100
AcDbEntity
   8
LEVEL001
 370
30
 100
AcDbLine
   6
DOT
  62
7
  10
 420.00000000000
  20
0.0
  30
0.0
  11
 420.00000000000
  21
 297.00000000000
  31
0.0
   0
LINE
   5
1E8
 100
AcDbEntity
   8
LEVEL001
 370
30
 100
AcDbLine
   6
DOT
  62
7
  10
 420.00000000000
  20
 297.00000000000
  30
0.0
  11
0.0
  21
 297.00000000000
  31
0.0
   0
LINE
   5
1E9
 100
AcDbEntity
   8
LEVEL001
 370
30
 100
AcDbLine
   6
DOT
  62
7
  10
0.0
  20
 297.00000000000
  30
0.0
  11
0.0
  21
0.0
  31
0.0
   0
LINE
   5
1EA
 100
AcDbEntity
   8
LEVEL002
 370
40
 100
AcDbLine
   6
CONTINUOUS
  62
3
  10
 15.499999999950
  20
 275.00000000000
  30
0.0
  11
 304.49999999995
  21
 275.00000000000
  31
0.0
   0
LINE
   5
1EB
 100
AcDbEntity
   8
LEVEL002
 370
40
 100
AcDbLine
   6
CONTINUOUS
  62
3
  10
 304.49999999995
  20
 256.75000000000
  30
0.0
  11
 404.49999999995
  21
 256.75000000000
  31
0.0
   0
LINE
   5
1EC
 100
AcDbEntity
   8
LEVEL002
 370
40
 100
AcDbLine
   6
CONTINUOUS
  62
3
  10
 304.49999999995
  20
 236.75000000000
  30
0.0
  11
 404.49999999995
  21
 236.75000000000
  31
0.0
   0
LINE
   5
1ED
 100
AcDbEntity
   8
LEVEL002
 370
40
 100
AcDbLine
   6
CONTINUOUS
  62
3
  10
 304.49999999995
  20
 216.75000000000
  30
0.0
  11
 404.49999999995
  21
 216.75000000000
  31
0.0
   0
LINE
   5
1EE
 100
AcDbEntity
   8
LEVEL002
 370
40
 100
AcDbLine
   6
CONTINUOUS
  62
3
  10
 304.49999999995
  20
 72.000000000010
  30
0.0
  11
 404.49999999995
  21
 72.000000000010
  31
0.0
   0
LINE
   5
1EF
 100
AcDbEntity
   8
LEVEL002
 370
40
 100
AcDbLine
   6
CONTINUOUS
  62
3
  10
 304.49999999995
  20
 52.000000000010
  30
0.0
  11
 404.49999999995
  21
 52.000000000010
  31
0.0
   0
LINE
   5
1F0
 100
AcDbEntity
   8
LEVEL002
 370
40
 100
AcDbLine
   6
CONTINUOUS
  62
3
  10
 304.49999999995
  20
 32.000000000010
  30
0.0
  11
 404.49999999995
  21
 32.000000000010
  31
0.0
   0
LINE
   5
1F1
 100
AcDbEntity
   8
LEVEL002
 370
40
 100
AcDbLine
   6
CONTINUOUS
  62
3
  10
 354.49999999995
  20
 52.000000000010
  30
0.0
  11
 354.49999999995
  21
 12.000000000010
  31
0.0
   0
LINE
   5
1F2
 100
AcDbEntity
   8
LEVEL002
 370
40
 100
AcDbLine
   6
CONTINUOUS
  62
3
  10
 354.49999999995
  20
 38.666666666680
  30
0.0
  11
 404.49999999995
  21
 38.666666666680
  31
0.0
   0
LINE
   5
1F3
 100
AcDbEntity
   8
LEVEL002
 370
40
 100
AcDbLine
   6
CONTINUOUS
  62
3
  10
 354.49999999995
  20
 45.333333333345
  30
0.0
  11
 404.49999999995
  21
 45.333333333345
  31
0.0
   0
LINE
   5
1F4
 100
AcDbEntity
   8
LEVEL002
 370
50
 100
AcDbLine
   6
CONTINUOUS
  62
4
  10
 404.49999999995
  20
 285.00000000000
  30
0.0
  11
 15.499999999950
  21
 285.00000000000
  31
0.0
   0
LINE
   5
1F5
 100
AcDbEntity
   8
LEVEL002
 370
50
 100
AcDbLine
   6
CONTINUOUS
  62
4
  10
 304.49999999995
  20
 285.00000000000
  30
0.0
  11
 304.49999999995
  21
 12.000000000010
  31
0.0
   0
LINE
   5
1F6
 100
AcDbEntity
   8
LEVEL002
 370
50
 100
AcDbLine
   6
CONTINUOUS
  62
4
  10
 404.49999999995
  20
 12.000000000010
  30
0.0
  11
 404.49999999995
  21
 285.00000000000
  31
0.0
   0
LINE
   5
1F7
 100
AcDbEntity
   8
LEVEL002
 370
50
 100
AcDbLine
   6
CONTINUOUS
  62
4
  10
 15.499999999950
  20
 285.00000000000
  30
0.0
  11
 15.499999999950
  21
 12.000000000010
  31
0.0
   0
LINE
   5
1F8
 100
AcDbEntity
   8
LEVEL002
 370
50
 100
AcDbLine
   6
CONTINUOUS
  62
4
  10
 15.499999999950
  20
 12.000000000010
  30
0.0
  11
 404.49999999995
  21
 12.000000000010
  31
0.0
   0
HATCH
   5
1F9
 100
AcDbEntity
   8
LEVEL001
  62
1
 100
AcDbHatch
  10
0.0
  20
0.0
  30
0.0
 210
0.0
 220
0.0
 230
 1.0000000000000
   2
SOLID
  70
1
  71
1
  91
7
  92
1
  93
6
  72
1
  10
 324.45000000000
  20
 280.47500000000
  11
 318.05000000000
  21
 270.87500000000
  72
1
  10
 318.05000000000
  20
 270.87500000000
  11
 324.45000000000
  21
 261.27500000000
  72
1
  10
 324.45000000000
  20
 261.27500000000
  11
 319.05000000000
  21
 261.27500000000
  72
1
  10
 319.05000000000
  20
 261.27500000000
  11
 312.65000000000
  21
 270.87500000000
  72
1
  10
 312.65000000000
  20
 270.87500000000
  11
 319.05000000000
  21
 280.47500000000
  72
1
  10
 319.05000000000
  20
 280.47500000000
  11
 324.45000000000
  21
 280.47500000000
  97
1
 330

  92
16
  93
6
  72
1
  10
 327.15000000000
  20
 280.47500000000
  11
 332.55000000000
  21
 280.47500000000
  72
1
  10
 332.55000000000
  20
 280.47500000000
  11
 326.15000000000
  21
 270.87500000000
  72
1
  10
 326.15000000000
  20
 270.87500000000
  11
 332.55000000000
  21
 261.27500000000
  72
1
  10
 332.55000000000
  20
 261.27500000000
  11
 327.15000000000
  21
 261.27500000000
  72
1
  10
 327.15000000000
  20
 261.27500000000
  11
 320.75000000000
  21
 270.87500000000
  72
1
  10
 320.75000000000
  20
 270.87500000000
  11
 327.15000000000
  21
 280.47500000000
  97
1
 330

  92
16
  93
3
  72
1
  10
 333.35000000000
  20
 270.87500000000
  11
 328.85000000000
  21
 270.87500000000
  72
1
  10
 328.85000000000
  20
 270.87500000000
  11
 333.35000000000
  21
 263.67500000000
  72
1
  10
 333.35000000000
  20
 263.67500000000
  11
 333.35000000000
  21
 270.87500000000
  97
1
 330

  92
16
  93
6
  72
1
  10
 336.95000000000
  20
 272.07500000000
  11
 344.15000000000
  21
 272.07500000000
  72
2
  10
 344.15000000000
  20
 267.57500000000
  40
 4.5000000000000
  50
 270.00000000000
  51
 90.000000000000
  73
0
  72
1
  10
 344.15000000000
  20
 263.07500000000
  11
 340.55000000000
  21
 263.07500000000
  72
1
  10
 340.55000000000
  20
 263.07500000000
  11
 340.55000000000
  21
 261.27500000000
  72
1
  10
 340.55000000000
  20
 261.27500000000
  11
 336.95000000000
  21
 261.27500000000
  72
1
  10
 336.95000000000
  20
 261.27500000000
  11
 336.95000000000
  21
 272.07500000000
  97
1
 330

  92
16
  93
4
  72
1
  10
 344.15000000000
  20
 268.47500000000
  11
 340.55000000000
  21
 268.47500000000
  72
1
  10
 340.55000000000
  20
 268.47500000000
  11
 340.55000000000
  21
 266.67500000000
  72
1
  10
 340.55000000000
  20
 266.67500000000
  11
 344.15000000000
  21
 266.67500000000
  72
2
  10
 344.15000000000
  20
 267.57500000000
  40
 0.90000000000000
  50
 270.00000000000
  51
 90.000000000000
  73
1
  97
1
 330

  92
16
  93
4
  72
1
  10
 345.95000000000
  20
 261.27500000000
  11
 353.15000000000
  21
 272.07500000000
  72
1
  10
 353.15000000000
  20
 272.07500000000
  11
 358.55000000000
  21
 272.07500000000
  72
1
  10
 358.55000000000
  20
 272.07500000000
  11
 351.35000000000
  21
 261.27500000000
  72
1
  10
 351.35000000000
  20
 261.27500000000
  11
 345.95000000000
  21
 261.27500000000
  97
1
 330

  92
16
  93
3
  72
1
  10
 357.35000000000
  20
 268.11166923470
  11
 352.79222051020
  21
 261.27500000000
  72
1
  10
 352.79222051020
  20
 261.27500000000
  11
 357.35000000000
  21
 261.27500000000
  72
1
  10
 357.35000000000
  20
 261.27500000000
  11
 357.35000000000
  21
 268.11166923470
  97
1
 330

  75
0
  76
1
  98
1
  10
0.0
  20
0.0
   0
HATCH
   5
1FA
 100
AcDbEntity
   8
LEVEL001
  62
1
 100
AcDbHatch
  10
0.0
  20
0.0
  30
0.0
 210
0.0
 220
0.0
 230
 1.0000000000000
   2
SOLID
  70
1
  71
1
  91
1
  92
1
  93
22
  72
1
  10
 358.55000000000
  20
 272.07500000000
  11
 362.15000000000
  21
 272.07500000000
  72
1
  10
 362.15000000000
  20
 272.07500000000
  11
 362.15000000000
  21
 264.87500000000
  72
1
  10
 362.15000000000
  20
 264.87500000000
  11
 367.55000000000
  21
 264.87500000000
  72
1
  10
 367.55000000000
  20
 264.87500000000
  11
 367.55000000000
  21
 268.47500000000
  72
1
  10
 367.55000000000
  20
 268.47500000000
  11
 363.95000000000
  21
 268.47500000000
  72
1
  10
 363.95000000000
  20
 268.47500000000
  11
 363.95000000000
  21
 272.07500000000
  72
1
  10
 363.95000000000
  20
 272.07500000000
  11
 385.55000000000
  21
 272.07500000000
  72
1
  10
 385.55000000000
  20
 272.07500000000
  11
 385.55000000000
  21
 268.47500000000
  72
1
  10
 385.55000000000
  20
 268.47500000000
  11
 378.35000000000
  21
 268.47500000000
  72
1
  10
 378.35000000000
  20
 268.47500000000
  11
 378.35000000000
  21
 267.57500000000
  72
1
  10
 378.35000000000
  20
 267.57500000000
  11
 384.65000000000
  21
 267.57500000000
  72
1
  10
 384.65000000000
  20
 267.57500000000
  11
 384.65000000000
  21
 265.77500000000
  72
1
  10
 384.65000000000
  20
 265.77500000000
  11
 378.35000000000
  21
 265.77500000000
  72
1
  10
 378.35000000000
  20
 265.77500000000
  11
 378.35000000000
  21
 264.87500000000
  72
1
  10
 378.35000000000
  20
 264.87500000000
  11
 385.55000000000
  21
 264.87500000000
  72
1
  10
 385.55000000000
  20
 264.87500000000
  11
 385.55000000000
  21
 261.27500000000
  72
1
  10
 385.55000000000
  20
 261.27500000000
  11
 374.75000000000
  21
 261.27500000000
  72
1
  10
 374.75000000000
  20
 261.27500000000
  11
 374.75000000000
  21
 268.47500000000
  72
1
  10
 374.75000000000
  20
 268.47500000000
  11
 371.15000000000
  21
 268.47500000000
  72
1
  10
 371.15000000000
  20
 268.47500000000
  11
 371.15000000000
  21
 261.27500000000
  72
1
  10
 371.15000000000
  20
 261.27500000000
  11
 358.55000000000
  21
 261.27500000000
  72
1
  10
 358.55000000000
  20
 261.27500000000
  11
 358.55000000000
  21
 272.07500000000
  97
1
 330

  75
0
  76
1
  98
1
  10
0.0
  20
0.0
   0
HATCH
   5
1FB
 100
AcDbEntity
   8
LEVEL001
  62
1
 100
AcDbHatch
  10
0.0
  20
0.0
  30
0.0
 210
0.0
 220
0.0
 230
 1.0000000000000
   2
SOLID
  70
1
  71
1
  91
1
  92
1
  93
8
  72
1
  10
 396.35000000000
  20
 272.07500000000
  11
 390.95000000000
  21
 272.07500000000
  72
2
  10
 390.95000000000
  20
 266.67500000000
  40
 5.4000000000000
  50
 90.000000000000
  51
 270.00000000000
  73
1
  72
1
  10
 390.95000000000
  20
 261.27500000000
  11
 396.35000000000
  21
 261.27500000000
  72
1
  10
 396.35000000000
  20
 261.27500000000
  11
 396.35000000000
  21
 264.87500000000
  72
1
  10
 396.35000000000
  20
 264.87500000000
  11
 390.95000000000
  21
 264.87500000000
  72
2
  10
 390.95000000000
  20
 266.67500000000
  40
 1.8000000000000
  50
 90.000000000000
  51
 270.00000000000
  73
0
  72
1
  10
 390.95000000000
  20
 268.47500000000
  11
 396.35000000000
  21
 268.47500000000
  72
1
  10
 396.35000000000
  20
 268.47500000000
  11
 396.35000000000
  21
 272.07500000000
  97
1
 330

  75
0
  76
1
  98
1
  10
0.0
  20
0.0
   0
MTEXT
   5
1FD
 100
AcDbEntity
   8
LEVEL002
 370
15
  62
8
 100
AcDbMText
  10
 310.79999999995
  20
 28.250000000010
  30
0.0
  40
 3.0000000000000
  41
0.0
  71
5
  72
1
   1
\T1.000000;サイズ：
   7
GMM002
  44
 0.79999984000003
   0
MTEXT
   5
1FF
 100
AcDbEntity
   8
LEVEL002
 370
15
  62
8
 100
AcDbMText
  10
 309.29999999995
  20
 48.250000000010
  30
0.0
  40
 3.0000000000000
  41
0.0
  71
5
  72
1
   1
\T1.000000;縮尺：
   7
GMM002
  44
 0.79999984000003
   0
MTEXT
   5
201
 100
AcDbEntity
   8
LEVEL002
 370
15
  62
8
 100
AcDbMText
  10
 312.29999999995
  20
 68.250000000010
  30
0.0
  40
 3.0000000000000
  41
0.0
  71
5
  72
1
   1
\T1.000000;図面名称：
   7
GMM002
  44
 0.79999984000003
   0
MTEXT
   5
203
 100
AcDbEntity
   8
LEVEL002
 370
15
  62
8
 100
AcDbMText
  10
 363.79999999995
  20
 28.250000000010
  30
0.0
  40
 3.0000000000000
  41
0.0
  71
5
  72
1
   1
\T1.000000;ファイル名：
   7
GMM002
  44
 0.79999984000003
   0
MTEXT
   5
205
 100
AcDbEntity
   8
LEVEL002
 370
15
  62
8
 100
AcDbMText
  10
 362.29999999995
  20
 42.000000000010
  30
0.0
  40
 2.8000000000000
  41
0.0
  71
5
  72
1
   1
\T1.000000;変更日付：
   7
GMM003
  44
 0.79999984000003
   0
MTEXT
   5
207
 100
AcDbEntity
   8
LEVEL002
 370
15
  62
8
 100
AcDbMText
  10
 329.49999999995
  20
 18.250000000010
  30
0.0
  40
 3.7500000000000
  41
0.0
  71
5
  72
1
   1
\T1.000000;Ａ３
   7
GMM002
  44
 0.79999984000003
   0
MTEXT
   5
209
 100
AcDbEntity
   8
LEVEL002
 370
15
  62
8
 100
AcDbMText
  10
 309.29999999995
  20
 213.00000000000
  30
0.0
  40
 3.0000000000000
  41
0.0
  71
5
  72
1
   1
\T1.000000;仕様：
   7
GMM002
  44
 0.79999984000003
   0
MTEXT
   5
20B
 100
AcDbEntity
   8
LEVEL002
 370
15
  62
8
 100
AcDbMText
  10
 309.29999999995
  20
 233.00000000000
  30
0.0
  40
 3.0000000000000
  41
0.0
  71
5
  72
1
   1
\T1.000000;形式：
   7
GMM002
  44
 0.79999984000003
   0
MTEXT
   5
20D
 100
AcDbEntity
   8
LEVEL002
 370
15
  62
8
 100
AcDbMText
  10
 310.79999999995
  20
 253.00000000000
  30
0.0
  40
 3.0000000000000
  41
0.0
  71
5
  72
1
   1
\T1.000000;商品名：
   7
GMM002
  44
 0.79999984000003
   0
MTEXT
   5
20F
 100
AcDbEntity
   8
LEVEL002
 370
15
  62
8
 100
AcDbMText
  10
 346.89999999995
  20
 76.870803459012
  30
0.0
  40
 4.0000000000000
  41
0.0
  71
5
  72
1
   1
\T1.000000;　※本製品は予告無しに変更する事があります。
   7
GMM002
  44
 0.79999984000003
   0
MTEXT
   5
211
 100
AcDbEntity
   8
LEVEL002
 370
15
  62
8
 100
AcDbMText
  10
 362.29999999995
  20
 48.666666666680
  30
0.0
  40
 2.8000000000000
  41
0.0
  71
5
  72
1
   1
\T1.000000;作成日付：
   7
GMM003
  44
 0.79999984000003
   0
MTEXT
   5
213
 100
AcDbEntity
   8
LEVEL002
 370
15
  62
8
 100
AcDbMText
  10
 387.21508456075
  20
 42.000000000010
  30
0.0
  40
 3.0000000000000
  41
0.0
  71
5
  72
1
   1
\T1.000000;令和　　年　　月　　日
   7
GMM002
  44
 0.79999984000003
   0
MTEXT
   5
215
 100
AcDbEntity
   8
LEVEL002
 370
15
  62
8
 100
AcDbMText
  10
 387.21508456075
  20
 35.333333333345
  30
0.0
  40
 3.0000000000000
  41
0.0
  71
5
  72
1
   1
\T1.000000;令和　　年　　月　　日
   7
GMM002
  44
 0.79999984000003
   0
MTEXT
   5
217
 100
AcDbEntity
   8
LEVEL002
 370
15
  62
8
 100
AcDbMText
  10
 334.49999999995
  20
 244.50000000000
  30
0.0
  40
 4.5000000000000
  41
0.0
  71
7
  72
1
   1
\T1.000000;　パルフラットレール
   7
GMM004
  44
 0.79999984000003
   0
MTEXT
   5
219
 100
AcDbEntity
   8
LEVEL002
 370
15
  62
8
 100
AcDbMText
  10
 354.49999999995
  20
 58.250000000010
  30
0.0
  40
 3.7500000000000
  41
0.0
  71
5
  72
1
   1
\T1.000000;断面図
   7
GMM002
  44
 0.79999984000003
   0
MTEXT
   5
21B
 100
AcDbEntity
   8
LEVEL002
 370
15
  62
8
 100
AcDbMText
  10
 329.49999999995
  20
 38.250000000010
  30
0.0
  40
 3.7500000000000
  41
0.0
  71
5
  72
1
   1
\T1.000000;Ｓ＝１：１
   7
GMM002
  44
 0.79999984000003
   0
MTEXT
   5
21D
 100
AcDbEntity
   8
LEVEL002
 370
15
  62
8
 100
AcDbMText
  10
 387.21508456075
  20
 48.666666666680
  30
0.0
  40
 3.0000000000000
  41
0.0
  71
5
  72
1
   1
\T1.000000;令和　４年　７月　６日
   7
GMM002
  44
 0.79999984000003
   0
MTEXT
   5
21F
 100
AcDbEntity
   8
LEVEL002
 370
15
  62
8
 100
AcDbMText
  10
 354.49999999995
  20
 229.41666666667
  30
0.0
  40
 4.0000000000000
  41
0.0
  71
2
  72
1
   1
{\W1.000000;\T1.000000;アルミステンレス複合レール}\P{\W0.500000;\T1.000000;(\W1.000000;\T1.000000;Ｒタイプ\W0.500000;\T1.000000;)}
   7
GMM002
  44
 0.79999984000003
   0
MTEXT
   5
221
 100
AcDbEntity
   8
LEVEL001
 370
15
  62
8
 100
AcDbMText
  10
 15.799999999950
  20
 280.00000000000
  30
0.0
  40
 3.0000000000000
  41
0.0
  71
4
  72
1
   1
\W0.500000;\T1.000000; \W1.000000;\T1.000000;　ＡＲＳ１７
   7
GMM002
  44
 0.79999984000003
   0
MTEXT
   5
223
 100
AcDbEntity
   8
LEVEL001
 370
15
  62
8
 100
AcDbMText
  10
 95.347572037384
  20
 280.00000000000
  30
0.0
  40
 3.0000000000000
  41
0.0
  71
4
  72
1
   1
\W0.500000;\T1.000000; \W1.000000;\T1.000000;　ＰＳＳ８
   7
GMM002
  44
 0.79999984000003
   0
MTEXT
   5
225
 100
AcDbEntity
   8
LEVEL002
 370
15
  62
8
 100
AcDbMText
  10
 319.49999999995
  20
 207.91666666670
  30
0.0
  40
 3.5000000000000
  41
0.0
  71
1
  72
1
   3
{\W1.000000;\T1.000000;●レール（ＡＲＳ１７）}\P{\W1.000000;\T1.000000;　材質：Ａ６０６３Ｓ－Ｔ５}\P{\W1.000000;\T1.000000;　　　ＳＵＳ３０４}\P\P{\W1.000000;\T1.000000;　仕上：アルミ－アルマイト処理}\P\P{\W1.000000;\T1.000000;　　色：Ｂ２　シルバー}
   3
\P{\W1.000000;\T1.000000;　　　ＵＢＭ　アーバンブラウンＭ}\P\P{\W1.000000;\T1.000000;　備考：アルミステンレス複合}\P{\W1.000000;\T1.000000;　　　ＳＵＳ皿木ネジ（２\W0.500000;\T1.000000;.\W1.000000;\T1.000000;７×１６×穴数\W0.500000;\T1.000000;)}\P\P
   3
{\W1.000000;\T1.000000;　適応戸車：ＣＶＲＴ２８／ＣＶＴ２８}\P{\W1.000000;\T1.000000;　　　　　ＬＶＳＲＴ３０\W0.500000;\T1.000000;/\W1.000000;\T1.000000;ＮＶ３３Ｂ－Ｖのみ}\P\P{\W1.000000;\T1.000000;●セーフストッパー（ＰＳＳ８）}\P{\W1.000000;\T1.0
   3
00000;　材質：ＰＡ６}\P{\W1.000000;\T1.000000;　　}\P{\W1.000000;\T1.000000;　　色：ＬＧ　ライトグレイ}\P{\W1.000000;\T1.000000;　　　　ＵＢＭ　アーバンブラウンＭ}\P\P{\W1.000000;\T1.000000;　備考：ＳＵＳ皿木ネジ（３\W0.500000;\T1.000000;.\W1.000000;
   1
\T1.000000;１×１６×２本）}
   7
GMM002
  44
 0.79999984000003
   0
MTEXT
   5
227
 100
AcDbEntity
   8
LEVEL002
 370
15
  62
8
 100
AcDbMText
  10
 379.49999999995
  20
 20.083333333345
  30
0.0
  40
 2.5000000000000
  41
0.0
  71
5
  72
1
   1
\T1.000000;ＰＦ－６
   7
GMM002
  44
 0.79999984000003
   0
LINE
   5
228
 100
AcDbEntity
   8
LEVEL002
 370
15
 100
AcDbLine
   6
CONTINUOUS
  62
8
  10
 161.96054435201
  20
 137.08665589728
  30
0.0
  11
 156.18292584182
  21
 115.52429007055
  31
0.0
   0
LINE
   5
229
 100
AcDbEntity
   8
LEVEL002
 370
15
 100
AcDbLine
   6
CONTINUOUS
  62
8
  10
 162.92647017830
  20
 136.82783685218
  30
0.0
  11
 157.27124880974
  21
 115.72226337667
  31
0.0
   0
LINE
   5
22A
 100
AcDbEntity
   8
LEVEL003
 370
30
 100
AcDbLine
   6
CONTINUOUS
  62
7
  10
 115.64057546932
  20
 116.58665589728
  30
0.0
  11
 115.64057546932
  21
 122.96165589728
  31
0.0
   0
LINE
   5
22B
 100
AcDbEntity
   8
LEVEL003
 370
30
 100
AcDbLine
   6
CONTINUOUS
  62
7
  10
 115.64057546932
  20
 134.58665589728
  30
0.0
  11
 89.140575469313
  21
 134.58665589728
  31
0.0
   0
LINE
   5
22C
 100
AcDbEntity
   8
LEVEL004
 370
30
 100
AcDbLine
   6
CONTINUOUS
  62
7
  10
 115.64057546932
  20
 132.22063049350
  30
0.0
  11
 99.171436727966
  21
 132.22063049350
  31
0.0
   0
LINE
   5
22D
 100
AcDbEntity
   8
LEVEL004
 370
30
 100
AcDbLine
   6
CONTINUOUS
  62
7
  10
 115.64057546932
  20
 118.95268130106
  30
0.0
  11
 101.64057546931
  21
 118.95268130106
  31
0.0
   0
LINE
   5
22E
 100
AcDbEntity
   8
LEVEL003
 370
30
 100
AcDbLine
   6
CONTINUOUS
  62
7
  10
 100.14057546931
  20
 130.86165589728
  30
0.0
  11
 103.14057546931
  21
 130.86165589728
  31
0.0
   0
LINE
   5
22F
 100
AcDbEntity
   8
LEVEL003
 370
30
 100
AcDbLine
   6
CONTINUOUS
  62
7
  10
 100.14057546931
  20
 129.06165589728
  30
0.0
  11
 103.14057546931
  21
 129.06165589728
  31
0.0
   0
LINE
   5
230
 100
AcDbEntity
   8
LEVEL004
 370
30
 100
AcDbLine
   6
CONTINUOUS
  62
7
  10
 101.64057546931
  20
 118.95268130106
  30
0.0
  11
 89.140575469313
  21
 118.95268130106
  31
0.0
   0
LINE
   5
231
 100
AcDbEntity
   8
LEVEL004
 370
30
 100
AcDbLine
   6
CONTINUOUS
  62
7
  10
 99.171436727966
  20
 132.22063049350
  30
0.0
  11
 89.140575469313
  21
 132.22063049350
  31
0.0
   0
LINE
   5
232
 100
AcDbEntity
   8
LEVEL003
 370
30
 100
AcDbLine
   6
CONTINUOUS
  62
7
  10
 114.14057546932
  20
 127.33665589728
  30
0.0
  11
 95.140575469313
  21
 127.33665589728
  31
0.0
   0
LINE
   5
233
 100
AcDbEntity
   8
LEVEL003
 370
30
 100
AcDbLine
   6
CONTINUOUS
  62
7
  10
 114.14057546932
  20
 123.83665589728
  30
0.0
  11
 95.140575469313
  21
 123.83665589728
  31
0.0
   0
ARC
   5
234
 100
AcDbEntity
   8
LEVEL003
 370
30
   6
CONTINUOUS
  62
7
 100
AcDbCircle
  10
 95.140575469313
  20
 125.58665589728
  30
0.0
  40
 1.7500000000000
 100
AcDbArc
  50
 90.000000000000
  51
 270.00000000000
   0
ARC
   5
235
 100
AcDbEntity
   8
LEVEL003
 370
30
   6
CONTINUOUS
  62
7
 100
AcDbCircle
  10
 100.14057546931
  20
 129.96165589728
  30
0.0
  40
 0.90000000000000
 100
AcDbArc
  50
 90.000000000000
  51
 270.00000000000
   0
ARC
   5
236
 100
AcDbEntity
   8
LEVEL003
 370
30
   6
CONTINUOUS
  62
7
 100
AcDbCircle
  10
 103.14057546931
  20
 129.96165589728
  30
0.0
  40
 0.90000000000000
 100
AcDbArc
  50
 270.00000000000
  51
 90.000000000000
   0
ARC
   5
237
 100
AcDbEntity
   8
LEVEL003
 370
30
   6
CONTINUOUS
  62
7
 100
AcDbCircle
  10
 100.14057546931
  20
 129.96165589728
  30
0.0
  40
 1.8000000000000
 100
AcDbArc
  50
 90.000000000000
  51
 270.00000000000
   0
ARC
   5
238
 100
AcDbEntity
   8
LEVEL003
 370
30
   6
CONTINUOUS
  62
7
 100
AcDbCircle
  10
 103.14057546931
  20
 129.96165589728
  30
0.0
  40
 1.8000000000000
 100
AcDbArc
  50
 270.00000000000
  51
 90.000000000000
   0
LINE
   5
239
 100
AcDbEntity
   8
LEVEL003
 370
30
 100
AcDbLine
   6
CONTINUOUS
  62
7
  10
 100.14057546931
  20
 131.76165589728
  30
0.0
  11
 103.14057546931
  21
 131.76165589728
  31
0.0
   0
LINE
   5
23A
 100
AcDbEntity
   8
LEVEL003
 370
30
 100
AcDbLine
   6
CONTINUOUS
  62
7
  10
 100.14057546931
  20
 128.16165589728
  30
0.0
  11
 103.14057546931
  21
 128.16165589728
  31
0.0
   0
LINE
   5
23B
 100
AcDbEntity
   8
LEVEL003
 370
30
 100
AcDbLine
   6
CONTINUOUS
  62
7
  10
 100.14057546931
  20
 120.31165589728
  30
0.0
  11
 103.14057546931
  21
 120.31165589728
  31
0.0
   0
LINE
   5
23C
 100
AcDbEntity
   8
LEVEL003
 370
30
 100
AcDbLine
   6
CONTINUOUS
  62
7
  10
 100.14057546931
  20
 122.11165589728
  30
0.0
  11
 103.14057546931
  21
 122.11165589728
  31
0.0
   0
ARC
   5
23D
 100
AcDbEntity
   8
LEVEL003
 370
30
   6
CONTINUOUS
  62
7
 100
AcDbCircle
  10
 100.14057546931
  20
 121.21165589728
  30
0.0
  40
 0.90000000000000
 100
AcDbArc
  50
 90.000000000000
  51
 270.00000000000
   0
ARC
   5
23E
 100
AcDbEntity
   8
LEVEL003
 370
30
   6
CONTINUOUS
  62
7
 100
AcDbCircle
  10
 103.14057546931
  20
 121.21165589728
  30
0.0
  40
 0.90000000000000
 100
AcDbArc
  50
 270.00000000000
  51
 90.000000000000
   0
ARC
   5
23F
 100
AcDbEntity
   8
LEVEL003
 370
30
   6
CONTINUOUS
  62
7
 100
AcDbCircle
  10
 100.14057546931
  20
 121.21165589728
  30
0.0
  40
 1.8000000000000
 100
AcDbArc
  50
 90.000000000000
  51
 270.00000000000
   0
ARC
   5
240
 100
AcDbEntity
   8
LEVEL003
 370
30
   6
CONTINUOUS
  62
7
 100
AcDbCircle
  10
 103.14057546931
  20
 121.21165589728
  30
0.0
  40
 1.8000000000000
 100
AcDbArc
  50
 270.00000000000
  51
 90.000000000000
   0
LINE
   5
241
 100
AcDbEntity
   8
LEVEL003
 370
30
 100
AcDbLine
   6
CONTINUOUS
  62
7
  10
 100.14057546931
  20
 119.41165589728
  30
0.0
  11
 103.14057546931
  21
 119.41165589728
  31
0.0
   0
LINE
   5
242
 100
AcDbEntity
   8
LEVEL003
 370
30
 100
AcDbLine
   6
CONTINUOUS
  62
7
  10
 100.14057546931
  20
 123.01165589728
  30
0.0
  11
 103.14057546931
  21
 123.01165589728
  31
0.0
   0
LINE
   5
243
 100
AcDbEntity
   8
LEVEL003
 370
30
 100
AcDbLine
   6
CONTINUOUS
  62
7
  10
 115.64057546932
  20
 122.96165589728
  30
0.0
  11
 114.14057546932
  21
 122.96165589728
  31
0.0
   0
LINE
   5
244
 100
AcDbEntity
   8
LEVEL003
 370
30
 100
AcDbLine
   6
CONTINUOUS
  62
7
  10
 114.14057546932
  20
 122.96165589728
  30
0.0
  11
 114.14057546932
  21
 123.07478378181
  31
0.0
   0
LINE
   5
245
 100
AcDbEntity
   8
LEVEL003
 370
30
 100
AcDbLine
   6
CONTINUOUS
  62
7
  10
 115.64057546932
  20
 128.21165589728
  30
0.0
  11
 114.14057546932
  21
 128.21165589728
  31
0.0
   0
LINE
   5
246
 100
AcDbEntity
   8
LEVEL003
 370
30
 100
AcDbLine
   6
CONTINUOUS
  62
7
  10
 114.14057546932
  20
 122.96165589728
  30
0.0
  11
 114.14057546932
  21
 128.21165589728
  31
0.0
   0
LINE
   5
247
 100
AcDbEntity
   8
LEVEL003
 370
30
 100
AcDbLine
   6
CONTINUOUS
  62
7
  10
 115.64057546932
  20
 128.21165589728
  30
0.0
  11
 115.64057546932
  21
 134.58665589728
  31
0.0
   0
LINE
   5
248
 100
AcDbEntity
   8
LEVEL003
 370
30
 100
AcDbLine
   6
CONTINUOUS
  62
7
  10
 114.14057546932
  20
 126.46165589728
  30
0.0
  11
 94.265575469313
  21
 126.46165589728
  31
0.0
   0
LINE
   5
249
 100
AcDbEntity
   8
LEVEL003
 370
30
 100
AcDbLine
   6
CONTINUOUS
  62
7
  10
 114.14057546932
  20
 124.71165589728
  30
0.0
  11
 94.265575469313
  21
 124.71165589728
  31
0.0
   0
LINE
   5
24A
 100
AcDbEntity
   8
LEVEL004
 370
30
 100
AcDbLine
   6
CONTINUOUS
  62
7
  10
 89.140575469313
  20
 125.63665589728
  30
0.0
  11
 89.140575469313
  21
 128.84154942927
  31
0.0
   0
LINE
   5
24B
 100
AcDbEntity
   8
LEVEL004
 370
30
 100
AcDbLine
   6
CONTINUOUS
  62
7
  10
 108.64057546932
  20
 124.71165589728
  30
0.0
  11
 108.64057546932
  21
 126.46165589728
  31
0.0
   0
LINE
   5
24C
 100
AcDbEntity
   8
LEVEL004
 370
30
 100
AcDbLine
   6
CONTINUOUS
  62
7
  10
 110.64057546932
  20
 124.71165589728
  30
0.0
  11
 110.64057546932
  21
 126.46165589728
  31
0.0
   0
LINE
   5
24D
 100
AcDbEntity
   8
LEVEL004
 370
30
 100
AcDbLine
   6
CONTINUOUS
  62
7
  10
 113.64057546932
  20
 124.71165589728
  30
0.0
  11
 113.64057546932
  21
 126.46165589728
  31
0.0
   0
LINE
   5
24E
 100
AcDbEntity
   8
LEVEL004
 370
30
 100
AcDbLine
   6
CONTINUOUS
  62
7
  10
 115.64057546932
  20
 128.26165589728
  30
0.0
  11
 115.64057546932
  21
 129.23970139447
  31
0.0
   0
ARC
   5
24F
 100
AcDbEntity
   8
LEVEL003
 370
30
   6
CONTINUOUS
  62
7
 100
AcDbCircle
  10
 94.265575469313
  20
 125.58665589728
  30
0.0
  40
 0.87500000000000
 100
AcDbArc
  50
 90.000000000000
  51
 270.00000000000
   0
LINE
   5
250
 100
AcDbEntity
   8
LEVEL003
 370
30
 100
AcDbLine
   6
CONTINUOUS
  62
7
  10
 115.64057546932
  20
 116.58665589728
  30
0.0
  11
 89.140575469313
  21
 116.58665589728
  31
0.0
   0
LINE
   5
251
 100
AcDbEntity
   8
LEVEL003
 370
30
 100
AcDbLine
   6
CONTINUOUS
  62
7
  10
 89.140575469313
  20
 116.58665589728
  30
0.0
  11
 89.140575469313
  21
 134.58665589728
  31
0.0
   0
LINE
   5
252
 100
AcDbEntity
   8
LEVEL002
 370
25
 100
AcDbLine
   6
CONTINUOUS
  62
1
  10
 114.14057546932
  20
 128.21165589728
  30
0.0
  11
 114.14057546932
  21
 122.96165589728
  31
0.0
   0
LINE
   5
253
 100
AcDbEntity
   8
LEVEL005
 370
30
 100
AcDbLine
   6
HIDDEN
  62
7
  10
 114.14057546932
  20
 118.90122526888
  30
0.0
  11
 114.14057546932
  21
 119.08665589728
  31
0.0
   0
CIRCLE
   5
254
 100
AcDbEntity
   8
LEVEL002
 370
25
 100
AcDbCircle
   6
CONTINUOUS
  62
1
  10
 139.14057546932
  20
 129.96165589728
  30
0.0
  40
 1.3000000000000
   0
CIRCLE
   5
255
 100
AcDbEntity
   8
LEVEL002
 370
25
 100
AcDbCircle
   6
CONTINUOUS
  62
1
  10
 139.14057546932
  20
 129.96165589728
  30
0.0
  40
 0.80000000000000
   0
CIRCLE
   5
256
 100
AcDbEntity
   8
LEVEL002
 370
25
 100
AcDbCircle
   6
CONTINUOUS
  62
1
  10
 139.14057546932
  20
 121.21165589728
  30
0.0
  40
 1.3000000000000
   0
CIRCLE
   5
257
 100
AcDbEntity
   8
LEVEL002
 370
25
 100
AcDbCircle
   6
CONTINUOUS
  62
1
  10
 139.14057546932
  20
 121.21165589728
  30
0.0
  40
 0.80000000000000
   0
LINE
   5
258
 100
AcDbEntity
   8
LEVEL001
 370
15
 100
AcDbLine
   6
DOT
  62
2
  10
 114.14057546932
  20
 128.21165589728
  30
0.0
  11
 114.14057546932
  21
 134.08665589728
  31
0.0
   0
LINE
   5
259
 100
AcDbEntity
   8
LEVEL001
 370
15
 100
AcDbLine
   6
DOT
  62
2
  10
 114.14057546932
  20
 122.96165589728
  30
0.0
  11
 114.14057546932
  21
 117.08665589728
  31
0.0
   0
LINE
   5
25A
 100
AcDbEntity
   8
LEVEL001
 370
15
 100
AcDbLine
   6
DOT
  62
2
  10
 115.64057546932
  20
 117.08665589728
  30
0.0
  11
 114.14057546932
  21
 117.08665589728
  31
0.0
   0
LINE
   5
25B
 100
AcDbEntity
   8
LEVEL001
 370
15
 100
AcDbLine
   6
DOT
  62
2
  10
 115.64057546932
  20
 134.08665589728
  30
0.0
  11
 114.14057546932
  21
 134.08665589728
  31
0.0
   0
DIMENSION
   5
25C
 100
AcDbEntity
   8
LEVEL001
 370
15
   6
CONTINUOUS
  62
8
 100
AcDbDimension
   2
*D1
  10
 114.14057546932
  20
 111.58665589728
  30
0.0
  11
 101.64057546931
  21
 111.58665589728
  31
0.0
  70
0
   1
\A1;50
   3
GMM001
 100
AcDbAlignedDimension
  13
 89.140575469313
  23
 116.58665589728
  33
0.0
  14
 114.14057546932
  24
 117.08665589728
  34
0.0
 100
AcDbRotatedDimension
   0
DIMENSION
   5
25D
 100
AcDbEntity
   8
LEVEL001
 370
15
   6
CONTINUOUS
  62
8
 100
AcDbDimension
   2
*D2
  10
 115.64057546932
  20
 111.58665589728
  30
0.0
  11
 117.43083101478
  21
 111.58665589728
  31
0.0
  70
128
   1
\A1;3(飲み込み)
   3
GMM002
 100
AcDbAlignedDimension
  13
 114.14057546932
  23
 117.08665589728
  33
0.0
  14
 115.64057546932
  24
 116.58665589728
  34
0.0
 100
AcDbRotatedDimension
   0
LINE
   5
25E
 100
AcDbEntity
   8
LEVEL002
 370
25
 100
AcDbLine
   6
CONTINUOUS
  62
1
  10
 161.15669677473
  20
 134.08665589728
  30
0.0
  11
 115.64057546932
  21
 134.08665589728
  31
0.0
   0
LINE
   5
25F
 100
AcDbEntity
   8
LEVEL002
 370
25
 100
AcDbLine
   6
CONTINUOUS
  62
1
  10
 160.62079838986
  20
 132.08665589728
  30
0.0
  11
 115.64057546932
  21
 132.08665589728
  31
0.0
   0
LINE
   5
260
 100
AcDbEntity
   8
LEVEL002
 370
25
 100
AcDbLine
   6
CONTINUOUS
  62
1
  10
 159.32749560509
  20
 127.25998419493
  30
0.0
  11
 114.14057546932
  21
 127.25998419493
  31
0.0
   0
LINE
   5
261
 100
AcDbEntity
   8
LEVEL002
 370
25
 100
AcDbLine
   6
CONTINUOUS
  62
1
  10
 159.14707783149
  20
 126.58665589728
  30
0.0
  11
 114.14057546932
  21
 126.58665589728
  31
0.0
   0
LINE
   5
262
 100
AcDbEntity
   8
LEVEL002
 370
25
 100
AcDbLine
   6
CONTINUOUS
  62
1
  10
 158.43076167303
  20
 123.91332759963
  30
0.0
  11
 114.14057546932
  21
 123.91332759963
  31
0.0
   0
LINE
   5
263
 100
AcDbEntity
   8
LEVEL002
 370
25
 100
AcDbLine
   6
CONTINUOUS
  62
1
  10
 158.61117944663
  20
 124.58665589728
  30
0.0
  11
 114.14057546932
  21
 124.58665589728
  31
0.0
   0
LINE
   5
264
 100
AcDbEntity
   8
LEVEL002
 370
25
 100
AcDbLine
   6
CONTINUOUS
  62
1
  10
 115.64057546932
  20
 117.08665589728
  30
0.0
  11
 156.60156050339
  21
 117.08665589728
  31
0.0
   0
LINE
   5
265
 100
AcDbEntity
   8
LEVEL002
 370
25
 100
AcDbLine
   6
CONTINUOUS
  62
1
  10
 157.13745888825
  20
 119.08665589728
  30
0.0
  11
 115.64057546932
  21
 119.08665589728
  31
0.0
   0
LINE
   5
266
 100
AcDbEntity
   8
LEVEL003
 370
30
 100
AcDbLine
   6
CONTINUOUS
  62
7
  10
 208.19427734218
  20
 116.58665589728
  30
0.0
  11
 208.19427734218
  21
 122.96165589728
  31
0.0
   0
LINE
   5
267
 100
AcDbEntity
   8
LEVEL003
 370
30
 100
AcDbLine
   6
CONTINUOUS
  62
7
  10
 208.19427734218
  20
 134.58665589728
  30
0.0
  11
 234.69427734218
  21
 134.58665589728
  31
0.0
   0
LINE
   5
268
 100
AcDbEntity
   8
LEVEL004
 370
30
 100
AcDbLine
   6
CONTINUOUS
  62
7
  10
 208.19427734218
  20
 132.22063049350
  30
0.0
  11
 224.66341608352
  21
 132.22063049350
  31
0.0
   0
LINE
   5
269
 100
AcDbEntity
   8
LEVEL004
 370
30
 100
AcDbLine
   6
CONTINUOUS
  62
7
  10
 208.19427734218
  20
 118.95268130106
  30
0.0
  11
 222.19427734218
  21
 118.95268130106
  31
0.0
   0
LINE
   5
26A
 100
AcDbEntity
   8
LEVEL003
 370
30
 100
AcDbLine
   6
CONTINUOUS
  62
7
  10
 223.69427734218
  20
 130.86165589728
  30
0.0
  11
 220.69427734218
  21
 130.86165589728
  31
0.0
   0
LINE
   5
26B
 100
AcDbEntity
   8
LEVEL003
 370
30
 100
AcDbLine
   6
CONTINUOUS
  62
7
  10
 223.69427734218
  20
 129.06165589728
  30
0.0
  11
 220.69427734218
  21
 129.06165589728
  31
0.0
   0
LINE
   5
26C
 100
AcDbEntity
   8
LEVEL004
 370
30
 100
AcDbLine
   6
CONTINUOUS
  62
7
  10
 222.19427734218
  20
 118.95268130106
  30
0.0
  11
 234.69427734218
  21
 118.95268130106
  31
0.0
   0
LINE
   5
26D
 100
AcDbEntity
   8
LEVEL004
 370
30
 100
AcDbLine
   6
CONTINUOUS
  62
7
  10
 224.66341608352
  20
 132.22063049350
  30
0.0
  11
 234.69427734218
  21
 132.22063049350
  31
0.0
   0
LINE
   5
26E
 100
AcDbEntity
   8
LEVEL003
 370
30
 100
AcDbLine
   6
CONTINUOUS
  62
7
  10
 209.69427734218
  20
 127.33665589728
  30
0.0
  11
 228.69427734218
  21
 127.33665589728
  31
0.0
   0
LINE
   5
26F
 100
AcDbEntity
   8
LEVEL003
 370
30
 100
AcDbLine
   6
CONTINUOUS
  62
7
  10
 209.69427734218
  20
 123.83665589728
  30
0.0
  11
 228.69427734218
  21
 123.83665589728
  31
0.0
   0
ARC
   5
270
 100
AcDbEntity
   8
LEVEL003
 370
30
   6
CONTINUOUS
  62
7
 100
AcDbCircle
  10
 228.69427734218
  20
 125.58665589728
  30
0.0
  40
 1.7500000000000
 100
AcDbArc
  50
 270.00000000000
  51
 90.000000000000
   0
ARC
   5
271
 100
AcDbEntity
   8
LEVEL003
 370
30
   6
CONTINUOUS
  62
7
 100
AcDbCircle
  10
 223.69427734218
  20
 129.96165589728
  30
0.0
  40
 0.90000000000000
 100
AcDbArc
  50
 270.00000000000
  51
 90.000000000000
   0
ARC
   5
272
 100
AcDbEntity
   8
LEVEL003
 370
30
   6
CONTINUOUS
  62
7
 100
AcDbCircle
  10
 220.69427734218
  20
 129.96165589728
  30
0.0
  40
 0.90000000000000
 100
AcDbArc
  50
 90.000000000000
  51
 270.00000000000
   0
ARC
   5
273
 100
AcDbEntity
   8
LEVEL003
 370
30
   6
CONTINUOUS
  62
7
 100
AcDbCircle
  10
 223.69427734218
  20
 129.96165589728
  30
0.0
  40
 1.8000000000000
 100
AcDbArc
  50
 270.00000000000
  51
 90.000000000000
   0
ARC
   5
274
 100
AcDbEntity
   8
LEVEL003
 370
30
   6
CONTINUOUS
  62
7
 100
AcDbCircle
  10
 220.69427734218
  20
 129.96165589728
  30
0.0
  40
 1.8000000000000
 100
AcDbArc
  50
 90.000000000000
  51
 270.00000000000
   0
LINE
   5
275
 100
AcDbEntity
   8
LEVEL003
 370
30
 100
AcDbLine
   6
CONTINUOUS
  62
7
  10
 223.69427734218
  20
 131.76165589728
  30
0.0
  11
 220.69427734218
  21
 131.76165589728
  31
0.0
   0
LINE
   5
276
 100
AcDbEntity
   8
LEVEL003
 370
30
 100
AcDbLine
   6
CONTINUOUS
  62
7
  10
 223.69427734218
  20
 128.16165589728
  30
0.0
  11
 220.69427734218
  21
 128.16165589728
  31
0.0
   0
LINE
   5
277
 100
AcDbEntity
   8
LEVEL003
 370
30
 100
AcDbLine
   6
CONTINUOUS
  62
7
  10
 223.69427734218
  20
 120.31165589728
  30
0.0
  11
 220.69427734218
  21
 120.31165589728
  31
0.0
   0
LINE
   5
278
 100
AcDbEntity
   8
LEVEL003
 370
30
 100
AcDbLine
   6
CONTINUOUS
  62
7
  10
 223.69427734218
  20
 122.11165589728
  30
0.0
  11
 220.69427734218
  21
 122.11165589728
  31
0.0
   0
ARC
   5
279
 100
AcDbEntity
   8
LEVEL003
 370
30
   6
CONTINUOUS
  62
7
 100
AcDbCircle
  10
 223.69427734218
  20
 121.21165589728
  30
0.0
  40
 0.90000000000000
 100
AcDbArc
  50
 270.00000000000
  51
 90.000000000000
   0
ARC
   5
27A
 100
AcDbEntity
   8
LEVEL003
 370
30
   6
CONTINUOUS
  62
7
 100
AcDbCircle
  10
 220.69427734218
  20
 121.21165589728
  30
0.0
  40
 0.90000000000000
 100
AcDbArc
  50
 90.000000000000
  51
 270.00000000000
   0
ARC
   5
27B
 100
AcDbEntity
   8
LEVEL003
 370
30
   6
CONTINUOUS
  62
7
 100
AcDbCircle
  10
 223.69427734218
  20
 121.21165589728
  30
0.0
  40
 1.8000000000000
 100
AcDbArc
  50
 270.00000000000
  51
 90.000000000000
   0
ARC
   5
27C
 100
AcDbEntity
   8
LEVEL003
 370
30
   6
CONTINUOUS
  62
7
 100
AcDbCircle
  10
 220.69427734218
  20
 121.21165589728
  30
0.0
  40
 1.8000000000000
 100
AcDbArc
  50
 90.000000000000
  51
 270.00000000000
   0
LINE
   5
27D
 100
AcDbEntity
   8
LEVEL003
 370
30
 100
AcDbLine
   6
CONTINUOUS
  62
7
  10
 223.69427734218
  20
 119.41165589728
  30
0.0
  11
 220.69427734218
  21
 119.41165589728
  31
0.0
   0
LINE
   5
27E
 100
AcDbEntity
   8
LEVEL003
 370
30
 100
AcDbLine
   6
CONTINUOUS
  62
7
  10
 223.69427734218
  20
 123.01165589728
  30
0.0
  11
 220.69427734218
  21
 123.01165589728
  31
0.0
   0
LINE
   5
27F
 100
AcDbEntity
   8
LEVEL003
 370
30
 100
AcDbLine
   6
CONTINUOUS
  62
7
  10
 208.19427734218
  20
 122.96165589728
  30
0.0
  11
 209.69427734218
  21
 122.96165589728
  31
0.0
   0
LINE
   5
280
 100
AcDbEntity
   8
LEVEL003
 370
30
 100
AcDbLine
   6
CONTINUOUS
  62
7
  10
 209.69427734218
  20
 122.96165589728
  30
0.0
  11
 209.69427734218
  21
 123.07478378181
  31
0.0
   0
LINE
   5
281
 100
AcDbEntity
   8
LEVEL003
 370
30
 100
AcDbLine
   6
CONTINUOUS
  62
7
  10
 208.19427734218
  20
 128.21165589728
  30
0.0
  11
 209.69427734218
  21
 128.21165589728
  31
0.0
   0
LINE
   5
282
 100
AcDbEntity
   8
LEVEL003
 370
30
 100
AcDbLine
   6
CONTINUOUS
  62
7
  10
 209.69427734218
  20
 122.96165589728
  30
0.0
  11
 209.69427734218
  21
 128.21165589728
  31
0.0
   0
LINE
   5
283
 100
AcDbEntity
   8
LEVEL003
 370
30
 100
AcDbLine
   6
CONTINUOUS
  62
7
  10
 208.19427734218
  20
 128.21165589728
  30
0.0
  11
 208.19427734218
  21
 134.58665589728
  31
0.0
   0
LINE
   5
284
 100
AcDbEntity
   8
LEVEL003
 370
30
 100
AcDbLine
   6
CONTINUOUS
  62
7
  10
 209.69427734218
  20
 126.46165589728
  30
0.0
  11
 229.56927734218
  21
 126.46165589728
  31
0.0
   0
LINE
   5
285
 100
AcDbEntity
   8
LEVEL003
 370
30
 100
AcDbLine
   6
CONTINUOUS
  62
7
  10
 209.69427734218
  20
 124.71165589728
  30
0.0
  11
 229.56927734218
  21
 124.71165589728
  31
0.0
   0
LINE
   5
286
 100
AcDbEntity
   8
LEVEL004
 370
30
 100
AcDbLine
   6
CONTINUOUS
  62
7
  10
 234.69427734218
  20
 125.63665589728
  30
0.0
  11
 234.69427734218
  21
 128.84154942927
  31
0.0
   0
LINE
   5
287
 100
AcDbEntity
   8
LEVEL004
 370
30
 100
AcDbLine
   6
CONTINUOUS
  62
7
  10
 215.19427734218
  20
 124.71165589728
  30
0.0
  11
 215.19427734218
  21
 126.46165589728
  31
0.0
   0
LINE
   5
288
 100
AcDbEntity
   8
LEVEL004
 370
30
 100
AcDbLine
   6
CONTINUOUS
  62
7
  10
 213.19427734218
  20
 124.71165589728
  30
0.0
  11
 213.19427734218
  21
 126.46165589728
  31
0.0
   0
LINE
   5
289
 100
AcDbEntity
   8
LEVEL004
 370
30
 100
AcDbLine
   6
CONTINUOUS
  62
7
  10
 210.19427734218
  20
 124.71165589728
  30
0.0
  11
 210.19427734218
  21
 126.46165589728
  31
0.0
   0
LINE
   5
28A
 100
AcDbEntity
   8
LEVEL004
 370
30
 100
AcDbLine
   6
CONTINUOUS
  62
7
  10
 208.19427734218
  20
 128.26165589728
  30
0.0
  11
 208.19427734218
  21
 129.23970139447
  31
0.0
   0
ARC
   5
28B
 100
AcDbEntity
   8
LEVEL003
 370
30
   6
CONTINUOUS
  62
7
 100
AcDbCircle
  10
 229.56927734218
  20
 125.58665589728
  30
0.0
  40
 0.87500000000000
 100
AcDbArc
  50
 270.00000000000
  51
 90.000000000000
   0
LINE
   5
28C
 100
AcDbEntity
   8
LEVEL003
 370
30
 100
AcDbLine
   6
CONTINUOUS
  62
7
  10
 208.19427734218
  20
 116.58665589728
  30
0.0
  11
 234.69427734218
  21
 116.58665589728
  31
0.0
   0
LINE
   5
28D
 100
AcDbEntity
   8
LEVEL003
 370
30
 100
AcDbLine
   6
CONTINUOUS
  62
7
  10
 234.69427734218
  20
 116.58665589728
  30
0.0
  11
 234.69427734218
  21
 134.58665589728
  31
0.0
   0
LINE
   5
28E
 100
AcDbEntity
   8
LEVEL002
 370
25
 100
AcDbLine
   6
CONTINUOUS
  62
1
  10
 209.69427734218
  20
 128.21165589728
  30
0.0
  11
 209.69427734218
  21
 122.96165589728
  31
0.0
   0
CIRCLE
   5
28F
 100
AcDbEntity
   8
LEVEL002
 370
25
 100
AcDbCircle
   6
CONTINUOUS
  62
1
  10
 184.69427734218
  20
 129.96165589728
  30
0.0
  40
 1.3000000000000
   0
CIRCLE
   5
290
 100
AcDbEntity
   8
LEVEL002
 370
25
 100
AcDbCircle
   6
CONTINUOUS
  62
1
  10
 184.69427734218
  20
 129.96165589728
  30
0.0
  40
 0.80000000000000
   0
CIRCLE
   5
291
 100
AcDbEntity
   8
LEVEL002
 370
25
 100
AcDbCircle
   6
CONTINUOUS
  62
1
  10
 184.69427734218
  20
 121.21165589728
  30
0.0
  40
 1.3000000000000
   0
CIRCLE
   5
292
 100
AcDbEntity
   8
LEVEL002
 370
25
 100
AcDbCircle
   6
CONTINUOUS
  62
1
  10
 184.69427734218
  20
 121.21165589728
  30
0.0
  40
 0.80000000000000
   0
LINE
   5
293
 100
AcDbEntity
   8
LEVEL001
 370
15
 100
AcDbLine
   6
DOT
  62
2
  10
 209.69427734218
  20
 128.21165589728
  30
0.0
  11
 209.69427734218
  21
 134.08665589728
  31
0.0
   0
LINE
   5
294
 100
AcDbEntity
   8
LEVEL001
 370
15
 100
AcDbLine
   6
DOT
  62
2
  10
 209.69427734218
  20
 122.96165589728
  30
0.0
  11
 209.69427734218
  21
 117.08665589728
  31
0.0
   0
LINE
   5
295
 100
AcDbEntity
   8
LEVEL001
 370
15
 100
AcDbLine
   6
DOT
  62
2
  10
 208.19427734218
  20
 117.08665589728
  30
0.0
  11
 209.69427734218
  21
 117.08665589728
  31
0.0
   0
LINE
   5
296
 100
AcDbEntity
   8
LEVEL001
 370
15
 100
AcDbLine
   6
DOT
  62
2
  10
 208.19427734218
  20
 134.08665589728
  30
0.0
  11
 209.69427734218
  21
 134.08665589728
  31
0.0
   0
DIMENSION
   5
297
 100
AcDbEntity
   8
LEVEL001
 370
15
   6
CONTINUOUS
  62
8
 100
AcDbDimension
   2
*D3
  10
 234.69427734218
  20
 106.58665589728
  30
0.0
  11
 221.44427734218
  21
 106.58665589728
  31
0.0
  70
0
   1
\A1;53
   3
GMM001
 100
AcDbAlignedDimension
  13
 208.19427734218
  23
 116.58665589728
  33
0.0
  14
 234.69427734218
  24
 116.58665589728
  34
0.0
 100
AcDbRotatedDimension
   0
LINE
   5
298
 100
AcDbEntity
   8
LEVEL002
 370
25
 100
AcDbLine
   6
CONTINUOUS
  62
1
  10
 162.19427734218
  20
 134.08665589728
  30
0.0
  11
 208.19427734218
  21
 134.08665589728
  31
0.0
   0
LINE
   5
299
 100
AcDbEntity
   8
LEVEL002
 370
25
 100
AcDbLine
   6
CONTINUOUS
  62
1
  10
 162.19427734218
  20
 132.08665589728
  30
0.0
  11
 208.19427734218
  21
 132.08665589728
  31
0.0
   0
LINE
   5
29A
 100
AcDbEntity
   8
LEVEL002
 370
25
 100
AcDbLine
   6
CONTINUOUS
  62
1
  10
 208.19427734218
  20
 117.08665589728
  30
0.0
  11
 157.63683668378
  21
 117.08665589728
  31
0.0
   0
LINE
   5
29B
 100
AcDbEntity
   8
LEVEL002
 370
25
 100
AcDbLine
   6
CONTINUOUS
  62
1
  10
 158.17273506864
  20
 119.08665589728
  30
0.0
  11
 208.19427734218
  21
 119.08665589728
  31
0.0
   0
LINE
   5
29C
 100
AcDbEntity
   8
LEVEL002
 370
25
 100
AcDbLine
   6
CONTINUOUS
  62
1
  10
 159.46603785342
  20
 123.91332759963
  30
0.0
  11
 209.69427734218
  21
 123.91332759963
  31
0.0
   0
LINE
   5
29D
 100
AcDbEntity
   8
LEVEL002
 370
25
 100
AcDbLine
   6
CONTINUOUS
  62
1
  10
 160.18235401188
  20
 126.58665589728
  30
0.0
  11
 209.69427734218
  21
 126.58665589728
  31
0.0
   0
LINE
   5
29E
 100
AcDbEntity
   8
LEVEL002
 370
25
 100
AcDbLine
   6
CONTINUOUS
  62
1
  10
 160.36277178548
  20
 127.25998419493
  30
0.0
  11
 209.69427734218
  21
 127.25998419493
  31
0.0
   0
LINE
   5
29F
 100
AcDbEntity
   8
LEVEL002
 370
25
 100
AcDbLine
   6
CONTINUOUS
  62
1
  10
 159.64645562702
  20
 124.58665589728
  30
0.0
  11
 209.69427734218
  21
 124.58665589728
  31
0.0
   0
DIMENSION
   5
2A0
 100
AcDbEntity
   8
LEVEL001
 370
15
   6
CONTINUOUS
  62
8
 100
AcDbDimension
   2
*D4
  10
 115.64057546932
  20
 106.58665589728
  30
0.0
  11
 102.39057546931
  21
 106.58665589728
  31
0.0
  70
0
   1
\A1;53
   3
GMM001
 100
AcDbAlignedDimension
  13
 89.140575469313
  23
 114.08665589728
  33
0.0
  14
 115.64057546932
  24
 114.08665589728
  34
0.0
 100
AcDbRotatedDimension
   0
DIMENSION
   5
2A1
 100
AcDbEntity
   8
LEVEL001
 370
15
   6
CONTINUOUS
  62
8
 100
AcDbDimension
   2
*D5
  10
 81.901249821133
  20
 134.58665589728
  30
0.0
  11
 81.901249821133
  21
 125.58665589728
  31
0.0
  70
0
   1
\A1;36
   3
GMM001
 100
AcDbAlignedDimension
  13
 89.140575469313
  23
 116.58665589728
  33
0.0
  14
 89.140575469313
  24
 134.58665589728
  34
0.0
  50
 90.000000000000
 100
AcDbRotatedDimension
   0
DIMENSION
   5
2A2
 100
AcDbEntity
   8
LEVEL001
 370
15
   6
CONTINUOUS
  62
8
 100
AcDbDimension
   2
*D6
  10
 234.69427734218
  20
 150.01199914671
  30
0.0
  11
 161.91742640575
  21
 150.01199914671
  31
0.0
  70
0
   1
\A1;L
   3
GMM001
 100
AcDbAlignedDimension
  13
 89.140575469313
  23
 134.58665589728
  33
0.0
  14
 234.69427734218
  24
 134.58665589728
  34
0.0
 100
AcDbRotatedDimension
   0
LEADER
   5
2A3
 100
AcDbEntity
   8
LEVEL001
 370
15
   6
CONTINUOUS
  62
8
 100
AcDbLeader
   3
GMM003
  73
0
  74
0
  75
0
  40
 2.5000000000000
  41
 16.500000000000
  76
2
  10
 96.626650278800
  20
 133.92733095449
  30
0.0
  10
 99.345185747908
  20
 139.59094651513
  30
0.0
  77
8
 340
2A4
 213
0.0
 223
-1.0000000000000
 233
0.0
   0
MTEXT
   5
2A4
 102
{ACAD_REACTORS
 330
2A3
 102
}
 100
AcDbEntity
   8
LEVEL001
 370
15
  62
8
 100
AcDbMText
  10
 99.345185747908
  20
 140.59094651513
  30
0.0
  40
 2.5000000000000
  41
0.0
  71
7
  72
1
   1
\A1;セーフストッパー\PＰＳＳ８
   7
GMM002
   0
LEADER
   5
2A5
 100
AcDbEntity
   8
LEVEL001
 370
15
   6
CONTINUOUS
  62
8
 100
AcDbLeader
   3
GMM003
  73
0
  74
0
  75
0
  40
 2.5000000000000
  41
 16.500000000000
  76
2
  10
 212.61749696073
  20
 133.92733095449
  30
0.0
  10
 215.33603242984
  20
 139.59094651513
  30
0.0
  77
8
 340
2A6
 213
0.0
 223
-1.0000000000000
 233
0.0
   0
MTEXT
   5
2A6
 102
{ACAD_REACTORS
 330
2A5
 102
}
 100
AcDbEntity
   8
LEVEL001
 370
15
  62
8
 100
AcDbMText
  10
 215.33603242984
  20
 140.59094651513
  30
0.0
  40
 2.5000000000000
  41
0.0
  71
7
  72
1
   1
\A1;セーフストッパー\PＰＳＳ８
   7
GMM002
   0
LEADER
   5
2A7
 100
AcDbEntity
   8
LEVEL001
 370
15
   6
CONTINUOUS
  62
8
 100
AcDbLeader
   3
GMM003
  73
0
  74
0
  75
0
  40
 2.5000000000000
  41
 10.500000000000
  76
2
  10
 134.00651297903
  20
 133.92733095449
  30
0.0
  10
 136.72504844814
  20
 139.59094651513
  30
0.0
  77
8
 340
2A8
 213
0.0
 223
-1.0000000000000
 233
0.0
   0
MTEXT
   5
2A8
 102
{ACAD_REACTORS
 330
2A7
 102
}
 100
AcDbEntity
   8
LEVEL001
 370
15
  62
8
 100
AcDbMText
  10
 136.72504844814
  20
 140.59094651513
  30
0.0
  40
 2.5000000000000
  41
0.0
  71
7
  72
1
   1
\A1;レール\PＡＲＳ１７
   7
GMM002
   0
MTEXT
   5
2AA
 100
AcDbEntity
   8
LEVEL001
 370
15
  62
8
 100
AcDbMText
  10
 161.91742640575
  20
 99.657594112387
  30
0.0
  40
 3.0000000000000
  41
0.0
  71
5
  72
1
   1
\T1.000000;納まり参考図（Ｓ：１／２）
   7
GMM002
  44
 0.79999984000003
   0
LINE
   5
2AB
 100
AcDbEntity
   8
LEVEL001
 370
15
 100
AcDbLine
   6
CONTINUOUS
  62
8
  10
 180.96738600729
  20
 97.392147888131
  30
0.0
  11
 140.90408007652
  21
 97.392147888131
  31
0.0
   0
DIMENSION
   5
2AC
 100
AcDbEntity
   8
LEVEL001
 370
15
   6
CONTINUOUS
  62
8
 100
AcDbDimension
   2
*D10
  10
 208.19427734218
  20
 106.58665589728
  30
0.0
  11
 161.91742640575
  21
 106.58665589728
  31
0.0
  70
0
   1
\A1;レール寸法X=L-100
   3
GMM001
 100
AcDbAlignedDimension
  13
 115.64057546932
  23
 111.58665589728
  33
0.0
  14
 208.19427734218
  24
 114.08665589728
  34
0.0
 100
AcDbRotatedDimension
   0
LINE
   5
2AD
 100
AcDbEntity
   8
LEVEL005
 370
15
 100
AcDbLine
   6
DASHDOT
  62
8
  10
 46.697092474741
  20
 232.50182174702
  30
0.0
  11
 46.697092474741
  21
 226.50827264236
  31
0.0
   0
LINE
   5
2AE
 100
AcDbEntity
   8
LEVEL005
 370
15
 100
AcDbLine
   6
DASHDOT
  62
8
  10
 38.447092474741
  20
 231.89677225308
  30
0.0
  11
 38.447092474741
  21
 227.04925807223
  31
0.0
   0
LINE
   5
2AF
 100
AcDbEntity
   8
LEVEL005
 370
15
 100
AcDbLine
   6
DASHDOT
  62
8
  10
 54.947092474741
  20
 231.89677225308
  30
0.0
  11
 54.947092474741
  21
 227.04925807223
  31
0.0
   0
INSERT
   5
2B0
 100
AcDbEntity
   8
LEVEL001
 100
AcDbBlockReference
   2
BLOCK001
  10
0.0
  20
0.0
  30
0.0
   0
INSERT
   5
2B1
 100
AcDbEntity
   8
LEVEL001
 100
AcDbBlockReference
   2
BLOCK002
  10
0.0
  20
0.0
  30
0.0
   0
LINE
   5
2B2
 100
AcDbEntity
   8
LEVEL004
 370
30
 100
AcDbLine
   6
CONTINUOUS
  62
7
  10
 33.697092474741
  20
 230.81442506018
  30
0.0
  11
 41.447092474741
  21
 230.81442506018
  31
0.0
   0
LINE
   5
2B3
 100
AcDbEntity
   8
LEVEL004
 370
30
 100
AcDbLine
   6
CONTINUOUS
  62
7
  10
 52.302965331358
  20
 230.81442506018
  30
0.0
  11
 59.697092474741
  21
 230.81442506018
  31
0.0
   0
LINE
   5
2B4
 100
AcDbEntity
   8
LEVEL004
 370
30
 100
AcDbLine
   6
CONTINUOUS
  62
7
  10
 51.947092474741
  20
 229.81442506018
  30
0.0
  11
 54.647092474741
  21
 229.81442506018
  31
0.0
   0
LINE
   5
2B5
 100
AcDbEntity
   8
LEVEL004
 370
30
 100
AcDbLine
   6
CONTINUOUS
  62
7
  10
 55.247092474741
  20
 229.81442506018
  30
0.0
  11
 57.947092474741
  21
 229.81442506018
  31
0.0
   0
LINE
   5
2B6
 100
AcDbEntity
   8
LEVEL004
 370
30
 100
AcDbLine
   6
CONTINUOUS
  62
7
  10
 58.947092474741
  20
 229.81442506018
  30
0.0
  11
 59.429143282310
  21
 229.81442506018
  31
0.0
   0
LINE
   5
2B7
 100
AcDbEntity
   8
LEVEL004
 370
30
 100
AcDbLine
   6
CONTINUOUS
  62
7
  10
 63.697092474741
  20
 228.50502398342
  30
0.0
  11
 63.697092474741
  21
 228.01442506018
  31
0.0
   0
LINE
   5
2B8
 100
AcDbEntity
   8
LEVEL004
 370
30
 100
AcDbLine
   6
CONTINUOUS
  62
7
  10
 57.947092474741
  20
 229.81442506018
  30
0.0
  11
 57.947092474741
  21
 228.01442506018
  31
0.0
   0
LINE
   5
2B9
 100
AcDbEntity
   8
LEVEL004
 370
30
 100
AcDbLine
   6
CONTINUOUS
  62
7
  10
 58.947092474741
  20
 229.81442506018
  30
0.0
  11
 58.947092474741
  21
 228.01442506018
  31
0.0
   0
LINE
   5
2BA
 100
AcDbEntity
   8
LEVEL004
 370
30
 100
AcDbLine
   6
CONTINUOUS
  62
7
  10
 61.697092474741
  20
 228.50502398342
  30
0.0
  11
 61.697092474741
  21
 228.01442506018
  31
0.0
   0
LINE
   5
2BB
 100
AcDbEntity
   8
LEVEL004
 370
30
 100
AcDbLine
   6
CONTINUOUS
  62
7
  10
 59.697092474741
  20
 230.81442506018
  30
0.0
  11
 63.697092474741
  21
 228.50502398342
  31
0.0
   0
LINE
   5
2BC
 100
AcDbEntity
   8
LEVEL004
 370
30
 100
AcDbLine
   6
CONTINUOUS
  62
7
  10
 59.429143282310
  20
 229.81442506018
  30
0.0
  11
 61.697092474741
  21
 228.50502398342
  31
0.0
   0
ARC
   5
2BD
 100
AcDbEntity
   8
LEVEL004
 370
30
   6
CONTINUOUS
  62
7
 100
AcDbCircle
  10
 62.697092474741
  20
 227.81442506018
  30
0.0
  40
 0.30000000000000
 100
AcDbArc
  50
0.0
  51
 180.00000000000
   0
LINE
   5
2BE
 100
AcDbEntity
   8
LEVEL004
 370
30
 100
AcDbLine
   6
CONTINUOUS
  62
7
  10
 55.247092474741
  20
 229.81442506018
  30
0.0
  11
 54.947092474741
  21
 230.11442506018
  31
0.0
   0
LINE
   5
2BF
 100
AcDbEntity
   8
LEVEL004
 370
30
 100
AcDbLine
   6
CONTINUOUS
  62
7
  10
 54.947092474741
  20
 230.11442506018
  30
0.0
  11
 54.647092474741
  21
 229.81442506018
  31
0.0
   0
LINE
   5
2C0
 100
AcDbEntity
   8
LEVEL004
 370
30
 100
AcDbLine
   6
CONTINUOUS
  62
7
  10
 41.447092474741
  20
 229.81442506018
  30
0.0
  11
 38.747092474741
  21
 229.81442506018
  31
0.0
   0
LINE
   5
2C1
 100
AcDbEntity
   8
LEVEL004
 370
30
 100
AcDbLine
   6
CONTINUOUS
  62
7
  10
 38.147092474741
  20
 229.81442506018
  30
0.0
  11
 35.447092474741
  21
 229.81442506018
  31
0.0
   0
LINE
   5
2C2
 100
AcDbEntity
   8
LEVEL004
 370
30
 100
AcDbLine
   6
CONTINUOUS
  62
7
  10
 38.147092474741
  20
 229.81442506018
  30
0.0
  11
 38.447092474741
  21
 230.11442506018
  31
0.0
   0
LINE
   5
2C3
 100
AcDbEntity
   8
LEVEL004
 370
30
 100
AcDbLine
   6
CONTINUOUS
  62
7
  10
 38.447092474741
  20
 230.11442506018
  30
0.0
  11
 38.747092474741
  21
 229.81442506018
  31
0.0
   0
LINE
   5
2C4
 100
AcDbEntity
   8
LEVEL004
 370
30
 100
AcDbLine
   6
CONTINUOUS
  62
7
  10
 41.447092474741
  20
 229.81442506018
  30
0.0
  11
 41.447092474741
  21
 228.01442506018
  31
0.0
   0
LINE
   5
2C5
 100
AcDbEntity
   8
LEVEL004
 370
30
 100
AcDbLine
   6
CONTINUOUS
  62
7
  10
 51.947092474741
  20
 229.81442506018
  30
0.0
  11
 51.947092474741
  21
 228.01442506018
  31
0.0
   0
LINE
   5
2C6
 100
AcDbEntity
   8
LEVEL004
 370
30
 100
AcDbLine
   6
CONTINUOUS
  62
7
  10
 41.647092474741
  20
 227.81442506018
  30
0.0
  11
 51.747092474741
  21
 227.81442506018
  31
0.0
   0
ARC
   5
2C7
 100
AcDbEntity
   8
LEVEL004
 370
30
   6
CONTINUOUS
  62
7
 100
AcDbCircle
  10
 41.647092474741
  20
 228.01442506018
  30
0.0
  40
 0.20000000000000
 100
AcDbArc
  50
 180.00000000000
  51
 270.00000000000
   0
LINE
   5
2C8
 100
AcDbEntity
   8
LEVEL004
 370
30
 100
AcDbLine
   6
CONTINUOUS
  62
7
  10
 58.147092474741
  20
 227.81442506018
  30
0.0
  11
 58.747092474741
  21
 227.81442506018
  31
0.0
   0
LINE
   5
2C9
 100
AcDbEntity
   8
LEVEL004
 370
30
 100
AcDbLine
   6
CONTINUOUS
  62
7
  10
 45.441325037961
  20
 228.81442506018
  30
0.0
  11
 47.952859911520
  21
 228.81442506018
  31
0.0
   0
ARC
   5
2CA
 100
AcDbEntity
   8
LEVEL004
 370
30
   6
CONTINUOUS
  62
7
 100
AcDbCircle
  10
 45.047050451389
  20
 229.30277326226
  30
0.0
  40
 0.30000000000000
 100
AcDbArc
  50
 10.362700201409
  51
 150.56813143307
   0
LINE
   5
2CB
 100
AcDbEntity
   8
LEVEL004
 370
30
 100
AcDbLine
   6
CONTINUOUS
  62
7
  10
 45.441325037961
  20
 228.81442506018
  30
0.0
  11
 45.342157085726
  21
 229.35673690159
  31
0.0
   0
ARC
   5
2CC
 100
AcDbEntity
   8
LEVEL004
 370
30
   6
CONTINUOUS
  62
7
 100
AcDbCircle
  10
 48.347134498092
  20
 229.30277326226
  30
0.0
  40
 0.30000000000000
 100
AcDbArc
  50
 29.431868566914
  51
 169.63729979861
   0
LINE
   5
2CD
 100
AcDbEntity
   8
LEVEL004
 370
30
 100
AcDbLine
   6
CONTINUOUS
  62
7
  10
 47.952859911520
  20
 228.81442506018
  30
0.0
  11
 48.052027863756
  21
 229.35673690159
  31
0.0
   0
LINE
   5
2CE
 100
AcDbEntity
   8
LEVEL004
 370
30
 100
AcDbLine
   6
CONTINUOUS
  62
7
  10
 51.947092474741
  20
 230.81442506018
  30
0.0
  11
 53.977034572685
  21
 230.81442506018
  31
0.0
   0
LINE
   5
2CF
 100
AcDbEntity
   8
LEVEL004
 370
30
 100
AcDbLine
   6
CONTINUOUS
  62
7
  10
 51.947092474741
  20
 229.81442506018
  30
0.0
  11
 53.977034572685
  21
 229.81442506018
  31
0.0
   0
LINE
   5
2D0
 100
AcDbEntity
   8
LEVEL004
 370
30
 100
AcDbLine
   6
CONTINUOUS
  62
7
  10
 41.447092474741
  20
 230.81442506018
  30
0.0
  11
 39.417150376797
  21
 230.81442506018
  31
0.0
   0
LINE
   5
2D1
 100
AcDbEntity
   8
LEVEL004
 370
30
 100
AcDbLine
   6
CONTINUOUS
  62
7
  10
 41.447092474741
  20
 229.81442506018
  30
0.0
  11
 39.417150376797
  21
 229.81442506018
  31
0.0
   0
LINE
   5
2D2
 100
AcDbEntity
   8
LEVEL004
 370
30
 100
AcDbLine
   6
CONTINUOUS
  62
7
  10
 41.447092474741
  20
 230.81442506018
  30
0.0
  11
 42.517783107316
  21
 231.88511569276
  31
0.0
   0
LINE
   5
2D3
 100
AcDbEntity
   8
LEVEL004
 370
30
 100
AcDbLine
   6
CONTINUOUS
  62
7
  10
 51.947092474741
  20
 230.81442506018
  30
0.0
  11
 50.876401842166
  21
 231.88511569276
  31
0.0
   0
LINE
   5
2D4
 100
AcDbEntity
   8
LEVEL004
 370
30
 100
AcDbLine
   6
CONTINUOUS
  62
7
  10
 61.897092474741
  20
 227.81442506018
  30
0.0
  11
 62.397092474741
  21
 227.81442506018
  31
0.0
   0
ARC
   5
2D5
 100
AcDbEntity
   8
LEVEL004
 370
30
   6
CONTINUOUS
  62
7
 100
AcDbCircle
  10
 58.147092474741
  20
 228.01442506018
  30
0.0
  40
 0.20000000000000
 100
AcDbArc
  50
 179.99999999999
  51
 270.00000000000
   0
ARC
   5
2D6
 100
AcDbEntity
   8
LEVEL004
 370
30
   6
CONTINUOUS
  62
7
 100
AcDbCircle
  10
 58.747092474741
  20
 228.01442506018
  30
0.0
  40
 0.20000000000000
 100
AcDbArc
  50
 270.00000000000
  51
0.0
   0
ARC
   5
2D7
 100
AcDbEntity
   8
LEVEL004
 370
30
   6
CONTINUOUS
  62
7
 100
AcDbCircle
  10
 61.897092474741
  20
 228.01442506018
  30
0.0
  40
 0.20000000000000
 100
AcDbArc
  50
 179.99999999999
  51
 270.00000000000
   0
ARC
   5
2D8
 100
AcDbEntity
   8
LEVEL004
 370
30
   6
CONTINUOUS
  62
7
 100
AcDbCircle
  10
 63.497092474741
  20
 228.01442506018
  30
0.0
  40
 0.20000000000000
 100
AcDbArc
  50
 270.00000000000
  51
 0.81422199845465E-11
   0
LINE
   5
2D9
 100
AcDbEntity
   8
LEVEL004
 370
30
 100
AcDbLine
   6
CONTINUOUS
  62
7
  10
 62.997092474741
  20
 227.81442506018
  30
0.0
  11
 63.497092474741
  21
 227.81442506018
  31
0.0
   0
ARC
   5
2DA
 100
AcDbEntity
   8
LEVEL004
 370
30
   6
CONTINUOUS
  62
7
 100
AcDbCircle
  10
 41.647092474741
  20
 228.01442506018
  30
0.0
  40
 0.20000000000000
 100
AcDbArc
  50
 180.00000000000
  51
 270.00000000000
   0
ARC
   5
2DB
 100
AcDbEntity
   8
LEVEL004
 370
30
   6
CONTINUOUS
  62
7
 100
AcDbCircle
  10
 51.747092474741
  20
 228.01442506018
  30
0.0
  40
 0.20000000000000
 100
AcDbArc
  50
 270.00000000000
  51
0.0
   0
LINE
   5
2DC
 100
AcDbEntity
   8
LEVEL004
 370
30
 100
AcDbLine
   6
CONTINUOUS
  62
7
  10
 34.447092474741
  20
 229.81442506018
  30
0.0
  11
 33.965041667172
  21
 229.81442506018
  31
0.0
   0
LINE
   5
2DD
 100
AcDbEntity
   8
LEVEL004
 370
30
 100
AcDbLine
   6
CONTINUOUS
  62
7
  10
 29.697092474741
  20
 228.50502398342
  30
0.0
  11
 29.697092474741
  21
 228.01442506018
  31
0.0
   0
ARC
   5
2DE
 100
AcDbEntity
   8
LEVEL004
 370
30
   6
CONTINUOUS
  62
7
 100
AcDbCircle
  10
 29.897092474741
  20
 228.01442506018
  30
0.0
  40
 0.20000000000000
 100
AcDbArc
  50
 180.00000000000
  51
 270.00000000000
   0
LINE
   5
2DF
 100
AcDbEntity
   8
LEVEL004
 370
30
 100
AcDbLine
   6
CONTINUOUS
  62
7
  10
 35.447092474741
  20
 229.81442506018
  30
0.0
  11
 35.447092474741
  21
 228.01442506018
  31
0.0
   0
LINE
   5
2E0
 100
AcDbEntity
   8
LEVEL004
 370
30
 100
AcDbLine
   6
CONTINUOUS
  62
7
  10
 34.447092474741
  20
 229.81442506018
  30
0.0
  11
 34.447092474741
  21
 228.01442506018
  31
0.0
   0
LINE
   5
2E1
 100
AcDbEntity
   8
LEVEL004
 370
30
 100
AcDbLine
   6
CONTINUOUS
  62
7
  10
 31.697092474741
  20
 228.50502398342
  30
0.0
  11
 31.697092474741
  21
 228.01442506018
  31
0.0
   0
LINE
   5
2E2
 100
AcDbEntity
   8
LEVEL004
 370
30
 100
AcDbLine
   6
CONTINUOUS
  62
7
  10
 33.697092474741
  20
 230.81442506018
  30
0.0
  11
 29.697092474741
  21
 228.50502398342
  31
0.0
   0
LINE
   5
2E3
 100
AcDbEntity
   8
LEVEL004
 370
30
 100
AcDbLine
   6
CONTINUOUS
  62
7
  10
 33.965041667172
  20
 229.81442506018
  30
0.0
  11
 31.697092474741
  21
 228.50502398342
  31
0.0
   0
ARC
   5
2E4
 100
AcDbEntity
   8
LEVEL004
 370
30
   6
CONTINUOUS
  62
7
 100
AcDbCircle
  10
 30.697092474741
  20
 227.81442506018
  30
0.0
  40
 0.30000000000000
 100
AcDbArc
  50
0.0
  51
 180.00000000000
   0
LINE
   5
2E5
 100
AcDbEntity
   8
LEVEL004
 370
30
 100
AcDbLine
   6
CONTINUOUS
  62
7
  10
 35.247092474741
  20
 227.81442506018
  30
0.0
  11
 34.647092474741
  21
 227.81442506018
  31
0.0
   0
ARC
   5
2E6
 100
AcDbEntity
   8
LEVEL004
 370
30
   6
CONTINUOUS
  62
7
 100
AcDbCircle
  10
 34.647092474741
  20
 228.01442506018
  30
0.0
  40
 0.20000000000000
 100
AcDbArc
  50
 179.99999999999
  51
 270.00000000000
   0
ARC
   5
2E7
 100
AcDbEntity
   8
LEVEL004
 370
30
   6
CONTINUOUS
  62
7
 100
AcDbCircle
  10
 35.247092474741
  20
 228.01442506018
  30
0.0
  40
 0.20000000000000
 100
AcDbArc
  50
 270.00000000000
  51
 0.81422199845465E-11
   0
LINE
   5
2E8
 100
AcDbEntity
   8
LEVEL004
 370
30
 100
AcDbLine
   6
CONTINUOUS
  62
7
  10
 31.497092474741
  20
 227.81442506018
  30
0.0
  11
 30.997092474741
  21
 227.81442506018
  31
0.0
   0
LINE
   5
2E9
 100
AcDbEntity
   8
LEVEL004
 370
30
 100
AcDbLine
   6
CONTINUOUS
  62
7
  10
 30.397092474741
  20
 227.81442506018
  30
0.0
  11
 29.897092474741
  21
 227.81442506018
  31
0.0
   0
ARC
   5
2EA
 100
AcDbEntity
   8
LEVEL004
 370
30
   6
CONTINUOUS
  62
7
 100
AcDbCircle
  10
 31.497092474741
  20
 228.01442506018
  30
0.0
  40
 0.20000000000000
 100
AcDbArc
  50
 270.00000000000
  51
0.0
   0
LINE
   5
2EB
 100
AcDbEntity
   8
LEVEL004
 370
30
 100
AcDbLine
   6
CONTINUOUS
  62
7
  10
 51.947092474741
  20
 230.81442506018
  30
0.0
  11
 52.302965331358
  21
 230.81442506018
  31
0.0
   0
ARC
   5
2EC
 100
AcDbEntity
   8
LEVEL004
 370
30
   6
CONTINUOUS
  62
7
 100
AcDbCircle
  10
 43.147092474741
  20
 231.58511569276
  30
0.0
  40
 0.30000000000000
 100
AcDbArc
  50
 293.10293078351
  51
 90.000000000068
   0
LINE
   5
2ED
 100
AcDbEntity
   8
LEVEL004
 370
30
 100
AcDbLine
   6
CONTINUOUS
  62
7
  10
 43.147092474741
  20
 231.88511569276
  30
0.0
  11
 42.517783107316
  21
 231.88511569276
  31
0.0
   0
ARC
   5
2EE
 100
AcDbEntity
   8
LEVEL004
 370
30
   6
CONTINUOUS
  62
7
 100
AcDbCircle
  10
 50.247092474740
  20
 231.58511569276
  30
0.0
  40
 0.30000000000000
 100
AcDbArc
  50
 89.999999999932
  51
 246.89706921649
   0
LINE
   5
2EF
 100
AcDbEntity
   8
LEVEL004
 370
30
 100
AcDbLine
   6
CONTINUOUS
  62
7
  10
 50.247092474741
  20
 231.88511569276
  30
0.0
  11
 50.876401842166
  21
 231.88511569276
  31
0.0
   0
CIRCLE
   5
2F0
 100
AcDbEntity
   8
LEVEL001
 370
30
 100
AcDbCircle
   6
CONTINUOUS
  62
7
  10
 43.755287933028
  20
 230.15942348035
  30
0.0
  40
 1.2500000000000
   0
CIRCLE
   5
2F1
 100
AcDbEntity
   8
LEVEL001
 370
30
 100
AcDbCircle
   6
CONTINUOUS
  62
7
  10
 49.638897016454
  20
 230.15942348035
  30
0.0
  40
 1.2500000000000
   0
DIMENSION
   5
2F2
 100
AcDbEntity
   8
LEVEL001
 370
15
   6
CONTINUOUS
  62
8
 100
AcDbDimension
   2
*D11
  10
 69.748748809656
  20
 230.81442506018
  30
0.0
  11
 69.748748809656
  21
 225.90030143045
  31
0.0
  70
128
   3
GMM004
 100
AcDbAlignedDimension
  13
 63.497092474741
  23
 227.81442506018
  33
0.0
  14
 59.697092474741
  24
 230.81442506018
  34
0.0
  50
 90.000000000000
 100
AcDbRotatedDimension
   0
DIMENSION
   5
2F3
 100
AcDbEntity
   8
LEVEL001
 370
15
   6
CONTINUOUS
  62
8
 100
AcDbDimension
   2
*D12
  10
 69.748748809656
  20
 231.88511569276
  30
0.0
  11
 69.748748809656
  21
 234.00440553455
  31
0.0
  70
128
   3
GMM005
 100
AcDbAlignedDimension
  13
 59.697092474741
  23
 230.81442506018
  33
0.0
  14
 50.876401842166
  24
 231.88511569276
  34
0.0
  50
 90.000000000000
 100
AcDbRotatedDimension
   0
LEADER
   5
2F4
 100
AcDbEntity
   8
LEVEL001
 370
15
   6
CONTINUOUS
  62
8
 100
AcDbLeader
   3
GMM006
  73
0
  74
0
  75
0
  40
 2.5000000000000
  41
 20.500000000000
  76
2
  10
 49.935750626283
  20
 229.91031144046
  30
0.0
  10
 56.194008884542
  20
 216.98538651553
  30
0.0
  77
8
 340
2F5
 213
0.0
 223
-1.0000000000000
 233
0.0
   0
MTEXT
   5
2F5
 102
{ACAD_REACTORS
 330
2F4
 102
}
 100
AcDbEntity
   8
LEVEL001
 370
15
  62
8
 100
AcDbMText
  10
 56.194008884542
  20
 217.98538651553
  30
0.0
  40
 2.5000000000000
  41
0.0
  71
7
  72
1
   1
\A1;ＳＵＳ３０４/%%c２.５
   7
GMM002
   0
DIMENSION
   5
2F6
 100
AcDbEntity
   8
LEVEL001
 370
15
   6
CONTINUOUS
  62
8
 100
AcDbDimension
   2
*D14
  10
 63.697092474741
  20
 251.88511569276
  30
0.0
  11
 46.697092474741
  21
 251.88511569276
  31
0.0
  70
0
   3
GMM007
 100
AcDbAlignedDimension
  13
 29.697092474741
  23
 242.25087422547
  33
0.0
  14
 63.697092474741
  24
 228.50502398342
  34
0.0
 100
AcDbRotatedDimension
   0
DIMENSION
   5
2F7
 100
AcDbEntity
   8
LEVEL001
 370
15
   6
CONTINUOUS
  62
8
 100
AcDbDimension
   2
*D15
  10
 46.697092474741
  20
 246.88511569276
  30
0.0
  11
 38.197092474741
  21
 246.88511569276
  31
0.0
  70
0
   3
GMM007
 100
AcDbAlignedDimension
  13
 29.697092474741
  23
 228.50502398342
  33
0.0
  14
 46.697092474741
  24
 232.50182174702
  34
0.0
 100
AcDbRotatedDimension
   0
DIMENSION
   5
2F8
 100
AcDbEntity
   8
LEVEL001
 370
15
   6
CONTINUOUS
  62
8
 100
AcDbDimension
   2
*D16
  10
 49.947092474741
  20
 241.88511569276
  30
0.0
  11
 51.126233364615
  21
 241.88511569276
  31
0.0
  70
128
   3
GMM008
 100
AcDbAlignedDimension
  13
 43.447092474741
  23
 231.58511569276
  33
0.0
  14
 49.947092474741
  24
 231.58511569276
  34
0.0
 100
AcDbRotatedDimension
   0
DIMENSION
   5
2F9
 100
AcDbEntity
   8
LEVEL001
 370
15
   6
CONTINUOUS
  62
8
 100
AcDbDimension
   2
*D17
  10
 47.952859911520
  20
 236.88511569276
  30
0.0
  11
 51.175172435618
  21
 236.88511569276
  31
0.0
  70
128
   1
\A1;2.5
   3
GMM009
 100
AcDbAlignedDimension
  13
 45.441325037961
  23
 228.81442506018
  33
0.0
  14
 47.952859911520
  24
 228.81442506018
  34
0.0
 100
AcDbRotatedDimension
   0
LINE
   5
2FA
 100
AcDbEntity
   8
LEVEL003
 370
30
 100
AcDbLine
   6
CONTINUOUS
  62
7
  10
 129.73434197087
  20
 264.24948631146
  30
0.0
  11
 129.73434197087
  21
 251.49948631146
  31
0.0
   0
LINE
   5
2FB
 100
AcDbEntity
   8
LEVEL003
 370
30
 100
AcDbLine
   6
CONTINUOUS
  62
7
  10
 129.73434197087
  20
 228.24948631146
  30
0.0
  11
 182.73434197087
  21
 228.24948631146
  31
0.0
   0
LINE
   5
2FC
 100
AcDbEntity
   8
LEVEL004
 370
30
 100
AcDbLine
   6
CONTINUOUS
  62
7
  10
 129.73434197087
  20
 232.98153711903
  30
0.0
  11
 162.67261945356
  21
 232.98153711903
  31
0.0
   0
LINE
   5
2FD
 100
AcDbEntity
   8
LEVEL004
 370
30
 100
AcDbLine
   6
CONTINUOUS
  62
7
  10
 129.73434197087
  20
 259.51743550389
  30
0.0
  11
 157.73434197087
  21
 259.51743550389
  31
0.0
   0
LINE
   5
2FE
 100
AcDbEntity
   8
LEVEL003
 370
30
 100
AcDbLine
   6
CONTINUOUS
  62
7
  10
 160.73434197087
  20
 235.69948631146
  30
0.0
  11
 154.73434197087
  21
 235.69948631146
  31
0.0
   0
LINE
   5
2FF
 100
AcDbEntity
   8
LEVEL003
 370
30
 100
AcDbLine
   6
CONTINUOUS
  62
7
  10
 160.73434197087
  20
 239.29948631146
  30
0.0
  11
 154.73434197087
  21
 239.29948631146
  31
0.0
   0
LINE
   5
300
 100
AcDbEntity
   8
LEVEL004
 370
30
 100
AcDbLine
   6
CONTINUOUS
  62
7
  10
 157.73434197087
  20
 259.51743550389
  30
0.0
  11
 182.73434197087
  21
 259.51743550389
  31
0.0
   0
LINE
   5
301
 100
AcDbEntity
   8
LEVEL004
 370
30
 100
AcDbLine
   6
CONTINUOUS
  62
7
  10
 162.67261945356
  20
 232.98153711903
  30
0.0
  11
 182.73434197087
  21
 232.98153711903
  31
0.0
   0
LINE
   5
302
 100
AcDbEntity
   8
LEVEL003
 370
30
 100
AcDbLine
   6
CONTINUOUS
  62
7
  10
 132.73434197087
  20
 242.74948631146
  30
0.0
  11
 170.73434197087
  21
 242.74948631146
  31
0.0
   0
LINE
   5
303
 100
AcDbEntity
   8
LEVEL003
 370
30
 100
AcDbLine
   6
CONTINUOUS
  62
7
  10
 132.73434197087
  20
 249.74948631146
  30
0.0
  11
 170.73434197087
  21
 249.74948631146
  31
0.0
   0
ARC
   5
304
 100
AcDbEntity
   8
LEVEL003
 370
30
   6
CONTINUOUS
  62
7
 100
AcDbCircle
  10
 170.73434197087
  20
 246.24948631146
  30
0.0
  40
 3.5000000000000
 100
AcDbArc
  50
 270.00000000000
  51
 90.000000000000
   0
ARC
   5
305
 100
AcDbEntity
   8
LEVEL003
 370
30
   6
CONTINUOUS
  62
7
 100
AcDbCircle
  10
 160.73434197087
  20
 237.49948631146
  30
0.0
  40
 1.8000000000000
 100
AcDbArc
  50
 270.00000000000
  51
 90.000000000000
   0
ARC
   5
306
 100
AcDbEntity
   8
LEVEL003
 370
30
   6
CONTINUOUS
  62
7
 100
AcDbCircle
  10
 154.73434197087
  20
 237.49948631146
  30
0.0
  40
 1.8000000000000
 100
AcDbArc
  50
 90.000000000000
  51
 270.00000000000
   0
ARC
   5
307
 100
AcDbEntity
   8
LEVEL003
 370
30
   6
CONTINUOUS
  62
7
 100
AcDbCircle
  10
 160.73434197087
  20
 237.49948631146
  30
0.0
  40
 3.6000000000000
 100
AcDbArc
  50
 270.00000000000
  51
 90.000000000000
   0
ARC
   5
308
 100
AcDbEntity
   8
LEVEL003
 370
30
   6
CONTINUOUS
  62
7
 100
AcDbCircle
  10
 154.73434197087
  20
 237.49948631146
  30
0.0
  40
 3.6000000000000
 100
AcDbArc
  50
 90.000000000000
  51
 270.00000000000
   0
LINE
   5
309
 100
AcDbEntity
   8
LEVEL003
 370
30
 100
AcDbLine
   6
CONTINUOUS
  62
7
  10
 160.73434197087
  20
 233.89948631146
  30
0.0
  11
 154.73434197087
  21
 233.89948631146
  31
0.0
   0
LINE
   5
30A
 100
AcDbEntity
   8
LEVEL003
 370
30
 100
AcDbLine
   6
CONTINUOUS
  62
7
  10
 160.73434197087
  20
 241.09948631146
  30
0.0
  11
 154.73434197087
  21
 241.09948631146
  31
0.0
   0
LINE
   5
30B
 100
AcDbEntity
   8
LEVEL003
 370
30
 100
AcDbLine
   6
CONTINUOUS
  62
7
  10
 160.73434197087
  20
 256.79948631146
  30
0.0
  11
 154.73434197087
  21
 256.79948631146
  31
0.0
   0
LINE
   5
30C
 100
AcDbEntity
   8
LEVEL003
 370
30
 100
AcDbLine
   6
CONTINUOUS
  62
7
  10
 160.73434197087
  20
 253.19948631146
  30
0.0
  11
 154.73434197087
  21
 253.19948631146
  31
0.0
   0
ARC
   5
30D
 100
AcDbEntity
   8
LEVEL003
 370
30
   6
CONTINUOUS
  62
7
 100
AcDbCircle
  10
 160.73434197087
  20
 254.99948631146
  30
0.0
  40
 1.8000000000000
 100
AcDbArc
  50
 270.00000000000
  51
 90.000000000000
   0
ARC
   5
30E
 100
AcDbEntity
   8
LEVEL003
 370
30
   6
CONTINUOUS
  62
7
 100
AcDbCircle
  10
 154.73434197087
  20
 254.99948631146
  30
0.0
  40
 1.8000000000000
 100
AcDbArc
  50
 90.000000000000
  51
 270.00000000000
   0
ARC
   5
30F
 100
AcDbEntity
   8
LEVEL003
 370
30
   6
CONTINUOUS
  62
7
 100
AcDbCircle
  10
 160.73434197087
  20
 254.99948631146
  30
0.0
  40
 3.6000000000000
 100
AcDbArc
  50
 270.00000000000
  51
 90.000000000000
   0
ARC
   5
310
 100
AcDbEntity
   8
LEVEL003
 370
30
   6
CONTINUOUS
  62
7
 100
AcDbCircle
  10
 154.73434197087
  20
 254.99948631146
  30
0.0
  40
 3.6000000000000
 100
AcDbArc
  50
 90.000000000000
  51
 270.00000000000
   0
LINE
   5
311
 100
AcDbEntity
   8
LEVEL003
 370
30
 100
AcDbLine
   6
CONTINUOUS
  62
7
  10
 160.73434197087
  20
 258.59948631146
  30
0.0
  11
 154.73434197087
  21
 258.59948631146
  31
0.0
   0
LINE
   5
312
 100
AcDbEntity
   8
LEVEL003
 370
30
 100
AcDbLine
   6
CONTINUOUS
  62
7
  10
 160.73434197087
  20
 251.39948631146
  30
0.0
  11
 154.73434197087
  21
 251.39948631146
  31
0.0
   0
LINE
   5
313
 100
AcDbEntity
   8
LEVEL003
 370
30
 100
AcDbLine
   6
CONTINUOUS
  62
7
  10
 129.73434197087
  20
 251.49948631146
  30
0.0
  11
 132.73434197087
  21
 251.49948631146
  31
0.0
   0
LINE
   5
314
 100
AcDbEntity
   8
LEVEL003
 370
30
 100
AcDbLine
   6
CONTINUOUS
  62
7
  10
 132.73434197087
  20
 251.49948631146
  30
0.0
  11
 132.73434197087
  21
 251.27323054240
  31
0.0
   0
LINE
   5
315
 100
AcDbEntity
   8
LEVEL003
 370
30
 100
AcDbLine
   6
CONTINUOUS
  62
7
  10
 129.73434197087
  20
 240.99948631146
  30
0.0
  11
 132.73434197087
  21
 240.99948631146
  31
0.0
   0
LINE
   5
316
 100
AcDbEntity
   8
LEVEL003
 370
30
 100
AcDbLine
   6
CONTINUOUS
  62
7
  10
 132.73434197087
  20
 251.49948631146
  30
0.0
  11
 132.73434197087
  21
 240.99948631146
  31
0.0
   0
LINE
   5
317
 100
AcDbEntity
   8
LEVEL003
 370
30
 100
AcDbLine
   6
CONTINUOUS
  62
7
  10
 129.73434197087
  20
 240.99948631146
  30
0.0
  11
 129.73434197087
  21
 228.24948631146
  31
0.0
   0
LINE
   5
318
 100
AcDbEntity
   8
LEVEL003
 370
30
 100
AcDbLine
   6
CONTINUOUS
  62
7
  10
 132.73434197087
  20
 244.49948631146
  30
0.0
  11
 172.48434197087
  21
 244.49948631146
  31
0.0
   0
LINE
   5
319
 100
AcDbEntity
   8
LEVEL003
 370
30
 100
AcDbLine
   6
CONTINUOUS
  62
7
  10
 132.73434197087
  20
 247.99948631146
  30
0.0
  11
 172.48434197087
  21
 247.99948631146
  31
0.0
   0
LINE
   5
31A
 100
AcDbEntity
   8
LEVEL004
 370
30
 100
AcDbLine
   6
CONTINUOUS
  62
7
  10
 182.73434197087
  20
 246.14948631146
  30
0.0
  11
 182.73434197087
  21
 239.73969924749
  31
0.0
   0
LINE
   5
31B
 100
AcDbEntity
   8
LEVEL004
 370
30
 100
AcDbLine
   6
CONTINUOUS
  62
7
  10
 143.73434197087
  20
 247.99948631146
  30
0.0
  11
 143.73434197087
  21
 244.49948631146
  31
0.0
   0
LINE
   5
31C
 100
AcDbEntity
   8
LEVEL004
 370
30
 100
AcDbLine
   6
CONTINUOUS
  62
7
  10
 139.73434197087
  20
 247.99948631146
  30
0.0
  11
 139.73434197087
  21
 244.49948631146
  31
0.0
   0
LINE
   5
31D
 100
AcDbEntity
   8
LEVEL004
 370
30
 100
AcDbLine
   6
CONTINUOUS
  62
7
  10
 133.73434197087
  20
 247.99948631146
  30
0.0
  11
 133.73434197087
  21
 244.49948631146
  31
0.0
   0
LINE
   5
31E
 100
AcDbEntity
   8
LEVEL004
 370
30
 100
AcDbLine
   6
CONTINUOUS
  62
7
  10
 129.73434197087
  20
 240.89948631146
  30
0.0
  11
 129.73434197087
  21
 238.94339531709
  31
0.0
   0
ARC
   5
31F
 100
AcDbEntity
   8
LEVEL003
 370
30
   6
CONTINUOUS
  62
7
 100
AcDbCircle
  10
 172.48434197087
  20
 246.24948631146
  30
0.0
  40
 1.7500000000000
 100
AcDbArc
  50
 270.00000000000
  51
 90.000000000000
   0
LINE
   5
320
 100
AcDbEntity
   8
LEVEL003
 370
30
 100
AcDbLine
   6
CONTINUOUS
  62
7
  10
 129.73434197087
  20
 264.24948631146
  30
0.0
  11
 182.73434197087
  21
 264.24948631146
  31
0.0
   0
LINE
   5
321
 100
AcDbEntity
   8
LEVEL003
 370
30
 100
AcDbLine
   6
CONTINUOUS
  62
7
  10
 182.73434197087
  20
 264.24948631146
  30
0.0
  11
 182.73434197087
  21
 228.24948631146
  31
0.0
   0
LINE
   5
322
 100
AcDbEntity
   8
LEVEL003
 370
30
 100
AcDbLine
   6
CONTINUOUS
  62
7
  10
 114.00954352267
  20
 259.24948631146
  30
0.0
  11
 114.00954352267
  21
 251.59948631146
  31
0.0
   0
LINE
   5
323
 100
AcDbEntity
   8
LEVEL003
 370
30
 100
AcDbLine
   6
CONTINUOUS
  62
7
  10
 115.00954352267
  20
 259.51743550389
  30
0.0
  11
 115.00954352267
  21
 251.49948631146
  31
0.0
   0
LINE
   5
324
 100
AcDbEntity
   8
LEVEL003
 370
30
 100
AcDbLine
   6
CONTINUOUS
  62
7
  10
 114.00954352267
  20
 240.64361345484
  30
0.0
  11
 114.00954352267
  21
 233.24948631146
  31
0.0
   0
LINE
   5
325
 100
AcDbEntity
   8
LEVEL003
 370
30
 100
AcDbLine
   6
CONTINUOUS
  62
7
  10
 115.00954352267
  20
 240.99948631146
  30
0.0
  11
 115.00954352267
  21
 232.98153711903
  31
0.0
   0
LINE
   5
326
 100
AcDbEntity
   8
LEVEL003
 370
30
 100
AcDbLine
   6
CONTINUOUS
  62
7
  10
 111.70014244591
  20
 229.24948631146
  30
0.0
  11
 111.00954352267
  21
 229.24948631146
  31
0.0
   0
LINE
   5
327
 100
AcDbEntity
   8
LEVEL003
 370
30
 100
AcDbLine
   6
CONTINUOUS
  62
7
  10
 112.27749271510
  20
 228.24948631146
  30
0.0
  11
 111.00954352267
  21
 228.24948631146
  31
0.0
   0
LINE
   5
328
 100
AcDbEntity
   8
LEVEL003
 370
30
 100
AcDbLine
   6
CONTINUOUS
  62
7
  10
 114.00954352267
  20
 233.24948631146
  30
0.0
  11
 111.70014244591
  21
 229.24948631146
  31
0.0
   0
LINE
   5
329
 100
AcDbEntity
   8
LEVEL003
 370
30
 100
AcDbLine
   6
CONTINUOUS
  62
7
  10
 115.00954352267
  20
 232.98153711903
  30
0.0
  11
 112.27749271510
  21
 228.24948631146
  31
0.0
   0
LINE
   5
32A
 100
AcDbEntity
   8
LEVEL003
 370
30
 100
AcDbLine
   6
CONTINUOUS
  62
7
  10
 111.00954352267
  20
 251.29948631146
  30
0.0
  11
 111.00954352267
  21
 241.19948631146
  31
0.0
   0
LINE
   5
32B
 100
AcDbEntity
   8
LEVEL003
 370
30
 100
AcDbLine
   6
CONTINUOUS
  62
7
  10
 111.00954352267
  20
 229.24948631146
  30
0.0
  11
 111.00954352267
  21
 228.24948631146
  31
0.0
   0
LINE
   5
32C
 100
AcDbEntity
   8
LEVEL003
 370
30
 100
AcDbLine
   6
CONTINUOUS
  62
7
  10
 114.00954352267
  20
 240.89948631146
  30
0.0
  11
 114.00954352267
  21
 238.96954421352
  31
0.0
   0
LINE
   5
32D
 100
AcDbEntity
   8
LEVEL003
 370
30
 100
AcDbLine
   6
CONTINUOUS
  62
7
  10
 111.70014244591
  20
 263.24948631146
  30
0.0
  11
 111.00954352267
  21
 263.24948631146
  31
0.0
   0
LINE
   5
32E
 100
AcDbEntity
   8
LEVEL003
 370
30
 100
AcDbLine
   6
CONTINUOUS
  62
7
  10
 112.27749271510
  20
 264.24948631146
  30
0.0
  11
 111.00954352267
  21
 264.24948631146
  31
0.0
   0
LINE
   5
32F
 100
AcDbEntity
   8
LEVEL003
 370
30
 100
AcDbLine
   6
CONTINUOUS
  62
7
  10
 114.00954352267
  20
 259.24948631146
  30
0.0
  11
 111.70014244591
  21
 263.24948631146
  31
0.0
   0
LINE
   5
330
 100
AcDbEntity
   8
LEVEL003
 370
30
 100
AcDbLine
   6
CONTINUOUS
  62
7
  10
 115.00954352267
  20
 259.51743550389
  30
0.0
  11
 112.27749271510
  21
 264.24948631146
  31
0.0
   0
LINE
   5
331
 100
AcDbEntity
   8
LEVEL003
 370
30
 100
AcDbLine
   6
CONTINUOUS
  62
7
  10
 111.00954352267
  20
 263.24948631146
  30
0.0
  11
 111.00954352267
  21
 264.24948631146
  31
0.0
   0
LINE
   5
332
 100
AcDbEntity
   8
LEVEL003
 370
30
 100
AcDbLine
   6
CONTINUOUS
  62
7
  10
 111.00954352267
  20
 264.24948631146
  30
0.0
  11
 111.00954352267
  21
 228.24948631146
  31
0.0
   0
LINE
   5
333
 100
AcDbEntity
   8
LEVEL003
 370
30
 100
AcDbLine
   6
CONTINUOUS
  62
7
  10
 112.50954352267
  20
 247.99948631146
  30
0.0
  11
 112.50954352267
  21
 244.49948631146
  31
0.0
   0
ARC
   5
334
 100
AcDbEntity
   8
LEVEL003
 370
30
   6
CONTINUOUS
  62
7
 100
AcDbCircle
  10
 113.25954352267
  20
 249.24948631146
  30
0.0
  40
 1.2500000000000
 100
AcDbArc
  50
 270.00000000000
  51
0.0
   0
LINE
   5
335
 100
AcDbEntity
   8
LEVEL003
 370
30
 100
AcDbLine
   6
CONTINUOUS
  62
7
  10
 113.25954352267
  20
 247.99948631146
  30
0.0
  11
 112.50954352267
  21
 247.99948631146
  31
0.0
   0
ARC
   5
336
 100
AcDbEntity
   8
LEVEL003
 370
30
   6
CONTINUOUS
  62
7
 100
AcDbCircle
  10
 113.25954352267
  20
 243.24948631146
  30
0.0
  40
 1.2500000000000
 100
AcDbArc
  50
0.0
  51
 90.000000000050
   0
LINE
   5
337
 100
AcDbEntity
   8
LEVEL003
 370
30
 100
AcDbLine
   6
CONTINUOUS
  62
7
  10
 113.25954352267
  20
 244.49948631146
  30
0.0
  11
 112.50954352267
  21
 244.49948631146
  31
0.0
   0
LINE
   5
338
 100
AcDbEntity
   8
LEVEL003
 370
30
 100
AcDbLine
   6
CONTINUOUS
  62
7
  10
 114.50954352267
  20
 243.24948631146
  30
0.0
  11
 114.50954352267
  21
 242.74948631146
  31
0.0
   0
LINE
   5
339
 100
AcDbEntity
   8
LEVEL004
 370
30
 100
AcDbLine
   6
CONTINUOUS
  62
7
  10
 111.00954352267
  20
 249.00476849361
  30
0.0
  11
 111.00954352267
  21
 256.95352630904
  31
0.0
   0
LINE
   5
33A
 100
AcDbEntity
   8
LEVEL004
 370
30
 100
AcDbLine
   6
CONTINUOUS
  62
7
  10
 111.00954352267
  20
 249.34948631146
  30
0.0
  11
 111.00954352267
  21
 254.19827862582
  31
0.0
   0
LINE
   5
33B
 100
AcDbEntity
   8
LEVEL004
 370
30
 100
AcDbLine
   6
CONTINUOUS
  62
7
  10
 115.00954352267
  20
 253.23267794637
  30
0.0
  11
 115.00954352267
  21
 256.95352630904
  31
0.0
   0
LINE
   5
33C
 100
AcDbEntity
   8
LEVEL004
 370
30
 100
AcDbLine
   6
CONTINUOUS
  62
7
  10
 111.00954352267
  20
 249.34948631146
  30
0.0
  11
 111.00954352267
  21
 251.39305078290
  31
0.0
   0
LINE
   5
33D
 100
AcDbEntity
   8
LEVEL003
 370
30
 100
AcDbLine
   6
CONTINUOUS
  62
7
  10
 115.00954352267
  20
 251.49948631146
  30
0.0
  11
 115.00954352267
  21
 240.99948631146
  31
0.0
   0
LINE
   5
33E
 100
AcDbEntity
   8
LEVEL003
 370
30
 100
AcDbLine
   6
CONTINUOUS
  62
7
  10
 115.00954352267
  20
 249.74948631146
  30
0.0
  11
 115.00954352267
  21
 249.24948631146
  31
0.0
   0
LINE
   5
33F
 100
AcDbEntity
   8
LEVEL003
 370
30
 100
AcDbLine
   6
CONTINUOUS
  62
7
  10
 115.00954352267
  20
 242.74948631146
  30
0.0
  11
 114.50954352267
  21
 242.74948631146
  31
0.0
   0
LINE
   5
340
 100
AcDbEntity
   8
LEVEL003
 370
30
 100
AcDbLine
   6
CONTINUOUS
  62
7
  10
 114.00954352267
  20
 251.59948631146
  30
0.0
  11
 115.00954352267
  21
 251.59948631146
  31
0.0
   0
LINE
   5
341
 100
AcDbEntity
   8
LEVEL003
 370
30
 100
AcDbLine
   6
CONTINUOUS
  62
7
  10
 114.00954352267
  20
 240.89948631146
  30
0.0
  11
 115.00954352267
  21
 240.89948631146
  31
0.0
   0
LINE
   5
342
 100
AcDbEntity
   8
LEVEL003
 370
30
 100
AcDbLine
   6
CONTINUOUS
  62
7
  10
 115.00954352267
  20
 249.74948631146
  30
0.0
  11
 114.50954352267
  21
 249.74948631146
  31
0.0
   0
LINE
   5
343
 100
AcDbEntity
   8
LEVEL003
 370
30
 100
AcDbLine
   6
CONTINUOUS
  62
7
  10
 114.50954352267
  20
 249.24948631146
  30
0.0
  11
 114.50954352267
  21
 249.74948631146
  31
0.0
   0
LINE
   5
344
 100
AcDbEntity
   8
LEVEL003
 370
30
 100
AcDbLine
   6
CONTINUOUS
  62
7
  10
 129.73434197087
  20
 212.34895894285
  30
0.0
  11
 129.73434197087
  21
 208.34895894285
  31
0.0
   0
LINE
   5
345
 100
AcDbEntity
   8
LEVEL003
 370
30
 100
AcDbLine
   6
CONTINUOUS
  62
7
  10
 182.73434197087
  20
 212.34895894285
  30
0.0
  11
 182.73434197087
  21
 208.34895894285
  31
0.0
   0
LINE
   5
346
 100
AcDbEntity
   8
LEVEL003
 370
30
 100
AcDbLine
   6
CONTINUOUS
  62
7
  10
 129.73434197087
  20
 208.34895894285
  30
0.0
  11
 182.73434197087
  21
 208.34895894285
  31
0.0
   0
LINE
   5
347
 100
AcDbEntity
   8
LEVEL003
 370
30
 100
AcDbLine
   6
CONTINUOUS
  62
7
  10
 129.73434197087
  20
 212.34895894285
  30
0.0
  11
 182.73434197087
  21
 212.34895894285
  31
0.0
   0
LINE
   5
348
 100
AcDbEntity
   8
LEVEL004
 370
30
 100
AcDbLine
   6
CONTINUOUS
  62
7
  10
 129.73434197087
  20
 209.03895894285
  30
0.0
  11
 182.73434197087
  21
 209.03895894285
  31
0.0
   0
LINE
   5
349
 100
AcDbEntity
   8
LEVEL005
 370
15
 100
AcDbLine
   6
DOT
  62
2
  10
 129.73434197087
  20
 263.24948631146
  30
0.0
  11
 132.73434197087
  21
 263.24948631146
  31
0.0
   0
LINE
   5
34A
 100
AcDbEntity
   8
LEVEL005
 370
15
 100
AcDbLine
   6
DOT
  62
2
  10
 129.73434197087
  20
 229.24948631146
  30
0.0
  11
 132.73434197087
  21
 229.24948631146
  31
0.0
   0
LINE
   5
34B
 100
AcDbEntity
   8
LEVEL005
 370
15
 100
AcDbLine
   6
DOT
  62
2
  10
 132.73434197087
  20
 240.99948631146
  30
0.0
  11
 132.73434197087
  21
 229.24948631146
  31
0.0
   0
LINE
   5
34C
 100
AcDbEntity
   8
LEVEL005
 370
15
 100
AcDbLine
   6
DOT
  62
2
  10
 132.73434197087
  20
 263.24948631146
  30
0.0
  11
 132.73434197087
  21
 251.49948631146
  31
0.0
   0
LINE
   5
34D
 100
AcDbEntity
   8
LEVEL005
 370
15
 100
AcDbLine
   6
DOT
  62
2
  10
 132.73434197087
  20
 208.34895894285
  30
0.0
  11
 132.73434197087
  21
 211.34895894285
  31
0.0
   0
LINE
   5
34E
 100
AcDbEntity
   8
LEVEL005
 370
15
 100
AcDbLine
   6
DOT
  62
2
  10
 129.73434197087
  20
 211.34895894285
  30
0.0
  11
 132.73434197087
  21
 211.34895894285
  31
0.0
   0
DIMENSION
   5
34F
 100
AcDbEntity
   8
LEVEL001
 370
15
   6
CONTINUOUS
  62
8
 100
AcDbDimension
   2
*D18
  10
 106.00954352267
  20
 228.24948631146
  30
0.0
  11
 106.00954352267
  21
 246.24948631146
  31
0.0
  70
0
   3
GMM010
 100
AcDbAlignedDimension
  13
 111.00954352267
  23
 264.24948631146
  33
0.0
  14
 111.00954352267
  24
 228.24948631146
  34
0.0
  50
 270.00000000000
 100
AcDbRotatedDimension
   0
DIMENSION
   5
350
 100
AcDbEntity
   8
LEVEL001
 370
15
   6
CONTINUOUS
  62
8
 100
AcDbDimension
   2
*D19
  10
 124.73434197087
  20
 229.24948631146
  30
0.0
  11
 124.73434197087
  21
 246.24948631146
  31
0.0
  70
0
   3
GMM010
 100
AcDbAlignedDimension
  13
 129.73434197087
  23
 263.24948631146
  33
0.0
  14
 129.73434197087
  24
 229.24948631146
  34
0.0
  50
 270.00000000000
 100
AcDbRotatedDimension
   0
DIMENSION
   5
351
 100
AcDbEntity
   8
LEVEL001
 370
15
   6
CONTINUOUS
  62
8
 100
AcDbDimension
   2
*D20
  10
 115.00954352267
  20
 218.24948631146
  30
0.0
  11
 113.00954352267
  21
 218.24948631146
  31
0.0
  70
0
   3
GMM010
 100
AcDbAlignedDimension
  13
 111.00954352267
  23
 228.24948631146
  33
0.0
  14
 115.00954352267
  24
 232.98153711903
  34
0.0
 100
AcDbRotatedDimension
   0
DIMENSION
   5
352
 100
AcDbEntity
   8
LEVEL001
 370
15
   6
CONTINUOUS
  62
8
 100
AcDbDimension
   2
*D21
  10
 182.73434197087
  20
 218.24948631146
  30
0.0
  11
 156.23434197087
  21
 218.24948631146
  31
0.0
  70
0
   3
GMM010
 100
AcDbAlignedDimension
  13
 129.73434197087
  23
 228.24948631146
  33
0.0
  14
 182.73434197087
  24
 228.24948631146
  34
0.0
 100
AcDbRotatedDimension
   0
DIMENSION
   5
353
 100
AcDbEntity
   8
LEVEL001
 370
15
   6
CONTINUOUS
  62
8
 100
AcDbDimension
   2
*D22
  10
 132.73434197087
  20
 223.24948631146
  30
0.0
  11
 135.30329286118
  21
 223.24948631146
  31
0.0
  70
128
   1
\A1;3(飲み込み)
   3
GMM011
 100
AcDbAlignedDimension
  13
 129.73434197087
  23
 228.24948631146
  33
0.0
  14
 132.73434197087
  24
 229.24948631146
  34
0.0
 100
AcDbRotatedDimension
   0
LINE
   5
354
 100
AcDbEntity
   8
LEVEL001
 370
15
 100
AcDbLine
   6
DASHDOT
  62
8
  10
 109.47720590466
  20
 246.24948631146
  30
0.0
  11
 116.54188114067
  21
 246.24948631146
  31
0.0
   0
LINE
   5
355
 100
AcDbEntity
   8
LEVEL001
 370
15
 100
AcDbLine
   6
DASHDOT
  62
8
  10
 126.99665670558
  20
 246.24948631146
  30
0.0
  11
 185.19345304425
  21
 246.24948631146
  31
0.0
   0
LINE
   5
356
 100
AcDbEntity
   8
LEVEL001
 370
15
 100
AcDbLine
   6
DASHDOT
  62
8
  10
 154.73434197087
  20
 250.36876241866
  30
0.0
  11
 154.73434197087
  21
 259.63021020426
  31
0.0
   0
LINE
   5
357
 100
AcDbEntity
   8
LEVEL001
 370
15
 100
AcDbLine
   6
DASHDOT
  62
8
  10
 149.44974595043
  20
 254.99948631146
  30
0.0
  11
 165.76095876507
  21
 254.99948631146
  31
0.0
   0
LINE
   5
358
 100
AcDbEntity
   8
LEVEL001
 370
15
 100
AcDbLine
   6
DASHDOT
  62
8
  10
 160.73434197087
  20
 250.36876241866
  30
0.0
  11
 160.73434197087
  21
 259.63021020426
  31
0.0
   0
LINE
   5
359
 100
AcDbEntity
   8
LEVEL001
 370
15
 100
AcDbLine
   6
DASHDOT
  62
8
  10
 154.73434197087
  20
 242.13021020426
  30
0.0
  11
 154.73434197087
  21
 232.86876241866
  31
0.0
   0
LINE
   5
35A
 100
AcDbEntity
   8
LEVEL001
 370
15
 100
AcDbLine
   6
DASHDOT
  62
8
  10
 149.44974595043
  20
 237.49948631146
  30
0.0
  11
 165.76095876507
  21
 237.49948631146
  31
0.0
   0
LINE
   5
35B
 100
AcDbEntity
   8
LEVEL001
 370
15
 100
AcDbLine
   6
DASHDOT
  62
8
  10
 160.73434197087
  20
 242.13021020426
  30
0.0
  11
 160.73434197087
  21
 232.86876241866
  31
0.0
   0
LINE
   5
35C
 100
AcDbEntity
   8
LEVEL002
 370
20
 100
AcDbLine
   6
CONTINUOUS
  62
6
  10
 210.92102438030
  20
 220.85043292159
  30
0.0
  11
 211.54217936030
  21
 221.97350116159
  31
0.0
   0
LINE
   5
35D
 100
AcDbEntity
   8
LEVEL002
 370
20
 100
AcDbLine
   6
CONTINUOUS
  62
6
  10
 208.24818530030
  20
 223.28573194159
  30
0.0
  11
 208.24818530030
  21
 219.53820214159
  31
0.0
   0
LINE
   5
35E
 100
AcDbEntity
   8
LEVEL002
 370
20
 100
AcDbLine
   6
CONTINUOUS
  62
6
  10
 208.24818530030
  20
 219.53820214159
  30
0.0
  11
 208.62065192030
  21
 219.53820214159
  31
0.0
   0
LINE
   5
35F
 100
AcDbEntity
   8
LEVEL002
 370
20
 100
AcDbLine
   6
CONTINUOUS
  62
6
  10
 208.62065192030
  20
 219.53820214159
  30
0.0
  11
 209.10121088030
  21
 220.02953248159
  31
0.0
   0
LINE
   5
360
 100
AcDbEntity
   8
LEVEL002
 370
20
 100
AcDbLine
   6
CONTINUOUS
  62
6
  10
 209.10121088030
  20
 220.02953248159
  30
0.0
  11
 209.28697196030
  21
 220.20565564159
  31
0.0
   0
LINE
   5
361
 100
AcDbEntity
   8
LEVEL002
 370
20
 100
AcDbLine
   6
CONTINUOUS
  62
6
  10
 209.28697196030
  20
 220.20565564159
  30
0.0
  11
 209.48860634030
  21
 220.36288150159
  31
0.0
   0
LINE
   5
362
 100
AcDbEntity
   8
LEVEL002
 370
20
 100
AcDbLine
   6
CONTINUOUS
  62
6
  10
 209.48860634030
  20
 220.36288150159
  30
0.0
  11
 209.70441410030
  21
 220.50045406159
  31
0.0
   0
LINE
   5
363
 100
AcDbEntity
   8
LEVEL002
 370
20
 100
AcDbLine
   6
CONTINUOUS
  62
6
  10
 209.70441410030
  20
 220.50045406159
  30
0.0
  11
 209.93231570030
  21
 220.61648386159
  31
0.0
   0
LINE
   5
364
 100
AcDbEntity
   8
LEVEL002
 370
20
 100
AcDbLine
   6
CONTINUOUS
  62
6
  10
 209.93231570030
  20
 220.61648386159
  30
0.0
  11
 210.17042222030
  21
 220.71021436159
  31
0.0
   0
LINE
   5
365
 100
AcDbEntity
   8
LEVEL002
 370
20
 100
AcDbLine
   6
CONTINUOUS
  62
6
  10
 210.17042222030
  20
 220.71021436159
  30
0.0
  11
 210.41627666030
  21
 220.78089064159
  31
0.0
   0
LINE
   5
366
 100
AcDbEntity
   8
LEVEL002
 370
20
 100
AcDbLine
   6
CONTINUOUS
  62
6
  10
 210.41627666030
  20
 220.78089064159
  30
0.0
  11
 210.66780002030
  21
 220.82775616159
  31
0.0
   0
LINE
   5
367
 100
AcDbEntity
   8
LEVEL002
 370
20
 100
AcDbLine
   6
CONTINUOUS
  62
6
  10
 210.66780002030
  20
 220.82775616159
  30
0.0
  11
 210.92272484030
  21
 220.85005492159
  31
0.0
   0
LINE
   5
368
 100
AcDbEntity
   8
LEVEL002
 370
20
 100
AcDbLine
   6
CONTINUOUS
  62
6
  10
 210.92272484030
  20
 220.85005492159
  30
0.0
  11
 210.92650430030
  21
 220.85043292159
  31
0.0
   0
LINE
   5
369
 100
AcDbEntity
   8
LEVEL002
 370
20
 100
AcDbLine
   6
CONTINUOUS
  62
6
  10
 216.93661196030
  20
 221.91945472159
  30
0.0
  11
 216.34814912030
  21
 220.85572384159
  31
0.0
   0
LINE
   5
36A
 100
AcDbEntity
   8
LEVEL002
 370
20
 100
AcDbLine
   6
CONTINUOUS
  62
6
  10
 216.34814912030
  20
 220.85572384159
  30
0.0
  11
 216.36742442030
  21
 220.85647984159
  31
0.0
   0
LINE
   5
36B
 100
AcDbEntity
   8
LEVEL002
 370
20
 100
AcDbLine
   6
CONTINUOUS
  62
6
  10
 216.36742442030
  20
 220.85647984159
  30
0.0
  11
 216.39633764030
  21
 220.85761384159
  31
0.0
   0
LINE
   5
36C
 100
AcDbEntity
   8
LEVEL002
 370
20
 100
AcDbLine
   6
CONTINUOUS
  62
6
  10
 216.39633764030
  20
 220.85761384159
  30
0.0
  11
 216.42525032030
  21
 220.85912530159
  31
0.0
   0
LINE
   5
36D
 100
AcDbEntity
   8
LEVEL002
 370
20
 100
AcDbLine
   6
CONTINUOUS
  62
6
  10
 216.42525032030
  20
 220.85912530159
  30
0.0
  11
 216.45416354030
  21
 220.86063730159
  31
0.0
   0
LINE
   5
36E
 100
AcDbEntity
   8
LEVEL002
 370
20
 100
AcDbLine
   6
CONTINUOUS
  62
6
  10
 216.45416354030
  20
 220.86063730159
  30
0.0
  11
 216.48307622030
  21
 220.86214930159
  31
0.0
   0
LINE
   5
36F
 100
AcDbEntity
   8
LEVEL002
 370
20
 100
AcDbLine
   6
CONTINUOUS
  62
6
  10
 216.48307622030
  20
 220.86214930159
  30
0.0
  11
 216.51198890030
  21
 220.86403876159
  31
0.0
   0
LINE
   5
370
 100
AcDbEntity
   8
LEVEL002
 370
20
 100
AcDbLine
   6
CONTINUOUS
  62
6
  10
 216.51198890030
  20
 220.86403876159
  30
0.0
  11
 216.54071312030
  21
 220.86630676159
  31
0.0
   0
LINE
   5
371
 100
AcDbEntity
   8
LEVEL002
 370
20
 100
AcDbLine
   6
CONTINUOUS
  62
6
  10
 216.54071312030
  20
 220.86630676159
  30
0.0
  11
 216.56962580030
  21
 220.86819622159
  31
0.0
   0
LINE
   5
372
 100
AcDbEntity
   8
LEVEL002
 370
20
 100
AcDbLine
   6
CONTINUOUS
  62
6
  10
 216.56962580030
  20
 220.86819622159
  30
0.0
  11
 216.59835002030
  21
 220.87084168159
  31
0.0
   0
LINE
   5
373
 100
AcDbEntity
   8
LEVEL002
 370
20
 100
AcDbLine
   6
CONTINUOUS
  62
6
  10
 216.59835002030
  20
 220.87084168159
  30
0.0
  11
 216.61271186030
  21
 220.87197568159
  31
0.0
   0
LINE
   5
374
 100
AcDbEntity
   8
LEVEL002
 370
20
 100
AcDbLine
   6
CONTINUOUS
  62
6
  10
 216.61271186030
  20
 220.87197568159
  30
0.0
  11
 216.79091402030
  21
 220.62895624159
  31
0.0
   0
LINE
   5
375
 100
AcDbEntity
   8
LEVEL002
 370
20
 100
AcDbLine
   6
CONTINUOUS
  62
6
  10
 216.79091402030
  20
 220.62895624159
  30
0.0
  11
 216.94757288030
  21
 220.90977028159
  31
0.0
   0
LINE
   5
376
 100
AcDbEntity
   8
LEVEL002
 370
20
 100
AcDbLine
   6
CONTINUOUS
  62
6
  10
 216.94757288030
  20
 220.90977028159
  30
0.0
  11
 216.99594986030
  21
 220.91657320159
  31
0.0
   0
LINE
   5
377
 100
AcDbEntity
   8
LEVEL002
 370
20
 100
AcDbLine
   6
CONTINUOUS
  62
6
  10
 216.99594986030
  20
 220.91657320159
  30
0.0
  11
 217.04451584030
  21
 220.92413212159
  31
0.0
   0
LINE
   5
378
 100
AcDbEntity
   8
LEVEL002
 370
20
 100
AcDbLine
   6
CONTINUOUS
  62
6
  10
 217.04451584030
  20
 220.92413212159
  30
0.0
  11
 217.09289336030
  21
 220.93206904159
  31
0.0
   0
LINE
   5
379
 100
AcDbEntity
   8
LEVEL002
 370
20
 100
AcDbLine
   6
CONTINUOUS
  62
6
  10
 217.09289336030
  20
 220.93206904159
  30
0.0
  11
 217.14127034030
  21
 220.94038396159
  31
0.0
   0
LINE
   5
37A
 100
AcDbEntity
   8
LEVEL002
 370
20
 100
AcDbLine
   6
CONTINUOUS
  62
6
  10
 217.14127034030
  20
 220.94038396159
  30
0.0
  11
 217.18945832030
  21
 220.94945488159
  31
0.0
   0
LINE
   5
37B
 100
AcDbEntity
   8
LEVEL002
 370
20
 100
AcDbLine
   6
CONTINUOUS
  62
6
  10
 217.18945832030
  20
 220.94945488159
  30
0.0
  11
 217.23745784030
  21
 220.95890326159
  31
0.0
   0
LINE
   5
37C
 100
AcDbEntity
   8
LEVEL002
 370
20
 100
AcDbLine
   6
CONTINUOUS
  62
6
  10
 217.23745784030
  20
 220.95890326159
  30
0.0
  11
 217.28564582030
  21
 220.96873018159
  31
0.0
   0
LINE
   5
37D
 100
AcDbEntity
   8
LEVEL002
 370
20
 100
AcDbLine
   6
CONTINUOUS
  62
6
  10
 217.28564582030
  20
 220.96873018159
  30
0.0
  11
 217.33345634030
  21
 220.97931256159
  31
0.0
   0
LINE
   5
37E
 100
AcDbEntity
   8
LEVEL002
 370
20
 100
AcDbLine
   6
CONTINUOUS
  62
6
  10
 217.33345634030
  20
 220.97931256159
  30
0.0
  11
 217.33629080030
  21
 220.97969056159
  31
0.0
   0
LINE
   5
37F
 100
AcDbEntity
   8
LEVEL002
 370
20
 100
AcDbLine
   6
CONTINUOUS
  62
6
  10
 217.33629080030
  20
 220.97969056159
  30
0.0
  11
 217.37956586030
  21
 220.71512782159
  31
0.0
   0
LINE
   5
380
 100
AcDbEntity
   8
LEVEL002
 370
20
 100
AcDbLine
   6
CONTINUOUS
  62
6
  10
 217.37956586030
  20
 220.71512782159
  30
0.0
  11
 217.59008216030
  21
 221.04469738159
  31
0.0
   0
LINE
   5
381
 100
AcDbEntity
   8
LEVEL002
 370
20
 100
AcDbLine
   6
CONTINUOUS
  62
6
  10
 217.59008216030
  20
 221.04469738159
  30
0.0
  11
 218.08141250030
  21
 221.17433302159
  31
0.0
   0
LINE
   5
382
 100
AcDbEntity
   8
LEVEL002
 370
20
 100
AcDbLine
   6
CONTINUOUS
  62
6
  10
 208.62065192030
  20
 223.28573194159
  30
0.0
  11
 208.62065192030
  21
 219.53820214159
  31
0.0
   0
LINE
   5
383
 100
AcDbEntity
   8
LEVEL002
 370
20
 100
AcDbLine
   6
CONTINUOUS
  62
6
  10
 210.60789566030
  20
 220.81792924159
  30
0.0
  11
 210.97507082030
  21
 221.97350116159
  31
0.0
   0
LINE
   5
384
 100
AcDbEntity
   8
LEVEL002
 370
20
 100
AcDbLine
   6
CONTINUOUS
  62
6
  10
 217.16886056030
  20
 221.87618020159
  30
0.0
  11
 216.61271186030
  21
 220.87197568159
  31
0.0
   0
LINE
   5
385
 100
AcDbEntity
   8
LEVEL002
 370
20
 100
AcDbLine
   6
CONTINUOUS
  62
6
  10
 216.94757288030
  20
 220.90977028159
  30
0.0
  11
 217.44967460030
  21
 221.81684230159
  31
0.0
   0
LINE
   5
386
 100
AcDbEntity
   8
LEVEL002
 370
20
 100
AcDbLine
   6
CONTINUOUS
  62
6
  10
 217.70894642030
  20
 221.74673302159
  30
0.0
  11
 217.33629080030
  21
 220.97969056159
  31
0.0
   0
LINE
   5
387
 100
AcDbEntity
   8
LEVEL002
 370
20
 100
AcDbLine
   6
CONTINUOUS
  62
6
  10
 217.59008216030
  20
 221.04469738159
  30
0.0
  11
 217.73596910030
  21
 221.74125310159
  31
0.0
   0
LINE
   5
388
 100
AcDbEntity
   8
LEVEL002
 370
20
 100
AcDbLine
   6
CONTINUOUS
  62
6
  10
 210.92650430030
  20
 220.85043292159
  30
0.0
  11
 211.67162654030
  21
 222.21652114159
  31
0.0
   0
LINE
   5
389
 100
AcDbEntity
   8
LEVEL002
 370
20
 100
AcDbLine
   6
CONTINUOUS
  62
6
  10
 212.10909944030
  20
 221.97350116159
  30
0.0
  11
 211.49342438030
  21
 220.85043292159
  31
0.0
   0
LINE
   5
38A
 100
AcDbEntity
   8
LEVEL002
 370
20
 100
AcDbLine
   6
CONTINUOUS
  62
6
  10
 211.49342438030
  20
 220.85043292159
  30
0.0
  11
 211.23434210030
  21
 220.85043292159
  31
0.0
   0
LINE
   5
38B
 100
AcDbEntity
   8
LEVEL002
 370
20
 100
AcDbLine
   6
CONTINUOUS
  62
6
  10
 211.23434210030
  20
 220.85043292159
  30
0.0
  11
 211.10470646030
  21
 220.60741294159
  31
0.0
   0
LINE
   5
38C
 100
AcDbEntity
   8
LEVEL002
 370
20
 100
AcDbLine
   6
CONTINUOUS
  62
6
  10
 211.10470646030
  20
 220.60741294159
  30
0.0
  11
 210.92102438030
  21
 220.85043292159
  31
0.0
   0
LINE
   5
38D
 100
AcDbEntity
   8
LEVEL002
 370
20
 100
AcDbLine
   6
CONTINUOUS
  62
6
  10
 211.10470646030
  20
 220.60741294159
  30
0.0
  11
 211.85530862030
  21
 221.97350116159
  31
0.0
   0
LINE
   5
38E
 100
AcDbEntity
   8
LEVEL002
 370
20
 100
AcDbLine
   6
CONTINUOUS
  62
6
  10
 211.49342438030
  20
 220.85043292159
  30
0.0
  11
 212.23873508030
  21
 222.21652114159
  31
0.0
   0
LINE
   5
38F
 100
AcDbEntity
   8
LEVEL002
 370
20
 100
AcDbLine
   6
CONTINUOUS
  62
6
  10
 212.67601952030
  20
 221.97350116159
  30
0.0
  11
 212.05505300030
  21
 220.85572384159
  31
0.0
   0
LINE
   5
390
 100
AcDbEntity
   8
LEVEL002
 370
20
 100
AcDbLine
   6
CONTINUOUS
  62
6
  10
 212.05505300030
  20
 220.85572384159
  30
0.0
  11
 211.80126218030
  21
 220.85572384159
  31
0.0
   0
LINE
   5
391
 100
AcDbEntity
   8
LEVEL002
 370
20
 100
AcDbLine
   6
CONTINUOUS
  62
6
  10
 211.80126218030
  20
 220.85572384159
  30
0.0
  11
 211.67162654030
  21
 220.61270440159
  31
0.0
   0
LINE
   5
392
 100
AcDbEntity
   8
LEVEL002
 370
20
 100
AcDbLine
   6
CONTINUOUS
  62
6
  10
 211.67162654030
  20
 220.61270440159
  30
0.0
  11
 211.48813346030
  21
 220.85572384159
  31
0.0
   0
LINE
   5
393
 100
AcDbEntity
   8
LEVEL002
 370
20
 100
AcDbLine
   6
CONTINUOUS
  62
6
  10
 211.67162654030
  20
 220.61270440159
  30
0.0
  11
 212.42222816030
  21
 221.97350116159
  31
0.0
   0
LINE
   5
394
 100
AcDbEntity
   8
LEVEL002
 370
20
 100
AcDbLine
   6
CONTINUOUS
  62
6
  10
 212.05505300030
  20
 220.85572384159
  30
0.0
  11
 212.80565516030
  21
 222.21652114159
  31
0.0
   0
LINE
   5
395
 100
AcDbEntity
   8
LEVEL002
 370
20
 100
AcDbLine
   6
CONTINUOUS
  62
6
  10
 213.24312860030
  20
 221.97879262159
  30
0.0
  11
 212.62216208030
  21
 220.85572384159
  31
0.0
   0
LINE
   5
396
 100
AcDbEntity
   8
LEVEL002
 370
20
 100
AcDbLine
   6
CONTINUOUS
  62
6
  10
 212.62216208030
  20
 220.85572384159
  30
0.0
  11
 212.36837072030
  21
 220.85572384159
  31
0.0
   0
LINE
   5
397
 100
AcDbEntity
   8
LEVEL002
 370
20
 100
AcDbLine
   6
CONTINUOUS
  62
6
  10
 212.36837072030
  20
 220.85572384159
  30
0.0
  11
 212.23873508030
  21
 220.61270440159
  31
0.0
   0
LINE
   5
398
 100
AcDbEntity
   8
LEVEL002
 370
20
 100
AcDbLine
   6
CONTINUOUS
  62
6
  10
 212.23873508030
  20
 220.61270440159
  30
0.0
  11
 212.05505300030
  21
 220.85572384159
  31
0.0
   0
LINE
   5
399
 100
AcDbEntity
   8
LEVEL002
 370
20
 100
AcDbLine
   6
CONTINUOUS
  62
6
  10
 212.23873508030
  20
 220.61270440159
  30
0.0
  11
 212.98933724030
  21
 221.97879262159
  31
0.0
   0
LINE
   5
39A
 100
AcDbEntity
   8
LEVEL002
 370
20
 100
AcDbLine
   6
CONTINUOUS
  62
6
  10
 212.62745354030
  20
 220.85572384159
  30
0.0
  11
 213.37276424030
  21
 222.21652114159
  31
0.0
   0
LINE
   5
39B
 100
AcDbEntity
   8
LEVEL002
 370
20
 100
AcDbLine
   6
CONTINUOUS
  62
6
  10
 213.81004868030
  20
 221.97879262159
  30
0.0
  11
 213.18908216030
  21
 220.85572384159
  31
0.0
   0
LINE
   5
39C
 100
AcDbEntity
   8
LEVEL002
 370
20
 100
AcDbLine
   6
CONTINUOUS
  62
6
  10
 213.18908216030
  20
 220.85572384159
  30
0.0
  11
 212.93529080030
  21
 220.85572384159
  31
0.0
   0
LINE
   5
39D
 100
AcDbEntity
   8
LEVEL002
 370
20
 100
AcDbLine
   6
CONTINUOUS
  62
6
  10
 212.93529080030
  20
 220.85572384159
  30
0.0
  11
 212.80565516030
  21
 220.61270440159
  31
0.0
   0
LINE
   5
39E
 100
AcDbEntity
   8
LEVEL002
 370
20
 100
AcDbLine
   6
CONTINUOUS
  62
6
  10
 212.80565516030
  20
 220.61270440159
  30
0.0
  11
 212.62216208030
  21
 220.85572384159
  31
0.0
   0
LINE
   5
39F
 100
AcDbEntity
   8
LEVEL002
 370
20
 100
AcDbLine
   6
CONTINUOUS
  62
6
  10
 212.80565516030
  20
 220.61270440159
  30
0.0
  11
 213.55625732030
  21
 221.97879262159
  31
0.0
   0
LINE
   5
3A0
 100
AcDbEntity
   8
LEVEL002
 370
20
 100
AcDbLine
   6
CONTINUOUS
  62
6
  10
 213.19456262030
  20
 220.85572384159
  30
0.0
  11
 213.93968432030
  21
 222.21652114159
  31
0.0
   0
LINE
   5
3A1
 100
AcDbEntity
   8
LEVEL002
 370
20
 100
AcDbLine
   6
CONTINUOUS
  62
6
  10
 214.37715722030
  20
 221.97879262159
  30
0.0
  11
 213.76148216030
  21
 220.85572384159
  31
0.0
   0
LINE
   5
3A2
 100
AcDbEntity
   8
LEVEL002
 370
20
 100
AcDbLine
   6
CONTINUOUS
  62
6
  10
 213.76148216030
  20
 220.85572384159
  30
0.0
  11
 213.50769134030
  21
 220.85572384159
  31
0.0
   0
LINE
   5
3A3
 100
AcDbEntity
   8
LEVEL002
 370
20
 100
AcDbLine
   6
CONTINUOUS
  62
6
  10
 213.50769134030
  20
 220.85572384159
  30
0.0
  11
 213.37276424030
  21
 220.61270440159
  31
0.0
   0
LINE
   5
3A4
 100
AcDbEntity
   8
LEVEL002
 370
20
 100
AcDbLine
   6
CONTINUOUS
  62
6
  10
 213.37276424030
  20
 220.61270440159
  30
0.0
  11
 213.18908216030
  21
 220.85572384159
  31
0.0
   0
LINE
   5
3A5
 100
AcDbEntity
   8
LEVEL002
 370
20
 100
AcDbLine
   6
CONTINUOUS
  62
6
  10
 213.37276424030
  20
 220.61270440159
  30
0.0
  11
 214.12336640030
  21
 221.97879262159
  31
0.0
   0
LINE
   5
3A6
 100
AcDbEntity
   8
LEVEL002
 370
20
 100
AcDbLine
   6
CONTINUOUS
  62
6
  10
 213.76148216030
  20
 220.85572384159
  30
0.0
  11
 214.50679340030
  21
 222.22181206159
  31
0.0
   0
LINE
   5
3A7
 100
AcDbEntity
   8
LEVEL002
 370
20
 100
AcDbLine
   6
CONTINUOUS
  62
6
  10
 214.94407730030
  20
 221.97879262159
  30
0.0
  11
 214.32311132030
  21
 220.85572384159
  31
0.0
   0
LINE
   5
3A8
 100
AcDbEntity
   8
LEVEL002
 370
20
 100
AcDbLine
   6
CONTINUOUS
  62
6
  10
 214.32311132030
  20
 220.85572384159
  30
0.0
  11
 214.06931996030
  21
 220.85572384159
  31
0.0
   0
LINE
   5
3A9
 100
AcDbEntity
   8
LEVEL002
 370
20
 100
AcDbLine
   6
CONTINUOUS
  62
6
  10
 214.06931996030
  20
 220.85572384159
  30
0.0
  11
 213.93968432030
  21
 220.61799532159
  31
0.0
   0
LINE
   5
3AA
 100
AcDbEntity
   8
LEVEL002
 370
20
 100
AcDbLine
   6
CONTINUOUS
  62
6
  10
 213.93968432030
  20
 220.61799532159
  30
0.0
  11
 213.75619124030
  21
 220.85572384159
  31
0.0
   0
LINE
   5
3AB
 100
AcDbEntity
   8
LEVEL002
 370
20
 100
AcDbLine
   6
CONTINUOUS
  62
6
  10
 213.93968432030
  20
 220.61799532159
  30
0.0
  11
 214.69028648030
  21
 221.97879262159
  31
0.0
   0
LINE
   5
3AC
 100
AcDbEntity
   8
LEVEL002
 370
20
 100
AcDbLine
   6
CONTINUOUS
  62
6
  10
 214.32311132030
  20
 220.85572384159
  30
0.0
  11
 215.07371294030
  21
 222.22181206159
  31
0.0
   0
LINE
   5
3AD
 100
AcDbEntity
   8
LEVEL002
 370
20
 100
AcDbLine
   6
CONTINUOUS
  62
6
  10
 215.51118638030
  20
 221.97879262159
  30
0.0
  11
 214.89003086030
  21
 220.86101530159
  31
0.0
   0
LINE
   5
3AE
 100
AcDbEntity
   8
LEVEL002
 370
20
 100
AcDbLine
   6
CONTINUOUS
  62
6
  10
 214.89003086030
  20
 220.86101530159
  30
0.0
  11
 214.63624004030
  21
 220.86101530159
  31
0.0
   0
LINE
   5
3AF
 100
AcDbEntity
   8
LEVEL002
 370
20
 100
AcDbLine
   6
CONTINUOUS
  62
6
  10
 214.63624004030
  20
 220.86101530159
  30
0.0
  11
 214.50679340030
  21
 220.61799532159
  31
0.0
   0
LINE
   5
3B0
 100
AcDbEntity
   8
LEVEL002
 370
20
 100
AcDbLine
   6
CONTINUOUS
  62
6
  10
 214.50679340030
  20
 220.61799532159
  30
0.0
  11
 214.32311132030
  21
 220.86101530159
  31
0.0
   0
LINE
   5
3B1
 100
AcDbEntity
   8
LEVEL002
 370
20
 100
AcDbLine
   6
CONTINUOUS
  62
6
  10
 214.50679340030
  20
 220.61799532159
  30
0.0
  11
 215.25739502030
  21
 221.97879262159
  31
0.0
   0
LINE
   5
3B2
 100
AcDbEntity
   8
LEVEL002
 370
20
 100
AcDbLine
   6
CONTINUOUS
  62
6
  10
 214.89003086030
  20
 220.86101530159
  30
0.0
  11
 215.64063302030
  21
 222.22181206159
  31
0.0
   0
LINE
   5
3B3
 100
AcDbEntity
   8
LEVEL002
 370
20
 100
AcDbLine
   6
CONTINUOUS
  62
6
  10
 216.07262600030
  20
 221.98427254159
  30
0.0
  11
 215.45713994030
  21
 220.86101530159
  31
0.0
   0
LINE
   5
3B4
 100
AcDbEntity
   8
LEVEL002
 370
20
 100
AcDbLine
   6
CONTINUOUS
  62
6
  10
 215.45713994030
  20
 220.86101530159
  30
0.0
  11
 215.20334858030
  21
 220.86101530159
  31
0.0
   0
LINE
   5
3B5
 100
AcDbEntity
   8
LEVEL002
 370
20
 100
AcDbLine
   6
CONTINUOUS
  62
6
  10
 215.20334858030
  20
 220.86101530159
  30
0.0
  11
 215.07371294030
  21
 220.61799532159
  31
0.0
   0
LINE
   5
3B6
 100
AcDbEntity
   8
LEVEL002
 370
20
 100
AcDbLine
   6
CONTINUOUS
  62
6
  10
 215.07371294030
  20
 220.61799532159
  30
0.0
  11
 214.89003086030
  21
 220.86101530159
  31
0.0
   0
LINE
   5
3B7
 100
AcDbEntity
   8
LEVEL002
 370
20
 100
AcDbLine
   6
CONTINUOUS
  62
6
  10
 215.07371294030
  20
 220.61799532159
  30
0.0
  11
 215.81883518030
  21
 221.98427254159
  31
0.0
   0
LINE
   5
3B8
 100
AcDbEntity
   8
LEVEL002
 370
20
 100
AcDbLine
   6
CONTINUOUS
  62
6
  10
 215.46243140030
  20
 220.86101530159
  30
0.0
  11
 216.20774210030
  21
 222.22181206159
  31
0.0
   0
LINE
   5
3B9
 100
AcDbEntity
   8
LEVEL002
 370
20
 100
AcDbLine
   6
CONTINUOUS
  62
6
  10
 216.64502654030
  20
 221.98427254159
  30
0.0
  11
 216.02406002030
  21
 220.86101530159
  31
0.0
   0
LINE
   5
3BA
 100
AcDbEntity
   8
LEVEL002
 370
20
 100
AcDbLine
   6
CONTINUOUS
  62
6
  10
 216.02406002030
  20
 220.86101530159
  30
0.0
  11
 215.77026866030
  21
 220.86101530159
  31
0.0
   0
LINE
   5
3BB
 100
AcDbEntity
   8
LEVEL002
 370
20
 100
AcDbLine
   6
CONTINUOUS
  62
6
  10
 215.77026866030
  20
 220.86101530159
  30
0.0
  11
 215.64063302030
  21
 220.61799532159
  31
0.0
   0
LINE
   5
3BC
 100
AcDbEntity
   8
LEVEL002
 370
20
 100
AcDbLine
   6
CONTINUOUS
  62
6
  10
 215.64063302030
  20
 220.61799532159
  30
0.0
  11
 215.45713994030
  21
 220.86101530159
  31
0.0
   0
LINE
   5
3BD
 100
AcDbEntity
   8
LEVEL002
 370
20
 100
AcDbLine
   6
CONTINUOUS
  62
6
  10
 215.64063302030
  20
 220.61799532159
  30
0.0
  11
 216.39123518030
  21
 221.98427254159
  31
0.0
   0
LINE
   5
3BE
 100
AcDbEntity
   8
LEVEL002
 370
20
 100
AcDbLine
   6
CONTINUOUS
  62
6
  10
 216.95834426030
  20
 221.98427254159
  30
0.0
  11
 216.20774210030
  21
 220.61799532159
  31
0.0
   0
LINE
   5
3BF
 100
AcDbEntity
   8
LEVEL002
 370
20
 100
AcDbLine
   6
CONTINUOUS
  62
6
  10
 216.20774210030
  20
 220.61799532159
  30
0.0
  11
 216.02954048030
  21
 220.86101530159
  31
0.0
   0
LINE
   5
3C0
 100
AcDbEntity
   8
LEVEL002
 370
20
 100
AcDbLine
   6
CONTINUOUS
  62
6
  10
 216.02954048030
  20
 220.86101530159
  30
0.0
  11
 216.77466218030
  21
 222.22181206159
  31
0.0
   0
LINE
   5
3C1
 100
AcDbEntity
   8
LEVEL002
 370
20
 100
AcDbLine
   6
CONTINUOUS
  62
6
  10
 218.08141250030
  20
 221.17433302159
  30
0.0
  11
 218.05986974030
  21
 221.05565776159
  31
0.0
   0
LINE
   5
3C2
 100
AcDbEntity
   8
LEVEL002
 370
20
 100
AcDbLine
   6
CONTINUOUS
  62
6
  10
 218.05986974030
  20
 221.05565776159
  30
0.0
  11
 218.14093940030
  21
 221.19058486159
  31
0.0
   0
LINE
   5
3C3
 100
AcDbEntity
   8
LEVEL002
 370
20
 100
AcDbLine
   6
CONTINUOUS
  62
6
  10
 218.14093940030
  20
 221.19058486159
  30
0.0
  11
 218.97790214030
  21
 221.41187254159
  31
0.0
   0
LINE
   5
3C4
 100
AcDbEntity
   8
LEVEL002
 370
20
 100
AcDbLine
   6
CONTINUOUS
  62
6
  10
 218.16248216030
  20
 221.62786876159
  30
0.0
  11
 218.08141250030
  21
 221.17433302159
  31
0.0
   0
LINE
   5
3C5
 100
AcDbEntity
   8
LEVEL002
 370
20
 100
AcDbLine
   6
CONTINUOUS
  62
6
  10
 218.14093940030
  20
 221.19058486159
  30
0.0
  11
 218.33539286030
  21
 221.57930278159
  31
0.0
   0
MTEXT
   5
3C7
 100
AcDbEntity
   8
LEVEL001
 370
15
  62
8
 100
AcDbMText
  10
 214.21752902788
  20
 213.53374690104
  30
0.0
  40
 3.0000000000000
  41
0.0
  71
2
  72
1
   1
{\W1.000000;\T1.000000;皿木ネジ３\W0.500000;\T1.000000;.\W1.000000;\T1.000000;１×１６}\P{\W0.500000;\T1.000000;(\W1.000000;\T1.000000;２本付　ＳＵＳ\W0.500000;\T1.000000;)}
   7
GMM002
  44
 0.79999984000003
   0
LINE
   5
3C8
 100
AcDbEntity
   8
LEVEL002
 370
20
 100
AcDbLine
   6
CONTINUOUS
  62
6
  10
 211.54217936030
  20
 221.97350116159
  30
0.0
  11
 211.28838854030
  21
 221.97350116159
  31
0.0
   0
LINE
   5
3C9
 100
AcDbEntity
   8
LEVEL002
 370
20
 100
AcDbLine
   6
CONTINUOUS
  62
6
  10
 211.28838854030
  20
 221.97350116159
  30
0.0
  11
 211.10470646030
  21
 222.21652114159
  31
0.0
   0
LINE
   5
3CA
 100
AcDbEntity
   8
LEVEL002
 370
20
 100
AcDbLine
   6
CONTINUOUS
  62
6
  10
 211.10470646030
  20
 222.21652114159
  30
0.0
  11
 210.97507082030
  21
 221.97350116159
  31
0.0
   0
LINE
   5
3CB
 100
AcDbEntity
   8
LEVEL002
 370
20
 100
AcDbLine
   6
CONTINUOUS
  62
6
  10
 210.97507082030
  20
 221.97350116159
  30
0.0
  11
 210.71334254030
  21
 221.99164246159
  31
0.0
   0
LINE
   5
3CC
 100
AcDbEntity
   8
LEVEL002
 370
20
 100
AcDbLine
   6
CONTINUOUS
  62
6
  10
 210.71334254030
  20
 221.99164246159
  30
0.0
  11
 210.45482726030
  21
 222.03529552159
  31
0.0
   0
LINE
   5
3CD
 100
AcDbEntity
   8
LEVEL002
 370
20
 100
AcDbLine
   6
CONTINUOUS
  62
6
  10
 210.45482726030
  20
 222.03529552159
  30
0.0
  11
 210.20160290030
  21
 222.10408180159
  31
0.0
   0
LINE
   5
3CE
 100
AcDbEntity
   8
LEVEL002
 370
20
 100
AcDbLine
   6
CONTINUOUS
  62
6
  10
 210.20160290030
  20
 222.10408180159
  30
0.0
  11
 209.95650446030
  21
 222.19724584159
  31
0.0
   0
LINE
   5
3CF
 100
AcDbEntity
   8
LEVEL002
 370
20
 100
AcDbLine
   6
CONTINUOUS
  62
6
  10
 209.95650446030
  20
 222.19724584159
  30
0.0
  11
 209.72161040030
  21
 222.31422010159
  31
0.0
   0
LINE
   5
3D0
 100
AcDbEntity
   8
LEVEL002
 370
20
 100
AcDbLine
   6
CONTINUOUS
  62
6
  10
 209.72161040030
  20
 222.31422010159
  30
0.0
  11
 209.49937772030
  21
 222.45368266159
  31
0.0
   0
LINE
   5
3D1
 100
AcDbEntity
   8
LEVEL002
 370
20
 100
AcDbLine
   6
CONTINUOUS
  62
6
  10
 209.49937772030
  20
 222.45368266159
  30
0.0
  11
 209.29207442030
  21
 222.61412098159
  31
0.0
   0
LINE
   5
3D2
 100
AcDbEntity
   8
LEVEL002
 370
20
 100
AcDbLine
   6
CONTINUOUS
  62
6
  10
 209.29207442030
  20
 222.61412098159
  30
0.0
  11
 209.10121088030
  21
 222.79421260159
  31
0.0
   0
LINE
   5
3D3
 100
AcDbEntity
   8
LEVEL002
 370
20
 100
AcDbLine
   6
CONTINUOUS
  62
6
  10
 209.10121088030
  20
 222.79421260159
  30
0.0
  11
 208.62065192030
  21
 223.28573194159
  31
0.0
   0
LINE
   5
3D4
 100
AcDbEntity
   8
LEVEL002
 370
20
 100
AcDbLine
   6
CONTINUOUS
  62
6
  10
 217.70894642030
  20
 221.74673302159
  30
0.0
  11
 217.44438368030
  21
 221.81684230159
  31
0.0
   0
LINE
   5
3D5
 100
AcDbEntity
   8
LEVEL002
 370
20
 100
AcDbLine
   6
CONTINUOUS
  62
6
  10
 217.44438368030
  20
 221.81684230159
  30
0.0
  11
 217.26618152030
  21
 222.05986228159
  31
0.0
   0
LINE
   5
3D6
 100
AcDbEntity
   8
LEVEL002
 370
20
 100
AcDbLine
   6
CONTINUOUS
  62
6
  10
 217.26618152030
  20
 222.05986228159
  30
0.0
  11
 217.16886056030
  21
 221.87618020159
  31
0.0
   0
LINE
   5
3D7
 100
AcDbEntity
   8
LEVEL002
 370
20
 100
AcDbLine
   6
CONTINUOUS
  62
6
  10
 217.16886056030
  20
 221.87618020159
  30
0.0
  11
 217.07210606030
  21
 221.89394350159
  31
0.0
   0
LINE
   5
3D8
 100
AcDbEntity
   8
LEVEL002
 370
20
 100
AcDbLine
   6
CONTINUOUS
  62
6
  10
 217.07210606030
  20
 221.89394350159
  30
0.0
  11
 217.06662560030
  21
 221.89488850159
  31
0.0
   0
LINE
   5
3D9
 100
AcDbEntity
   8
LEVEL002
 370
20
 100
AcDbLine
   6
CONTINUOUS
  62
6
  10
 217.06662560030
  20
 221.89488850159
  30
0.0
  11
 217.06114568030
  21
 221.89583296159
  31
0.0
   0
LINE
   5
3DA
 100
AcDbEntity
   8
LEVEL002
 370
20
 100
AcDbLine
   6
CONTINUOUS
  62
6
  10
 217.06114568030
  20
 221.89583296159
  30
0.0
  11
 217.05566522030
  21
 221.89696696159
  31
0.0
   0
LINE
   5
3DB
 100
AcDbEntity
   8
LEVEL002
 370
20
 100
AcDbLine
   6
CONTINUOUS
  62
6
  10
 217.05566522030
  20
 221.89696696159
  30
0.0
  11
 217.05018530030
  21
 221.89791196159
  31
0.0
   0
LINE
   5
3DC
 100
AcDbEntity
   8
LEVEL002
 370
20
 100
AcDbLine
   6
CONTINUOUS
  62
6
  10
 217.05018530030
  20
 221.89791196159
  30
0.0
  11
 217.04451584030
  21
 221.89885696159
  31
0.0
   0
LINE
   5
3DD
 100
AcDbEntity
   8
LEVEL002
 370
20
 100
AcDbLine
   6
CONTINUOUS
  62
6
  10
 217.04451584030
  20
 221.89885696159
  30
0.0
  11
 217.03903592030
  21
 221.89999042159
  31
0.0
   0
LINE
   5
3DE
 100
AcDbEntity
   8
LEVEL002
 370
20
 100
AcDbLine
   6
CONTINUOUS
  62
6
  10
 217.03903592030
  20
 221.89999042159
  30
0.0
  11
 217.03355546030
  21
 221.90093542159
  31
0.0
   0
LINE
   5
3DF
 100
AcDbEntity
   8
LEVEL002
 370
20
 100
AcDbLine
   6
CONTINUOUS
  62
6
  10
 217.03355546030
  20
 221.90093542159
  30
0.0
  11
 217.02807554030
  21
 221.90206942159
  31
0.0
   0
LINE
   5
3E0
 100
AcDbEntity
   8
LEVEL002
 370
20
 100
AcDbLine
   6
CONTINUOUS
  62
6
  10
 217.02807554030
  20
 221.90206942159
  30
0.0
  11
 216.93661196030
  21
 221.91945472159
  31
0.0
   0
LINE
   5
3E1
 100
AcDbEntity
   8
LEVEL002
 370
20
 100
AcDbLine
   6
CONTINUOUS
  62
6
  10
 218.16248216030
  20
 221.62786876159
  30
0.0
  11
 217.73596910030
  21
 221.74125310159
  31
0.0
   0
LINE
   5
3E2
 100
AcDbEntity
   8
LEVEL002
 370
20
 100
AcDbLine
   6
CONTINUOUS
  62
6
  10
 217.73596910030
  20
 221.74125310159
  30
0.0
  11
 217.75751240030
  21
 221.84934598159
  31
0.0
   0
LINE
   5
3E3
 100
AcDbEntity
   8
LEVEL002
 370
20
 100
AcDbLine
   6
CONTINUOUS
  62
6
  10
 217.75751240030
  20
 221.84934598159
  30
0.0
  11
 217.70894642030
  21
 221.74673302159
  31
0.0
   0
LINE
   5
3E4
 100
AcDbEntity
   8
LEVEL002
 370
20
 100
AcDbLine
   6
CONTINUOUS
  62
6
  10
 211.67162654030
  20
 222.21652114159
  30
0.0
  11
 211.85530862030
  21
 221.97350116159
  31
0.0
   0
LINE
   5
3E5
 100
AcDbEntity
   8
LEVEL002
 370
20
 100
AcDbLine
   6
CONTINUOUS
  62
6
  10
 211.85530862030
  20
 221.97350116159
  30
0.0
  11
 212.10909944030
  21
 221.97350116159
  31
0.0
   0
LINE
   5
3E6
 100
AcDbEntity
   8
LEVEL002
 370
20
 100
AcDbLine
   6
CONTINUOUS
  62
6
  10
 212.23873508030
  20
 222.21652114159
  30
0.0
  11
 212.42222816030
  21
 221.97350116159
  31
0.0
   0
LINE
   5
3E7
 100
AcDbEntity
   8
LEVEL002
 370
20
 100
AcDbLine
   6
CONTINUOUS
  62
6
  10
 212.42222816030
  20
 221.97350116159
  30
0.0
  11
 212.67601952030
  21
 221.97350116159
  31
0.0
   0
LINE
   5
3E8
 100
AcDbEntity
   8
LEVEL002
 370
20
 100
AcDbLine
   6
CONTINUOUS
  62
6
  10
 212.80565516030
  20
 222.21652114159
  30
0.0
  11
 212.98933724030
  21
 221.97879262159
  31
0.0
   0
LINE
   5
3E9
 100
AcDbEntity
   8
LEVEL002
 370
20
 100
AcDbLine
   6
CONTINUOUS
  62
6
  10
 212.98933724030
  20
 221.97879262159
  30
0.0
  11
 213.24312860030
  21
 221.97879262159
  31
0.0
   0
LINE
   5
3EA
 100
AcDbEntity
   8
LEVEL002
 370
20
 100
AcDbLine
   6
CONTINUOUS
  62
6
  10
 213.37276424030
  20
 222.21652114159
  30
0.0
  11
 213.55625732030
  21
 221.97879262159
  31
0.0
   0
LINE
   5
3EB
 100
AcDbEntity
   8
LEVEL002
 370
20
 100
AcDbLine
   6
CONTINUOUS
  62
6
  10
 213.55625732030
  20
 221.97879262159
  30
0.0
  11
 213.81004868030
  21
 221.97879262159
  31
0.0
   0
LINE
   5
3EC
 100
AcDbEntity
   8
LEVEL002
 370
20
 100
AcDbLine
   6
CONTINUOUS
  62
6
  10
 213.93968432030
  20
 222.21652114159
  30
0.0
  11
 214.12336640030
  21
 221.97879262159
  31
0.0
   0
LINE
   5
3ED
 100
AcDbEntity
   8
LEVEL002
 370
20
 100
AcDbLine
   6
CONTINUOUS
  62
6
  10
 214.12336640030
  20
 221.97879262159
  30
0.0
  11
 214.37715722030
  21
 221.97879262159
  31
0.0
   0
LINE
   5
3EE
 100
AcDbEntity
   8
LEVEL002
 370
20
 100
AcDbLine
   6
CONTINUOUS
  62
6
  10
 214.50679340030
  20
 222.22181206159
  30
0.0
  11
 214.69028648030
  21
 221.97879262159
  31
0.0
   0
LINE
   5
3EF
 100
AcDbEntity
   8
LEVEL002
 370
20
 100
AcDbLine
   6
CONTINUOUS
  62
6
  10
 214.69028648030
  20
 221.97879262159
  30
0.0
  11
 214.94407730030
  21
 221.97879262159
  31
0.0
   0
LINE
   5
3F0
 100
AcDbEntity
   8
LEVEL002
 370
20
 100
AcDbLine
   6
CONTINUOUS
  62
6
  10
 215.07371294030
  20
 222.22181206159
  30
0.0
  11
 215.25739502030
  21
 221.97879262159
  31
0.0
   0
LINE
   5
3F1
 100
AcDbEntity
   8
LEVEL002
 370
20
 100
AcDbLine
   6
CONTINUOUS
  62
6
  10
 215.25739502030
  20
 221.97879262159
  30
0.0
  11
 215.51118638030
  21
 221.97879262159
  31
0.0
   0
LINE
   5
3F2
 100
AcDbEntity
   8
LEVEL002
 370
20
 100
AcDbLine
   6
CONTINUOUS
  62
6
  10
 215.64063302030
  20
 222.22181206159
  30
0.0
  11
 215.81883518030
  21
 221.98427254159
  31
0.0
   0
LINE
   5
3F3
 100
AcDbEntity
   8
LEVEL002
 370
20
 100
AcDbLine
   6
CONTINUOUS
  62
6
  10
 215.81883518030
  20
 221.98427254159
  30
0.0
  11
 216.07262600030
  21
 221.98427254159
  31
0.0
   0
LINE
   5
3F4
 100
AcDbEntity
   8
LEVEL002
 370
20
 100
AcDbLine
   6
CONTINUOUS
  62
6
  10
 216.20774210030
  20
 222.22181206159
  30
0.0
  11
 216.39123518030
  21
 221.98427254159
  31
0.0
   0
LINE
   5
3F5
 100
AcDbEntity
   8
LEVEL002
 370
20
 100
AcDbLine
   6
CONTINUOUS
  62
6
  10
 216.39123518030
  20
 221.98427254159
  30
0.0
  11
 216.64502654030
  21
 221.98427254159
  31
0.0
   0
LINE
   5
3F6
 100
AcDbEntity
   8
LEVEL002
 370
20
 100
AcDbLine
   6
CONTINUOUS
  62
6
  10
 216.77466218030
  20
 222.22181206159
  30
0.0
  11
 216.95834426030
  21
 221.98427254159
  31
0.0
   0
LINE
   5
3F7
 100
AcDbEntity
   8
LEVEL002
 370
20
 100
AcDbLine
   6
CONTINUOUS
  62
6
  10
 208.24818530030
  20
 223.28573194159
  30
0.0
  11
 208.62065192030
  21
 223.28573194159
  31
0.0
   0
LINE
   5
3F8
 100
AcDbEntity
   8
LEVEL002
 370
20
 100
AcDbLine
   6
CONTINUOUS
  62
6
  10
 218.30288918030
  20
 221.79529954159
  30
0.0
  11
 218.16248216030
  21
 221.62786876159
  31
0.0
   0
ENDSEC
  0
SECTION
  2
OBJECTS
  0
DICTIONARY
  5
C
100
AcDbDictionary
  3
ACAD_GROUP
350
D
  3
ACAD_MLINESTYLE
350
1B
  3
DWGPROPS
350
1C
  0
DICTIONARY
  5
D
102
{ACAD_REACTORS
330
C
102
}
100
AcDbDictionary
  0
DICTIONARY
  5
1B
102
{ACAD_REACTORS
330
C
102
}
100
AcDbDictionary
  3
STANDARD
350
1D
  0
MLINESTYLE
  5
1D
102
{ACAD_REACTORS
330
1B
102
}
100
AcDbMlineStyle
  2
STANDARD
 70
     0
  3

 62
   256
 51
90.0
 52
90.0
 71
     2
 49
0.5
 62
   256
  6
BYLAYER
 49
-0.5
 62
   256
  6
BYLAYER
   0
XRECORD
   5
1C
 102
{ACAD_REACTORS
 330
C
 102
}
 330
C
 100
AcDbXrecord
 280
1
   1
DWGPROPS COOKIE
   2
 
   3
 
   4
haruna
   6
 
   7
6ﾊﾟﾙﾌﾗｯﾄﾚｰﾙ-複合ﾚｰﾙ(Rﾀｲﾌﾟ①)(ARS
   8
haruna
   9

 300
 = 
 301
 = 
 302
 = 
 303
 = 
 304
 = 
 305
 = 
 306
 = 
 307
 = 
 308
 = 
 309
 = 
  40
0.0
  41
 2459766.5000000
  42
 2460032.5000000
   1

  90
10
   0
ENDSEC
   0
EOF
