   0
SECTION
   2
HEADER
   9
$ACADVER
   1
AC1015
   9
$DWGCODEPAGE
   3
ANSI_932
   9
$LIMMIN
  10
0.0
  20
0.0
   9
$LIMMAX
  10
 210.00000000000
  20
 148.50000000000
   9
$EXTMIN
  10
0.0
  20
0.0
  30
0.0
   9
$EXTMAX
  10
 210.00000000000
  20
 148.50000000000
  30
0.0
   9
$LTSCALE
  40
 4.2000000000000
   9
$HANDSEED
   5
3E1
   0
ENDSEC
   0
SECTION
   2
TABLES
  0
TABLE
  2
VPORT
  5
8
100
AcDbSymbolTable
 70
     1
  0
VPORT
  5
3E0
100
AcDbSymbolTableRecord
100
AcDbViewportTableRecord
  2
*ACTIVE
 70
     0
 10
0.0
 20
0.0
 11
1.0
 21
1.0
  12
 105.00000000000
  22
 74.250000000000
 13
0.0
 23
0.0
 14
1.0
 24
1.0
 15
0.0
 25
0.0
 16
0.0
 26
0.0
 36
1.0
 17
0.0
 27
0.0
 37
0.0
  40
 210.00000000000
  41
 1.4787878787879
 42
50.0
 43
0.0
 44
0.0
 50
0.0
 51
0.0
 71
     0
 72
   100
 73
     1
 74
     1
 75
     0
 76
     0
 77
     0
 78
     0
  0
ENDTAB
  0
TABLE
  2
LTYPE
  5
5
100
AcDbSymbolTable
 70
    25
  0
LTYPE
  5
12
100
AcDbSymbolTableRecord
100
AcDbLinetypeTableRecord
  2
BYBLOCK
 70
     0
  3

 72
    65
 73
     0
 40
0.0
  0
LTYPE
  5
13
100
AcDbSymbolTableRecord
100
AcDbLinetypeTableRecord
  2
BYLAYER
 70
     0
  3

 72
    65
 73
     0
 40
0.0
  0
LTYPE
  5
14
100
AcDbSymbolTableRecord
100
AcDbLinetypeTableRecord
  2
CONTINUOUS
 70
     0
  3
Solid line
 72
    65
 73
     0
 40
0.0
  0
LTYPE
  5
20
100
AcDbSymbolTableRecord
100
AcDbLinetypeTableRecord
  2
BORDER
 70
     0
  3
__ __ . __ __ . __ __ . __ __ . __ __ . __ __ .
 72
    65
 73
     6
 40
1.75
 49
0.5
 74
     0
 49
-0.25
 74
     0
 49
0.5
 74
     0
 49
-0.25
 74
     0
 49
0.0
 74
     0
 49
-0.25
 74
     0
  0
LTYPE
  5
21
100
AcDbSymbolTableRecord
100
AcDbLinetypeTableRecord
  2
BORDER2
 70
     0
  3
__.__.__.__.__.__.__.__.__.__.__.__.__.__.__.__
 72
    65
 73
     6
 40
0.875
 49
0.25
 74
     0
 49
-0.125
 74
     0
 49
0.25
 74
     0
 49
-0.125
 74
     0
 49
0.0
 74
     0
 49
-0.125
 74
     0
  0
LTYPE
  5
22
100
AcDbSymbolTableRecord
100
AcDbLinetypeTableRecord
  2
BORDERX2
 70
     0
  3
____  ____  .  ____  ____  .  ____  ____  .  __
 72
    65
 73
     6
 40
3.5
 49
1.0
 74
     0
 49
-0.5
 74
     0
 49
1.0
 74
     0
 49
-0.5
 74
     0
 49
0.0
 74
     0
 49
-0.5
 74
     0
  0
LTYPE
  5
23
100
AcDbSymbolTableRecord
100
AcDbLinetypeTableRecord
  2
CENTER
 70
     0
  3
____ _ ____ _ ____ _ ____ _ ____ _ ____ _ ____ 
 72
    65
 73
     4
 40
2.0
 49
1.25
 74
     0
 49
-0.25
 74
     0
 49
0.25
 74
     0
 49
-0.25
 74
     0
  0
LTYPE
  5
24
100
AcDbSymbolTableRecord
100
AcDbLinetypeTableRecord
  2
CENTER2
 70
     0
  3
___ _ ___ _ ___ _ ___ _ ___ _ ___ _ ___ _ ___ _
 72
    65
 73
     4
 40
1.125
 49
0.75
 74
     0
 49
-0.125
 74
     0
 49
0.125
 74
     0
 49
-0.125
 74
     0
  0
LTYPE
  5
25
100
AcDbSymbolTableRecord
100
AcDbLinetypeTableRecord
  2
CENTERX2
 70
     0
  3
________  __  ________  __  ________  __  _____
 72
    65
 73
     4
 40
4.0
 49
2.5
 74
     0
 49
-0.5
 74
     0
 49
0.5
 74
     0
 49
-0.5
 74
     0
  0
LTYPE
  5
26
100
AcDbSymbolTableRecord
100
AcDbLinetypeTableRecord
  2
DASHDOT
 70
     0
  3
__ . __ . __ . __ . __ . __ . __ . __ . __ . __
 72
    65
 73
     4
 40
1.0
 49
0.5
 74
     0
 49
-0.25
 74
     0
 49
0.0
 74
     0
 49
-0.25
 74
     0
  0
LTYPE
  5
27
100
AcDbSymbolTableRecord
100
AcDbLinetypeTableRecord
  2
DASHDOT2
 70
     0
  3
_._._._._._._._._._._._._._._._._._._._._._._._
 72
    65
 73
     4
 40
0.5
 49
0.25
 74
     0
 49
-0.125
 74
     0
 49
0.0
 74
     0
 49
-0.125
 74
     0
  0
LTYPE
  5
28
100
AcDbSymbolTableRecord
100
AcDbLinetypeTableRecord
  2
DASHDOTX2
 70
     0
  3
____  .  ____  .  ____  .  ____  .  ____  .  __
 72
    65
 73
     4
 40
2.0
 49
1.0
 74
     0
 49
-0.5
 74
     0
 49
0.0
 74
     0
 49
-0.5
 74
     0
  0
LTYPE
  5
29
100
AcDbSymbolTableRecord
100
AcDbLinetypeTableRecord
  2
DASHED
 70
     0
  3
__ __ __ __ __ __ __ __ __ __ __ __ __ __ __ __
 72
    65
 73
     2
 40
0.75
 49
0.5
 74
     0
 49
-0.25
 74
     0
  0
LTYPE
  5
2A
100
AcDbSymbolTableRecord
100
AcDbLinetypeTableRecord
  2
DASHED2
 70
     0
  3
_ _ _ _ _ _ _ _ _ _ _ _ _ _ _ _ _ _ _ _ _ _ _ _
 72
    65
 73
     2
 40
0.375
 49
0.25
 74
     0
 49
-0.125
 74
     0
  0
LTYPE
  5
2B
100
AcDbSymbolTableRecord
100
AcDbLinetypeTableRecord
  2
DASHEDX2
 70
     0
  3
____  ____  ____  ____  ____  ____  ____  ____ 
 72
    65
 73
     2
 40
1.5
 49
1.0
 74
     0
 49
-0.5
 74
     0
  0
LTYPE
  5
2C
100
AcDbSymbolTableRecord
100
AcDbLinetypeTableRecord
  2
DIVIDE
 70
     0
  3
____ . . ____ . . ____ . . ____ . . ____ . . __
 72
    65
 73
     6
 40
1.25
 49
0.5
 74
     0
 49
-0.25
 74
     0
 49
0.0
 74
     0
 49
-0.25
 74
     0
 49
0.0
 74
     0
 49
-0.25
 74
     0
  0
LTYPE
  5
2D
100
AcDbSymbolTableRecord
100
AcDbLinetypeTableRecord
  2
DIVIDE2
 70
     0
  3
__..__..__..__..__..__..__..__..__..__..__..__.
 72
    65
 73
     6
 40
0.625
 49
0.25
 74
     0
 49
-0.125
 74
     0
 49
0.0
 74
     0
 49
-0.125
 74
     0
 49
0.0
 74
     0
 49
-0.125
 74
     0
  0
LTYPE
  5
2E
100
AcDbSymbolTableRecord
100
AcDbLinetypeTableRecord
  2
DIVIDEX2
 70
     0
  3
________  .  .  ________  .  .  ________  .  . 
 72
    65
 73
     6
 40
2.5
 49
1.0
 74
     0
 49
-0.5
 74
     0
 49
0.0
 74
     0
 49
-0.5
 74
     0
 49
0.0
 74
     0
 49
-0.5
 74
     0
  0
LTYPE
  5
2F
100
AcDbSymbolTableRecord
100
AcDbLinetypeTableRecord
  2
DOT
 70
     0
  3
. . . . . . . . . . . . . . . . . . . . . . . .
 72
    65
 73
     2
 40
0.25
 49
0.0
 74
     0
 49
-0.25
 74
     0
  0
LTYPE
  5
30
100
AcDbSymbolTableRecord
100
AcDbLinetypeTableRecord
  2
DOT2
 70
     0
  3
...............................................
 72
    65
 73
     2
 40
0.125
 49
0.0
 74
     0
 49
-0.125
 74
     0
  0
LTYPE
  5
31
100
AcDbSymbolTableRecord
100
AcDbLinetypeTableRecord
  2
DOTX2
 70
     0
  3
.  .  .  .  .  .  .  .  .  .  .  .  .  .  .  . 
 72
    65
 73
     2
 40
0.5
 49
0.0
 74
     0
 49
-0.5
 74
     0
  0
LTYPE
  5
32
100
AcDbSymbolTableRecord
100
AcDbLinetypeTableRecord
  2
HIDDEN
 70
     0
  3
__ __ __ __ __ __ __ __ __ __ __ __ __ __ __ __
 72
    65
 73
     2
 40
0.375
 49
0.25
 74
     0
 49
-0.125
 74
     0
  0
LTYPE
  5
33
100
AcDbSymbolTableRecord
100
AcDbLinetypeTableRecord
  2
HIDDEN2
 70
     0
  3
_ _ _ _ _ _ _ _ _ _ _ _ _ _ _ _ _ _ _ _ _ _ _ _
 72
    65
 73
     2
 40
0.1875
 49
0.125
 74
     0
 49
-0.0625
 74
     0
  0
LTYPE
  5
34
100
AcDbSymbolTableRecord
100
AcDbLinetypeTableRecord
  2
HIDDENX2
 70
     0
  3
____ ____ ____ ____ ____ ____ ____ ____ ____ __
 72
    65
 73
     2
 40
0.75
 49
0.5
 74
     0
 49
-0.25
 74
     0
  0
LTYPE
  5
35
100
AcDbSymbolTableRecord
100
AcDbLinetypeTableRecord
  2
PHANTOM
 70
     0
  3
______  __  __  ______  __  __  ______  __  __ 
 72
    65
 73
     6
 40
2.5
 49
1.25
 74
     0
 49
-0.25
 74
     0
 49
0.25
 74
     0
 49
-0.25
 74
     0
 49
0.25
 74
     0
 49
-0.25
 74
     0
  0
LTYPE
  5
36
100
AcDbSymbolTableRecord
100
AcDbLinetypeTableRecord
  2
PHANTOM2
 70
     0
  3
___ _ _ ___ _ _ ___ _ _ ___ _ _ ___ _ _ ___ _ _
 72
    65
 73
     6
 40
1.25
 49
0.625
 74
     0
 49
-0.125
 74
     0
 49
0.125
 74
     0
 49
-0.125
 74
     0
 49
0.125
 74
     0
 49
-0.125
 74
     0
  0
LTYPE
  5
37
100
AcDbSymbolTableRecord
100
AcDbLinetypeTableRecord
  2
PHANTOMX2
 70
     0
  3
____________    ____    ____    ____________   
 72
    65
 73
     6
 40
5.0
 49
2.5
 74
     0
 49
-0.5
 74
     0
 49
0.5
 74
     0
 49
-0.5
 74
     0
 49
0.5
 74
     0
 49
-0.5
 74
     0
  0
ENDTAB
   0
TABLE
   2
LAYER
   5
2
 100
AcDbSymbolTable
  70
3
   0
LAYER
   5
E
 100
AcDbSymbolTableRecord
 100
AcDbLayerTableRecord
   2
0
  70
0
  62
7
   6
CONTINUOUS
 390
30
   0
LAYER
   5
39
 100
AcDbSymbolTableRecord
 100
AcDbLayerTableRecord
   2
LEVEL001
  70
0
  62
7
   6
CONTINUOUS
 390
30
   0
LAYER
   5
3A
 100
AcDbSymbolTableRecord
 100
AcDbLayerTableRecord
   2
LEVEL002
  70
0
  62
7
   6
CONTINUOUS
 390
30
   0
ENDTAB
  0
TABLE
  2
STYLE
  5
3
100
AcDbSymbolTable
  70
6
  0
STYLE
  5
F
100
AcDbSymbolTableRecord
100
AcDbTextStyleTableRecord
  2
STANDARD
 70
     0
 40
0.0
 41
1.0
 50
0.0
 71
     0
 42
0.2
  3
TXT
  4
BIGFONT
  0
STYLE
  5
38
100
AcDbSymbolTableRecord
100
AcDbTextStyleTableRecord
  2
STANDARD1
 70
     4
 40
0.0
 41
1.0
 50
0.0
 71
     0
 42
0.2
  3
TXT
  4
BIGFONT
   0
STYLE
   5
3B
 100
AcDbSymbolTableRecord
 100
AcDbTextStyleTableRecord
   2
GMM001
  70
0
  40
0.0
  41
 0.80000000000000
  50
0.0
  71
     0
  42
1.0
   3
txt.shx
   4
bigfont.shx
   0
STYLE
   5
3C
 100
AcDbSymbolTableRecord
 100
AcDbTextStyleTableRecord
   2
GMM002
  70
0
  40
0.0
  41
 1.0000000000000
  50
0.0
  71
     0
  42
1.0
   3
txt.shx
   4
bigfont.shx
   0
STYLE
   5
3D
 100
AcDbSymbolTableRecord
 100
AcDbTextStyleTableRecord
   2
GMM003
  70
0
  40
0.0
  41
 1.0714285714286
  50
0.0
  71
     0
  42
1.0
   3
txt.shx
   4
bigfont.shx
   0
STYLE
   5
3E
 100
AcDbSymbolTableRecord
 100
AcDbTextStyleTableRecord
   2
GMM004
  70
0
  40
0.0
  41
 0.88888888888889
  50
0.0
  71
     0
  42
1.0
   3
txt.shx
   4
bigfont.shx
   0
ENDTAB
  0
TABLE
  2
VIEW
  5
6
100
AcDbSymbolTable
 70
     0
  0
ENDTAB
  0
TABLE
  2
UCS
  5
7
100
AcDbSymbolTable
 70
     0
  0
ENDTAB
  0
TABLE
  2
APPID
  5
9
100
AcDbSymbolTable
 70
     1
  0
APPID
  5
10
100
AcDbSymbolTableRecord
100
AcDbRegAppTableRecord
  2
ACAD
 70
     0
  0
ENDTAB
   0
TABLE
   2
DIMSTYLE
   5
A
 100
AcDbSymbolTable
  70
9
 100
AcDbDimStyleTable
  0
DIMSTYLE
105
1D
100
AcDbSymbolTableRecord
100
AcDbDimStyleTableRecord
  2
STANDARD
 70
     0
  3

  4

  5

  6

  7

 40
1.0
 41
0.18
 42
0.0625
 43
0.38
 44
0.18
 45
0.0
 46
0.0
 47
0.0
 48
0.0
140
0.18
141
0.09
142
0.0
143
25.4
144
1.0
145
0.0
146
1.0
147
0.09
 71
     0
 72
     0
 73
     1
 74
     1
 75
     0
 76
     0
 77
     0
 78
     0
170
     0
171
     2
172
     0
173
     0
174
     0
175
     0
176
     0
177
     0
178
     0
270
     2
271
     4
272
     4
273
     2
274
     2
340
F
275
     0
280
     0
281
     0
282
     0
283
     1
284
     0
285
     0
286
     0
287
     3
288
     0
   0
DIMSTYLE
 105
3F
 100
AcDbSymbolTableRecord
 100
AcDbDimStyleTableRecord
   2
GMM001
  70
0
   3

   4

   5

   6

   7

  40
 1.0000000000000
  41
 1.0000000000000
  42
 0.50000000000000
  43
 4.0000000000000
  44
 0.50000000000000
  45
0.0
  46
0.0
  47
0.0
  48
0.0
 140
 1.2500000000000
 141
 0.50000000000000
 142
0.0
 143
 0.39400000000000E-1
 144
 1.0000000000000
 145
0.0
 146
 1.0000000000000
 147
 0.50000000000000
  71
0
  72
0
  73
0
  74
0
  75
0
  76
0
  77
3
  78
8
 170
0
 171
2
 172
1
 173
1
 174
0
 175
0
 176
8
 177
8
 178
8
 270
2
 271
6
 272
0
 273
2
 274
2
 340
3C
 275
0
 280
0
 281
0
 282
0
 283
1
 284
0
 285
0
 286
0
 287
3
 288
0
   0
DIMSTYLE
 105
40
 100
AcDbSymbolTableRecord
 100
AcDbDimStyleTableRecord
   2
GMM002
  70
0
   3

   4

   5

   6

   7

  40
 1.0000000000000
  41
 1.0000000000000
  42
 0.50000000000000
  43
 4.0000000000000
  44
 0.50000000000000
  45
0.0
  46
0.0
  47
0.0
  48
0.0
 140
 1.2500000000000
 141
 0.50000000000000
 142
0.0
 143
 0.39400000000000E-1
 144
 1.0000000000000
 145
0.0
 146
 1.0000000000000
 147
 0.50000000000000
  71
0
  72
0
  73
0
  74
0
  75
0
  76
0
  77
3
  78
8
 170
0
 171
2
 172
1
 173
1
 174
0
 175
0
 176
8
 177
8
 178
8
 270
2
 271
6
 272
0
 273
2
 274
2
 340
3C
 275
1
 280
0
 281
0
 282
0
 283
1
 284
0
 285
0
 286
0
 287
3
 288
0
   0
DIMSTYLE
 105
41
 100
AcDbSymbolTableRecord
 100
AcDbDimStyleTableRecord
   2
GMM003
  70
0
   3

   4

   5

   6

   7

  40
 1.0000000000000
  41
 1.0000000000000
  42
 0.50000000000000
  43
 4.0000000000000
  44
 0.50000000000000
  45
0.0
  46
0.0
  47
0.0
  48
0.0
 140
 1.2500000000000
 141
 0.50000000000000
 142
0.0
 143
 0.39400000000000E-1
 144
 1.0000000000000
 145
0.0
 146
 1.0000000000000
 147
 0.23036212041092
  71
0
  72
0
  73
0
  74
0
  75
0
  76
0
  77
3
  78
8
 170
0
 171
2
 172
1
 173
1
 174
0
 175
0
 176
8
 177
8
 178
8
 270
2
 271
6
 272
0
 273
2
 274
2
 340
3C
 275
1
 280
0
 281
0
 282
0
 283
1
 284
0
 285
0
 286
0
 287
3
 288
1
   0
DIMSTYLE
 105
42
 100
AcDbSymbolTableRecord
 100
AcDbDimStyleTableRecord
   2
GMM004
  70
0
   3

   4

   5

   6

   7

  40
 1.0000000000000
  41
 1.0000000000000
  42
 0.50000000000000
  43
 4.0000000000000
  44
 0.50000000000000
  45
0.0
  46
0.0
  47
0.0
  48
0.0
 140
 1.2500000000000
 141
 0.50000000000000
 142
0.0
 143
 0.39400000000000E-1
 144
 1.0000000000000
 145
0.0
 146
 1.0000000000000
 147
 0.29204805491993
  71
0
  72
0
  73
0
  74
0
  75
0
  76
0
  77
3
  78
8
 170
0
 171
2
 172
1
 173
1
 174
0
 175
0
 176
8
 177
8
 178
8
 270
2
 271
6
 272
0
 273
2
 274
2
 340
3C
 275
1
 280
0
 281
0
 282
0
 283
1
 284
0
 285
0
 286
0
 287
3
 288
1
   0
DIMSTYLE
 105
43
 100
AcDbSymbolTableRecord
 100
AcDbDimStyleTableRecord
   2
GMM005
  70
0
   3

   4

   5

   6

   7

  40
 1.0000000000000
  41
 1.0000000000000
  42
 0.50000000000000
  43
 4.0000000000000
  44
 0.50000000000000
  45
0.0
  46
0.0
  47
0.0
  48
0.0
 140
 1.2500000000000
 141
 0.50000000000000
 142
0.0
 143
 0.39400000000000E-1
 144
 1.0000000000000
 145
0.0
 146
 1.0000000000000
 147
 0.37757437070938
  71
0
  72
0
  73
0
  74
0
  75
0
  76
0
  77
3
  78
8
 170
0
 171
2
 172
1
 173
1
 174
0
 175
0
 176
8
 177
8
 178
8
 270
2
 271
6
 272
0
 273
2
 274
2
 340
3C
 275
1
 280
0
 281
0
 282
0
 283
1
 284
0
 285
0
 286
0
 287
3
 288
1
   0
DIMSTYLE
 105
44
 100
AcDbSymbolTableRecord
 100
AcDbDimStyleTableRecord
   2
GMM006
  70
0
   3

   4

   5

   6

   7

  40
 1.0000000000000
  41
 1.0000000000000
  42
 0.50000000000000
  43
 4.0000000000000
  44
 0.50000000000000
  45
0.0
  46
0.0
  47
0.0
  48
0.0
 140
 1.2500000000000
 141
 0.50000000000000
 142
0.0
 143
 0.39400000000000E-1
 144
 1.0000000000000
 145
0.0
 146
 1.0000000000000
 147
 0.13898423595228
  71
0
  72
0
  73
0
  74
0
  75
0
  76
0
  77
3
  78
8
 170
0
 171
2
 172
1
 173
1
 174
0
 175
0
 176
8
 177
8
 178
8
 270
2
 271
6
 272
0
 273
2
 274
2
 340
3C
 275
1
 280
0
 281
0
 282
0
 283
1
 284
0
 285
0
 286
0
 287
3
 288
1
   0
DIMSTYLE
 105
45
 100
AcDbSymbolTableRecord
 100
AcDbDimStyleTableRecord
   2
GMM007
  70
0
   3

   4

   5

   6

   7

  40
 1.0000000000000
  41
 1.0000000000000
  42
 0.50000000000000
  43
 4.0000000000000
  44
 0.50000000000000
  45
0.0
  46
0.0
  47
0.0
  48
0.0
 140
 1.2500000000000
 141
 0.50000000000000
 142
0.0
 143
 0.39400000000000E-1
 144
 1.0000000000000
 145
0.0
 146
 1.0000000000000
 147
 0.40285467619670
  71
0
  72
0
  73
0
  74
0
  75
0
  76
0
  77
3
  78
8
 170
0
 171
2
 172
1
 173
1
 174
0
 175
0
 176
8
 177
8
 178
8
 270
2
 271
6
 272
0
 273
2
 274
2
 340
3C
 275
0
 280
0
 281
0
 282
0
 283
1
 284
0
 285
0
 286
0
 287
3
 288
1
   0
ENDTAB
  0
TABLE
  2
BLOCK_RECORD
  5
1
100
AcDbSymbolTable
 70
     0
  0
BLOCK_RECORD
  5
18
100
AcDbSymbolTableRecord
100
AcDbBlockTableRecord
  2
*MODEL_SPACE
  0
BLOCK_RECORD
  5
15
100
AcDbSymbolTableRecord
100
AcDbBlockTableRecord
  2
*PAPER_SPACE
   0
BLOCK_RECORD
   5
46
 100
AcDbSymbolTableRecord
 100
AcDbBlockTableRecord
   2
*D1
   0
BLOCK_RECORD
   5
47
 100
AcDbSymbolTableRecord
 100
AcDbBlockTableRecord
   2
*D2
   0
BLOCK_RECORD
   5
48
 100
AcDbSymbolTableRecord
 100
AcDbBlockTableRecord
   2
*D3
   0
BLOCK_RECORD
   5
49
 100
AcDbSymbolTableRecord
 100
AcDbBlockTableRecord
   2
*D4
   0
BLOCK_RECORD
   5
4A
 100
AcDbSymbolTableRecord
 100
AcDbBlockTableRecord
   2
*D5
   0
BLOCK_RECORD
   5
4B
 100
AcDbSymbolTableRecord
 100
AcDbBlockTableRecord
   2
*D6
   0
BLOCK_RECORD
   5
4C
 100
AcDbSymbolTableRecord
 100
AcDbBlockTableRecord
   2
*D7
   0
BLOCK_RECORD
   5
4D
 100
AcDbSymbolTableRecord
 100
AcDbBlockTableRecord
   2
*D8
   0
BLOCK_RECORD
   5
4E
 100
AcDbSymbolTableRecord
 100
AcDbBlockTableRecord
   2
*D9
   0
BLOCK_RECORD
   5
4F
 100
AcDbSymbolTableRecord
 100
AcDbBlockTableRecord
   2
*D10
   0
BLOCK_RECORD
   5
50
 100
AcDbSymbolTableRecord
 100
AcDbBlockTableRecord
   2
*D11
   0
BLOCK_RECORD
   5
51
 100
AcDbSymbolTableRecord
 100
AcDbBlockTableRecord
   2
*D12
   0
BLOCK_RECORD
   5
52
 100
AcDbSymbolTableRecord
 100
AcDbBlockTableRecord
   2
*D13
   0
BLOCK_RECORD
   5
53
 100
AcDbSymbolTableRecord
 100
AcDbBlockTableRecord
   2
*D14
   0
BLOCK_RECORD
   5
54
 100
AcDbSymbolTableRecord
 100
AcDbBlockTableRecord
   2
*D15
   0
BLOCK_RECORD
   5
55
 100
AcDbSymbolTableRecord
 100
AcDbBlockTableRecord
   2
*D16
   0
BLOCK_RECORD
   5
56
 100
AcDbSymbolTableRecord
 100
AcDbBlockTableRecord
   2
*D17
   0
BLOCK_RECORD
   5
57
 100
AcDbSymbolTableRecord
 100
AcDbBlockTableRecord
   2
*D18
   0
BLOCK_RECORD
   5
58
 100
AcDbSymbolTableRecord
 100
AcDbBlockTableRecord
   2
*D19
   0
BLOCK_RECORD
   5
59
 100
AcDbSymbolTableRecord
 100
AcDbBlockTableRecord
   2
*D20
   0
BLOCK_RECORD
   5
5A
 100
AcDbSymbolTableRecord
 100
AcDbBlockTableRecord
   2
*D21
   0
BLOCK_RECORD
   5
5B
 100
AcDbSymbolTableRecord
 100
AcDbBlockTableRecord
   2
*D22
   0
BLOCK_RECORD
   5
5C
 100
AcDbSymbolTableRecord
 100
AcDbBlockTableRecord
   2
*D23
   0
BLOCK_RECORD
   5
5D
 100
AcDbSymbolTableRecord
 100
AcDbBlockTableRecord
   2
*D24
   0
BLOCK_RECORD
   5
5E
 100
AcDbSymbolTableRecord
 100
AcDbBlockTableRecord
   2
*D25
   0
BLOCK_RECORD
   5
5F
 100
AcDbSymbolTableRecord
 100
AcDbBlockTableRecord
   2
*D26
   0
BLOCK_RECORD
   5
60
 100
AcDbSymbolTableRecord
 100
AcDbBlockTableRecord
   2
*D27
   0
BLOCK_RECORD
   5
61
 100
AcDbSymbolTableRecord
 100
AcDbBlockTableRecord
   2
*D28
   0
BLOCK_RECORD
   5
62
 100
AcDbSymbolTableRecord
 100
AcDbBlockTableRecord
   2
*D29
   0
BLOCK_RECORD
   5
63
 100
AcDbSymbolTableRecord
 100
AcDbBlockTableRecord
   2
*D30
   0
BLOCK_RECORD
   5
64
 100
AcDbSymbolTableRecord
 100
AcDbBlockTableRecord
   2
*D31
   0
BLOCK_RECORD
   5
65
 100
AcDbSymbolTableRecord
 100
AcDbBlockTableRecord
   2
*D32
   0
BLOCK_RECORD
   5
66
 100
AcDbSymbolTableRecord
 100
AcDbBlockTableRecord
   2
*D33
   0
BLOCK_RECORD
   5
67
 100
AcDbSymbolTableRecord
 100
AcDbBlockTableRecord
   2
*D34
   0
BLOCK_RECORD
   5
68
 100
AcDbSymbolTableRecord
 100
AcDbBlockTableRecord
   2
*D35
   0
BLOCK_RECORD
   5
69
 100
AcDbSymbolTableRecord
 100
AcDbBlockTableRecord
   2
*D36
   0
BLOCK_RECORD
   5
6A
 100
AcDbSymbolTableRecord
 100
AcDbBlockTableRecord
   2
*D37
   0
BLOCK_RECORD
   5
6B
 100
AcDbSymbolTableRecord
 100
AcDbBlockTableRecord
   2
*D38
   0
BLOCK_RECORD
   5
6C
 100
AcDbSymbolTableRecord
 100
AcDbBlockTableRecord
   2
*D39
   0
BLOCK_RECORD
   5
6D
 100
AcDbSymbolTableRecord
 100
AcDbBlockTableRecord
   2
*D40
   0
BLOCK_RECORD
   5
6E
 100
AcDbSymbolTableRecord
 100
AcDbBlockTableRecord
   2
_ARCHTICK
   0
BLOCK_RECORD
   5
6F
 100
AcDbSymbolTableRecord
 100
AcDbBlockTableRecord
   2
_BOXBLANK
   0
BLOCK_RECORD
   5
70
 100
AcDbSymbolTableRecord
 100
AcDbBlockTableRecord
   2
_BOXFILLED
   0
BLOCK_RECORD
   5
71
 100
AcDbSymbolTableRecord
 100
AcDbBlockTableRecord
   2
_CLOSED
   0
BLOCK_RECORD
   5
72
 100
AcDbSymbolTableRecord
 100
AcDbBlockTableRecord
   2
_CLOSEDBLANK
   0
BLOCK_RECORD
   5
73
 100
AcDbSymbolTableRecord
 100
AcDbBlockTableRecord
   2
_DATUMBLANK
   0
BLOCK_RECORD
   5
74
 100
AcDbSymbolTableRecord
 100
AcDbBlockTableRecord
   2
_DATUMFILLED
   0
BLOCK_RECORD
   5
75
 100
AcDbSymbolTableRecord
 100
AcDbBlockTableRecord
   2
_DOT
   0
BLOCK_RECORD
   5
76
 100
AcDbSymbolTableRecord
 100
AcDbBlockTableRecord
   2
_DOTBLANK
   0
BLOCK_RECORD
   5
77
 100
AcDbSymbolTableRecord
 100
AcDbBlockTableRecord
   2
_DOTSMALL
   0
BLOCK_RECORD
   5
78
 100
AcDbSymbolTableRecord
 100
AcDbBlockTableRecord
   2
_INTEGRAL
   0
BLOCK_RECORD
   5
79
 100
AcDbSymbolTableRecord
 100
AcDbBlockTableRecord
   2
_NONE
   0
BLOCK_RECORD
   5
7A
 100
AcDbSymbolTableRecord
 100
AcDbBlockTableRecord
   2
_OBLIQUE
   0
BLOCK_RECORD
   5
7B
 100
AcDbSymbolTableRecord
 100
AcDbBlockTableRecord
   2
_OPEN
   0
BLOCK_RECORD
   5
7C
 100
AcDbSymbolTableRecord
 100
AcDbBlockTableRecord
   2
_OPEN30
   0
BLOCK_RECORD
   5
7D
 100
AcDbSymbolTableRecord
 100
AcDbBlockTableRecord
   2
_OPEN90
   0
BLOCK_RECORD
   5
7E
 100
AcDbSymbolTableRecord
 100
AcDbBlockTableRecord
   2
_ORIGIN
   0
ENDTAB
   0
ENDSEC
  0
SECTION
  2
BLOCKS
  0
BLOCK
  5
19
100
AcDbEntity
  8
0
100
AcDbBlockBegin
  2
*MODEL_SPACE
 70
     0
 10
0.0
 20
0.0
 30
0.0
  3
*MODEL_SPACE
  1

  0
ENDBLK
  5
1A
100
AcDbEntity
  8
0
100
AcDbBlockEnd
  0
BLOCK
  5
16
100
AcDbEntity
 67
     1
  8
0
100
AcDbBlockBegin
  2
*PAPER_SPACE
 70
     0
 10
0.0
 20
0.0
 30
0.0
  3
*PAPER_SPACE
  1

  0
ENDBLK
  5
17
100
AcDbEntity
 67
     1
  8
0
100
AcDbBlockEnd
   0
BLOCK
   5
7F
 100
AcDbEntity
   8
0
 100
AcDbBlockBegin
   2
_ARCHTICK
  70
0
  10
0.0
  20
0.0
  30
0.0
   3
_ARCHTICK
   0
POLYLINE
   5
80
 100
AcDbEntity
   8
0
 370
-2
   6
BYBLOCK
  62
0
 100
AcDb2dPolyline
  66
1
  10
0.0
  20
0.0
  30
0.0
  70
1
  40
 0.15000000000000
  41
 0.15000000000000
   0
VERTEX
   5
81
 100
AcDbEntity
   8
0
   6
BYBLOCK
  62
0
 100
AcDbVertex
 100
AcDb2dVertex
  10
-0.50000000000000
  20
-0.50000000000000
  30
0.0
  40
 0.15000000000000
  41
 0.15000000000000
   0
VERTEX
   5
82
 100
AcDbEntity
   8
0
   6
BYBLOCK
  62
0
 100
AcDbVertex
 100
AcDb2dVertex
  10
 0.50000000000000
  20
 0.50000000000000
  30
0.0
  40
 0.15000000000000
  41
 0.15000000000000
   0
SEQEND
   5
83
 100
AcDbEntity
   8
0
   6
BYBLOCK
  62
0
   0
ENDBLK
   5
84
 100
AcDbEntity
   8
0
 100
AcDbBlockEnd
   0
BLOCK
   5
85
 100
AcDbEntity
   8
0
 100
AcDbBlockBegin
   2
_OBLIQUE
  70
0
  10
0.0
  20
0.0
  30
0.0
   3
_OBLIQUE
   0
LINE
   5
86
 100
AcDbEntity
   8
0
 370
-2
 100
AcDbLine
   6
BYBLOCK
  62
0
  10
-0.50000000000000
  20
-0.50000000000000
  30
0.0
  11
 0.50000000000000
  21
 0.50000000000000
  31
0.0
   0
ENDBLK
   5
87
 100
AcDbEntity
   8
0
 100
AcDbBlockEnd
   0
BLOCK
   5
88
 100
AcDbEntity
   8
0
 100
AcDbBlockBegin
   2
_BOXBLANK
  70
0
  10
0.0
  20
0.0
  30
0.0
   3
_BOXBLANK
   0
LINE
   5
89
 100
AcDbEntity
   8
0
 370
-2
 100
AcDbLine
   6
BYBLOCK
  62
0
  10
-0.50000000000000
  20
-0.50000000000000
  30
0.0
  11
 0.50000000000000
  21
-0.50000000000000
  31
0.0
   0
LINE
   5
8A
 100
AcDbEntity
   8
0
 370
-2
 100
AcDbLine
   6
BYBLOCK
  62
0
  10
 0.50000000000000
  20
-0.50000000000000
  30
0.0
  11
 0.50000000000000
  21
 0.50000000000000
  31
0.0
   0
LINE
   5
8B
 100
AcDbEntity
   8
0
 370
-2
 100
AcDbLine
   6
BYBLOCK
  62
0
  10
 0.50000000000000
  20
 0.50000000000000
  30
0.0
  11
-0.50000000000000
  21
 0.50000000000000
  31
0.0
   0
LINE
   5
8C
 100
AcDbEntity
   8
0
 370
-2
 100
AcDbLine
   6
BYBLOCK
  62
0
  10
-0.50000000000000
  20
 0.50000000000000
  30
0.0
  11
-0.50000000000000
  21
-0.50000000000000
  31
0.0
   0
LINE
   5
8D
 100
AcDbEntity
   8
0
 370
-2
 100
AcDbLine
   6
BYBLOCK
  62
0
  10
-0.50000000000000
  20
0.0
  30
0.0
  11
-1.0000000000000
  21
0.0
  31
0.0
   0
ENDBLK
   5
8E
 100
AcDbEntity
   8
0
 100
AcDbBlockEnd
   0
BLOCK
   5
8F
 100
AcDbEntity
   8
0
 100
AcDbBlockBegin
   2
_BOXFILLED
  70
0
  10
0.0
  20
0.0
  30
0.0
   3
_BOXFILLED
   0
SOLID
   5
90
 100
AcDbEntity
   8
0
 100
AcDbTrace
   6
BYBLOCK
  62
0
  10
-0.50000000000000
  20
 0.50000000000000
  30
0.0
  11
 0.50000000000000
  21
 0.50000000000000
  31
0.0
  12
-0.50000000000000
  22
-0.50000000000000
  32
0.0
  13
 0.50000000000000
  23
-0.50000000000000
  33
0.0
   0
LINE
   5
91
 100
AcDbEntity
   8
0
 370
-2
 100
AcDbLine
   6
BYBLOCK
  62
0
  10
-0.50000000000000
  20
0.0
  30
0.0
  11
-1.0000000000000
  21
0.0
  31
0.0
   0
ENDBLK
   5
92
 100
AcDbEntity
   8
0
 100
AcDbBlockEnd
   0
BLOCK
   5
93
 100
AcDbEntity
   8
0
 100
AcDbBlockBegin
   2
_CLOSED
  70
0
  10
0.0
  20
0.0
  30
0.0
   3
_CLOSED
   0
LINE
   5
94
 100
AcDbEntity
   8
0
 370
-2
 100
AcDbLine
   6
BYBLOCK
  62
0
  10
-1.0000000000000
  20
 0.16666666666667
  30
0.0
  11
0.0
  21
0.0
  31
0.0
   0
LINE
   5
95
 100
AcDbEntity
   8
0
 370
-2
 100
AcDbLine
   6
BYBLOCK
  62
0
  10
0.0
  20
0.0
  30
0.0
  11
-1.0000000000000
  21
-0.16666666666667
  31
0.0
   0
LINE
   5
96
 100
AcDbEntity
   8
0
 370
-2
 100
AcDbLine
   6
BYBLOCK
  62
0
  10
-1.0000000000000
  20
 0.16666666666667
  30
0.0
  11
-1.0000000000000
  21
-0.16666666666667
  31
0.0
   0
LINE
   5
97
 100
AcDbEntity
   8
0
 370
-2
 100
AcDbLine
   6
BYBLOCK
  62
0
  10
0.0
  20
0.0
  30
0.0
  11
-1.0000000000000
  21
0.0
  31
0.0
   0
ENDBLK
   5
98
 100
AcDbEntity
   8
0
 100
AcDbBlockEnd
   0
BLOCK
   5
99
 100
AcDbEntity
   8
0
 100
AcDbBlockBegin
   2
_OPEN
  70
0
  10
0.0
  20
0.0
  30
0.0
   3
_OPEN
   0
LINE
   5
9A
 100
AcDbEntity
   8
0
 370
-2
 100
AcDbLine
   6
BYBLOCK
  62
0
  10
-1.0000000000000
  20
 0.16666666666667
  30
0.0
  11
0.0
  21
0.0
  31
0.0
   0
LINE
   5
9B
 100
AcDbEntity
   8
0
 370
-2
 100
AcDbLine
   6
BYBLOCK
  62
0
  10
0.0
  20
0.0
  30
0.0
  11
-1.0000000000000
  21
-0.16666666666667
  31
0.0
   0
LINE
   5
9C
 100
AcDbEntity
   8
0
 370
-2
 100
AcDbLine
   6
BYBLOCK
  62
0
  10
0.0
  20
0.0
  30
0.0
  11
-1.0000000000000
  21
0.0
  31
0.0
   0
ENDBLK
   5
9D
 100
AcDbEntity
   8
0
 100
AcDbBlockEnd
   0
BLOCK
   5
9E
 100
AcDbEntity
   8
0
 100
AcDbBlockBegin
   2
_OPEN30
  70
0
  10
0.0
  20
0.0
  30
0.0
   3
_OPEN30
   0
LINE
   5
9F
 100
AcDbEntity
   8
0
 370
-2
 100
AcDbLine
   6
BYBLOCK
  62
0
  10
-1.0000000000000
  20
 0.26794919243110
  30
0.0
  11
0.0
  21
0.0
  31
0.0
   0
LINE
   5
A0
 100
AcDbEntity
   8
0
 370
-2
 100
AcDbLine
   6
BYBLOCK
  62
0
  10
0.0
  20
0.0
  30
0.0
  11
-1.0000000000000
  21
-0.26794919243110
  31
0.0
   0
LINE
   5
A1
 100
AcDbEntity
   8
0
 370
-2
 100
AcDbLine
   6
BYBLOCK
  62
0
  10
0.0
  20
0.0
  30
0.0
  11
-1.0000000000000
  21
0.0
  31
0.0
   0
ENDBLK
   5
A2
 100
AcDbEntity
   8
0
 100
AcDbBlockEnd
   0
BLOCK
   5
A3
 100
AcDbEntity
   8
0
 100
AcDbBlockBegin
   2
_OPEN90
  70
0
  10
0.0
  20
0.0
  30
0.0
   3
_OPEN90
   0
LINE
   5
A4
 100
AcDbEntity
   8
0
 370
-2
 100
AcDbLine
   6
BYBLOCK
  62
0
  10
-0.50000000000000
  20
 0.50000000000000
  30
0.0
  11
0.0
  21
0.0
  31
0.0
   0
LINE
   5
A5
 100
AcDbEntity
   8
0
 370
-2
 100
AcDbLine
   6
BYBLOCK
  62
0
  10
0.0
  20
0.0
  30
0.0
  11
-0.50000000000000
  21
-0.50000000000000
  31
0.0
   0
LINE
   5
A6
 100
AcDbEntity
   8
0
 370
-2
 100
AcDbLine
   6
BYBLOCK
  62
0
  10
0.0
  20
0.0
  30
0.0
  11
-1.0000000000000
  21
0.0
  31
0.0
   0
ENDBLK
   5
A7
 100
AcDbEntity
   8
0
 100
AcDbBlockEnd
   0
BLOCK
   5
A8
 100
AcDbEntity
   8
0
 100
AcDbBlockBegin
   2
_CLOSEDBLANK
  70
0
  10
0.0
  20
0.0
  30
0.0
   3
_CLOSEDBLANK
   0
LINE
   5
A9
 100
AcDbEntity
   8
0
 370
-2
 100
AcDbLine
   6
BYBLOCK
  62
0
  10
-1.0000000000000
  20
 0.16666666666667
  30
0.0
  11
0.0
  21
0.0
  31
0.0
   0
LINE
   5
AA
 100
AcDbEntity
   8
0
 370
-2
 100
AcDbLine
   6
BYBLOCK
  62
0
  10
0.0
  20
0.0
  30
0.0
  11
-1.0000000000000
  21
-0.16666666666667
  31
0.0
   0
LINE
   5
AB
 100
AcDbEntity
   8
0
 370
-2
 100
AcDbLine
   6
BYBLOCK
  62
0
  10
-1.0000000000000
  20
 0.16666666666667
  30
0.0
  11
-1.0000000000000
  21
-0.16666666666667
  31
0.0
   0
ENDBLK
   5
AC
 100
AcDbEntity
   8
0
 100
AcDbBlockEnd
   0
BLOCK
   5
AD
 100
AcDbEntity
   8
0
 100
AcDbBlockBegin
   2
_DOT
  70
0
  10
0.0
  20
0.0
  30
0.0
   3
_DOT
   0
POLYLINE
   5
AE
 100
AcDbEntity
   8
0
 370
-2
   6
BYBLOCK
  62
0
 100
AcDb2dPolyline
  66
1
  10
0.0
  20
0.0
  30
0.0
  70
1
  40
 0.50000000000000
  41
 0.50000000000000
   0
VERTEX
   5
AF
 100
AcDbEntity
   8
0
   6
BYBLOCK
  62
0
 100
AcDbVertex
 100
AcDb2dVertex
  10
-0.25000000000000
  20
0.0
  30
0.0
  42
 1.0000000000000
  40
 0.50000000000000
  41
 0.50000000000000
   0
VERTEX
   5
B0
 100
AcDbEntity
   8
0
   6
BYBLOCK
  62
0
 100
AcDbVertex
 100
AcDb2dVertex
  10
 0.25000000000000
  20
0.0
  30
0.0
  42
 1.0000000000000
  40
 0.50000000000000
  41
 0.50000000000000
   0
SEQEND
   5
B1
 100
AcDbEntity
   8
0
   6
BYBLOCK
  62
0
   0
LINE
   5
B2
 100
AcDbEntity
   8
0
 370
-2
 100
AcDbLine
   6
BYBLOCK
  62
0
  10
-0.50000000000000
  20
0.0
  30
0.0
  11
-1.0000000000000
  21
0.0
  31
0.0
   0
ENDBLK
   5
B3
 100
AcDbEntity
   8
0
 100
AcDbBlockEnd
   0
BLOCK
   5
B4
 100
AcDbEntity
   8
0
 100
AcDbBlockBegin
   2
_DOTSMALL
  70
0
  10
0.0
  20
0.0
  30
0.0
   3
_DOTSMALL
   0
POLYLINE
   5
B5
 100
AcDbEntity
   8
0
 370
-2
   6
BYBLOCK
  62
0
 100
AcDb2dPolyline
  66
1
  10
0.0
  20
0.0
  30
0.0
  70
1
  40
 0.50000000000000
  41
 0.50000000000000
   0
VERTEX
   5
B6
 100
AcDbEntity
   8
0
   6
BYBLOCK
  62
0
 100
AcDbVertex
 100
AcDb2dVertex
  10
-0.62500000000000E-1
  20
0.0
  30
0.0
  42
 1.0000000000000
  40
 0.50000000000000
  41
 0.50000000000000
   0
VERTEX
   5
B7
 100
AcDbEntity
   8
0
   6
BYBLOCK
  62
0
 100
AcDbVertex
 100
AcDb2dVertex
  10
 0.62500000000000E-1
  20
0.0
  30
0.0
  42
 1.0000000000000
  40
 0.50000000000000
  41
 0.50000000000000
   0
SEQEND
   5
B8
 100
AcDbEntity
   8
0
   6
BYBLOCK
  62
0
   0
ENDBLK
   5
B9
 100
AcDbEntity
   8
0
 100
AcDbBlockEnd
   0
BLOCK
   5
BA
 100
AcDbEntity
   8
0
 100
AcDbBlockBegin
   2
_DATUMBLANK
  70
0
  10
0.0
  20
0.0
  30
0.0
   3
_DATUMBLANK
   0
LINE
   5
BB
 100
AcDbEntity
   8
0
 370
-2
 100
AcDbLine
   6
BYBLOCK
  62
0
  10
0.0
  20
 0.57735027000000
  30
0.0
  11
-1.0000000000000
  21
0.0
  31
0.0
   0
LINE
   5
BC
 100
AcDbEntity
   8
0
 370
-2
 100
AcDbLine
   6
BYBLOCK
  62
0
  10
-1.0000000000000
  20
0.0
  30
0.0
  11
0.0
  21
-0.57735027000000
  31
0.0
   0
LINE
   5
BD
 100
AcDbEntity
   8
0
 370
-2
 100
AcDbLine
   6
BYBLOCK
  62
0
  10
0.0
  20
-0.57735027000000
  30
0.0
  11
0.0
  21
 0.57735027000000
  31
0.0
   0
ENDBLK
   5
BE
 100
AcDbEntity
   8
0
 100
AcDbBlockEnd
   0
BLOCK
   5
BF
 100
AcDbEntity
   8
0
 100
AcDbBlockBegin
   2
_DATUMFILLED
  70
0
  10
0.0
  20
0.0
  30
0.0
   3
_DATUMFILLED
   0
SOLID
   5
C0
 100
AcDbEntity
   8
0
 100
AcDbTrace
   6
BYBLOCK
  62
0
  10
0.0
  20
 0.57735027000000
  30
0.0
  11
-1.0000000000000
  21
0.0
  31
0.0
  12
0.0
  22
-0.57735027000000
  32
0.0
  13
0.0
  23
-0.57735027000000
  33
0.0
   0
ENDBLK
   5
C1
 100
AcDbEntity
   8
0
 100
AcDbBlockEnd
   0
BLOCK
   5
C2
 100
AcDbEntity
   8
0
 100
AcDbBlockBegin
   2
_ORIGIN
  70
0
  10
0.0
  20
0.0
  30
0.0
   3
_ORIGIN
   0
CIRCLE
   5
C3
 100
AcDbEntity
   8
0
 370
-2
 100
AcDbCircle
   6
BYBLOCK
  62
0
  10
0.0
  20
0.0
  30
0.0
  40
 0.50000000000000
   0
LINE
   5
C4
 100
AcDbEntity
   8
0
 370
-2
 100
AcDbLine
   6
BYBLOCK
  62
0
  10
0.0
  20
0.0
  30
0.0
  11
-1.0000000000000
  21
0.0
  31
0.0
   0
ENDBLK
   5
C5
 100
AcDbEntity
   8
0
 100
AcDbBlockEnd
   0
BLOCK
   5
C6
 100
AcDbEntity
   8
0
 100
AcDbBlockBegin
   2
_NONE
  70
0
  10
0.0
  20
0.0
  30
0.0
   3
_NONE
   0
CIRCLE
   5
C7
 100
AcDbEntity
   8
0
 370
-2
 100
AcDbCircle
   6
BYBLOCK
  62
0
  10
0.0
  20
0.0
  30
0.0
  40
 0.25000000000000
   0
ENDBLK
   5
C8
 100
AcDbEntity
   8
0
 100
AcDbBlockEnd
   0
BLOCK
   5
C9
 100
AcDbEntity
   8
0
 100
AcDbBlockBegin
   2
_DOTBLANK
  70
0
  10
0.0
  20
0.0
  30
0.0
   3
_DOTBLANK
   0
CIRCLE
   5
CA
 100
AcDbEntity
   8
0
 370
-2
 100
AcDbCircle
   6
BYBLOCK
  62
0
  10
0.0
  20
0.0
  30
0.0
  40
 0.50000000000000
   0
LINE
   5
CB
 100
AcDbEntity
   8
0
 370
-2
 100
AcDbLine
   6
BYBLOCK
  62
0
  10
-0.50000000000000
  20
0.0
  30
0.0
  11
-1.0000000000000
  21
0.0
  31
0.0
   0
ENDBLK
   5
CC
 100
AcDbEntity
   8
0
 100
AcDbBlockEnd
   0
BLOCK
   5
CD
 100
AcDbEntity
   8
0
 100
AcDbBlockBegin
   2
_INTEGRAL
  70
0
  10
0.0
  20
0.0
  30
0.0
   3
_INTEGRAL
   0
ARC
   5
CE
 100
AcDbEntity
   8
0
 370
-2
   6
BYBLOCK
  62
0
 100
AcDbCircle
  10
 0.44488800000000
  20
-0.91335000000000E-1
  30
0.0
  40
 0.45416700000000
 100
AcDbArc
  50
 102.00000000000
  51
 168.00000000000
   0
ARC
   5
CF
 100
AcDbEntity
   8
0
 370
-2
   6
BYBLOCK
  62
0
 100
AcDbCircle
  10
-0.44488800000000
  20
 0.91335000000000E-1
  30
0.0
  40
 0.45416700000000
 100
AcDbArc
  50
 282.00000000000
  51
 348.00000000000
   0
ENDBLK
   5
D0
 100
AcDbEntity
   8
0
 100
AcDbBlockEnd
   0
BLOCK
   5
D1
 100
AcDbEntity
   8
0
 100
AcDbBlockBegin
   2
*D1
  70
65
  10
0.0
  20
0.0
  30
0.0
   3
*D1
   0
LINE
   5
D2
 100
AcDbEntity
   8
LEVEL001
 370
15
 100
AcDbLine
   6
CONTINUOUS
  62
8
  10
 25.856313783412
  20
 125.01035469108
  30
0.0
  11
 25.856313783412
  21
 119.81035469108
  31
0.0
   0
LINE
   5
D3
 100
AcDbEntity
   8
LEVEL001
 370
15
 100
AcDbLine
   6
CONTINUOUS
  62
8
  10
 28.856313783223
  20
 125.01035469108
  30
0.0
  11
 28.856313783223
  21
 119.81035469108
  31
0.0
   0
LINE
   5
D4
 100
AcDbEntity
   8
LEVEL001
 370
15
 100
AcDbLine
   6
CONTINUOUS
  62
8
  10
 25.856313783412
  20
 120.31035469108
  30
0.0
  11
 27.356313783318
  21
 120.31035469108
  31
0.0
   0
LINE
   5
D5
 100
AcDbEntity
   8
LEVEL001
 370
15
 100
AcDbLine
   6
CONTINUOUS
  62
8
  10
 28.856313783223
  20
 120.31035469108
  30
0.0
  11
 27.356313783318
  21
 120.31035469108
  31
0.0
   0
SOLID
   5
D6
 100
AcDbEntity
   8
LEVEL001
 100
AcDbTrace
   6
CONTINUOUS
  62
8
  10
 25.856313783412
  20
 120.31035469108
  30
0.0
  11
 26.856313783412
  21
 120.13402771037
  31
0.0
  12
 26.856313783412
  22
 120.48668167178
  32
0.0
  13
 26.856313783412
  23
 120.48668167178
  33
0.0
   0
SOLID
   5
D7
 100
AcDbEntity
   8
LEVEL001
 100
AcDbTrace
   6
CONTINUOUS
  62
8
  10
 28.856313783223
  20
 120.31035469108
  30
0.0
  11
 27.856313783223
  21
 120.48668167178
  31
0.0
  12
 27.856313783223
  22
 120.13402771037
  32
0.0
  13
 27.856313783223
  23
 120.13402771037
  33
0.0
   0
MTEXT
   5
D8
 100
AcDbEntity
   8
LEVEL001
 370
15
  62
8
 100
AcDbMText
  10
 27.356313783318
  20
 120.81035469108
  30
0.0
  40
 1.2500000000000
  41
0.0
  71
8
  72
1
   1
\A1;3
   7
GMM002
   0
ENDBLK
   5
D9
 100
AcDbEntity
   8
0
 100
AcDbBlockEnd
   0
BLOCK
   5
DA
 100
AcDbEntity
   8
0
 100
AcDbBlockBegin
   2
*D2
  70
65
  10
0.0
  20
0.0
  30
0.0
   3
*D2
   0
LINE
   5
DB
 100
AcDbEntity
   8
LEVEL001
 370
15
 100
AcDbLine
   6
CONTINUOUS
  62
8
  10
 24.010294594822
  20
 122.81035469108
  30
0.0
  11
 24.010294594822
  21
 116.81035469108
  31
0.0
   0
LINE
   5
DC
 100
AcDbEntity
   8
LEVEL001
 370
15
 100
AcDbLine
   6
CONTINUOUS
  62
8
  10
 30.702332971813
  20
 122.81035469108
  30
0.0
  11
 30.702332971813
  21
 116.81035469108
  31
0.0
   0
LINE
   5
DD
 100
AcDbEntity
   8
LEVEL001
 370
15
 100
AcDbLine
   6
CONTINUOUS
  62
8
  10
 24.010294594822
  20
 117.31035469108
  30
0.0
  11
 27.356313783318
  21
 117.31035469108
  31
0.0
   0
LINE
   5
DE
 100
AcDbEntity
   8
LEVEL001
 370
15
 100
AcDbLine
   6
CONTINUOUS
  62
8
  10
 30.702332971813
  20
 117.31035469108
  30
0.0
  11
 27.356313783318
  21
 117.31035469108
  31
0.0
   0
SOLID
   5
DF
 100
AcDbEntity
   8
LEVEL001
 100
AcDbTrace
   6
CONTINUOUS
  62
8
  10
 24.010294594822
  20
 117.31035469108
  30
0.0
  11
 25.010294594822
  21
 117.13402771037
  31
0.0
  12
 25.010294594822
  22
 117.48668167178
  32
0.0
  13
 25.010294594822
  23
 117.48668167178
  33
0.0
   0
SOLID
   5
E0
 100
AcDbEntity
   8
LEVEL001
 100
AcDbTrace
   6
CONTINUOUS
  62
8
  10
 30.702332971813
  20
 117.31035469108
  30
0.0
  11
 29.702332971813
  21
 117.48668167178
  31
0.0
  12
 29.702332971813
  22
 117.13402771037
  32
0.0
  13
 29.702332971813
  23
 117.13402771037
  33
0.0
   0
MTEXT
   5
E1
 100
AcDbEntity
   8
LEVEL001
 370
15
  62
8
 100
AcDbMText
  10
 27.356313783318
  20
 117.81035469108
  30
0.0
  40
 1.2500000000000
  41
0.0
  71
8
  72
1
   1
\A1;6.7
   7
GMM002
   0
ENDBLK
   5
E2
 100
AcDbEntity
   8
0
 100
AcDbBlockEnd
   0
BLOCK
   5
E3
 100
AcDbEntity
   8
0
 100
AcDbBlockBegin
   2
*D3
  70
65
  10
0.0
  20
0.0
  30
0.0
   3
*D3
   0
LINE
   5
E4
 100
AcDbEntity
   8
LEVEL001
 370
15
 100
AcDbLine
   6
CONTINUOUS
  62
8
  10
 27.356313783318
  20
 116.11710107596
  30
0.0
  11
 27.356313783318
  21
 113.81035469108
  31
0.0
   0
LINE
   5
E5
 100
AcDbEntity
   8
LEVEL001
 370
15
 100
AcDbLine
   6
CONTINUOUS
  62
8
  10
 34.856313783318
  20
 122.81035469108
  30
0.0
  11
 34.856313783318
  21
 113.81035469108
  31
0.0
   0
LINE
   5
E6
 100
AcDbEntity
   8
LEVEL001
 370
15
 100
AcDbLine
   6
CONTINUOUS
  62
8
  10
 27.356313783318
  20
 114.31035469108
  30
0.0
  11
 31.106313783318
  21
 114.31035469108
  31
0.0
   0
LINE
   5
E7
 100
AcDbEntity
   8
LEVEL001
 370
15
 100
AcDbLine
   6
CONTINUOUS
  62
8
  10
 34.856313783318
  20
 114.31035469108
  30
0.0
  11
 31.106313783318
  21
 114.31035469108
  31
0.0
   0
SOLID
   5
E8
 100
AcDbEntity
   8
LEVEL001
 100
AcDbTrace
   6
CONTINUOUS
  62
8
  10
 27.356313783318
  20
 114.31035469108
  30
0.0
  11
 28.356313783318
  21
 114.13402771037
  31
0.0
  12
 28.356313783318
  22
 114.48668167178
  32
0.0
  13
 28.356313783318
  23
 114.48668167178
  33
0.0
   0
SOLID
   5
E9
 100
AcDbEntity
   8
LEVEL001
 100
AcDbTrace
   6
CONTINUOUS
  62
8
  10
 34.856313783318
  20
 114.31035469108
  30
0.0
  11
 33.856313783318
  21
 114.48668167178
  31
0.0
  12
 33.856313783318
  22
 114.13402771037
  32
0.0
  13
 33.856313783318
  23
 114.13402771037
  33
0.0
   0
MTEXT
   5
EA
 100
AcDbEntity
   8
LEVEL001
 370
15
  62
8
 100
AcDbMText
  10
 31.106313783318
  20
 114.81035469108
  30
0.0
  40
 1.2500000000000
  41
0.0
  71
8
  72
1
   1
\A1;7.5
   7
GMM002
   0
ENDBLK
   5
EB
 100
AcDbEntity
   8
0
 100
AcDbBlockEnd
   0
BLOCK
   5
EC
 100
AcDbEntity
   8
0
 100
AcDbBlockBegin
   2
*D4
  70
65
  10
0.0
  20
0.0
  30
0.0
   3
*D4
   0
LINE
   5
ED
 100
AcDbEntity
   8
LEVEL001
 370
15
 100
AcDbLine
   6
CONTINUOUS
  62
8
  10
 14.356313783318
  20
 122.81035469108
  30
0.0
  11
 14.356313783318
  21
 113.81035469108
  31
0.0
   0
LINE
   5
EE
 100
AcDbEntity
   8
LEVEL001
 370
15
 100
AcDbLine
   6
CONTINUOUS
  62
8
  10
 14.356313783318
  20
 114.31035469108
  30
0.0
  11
 20.856313783318
  21
 114.31035469108
  31
0.0
   0
LINE
   5
EF
 100
AcDbEntity
   8
LEVEL001
 370
15
 100
AcDbLine
   6
CONTINUOUS
  62
8
  10
 27.356313783318
  20
 114.31035469108
  30
0.0
  11
 20.856313783318
  21
 114.31035469108
  31
0.0
   0
SOLID
   5
F0
 100
AcDbEntity
   8
LEVEL001
 100
AcDbTrace
   6
CONTINUOUS
  62
8
  10
 14.356313783318
  20
 114.31035469108
  30
0.0
  11
 15.356313783318
  21
 114.13402771037
  31
0.0
  12
 15.356313783318
  22
 114.48668167178
  32
0.0
  13
 15.356313783318
  23
 114.48668167178
  33
0.0
   0
SOLID
   5
F1
 100
AcDbEntity
   8
LEVEL001
 100
AcDbTrace
   6
CONTINUOUS
  62
8
  10
 27.356313783318
  20
 114.31035469108
  30
0.0
  11
 26.356313783318
  21
 114.48668167178
  31
0.0
  12
 26.356313783318
  22
 114.13402771037
  32
0.0
  13
 26.356313783318
  23
 114.13402771037
  33
0.0
   0
MTEXT
   5
F2
 100
AcDbEntity
   8
LEVEL001
 370
15
  62
8
 100
AcDbMText
  10
 20.856313783318
  20
 114.81035469108
  30
0.0
  40
 1.2500000000000
  41
0.0
  71
8
  72
1
   1
\A1;13
   7
GMM002
   0
ENDBLK
   5
F3
 100
AcDbEntity
   8
0
 100
AcDbBlockEnd
   0
BLOCK
   5
F4
 100
AcDbEntity
   8
0
 100
AcDbBlockBegin
   2
*D5
  70
65
  10
0.0
  20
0.0
  30
0.0
   3
*D5
   0
LINE
   5
F5
 100
AcDbEntity
   8
LEVEL001
 370
15
 100
AcDbLine
   6
CONTINUOUS
  62
8
  10
 35.356313783318
  20
 123.31035469108
  30
0.0
  11
 41.356313783318
  21
 123.31035469108
  31
0.0
   0
LINE
   5
F6
 100
AcDbEntity
   8
LEVEL001
 370
15
 100
AcDbLine
   6
CONTINUOUS
  62
8
  10
 35.356313783318
  20
 126.31035469108
  30
0.0
  11
 41.356313783318
  21
 126.31035469108
  31
0.0
   0
LINE
   5
F7
 100
AcDbEntity
   8
LEVEL001
 370
15
 100
AcDbLine
   6
CONTINUOUS
  62
8
  10
 40.856313783318
  20
 123.31035469108
  30
0.0
  11
 40.856313783318
  21
 124.81035469108
  31
0.0
   0
LINE
   5
F8
 100
AcDbEntity
   8
LEVEL001
 370
15
 100
AcDbLine
   6
CONTINUOUS
  62
8
  10
 40.856313783318
  20
 126.31035469108
  30
0.0
  11
 40.856313783318
  21
 124.81035469108
  31
0.0
   0
SOLID
   5
F9
 100
AcDbEntity
   8
LEVEL001
 100
AcDbTrace
   6
CONTINUOUS
  62
8
  10
 40.856313783318
  20
 123.31035469108
  30
0.0
  11
 41.032640764026
  21
 124.31035469108
  31
0.0
  12
 40.679986802609
  22
 124.31035469108
  32
0.0
  13
 40.679986802609
  23
 124.31035469108
  33
0.0
   0
SOLID
   5
FA
 100
AcDbEntity
   8
LEVEL001
 100
AcDbTrace
   6
CONTINUOUS
  62
8
  10
 40.856313783318
  20
 126.31035469108
  30
0.0
  11
 40.679986802609
  21
 125.31035469108
  31
0.0
  12
 41.032640764026
  22
 125.31035469108
  32
0.0
  13
 41.032640764026
  23
 125.31035469108
  33
0.0
   0
MTEXT
   5
FB
 100
AcDbEntity
   8
LEVEL001
 370
15
  62
8
 100
AcDbMText
  10
 40.356313783318
  20
 124.81035469108
  30
0.0
  40
 1.2500000000000
  41
0.0
  71
8
  72
1
   1
\A1;3
   7
GMM002
  11
0.0
  21
 1.0000000000000
  31
0.0
   0
ENDBLK
   5
FC
 100
AcDbEntity
   8
0
 100
AcDbBlockEnd
   0
BLOCK
   5
FD
 100
AcDbEntity
   8
0
 100
AcDbBlockBegin
   2
*D6
  70
65
  10
0.0
  20
0.0
  30
0.0
   3
*D6
   0
LINE
   5
FE
 100
AcDbEntity
   8
LEVEL001
 370
15
 100
AcDbLine
   6
CONTINUOUS
  62
8
  10
 35.356313783318
  20
 123.31035469108
  30
0.0
  11
 38.356313783318
  21
 123.31035469108
  31
0.0
   0
LINE
   5
FF
 100
AcDbEntity
   8
LEVEL001
 370
15
 100
AcDbLine
   6
CONTINUOUS
  62
8
  10
 29.356313783223
  20
 125.51035469108
  30
0.0
  11
 38.356313783318
  21
 125.51035469108
  31
0.0
   0
LINE
   5
100
 100
AcDbEntity
   8
LEVEL001
 370
15
 100
AcDbLine
   6
CONTINUOUS
  62
8
  10
 37.856313783318
  20
 119.27900038946
  30
0.0
  11
 37.856313783318
  21
 124.41035469108
  31
0.0
   0
LINE
   5
101
 100
AcDbEntity
   8
LEVEL001
 370
15
 100
AcDbLine
   6
CONTINUOUS
  62
8
  10
 37.856313783318
  20
 126.76035469108
  30
0.0
  11
 37.856313783318
  21
 124.41035469108
  31
0.0
   0
SOLID
   5
102
 100
AcDbEntity
   8
LEVEL001
 100
AcDbTrace
   6
CONTINUOUS
  62
8
  10
 37.856313783318
  20
 123.31035469108
  30
0.0
  11
 37.679986802609
  21
 122.31035469108
  31
0.0
  12
 38.032640764026
  22
 122.31035469108
  32
0.0
  13
 38.032640764026
  23
 122.31035469108
  33
0.0
   0
SOLID
   5
103
 100
AcDbEntity
   8
LEVEL001
 100
AcDbTrace
   6
CONTINUOUS
  62
8
  10
 37.856313783318
  20
 125.51035469108
  30
0.0
  11
 38.032640764026
  21
 126.51035469108
  31
0.0
  12
 37.679986802609
  22
 126.51035469108
  32
0.0
  13
 37.679986802609
  23
 126.51035469108
  33
0.0
   0
MTEXT
   5
104
 100
AcDbEntity
   8
LEVEL001
 370
15
  62
8
 100
AcDbMText
  10
 37.625951662907
  20
 122.02900038946
  30
0.0
  40
 1.2500000000000
  41
0.0
  71
9
  72
1
   1
\A1;2.2
   7
GMM002
  11
0.0
  21
 1.0000000000000
  31
0.0
   0
ENDBLK
   5
105
 100
AcDbEntity
   8
0
 100
AcDbBlockEnd
   0
BLOCK
   5
106
 100
AcDbEntity
   8
0
 100
AcDbBlockBegin
   2
*D7
  70
65
  10
0.0
  20
0.0
  30
0.0
   3
*D7
   0
LINE
   5
107
 100
AcDbEntity
   8
LEVEL001
 370
15
 100
AcDbLine
   6
CONTINUOUS
  62
8
  10
 18.956313783318
  20
 124.11035469108
  30
0.0
  11
 12.004670198376
  21
 124.11035469108
  31
0.0
   0
LINE
   5
108
 100
AcDbEntity
   8
LEVEL001
 370
15
 100
AcDbLine
   6
CONTINUOUS
  62
8
  10
 13.856313783318
  20
 126.31035469108
  30
0.0
  11
 12.004670198376
  21
 126.31035469108
  31
0.0
   0
LINE
   5
109
 100
AcDbEntity
   8
LEVEL001
 370
15
 100
AcDbLine
   6
CONTINUOUS
  62
8
  10
 12.504670198376
  20
 122.86035469108
  30
0.0
  11
 12.504670198376
  21
 125.21035469108
  31
0.0
   0
LINE
   5
10A
 100
AcDbEntity
   8
LEVEL001
 370
15
 100
AcDbLine
   6
CONTINUOUS
  62
8
  10
 12.504670198376
  20
 127.56035469108
  30
0.0
  11
 12.504670198376
  21
 125.21035469108
  31
0.0
   0
SOLID
   5
10B
 100
AcDbEntity
   8
LEVEL001
 100
AcDbTrace
   6
CONTINUOUS
  62
8
  10
 12.504670198376
  20
 124.11035469108
  30
0.0
  11
 12.328343217667
  21
 123.11035469108
  31
0.0
  12
 12.680997179084
  22
 123.11035469108
  32
0.0
  13
 12.680997179084
  23
 123.11035469108
  33
0.0
   0
SOLID
   5
10C
 100
AcDbEntity
   8
LEVEL001
 100
AcDbTrace
   6
CONTINUOUS
  62
8
  10
 12.504670198376
  20
 126.31035469108
  30
0.0
  11
 12.680997179084
  21
 127.31035469108
  31
0.0
  12
 12.328343217667
  22
 127.31035469108
  32
0.0
  13
 12.328343217667
  23
 127.31035469108
  33
0.0
   0
MTEXT
   5
10D
 100
AcDbEntity
   8
LEVEL001
 370
15
  62
8
 100
AcDbMText
  10
 12.004670198376
  20
 125.21035469108
  30
0.0
  40
 1.2500000000000
  41
0.0
  71
8
  72
1
   1
\A1;2.2
   7
GMM002
  11
0.0
  21
 1.0000000000000
  31
0.0
   0
ENDBLK
   5
10E
 100
AcDbEntity
   8
0
 100
AcDbBlockEnd
   0
BLOCK
   5
10F
 100
AcDbEntity
   8
0
 100
AcDbBlockBegin
   2
*D8
  70
65
  10
0.0
  20
0.0
  30
0.0
   3
*D8
   0
LINE
   5
110
 100
AcDbEntity
   8
LEVEL001
 370
15
 100
AcDbLine
   6
CONTINUOUS
  62
8
  10
 14.356313783318
  20
 126.81035469108
  30
0.0
  11
 14.356313783318
  21
 131.81035469108
  31
0.0
   0
LINE
   5
111
 100
AcDbEntity
   8
LEVEL001
 370
15
 100
AcDbLine
   6
CONTINUOUS
  62
8
  10
 14.356313783318
  20
 131.31035469108
  30
0.0
  11
 17.856313783318
  21
 131.31035469108
  31
0.0
   0
LINE
   5
112
 100
AcDbEntity
   8
LEVEL001
 370
15
 100
AcDbLine
   6
CONTINUOUS
  62
8
  10
 21.356313783318
  20
 131.31035469108
  30
0.0
  11
 17.856313783318
  21
 131.31035469108
  31
0.0
   0
SOLID
   5
113
 100
AcDbEntity
   8
LEVEL001
 100
AcDbTrace
   6
CONTINUOUS
  62
8
  10
 14.356313783318
  20
 131.31035469108
  30
0.0
  11
 15.356313783318
  21
 131.13402771037
  31
0.0
  12
 15.356313783318
  22
 131.48668167178
  32
0.0
  13
 15.356313783318
  23
 131.48668167178
  33
0.0
   0
SOLID
   5
114
 100
AcDbEntity
   8
LEVEL001
 100
AcDbTrace
   6
CONTINUOUS
  62
8
  10
 21.356313783318
  20
 131.31035469108
  30
0.0
  11
 20.356313783318
  21
 131.48668167178
  31
0.0
  12
 20.356313783318
  22
 131.13402771037
  32
0.0
  13
 20.356313783318
  23
 131.13402771037
  33
0.0
   0
MTEXT
   5
115
 100
AcDbEntity
   8
LEVEL001
 370
15
  62
8
 100
AcDbMText
  10
 17.856313783318
  20
 131.81035469108
  30
0.0
  40
 1.2500000000000
  41
0.0
  71
8
  72
1
   1
\A1;7
   7
GMM002
   0
ENDBLK
   5
116
 100
AcDbEntity
   8
0
 100
AcDbBlockEnd
   0
BLOCK
   5
117
 100
AcDbEntity
   8
0
 100
AcDbBlockBegin
   2
*D9
  70
65
  10
0.0
  20
0.0
  30
0.0
   3
*D9
   0
LINE
   5
118
 100
AcDbEntity
   8
LEVEL001
 370
15
 100
AcDbLine
   6
CONTINUOUS
  62
8
  10
 21.356313783318
  20
 131.31035469108
  30
0.0
  11
 21.356313783318
  21
 131.81035469108
  31
0.0
   0
LINE
   5
119
 100
AcDbEntity
   8
LEVEL001
 370
15
 100
AcDbLine
   6
CONTINUOUS
  62
8
  10
 34.856313783318
  20
 126.81035469108
  30
0.0
  11
 34.856313783318
  21
 131.81035469108
  31
0.0
   0
LINE
   5
11A
 100
AcDbEntity
   8
LEVEL001
 370
15
 100
AcDbLine
   6
CONTINUOUS
  62
8
  10
 21.356313783318
  20
 131.31035469108
  30
0.0
  11
 28.106313783318
  21
 131.31035469108
  31
0.0
   0
LINE
   5
11B
 100
AcDbEntity
   8
LEVEL001
 370
15
 100
AcDbLine
   6
CONTINUOUS
  62
8
  10
 34.856313783318
  20
 131.31035469108
  30
0.0
  11
 28.106313783318
  21
 131.31035469108
  31
0.0
   0
SOLID
   5
11C
 100
AcDbEntity
   8
LEVEL001
 100
AcDbTrace
   6
CONTINUOUS
  62
8
  10
 21.356313783318
  20
 131.31035469108
  30
0.0
  11
 22.356313783318
  21
 131.13402771037
  31
0.0
  12
 22.356313783318
  22
 131.48668167178
  32
0.0
  13
 22.356313783318
  23
 131.48668167178
  33
0.0
   0
SOLID
   5
11D
 100
AcDbEntity
   8
LEVEL001
 100
AcDbTrace
   6
CONTINUOUS
  62
8
  10
 34.856313783318
  20
 131.31035469108
  30
0.0
  11
 33.856313783318
  21
 131.48668167178
  31
0.0
  12
 33.856313783318
  22
 131.13402771037
  32
0.0
  13
 33.856313783318
  23
 131.13402771037
  33
0.0
   0
MTEXT
   5
11E
 100
AcDbEntity
   8
LEVEL001
 370
15
  62
8
 100
AcDbMText
  10
 28.106313783318
  20
 131.81035469108
  30
0.0
  40
 1.2500000000000
  41
0.0
  71
8
  72
1
   1
\A1;13.5
   7
GMM002
   0
ENDBLK
   5
11F
 100
AcDbEntity
   8
0
 100
AcDbBlockEnd
   0
BLOCK
   5
120
 100
AcDbEntity
   8
0
 100
AcDbBlockBegin
   2
*D10
  70
65
  10
0.0
  20
0.0
  30
0.0
   3
*D10
   0
LINE
   5
121
 100
AcDbEntity
   8
LEVEL001
 370
15
 100
AcDbLine
   6
CONTINUOUS
  62
8
  10
 19.456313783464
  20
 126.31035469108
  30
0.0
  11
 19.456313783464
  21
 129.31035469108
  31
0.0
   0
LINE
   5
122
 100
AcDbEntity
   8
LEVEL001
 370
15
 100
AcDbLine
   6
CONTINUOUS
  62
8
  10
 23.256313783171
  20
 126.31035469108
  30
0.0
  11
 23.256313783171
  21
 129.31035469108
  31
0.0
   0
LINE
   5
123
 100
AcDbEntity
   8
LEVEL001
 370
15
 100
AcDbLine
   6
CONTINUOUS
  62
8
  10
 16.540617848970
  20
 128.81035469108
  30
0.0
  11
 21.356313783318
  21
 128.81035469108
  31
0.0
   0
LINE
   5
124
 100
AcDbEntity
   8
LEVEL001
 370
15
 100
AcDbLine
   6
CONTINUOUS
  62
8
  10
 23.256313783171
  20
 128.81035469108
  30
0.0
  11
 21.356313783318
  21
 128.81035469108
  31
0.0
   0
SOLID
   5
125
 100
AcDbEntity
   8
LEVEL001
 100
AcDbTrace
   6
CONTINUOUS
  62
8
  10
 19.456313783464
  20
 128.81035469108
  30
0.0
  11
 20.456313783464
  21
 128.63402771037
  31
0.0
  12
 20.456313783464
  22
 128.98668167178
  32
0.0
  13
 20.456313783464
  23
 128.98668167178
  33
0.0
   0
SOLID
   5
126
 100
AcDbEntity
   8
LEVEL001
 100
AcDbTrace
   6
CONTINUOUS
  62
8
  10
 23.256313783171
  20
 128.81035469108
  30
0.0
  11
 22.256313783171
  21
 128.98668167178
  31
0.0
  12
 22.256313783171
  22
 128.63402771037
  32
0.0
  13
 22.256313783171
  23
 128.63402771037
  33
0.0
   0
MTEXT
   5
127
 100
AcDbEntity
   8
LEVEL001
 370
15
  62
8
 100
AcDbMText
  10
 19.290617848970
  20
 129.10240274600
  30
0.0
  40
 1.2500000000000
  41
0.0
  71
9
  72
1
   1
\A1;3.8
   7
GMM002
   0
ENDBLK
   5
128
 100
AcDbEntity
   8
0
 100
AcDbBlockEnd
   0
BLOCK
   5
129
 100
AcDbEntity
   8
0
 100
AcDbBlockBegin
   2
*D11
  70
65
  10
0.0
  20
0.0
  30
0.0
   3
*D11
   0
LINE
   5
12A
 100
AcDbEntity
   8
LEVEL001
 370
15
 100
AcDbLine
   6
CONTINUOUS
  62
8
  10
 14.356313783318
  20
 131.81035469108
  30
0.0
  11
 14.356313783318
  21
 134.31035469108
  31
0.0
   0
LINE
   5
12B
 100
AcDbEntity
   8
LEVEL001
 370
15
 100
AcDbLine
   6
CONTINUOUS
  62
8
  10
 34.856313783318
  20
 131.81035469108
  30
0.0
  11
 34.856313783318
  21
 134.31035469108
  31
0.0
   0
LINE
   5
12C
 100
AcDbEntity
   8
LEVEL001
 370
15
 100
AcDbLine
   6
CONTINUOUS
  62
8
  10
 14.356313783318
  20
 133.81035469108
  30
0.0
  11
 24.606313783318
  21
 133.81035469108
  31
0.0
   0
LINE
   5
12D
 100
AcDbEntity
   8
LEVEL001
 370
15
 100
AcDbLine
   6
CONTINUOUS
  62
8
  10
 34.856313783318
  20
 133.81035469108
  30
0.0
  11
 24.606313783318
  21
 133.81035469108
  31
0.0
   0
SOLID
   5
12E
 100
AcDbEntity
   8
LEVEL001
 100
AcDbTrace
   6
CONTINUOUS
  62
8
  10
 14.356313783318
  20
 133.81035469108
  30
0.0
  11
 15.356313783318
  21
 133.63402771037
  31
0.0
  12
 15.356313783318
  22
 133.98668167178
  32
0.0
  13
 15.356313783318
  23
 133.98668167178
  33
0.0
   0
SOLID
   5
12F
 100
AcDbEntity
   8
LEVEL001
 100
AcDbTrace
   6
CONTINUOUS
  62
8
  10
 34.856313783318
  20
 133.81035469108
  30
0.0
  11
 33.856313783318
  21
 133.98668167178
  31
0.0
  12
 33.856313783318
  22
 133.63402771037
  32
0.0
  13
 33.856313783318
  23
 133.63402771037
  33
0.0
   0
MTEXT
   5
130
 100
AcDbEntity
   8
LEVEL001
 370
15
  62
8
 100
AcDbMText
  10
 24.606313783318
  20
 134.31035469108
  30
0.0
  40
 1.2500000000000
  41
0.0
  71
8
  72
1
   1
\A1;20.5
   7
GMM002
   0
ENDBLK
   5
131
 100
AcDbEntity
   8
0
 100
AcDbBlockEnd
   0
BLOCK
   5
132
 100
AcDbEntity
   8
0
 100
AcDbBlockBegin
   2
*D12
  70
65
  10
0.0
  20
0.0
  30
0.0
   3
*D12
   0
LINE
   5
133
 100
AcDbEntity
   8
LEVEL001
 370
15
 100
AcDbLine
   6
CONTINUOUS
  62
8
  10
 56.529633867277
  20
 124.51035469108
  30
0.0
  11
 51.584481113546
  21
 124.51035469108
  31
0.0
   0
LINE
   5
134
 100
AcDbEntity
   8
LEVEL001
 370
15
 100
AcDbLine
   6
CONTINUOUS
  62
8
  10
 52.929633867277
  20
 126.31035469108
  30
0.0
  11
 51.584481113546
  21
 126.31035469108
  31
0.0
   0
LINE
   5
135
 100
AcDbEntity
   8
LEVEL001
 370
15
 100
AcDbLine
   6
CONTINUOUS
  62
8
  10
 52.084481113546
  20
 123.26035469108
  30
0.0
  11
 52.084481113546
  21
 125.41035469108
  31
0.0
   0
LINE
   5
136
 100
AcDbEntity
   8
LEVEL001
 370
15
 100
AcDbLine
   6
CONTINUOUS
  62
8
  10
 52.084481113546
  20
 127.56035469108
  30
0.0
  11
 52.084481113546
  21
 125.41035469108
  31
0.0
   0
SOLID
   5
137
 100
AcDbEntity
   8
LEVEL001
 100
AcDbTrace
   6
CONTINUOUS
  62
8
  10
 52.084481113546
  20
 124.51035469108
  30
0.0
  11
 51.908154132838
  21
 123.51035469108
  31
0.0
  12
 52.260808094255
  22
 123.51035469108
  32
0.0
  13
 52.260808094255
  23
 123.51035469108
  33
0.0
   0
SOLID
   5
138
 100
AcDbEntity
   8
LEVEL001
 100
AcDbTrace
   6
CONTINUOUS
  62
8
  10
 52.084481113546
  20
 126.31035469108
  30
0.0
  11
 52.260808094255
  21
 127.31035469108
  31
0.0
  12
 51.908154132838
  22
 127.31035469108
  32
0.0
  13
 51.908154132838
  23
 127.31035469108
  33
0.0
   0
MTEXT
   5
139
 100
AcDbEntity
   8
LEVEL001
 370
15
  62
8
 100
AcDbMText
  10
 51.584481113546
  20
 125.41035469108
  30
0.0
  40
 1.2500000000000
  41
0.0
  71
8
  72
1
   1
\A1;1.8
   7
GMM002
  11
0.0
  21
 1.0000000000000
  31
0.0
   0
ENDBLK
   5
13A
 100
AcDbEntity
   8
0
 100
AcDbBlockEnd
   0
BLOCK
   5
13B
 100
AcDbEntity
   8
0
 100
AcDbBlockBegin
   2
*D13
  70
65
  10
0.0
  20
0.0
  30
0.0
   3
*D13
   0
LINE
   5
13C
 100
AcDbEntity
   8
LEVEL001
 370
15
 100
AcDbLine
   6
CONTINUOUS
  62
8
  10
 70.929633867277
  20
 123.31035469108
  30
0.0
  11
 77.202330083798
  21
 123.31035469108
  31
0.0
   0
LINE
   5
13D
 100
AcDbEntity
   8
LEVEL001
 370
15
 100
AcDbLine
   6
CONTINUOUS
  62
8
  10
 70.929633867277
  20
 126.31035469108
  30
0.0
  11
 77.202330083798
  21
 126.31035469108
  31
0.0
   0
LINE
   5
13E
 100
AcDbEntity
   8
LEVEL001
 370
15
 100
AcDbLine
   6
CONTINUOUS
  62
8
  10
 76.702330083798
  20
 123.31035469108
  30
0.0
  11
 76.702330083798
  21
 124.81035469108
  31
0.0
   0
LINE
   5
13F
 100
AcDbEntity
   8
LEVEL001
 370
15
 100
AcDbLine
   6
CONTINUOUS
  62
8
  10
 76.702330083798
  20
 126.31035469108
  30
0.0
  11
 76.702330083798
  21
 124.81035469108
  31
0.0
   0
SOLID
   5
140
 100
AcDbEntity
   8
LEVEL001
 100
AcDbTrace
   6
CONTINUOUS
  62
8
  10
 76.702330083798
  20
 123.31035469108
  30
0.0
  11
 76.878657064506
  21
 124.31035469108
  31
0.0
  12
 76.526003103089
  22
 124.31035469108
  32
0.0
  13
 76.526003103089
  23
 124.31035469108
  33
0.0
   0
SOLID
   5
141
 100
AcDbEntity
   8
LEVEL001
 100
AcDbTrace
   6
CONTINUOUS
  62
8
  10
 76.702330083798
  20
 126.31035469108
  30
0.0
  11
 76.526003103089
  21
 125.31035469108
  31
0.0
  12
 76.878657064506
  22
 125.31035469108
  32
0.0
  13
 76.878657064506
  23
 125.31035469108
  33
0.0
   0
MTEXT
   5
142
 100
AcDbEntity
   8
LEVEL001
 370
15
  62
8
 100
AcDbMText
  10
 76.202330083798
  20
 124.81035469108
  30
0.0
  40
 1.2500000000000
  41
0.0
  71
8
  72
1
   1
\A1;3
   7
GMM002
  11
0.0
  21
 1.0000000000000
  31
0.0
   0
ENDBLK
   5
143
 100
AcDbEntity
   8
0
 100
AcDbBlockEnd
   0
BLOCK
   5
144
 100
AcDbEntity
   8
0
 100
AcDbBlockBegin
   2
*D14
  70
65
  10
0.0
  20
0.0
  30
0.0
   3
*D14
   0
LINE
   5
145
 100
AcDbEntity
   8
LEVEL001
 370
15
 100
AcDbLine
   6
CONTINUOUS
  62
8
  10
 70.929633867277
  20
 123.31035469108
  30
0.0
  11
 73.955190495697
  21
 123.31035469108
  31
0.0
   0
LINE
   5
146
 100
AcDbEntity
   8
LEVEL001
 370
15
 100
AcDbLine
   6
CONTINUOUS
  62
8
  10
 66.429633867182
  20
 125.51035469108
  30
0.0
  11
 73.955190495697
  21
 125.51035469108
  31
0.0
   0
LINE
   5
147
 100
AcDbEntity
   8
LEVEL001
 370
15
 100
AcDbLine
   6
CONTINUOUS
  62
8
  10
 73.455190495697
  20
 119.39646797146
  30
0.0
  11
 73.455190495697
  21
 124.41035469108
  31
0.0
   0
LINE
   5
148
 100
AcDbEntity
   8
LEVEL001
 370
15
 100
AcDbLine
   6
CONTINUOUS
  62
8
  10
 73.455190495697
  20
 126.76035469108
  30
0.0
  11
 73.455190495697
  21
 124.41035469108
  31
0.0
   0
SOLID
   5
149
 100
AcDbEntity
   8
LEVEL001
 100
AcDbTrace
   6
CONTINUOUS
  62
8
  10
 73.455190495697
  20
 123.31035469108
  30
0.0
  11
 73.278863514989
  21
 122.31035469108
  31
0.0
  12
 73.631517476406
  22
 122.31035469108
  32
0.0
  13
 73.631517476406
  23
 122.31035469108
  33
0.0
   0
SOLID
   5
14A
 100
AcDbEntity
   8
LEVEL001
 100
AcDbTrace
   6
CONTINUOUS
  62
8
  10
 73.455190495697
  20
 125.51035469108
  30
0.0
  11
 73.631517476406
  21
 126.51035469108
  31
0.0
  12
 73.278863514989
  22
 126.51035469108
  32
0.0
  13
 73.278863514989
  23
 126.51035469108
  33
0.0
   0
MTEXT
   5
14B
 100
AcDbEntity
   8
LEVEL001
 370
15
  62
8
 100
AcDbMText
  10
 73.077616124988
  20
 122.14646797146
  30
0.0
  40
 1.2500000000000
  41
0.0
  71
9
  72
1
   1
\A1;2.2
   7
GMM002
  11
0.0
  21
 1.0000000000000
  31
0.0
   0
ENDBLK
   5
14C
 100
AcDbEntity
   8
0
 100
AcDbBlockEnd
   0
BLOCK
   5
14D
 100
AcDbEntity
   8
0
 100
AcDbBlockBegin
   2
*D15
  70
65
  10
0.0
  20
0.0
  30
0.0
   3
*D15
   0
LINE
   5
14E
 100
AcDbEntity
   8
LEVEL001
 370
15
 100
AcDbLine
   6
CONTINUOUS
  62
8
  10
 62.929633867372
  20
 125.01035469108
  30
0.0
  11
 62.929633867372
  21
 119.81035469108
  31
0.0
   0
LINE
   5
14F
 100
AcDbEntity
   8
LEVEL001
 370
15
 100
AcDbLine
   6
CONTINUOUS
  62
8
  10
 65.929633867182
  20
 125.01035469108
  30
0.0
  11
 65.929633867182
  21
 119.81035469108
  31
0.0
   0
LINE
   5
150
 100
AcDbEntity
   8
LEVEL001
 370
15
 100
AcDbLine
   6
CONTINUOUS
  62
8
  10
 62.929633867372
  20
 120.31035469108
  30
0.0
  11
 64.429633867277
  21
 120.31035469108
  31
0.0
   0
LINE
   5
151
 100
AcDbEntity
   8
LEVEL001
 370
15
 100
AcDbLine
   6
CONTINUOUS
  62
8
  10
 65.929633867182
  20
 120.31035469108
  30
0.0
  11
 64.429633867277
  21
 120.31035469108
  31
0.0
   0
SOLID
   5
152
 100
AcDbEntity
   8
LEVEL001
 100
AcDbTrace
   6
CONTINUOUS
  62
8
  10
 62.929633867372
  20
 120.31035469108
  30
0.0
  11
 63.929633867372
  21
 120.13402771037
  31
0.0
  12
 63.929633867372
  22
 120.48668167178
  32
0.0
  13
 63.929633867372
  23
 120.48668167178
  33
0.0
   0
SOLID
   5
153
 100
AcDbEntity
   8
LEVEL001
 100
AcDbTrace
   6
CONTINUOUS
  62
8
  10
 65.929633867182
  20
 120.31035469108
  30
0.0
  11
 64.929633867182
  21
 120.48668167178
  31
0.0
  12
 64.929633867182
  22
 120.13402771037
  32
0.0
  13
 64.929633867182
  23
 120.13402771037
  33
0.0
   0
MTEXT
   5
154
 100
AcDbEntity
   8
LEVEL001
 370
15
  62
8
 100
AcDbMText
  10
 64.429633867277
  20
 120.81035469108
  30
0.0
  40
 1.2500000000000
  41
0.0
  71
8
  72
1
   1
\A1;3
   7
GMM002
   0
ENDBLK
   5
155
 100
AcDbEntity
   8
0
 100
AcDbBlockEnd
   0
BLOCK
   5
156
 100
AcDbEntity
   8
0
 100
AcDbBlockBegin
   2
*D16
  70
65
  10
0.0
  20
0.0
  30
0.0
   3
*D16
   0
LINE
   5
157
 100
AcDbEntity
   8
LEVEL001
 370
15
 100
AcDbLine
   6
CONTINUOUS
  62
8
  10
 64.429633867277
  20
 116.35483308715
  30
0.0
  11
 64.429633867277
  21
 113.81035469108
  31
0.0
   0
LINE
   5
158
 100
AcDbEntity
   8
LEVEL001
 370
15
 100
AcDbLine
   6
CONTINUOUS
  62
8
  10
 70.429633867277
  20
 122.81035469108
  30
0.0
  11
 70.429633867277
  21
 113.81035469108
  31
0.0
   0
LINE
   5
159
 100
AcDbEntity
   8
LEVEL001
 370
15
 100
AcDbLine
   6
CONTINUOUS
  62
8
  10
 64.429633867277
  20
 114.31035469108
  30
0.0
  11
 67.429633867277
  21
 114.31035469108
  31
0.0
   0
LINE
   5
15A
 100
AcDbEntity
   8
LEVEL001
 370
15
 100
AcDbLine
   6
CONTINUOUS
  62
8
  10
 70.429633867277
  20
 114.31035469108
  30
0.0
  11
 67.429633867277
  21
 114.31035469108
  31
0.0
   0
SOLID
   5
15B
 100
AcDbEntity
   8
LEVEL001
 100
AcDbTrace
   6
CONTINUOUS
  62
8
  10
 64.429633867277
  20
 114.31035469108
  30
0.0
  11
 65.429633867277
  21
 114.13402771037
  31
0.0
  12
 65.429633867277
  22
 114.48668167178
  32
0.0
  13
 65.429633867277
  23
 114.48668167178
  33
0.0
   0
SOLID
   5
15C
 100
AcDbEntity
   8
LEVEL001
 100
AcDbTrace
   6
CONTINUOUS
  62
8
  10
 70.429633867277
  20
 114.31035469108
  30
0.0
  11
 69.429633867277
  21
 114.48668167178
  31
0.0
  12
 69.429633867277
  22
 114.13402771037
  32
0.0
  13
 69.429633867277
  23
 114.13402771037
  33
0.0
   0
MTEXT
   5
15D
 100
AcDbEntity
   8
LEVEL001
 370
15
  62
8
 100
AcDbMText
  10
 67.429633867277
  20
 114.81035469108
  30
0.0
  40
 1.2500000000000
  41
0.0
  71
8
  72
1
   1
\A1;6
   7
GMM002
   0
ENDBLK
   5
15E
 100
AcDbEntity
   8
0
 100
AcDbBlockEnd
   0
BLOCK
   5
15F
 100
AcDbEntity
   8
0
 100
AcDbBlockBegin
   2
*D17
  70
65
  10
0.0
  20
0.0
  30
0.0
   3
*D17
   0
LINE
   5
160
 100
AcDbEntity
   8
LEVEL001
 370
15
 100
AcDbLine
   6
CONTINUOUS
  62
8
  10
 61.083614678782
  20
 122.81035469108
  30
0.0
  11
 61.083614678782
  21
 116.81035469108
  31
0.0
   0
LINE
   5
161
 100
AcDbEntity
   8
LEVEL001
 370
15
 100
AcDbLine
   6
CONTINUOUS
  62
8
  10
 67.775653055772
  20
 122.81035469108
  30
0.0
  11
 67.775653055772
  21
 116.81035469108
  31
0.0
   0
LINE
   5
162
 100
AcDbEntity
   8
LEVEL001
 370
15
 100
AcDbLine
   6
CONTINUOUS
  62
8
  10
 61.083614678782
  20
 117.31035469108
  30
0.0
  11
 64.429633867277
  21
 117.31035469108
  31
0.0
   0
LINE
   5
163
 100
AcDbEntity
   8
LEVEL001
 370
15
 100
AcDbLine
   6
CONTINUOUS
  62
8
  10
 67.775653055772
  20
 117.31035469108
  30
0.0
  11
 64.429633867277
  21
 117.31035469108
  31
0.0
   0
SOLID
   5
164
 100
AcDbEntity
   8
LEVEL001
 100
AcDbTrace
   6
CONTINUOUS
  62
8
  10
 61.083614678782
  20
 117.31035469108
  30
0.0
  11
 62.083614678782
  21
 117.13402771037
  31
0.0
  12
 62.083614678782
  22
 117.48668167178
  32
0.0
  13
 62.083614678782
  23
 117.48668167178
  33
0.0
   0
SOLID
   5
165
 100
AcDbEntity
   8
LEVEL001
 100
AcDbTrace
   6
CONTINUOUS
  62
8
  10
 67.775653055772
  20
 117.31035469108
  30
0.0
  11
 66.775653055772
  21
 117.48668167178
  31
0.0
  12
 66.775653055772
  22
 117.13402771037
  32
0.0
  13
 66.775653055772
  23
 117.13402771037
  33
0.0
   0
MTEXT
   5
166
 100
AcDbEntity
   8
LEVEL001
 370
15
  62
8
 100
AcDbMText
  10
 64.429633867277
  20
 117.81035469108
  30
0.0
  40
 1.2500000000000
  41
0.0
  71
8
  72
1
   1
\A1;6.7
   7
GMM002
   0
ENDBLK
   5
167
 100
AcDbEntity
   8
0
 100
AcDbBlockEnd
   0
BLOCK
   5
168
 100
AcDbEntity
   8
0
 100
AcDbBlockBegin
   2
*D18
  70
65
  10
0.0
  20
0.0
  30
0.0
   3
*D18
   0
LINE
   5
169
 100
AcDbEntity
   8
LEVEL001
 370
15
 100
AcDbLine
   6
CONTINUOUS
  62
8
  10
 53.429633867277
  20
 122.81035469108
  30
0.0
  11
 53.429633867277
  21
 113.81035469108
  31
0.0
   0
LINE
   5
16A
 100
AcDbEntity
   8
LEVEL001
 370
15
 100
AcDbLine
   6
CONTINUOUS
  62
8
  10
 53.429633867277
  20
 114.31035469108
  30
0.0
  11
 58.929633867277
  21
 114.31035469108
  31
0.0
   0
LINE
   5
16B
 100
AcDbEntity
   8
LEVEL001
 370
15
 100
AcDbLine
   6
CONTINUOUS
  62
8
  10
 64.429633867277
  20
 114.31035469108
  30
0.0
  11
 58.929633867277
  21
 114.31035469108
  31
0.0
   0
SOLID
   5
16C
 100
AcDbEntity
   8
LEVEL001
 100
AcDbTrace
   6
CONTINUOUS
  62
8
  10
 53.429633867277
  20
 114.31035469108
  30
0.0
  11
 54.429633867277
  21
 114.13402771037
  31
0.0
  12
 54.429633867277
  22
 114.48668167178
  32
0.0
  13
 54.429633867277
  23
 114.48668167178
  33
0.0
   0
SOLID
   5
16D
 100
AcDbEntity
   8
LEVEL001
 100
AcDbTrace
   6
CONTINUOUS
  62
8
  10
 64.429633867277
  20
 114.31035469108
  30
0.0
  11
 63.429633867277
  21
 114.48668167178
  31
0.0
  12
 63.429633867277
  22
 114.13402771037
  32
0.0
  13
 63.429633867277
  23
 114.13402771037
  33
0.0
   0
MTEXT
   5
16E
 100
AcDbEntity
   8
LEVEL001
 370
15
  62
8
 100
AcDbMText
  10
 58.929633867277
  20
 114.81035469108
  30
0.0
  40
 1.2500000000000
  41
0.0
  71
8
  72
1
   1
\A1;11
   7
GMM002
   0
ENDBLK
   5
16F
 100
AcDbEntity
   8
0
 100
AcDbBlockEnd
   0
BLOCK
   5
170
 100
AcDbEntity
   8
0
 100
AcDbBlockBegin
   2
*D19
  70
65
  10
0.0
  20
0.0
  30
0.0
   3
*D19
   0
LINE
   5
171
 100
AcDbEntity
   8
LEVEL001
 370
15
 100
AcDbLine
   6
CONTINUOUS
  62
8
  10
 57.029633867423
  20
 126.31035469108
  30
0.0
  11
 57.029633867423
  21
 129.31035469108
  31
0.0
   0
LINE
   5
172
 100
AcDbEntity
   8
LEVEL001
 370
15
 100
AcDbLine
   6
CONTINUOUS
  62
8
  10
 60.829633867131
  20
 126.31035469108
  30
0.0
  11
 60.829633867131
  21
 129.31035469108
  31
0.0
   0
LINE
   5
173
 100
AcDbEntity
   8
LEVEL001
 370
15
 100
AcDbLine
   6
CONTINUOUS
  62
8
  10
 53.903699466057
  20
 128.81035469108
  30
0.0
  11
 58.929633867277
  21
 128.81035469108
  31
0.0
   0
LINE
   5
174
 100
AcDbEntity
   8
LEVEL001
 370
15
 100
AcDbLine
   6
CONTINUOUS
  62
8
  10
 60.829633867131
  20
 128.81035469108
  30
0.0
  11
 58.929633867277
  21
 128.81035469108
  31
0.0
   0
SOLID
   5
175
 100
AcDbEntity
   8
LEVEL001
 100
AcDbTrace
   6
CONTINUOUS
  62
8
  10
 57.029633867423
  20
 128.81035469108
  30
0.0
  11
 58.029633867423
  21
 128.63402771037
  31
0.0
  12
 58.029633867423
  22
 128.98668167178
  32
0.0
  13
 58.029633867423
  23
 128.98668167178
  33
0.0
   0
SOLID
   5
176
 100
AcDbEntity
   8
LEVEL001
 100
AcDbTrace
   6
CONTINUOUS
  62
8
  10
 60.829633867131
  20
 128.81035469108
  30
0.0
  11
 59.829633867131
  21
 128.98668167178
  31
0.0
  12
 59.829633867131
  22
 128.63402771037
  32
0.0
  13
 59.829633867131
  23
 128.63402771037
  33
0.0
   0
MTEXT
   5
177
 100
AcDbEntity
   8
LEVEL001
 370
15
  62
8
 100
AcDbMText
  10
 56.653699466057
  20
 128.94933892703
  30
0.0
  40
 1.2500000000000
  41
0.0
  71
9
  72
1
   1
\A1;3.8
   7
GMM002
   0
ENDBLK
   5
178
 100
AcDbEntity
   8
0
 100
AcDbBlockEnd
   0
BLOCK
   5
179
 100
AcDbEntity
   8
0
 100
AcDbBlockBegin
   2
*D20
  70
65
  10
0.0
  20
0.0
  30
0.0
   3
*D20
   0
LINE
   5
17A
 100
AcDbEntity
   8
LEVEL001
 370
15
 100
AcDbLine
   6
CONTINUOUS
  62
8
  10
 53.429633867277
  20
 127.36123824053
  30
0.0
  11
 53.429633867277
  21
 134.31035469108
  31
0.0
   0
LINE
   5
17B
 100
AcDbEntity
   8
LEVEL001
 370
15
 100
AcDbLine
   6
CONTINUOUS
  62
8
  10
 70.429633867277
  20
 127.36123824053
  30
0.0
  11
 70.429633867277
  21
 134.31035469108
  31
0.0
   0
LINE
   5
17C
 100
AcDbEntity
   8
LEVEL001
 370
15
 100
AcDbLine
   6
CONTINUOUS
  62
8
  10
 53.429633867277
  20
 133.81035469108
  30
0.0
  11
 61.929633867277
  21
 133.81035469108
  31
0.0
   0
LINE
   5
17D
 100
AcDbEntity
   8
LEVEL001
 370
15
 100
AcDbLine
   6
CONTINUOUS
  62
8
  10
 70.429633867277
  20
 133.81035469108
  30
0.0
  11
 61.929633867277
  21
 133.81035469108
  31
0.0
   0
SOLID
   5
17E
 100
AcDbEntity
   8
LEVEL001
 100
AcDbTrace
   6
CONTINUOUS
  62
8
  10
 53.429633867277
  20
 133.81035469108
  30
0.0
  11
 54.429633867277
  21
 133.63402771037
  31
0.0
  12
 54.429633867277
  22
 133.98668167178
  32
0.0
  13
 54.429633867277
  23
 133.98668167178
  33
0.0
   0
SOLID
   5
17F
 100
AcDbEntity
   8
LEVEL001
 100
AcDbTrace
   6
CONTINUOUS
  62
8
  10
 70.429633867277
  20
 133.81035469108
  30
0.0
  11
 69.429633867277
  21
 133.98668167178
  31
0.0
  12
 69.429633867277
  22
 133.63402771037
  32
0.0
  13
 69.429633867277
  23
 133.63402771037
  33
0.0
   0
MTEXT
   5
180
 100
AcDbEntity
   8
LEVEL001
 370
15
  62
8
 100
AcDbMText
  10
 61.929633867277
  20
 134.31035469108
  30
0.0
  40
 1.2500000000000
  41
0.0
  71
8
  72
1
   1
\A1;17
   7
GMM002
   0
ENDBLK
   5
181
 100
AcDbEntity
   8
0
 100
AcDbBlockEnd
   0
BLOCK
   5
182
 100
AcDbEntity
   8
0
 100
AcDbBlockBegin
   2
*D21
  70
65
  10
0.0
  20
0.0
  30
0.0
   3
*D21
   0
LINE
   5
183
 100
AcDbEntity
   8
LEVEL001
 370
15
 100
AcDbLine
   6
CONTINUOUS
  62
8
  10
 53.429633867277
  20
 126.81035469108
  30
0.0
  11
 53.429633867277
  21
 131.81035469108
  31
0.0
   0
LINE
   5
184
 100
AcDbEntity
   8
LEVEL001
 370
15
 100
AcDbLine
   6
CONTINUOUS
  62
8
  10
 53.429633867277
  20
 131.31035469108
  30
0.0
  11
 56.179633867277
  21
 131.31035469108
  31
0.0
   0
LINE
   5
185
 100
AcDbEntity
   8
LEVEL001
 370
15
 100
AcDbLine
   6
CONTINUOUS
  62
8
  10
 58.929633867277
  20
 131.31035469108
  30
0.0
  11
 56.179633867277
  21
 131.31035469108
  31
0.0
   0
SOLID
   5
186
 100
AcDbEntity
   8
LEVEL001
 100
AcDbTrace
   6
CONTINUOUS
  62
8
  10
 53.429633867277
  20
 131.31035469108
  30
0.0
  11
 54.429633867277
  21
 131.13402771037
  31
0.0
  12
 54.429633867277
  22
 131.48668167178
  32
0.0
  13
 54.429633867277
  23
 131.48668167178
  33
0.0
   0
SOLID
   5
187
 100
AcDbEntity
   8
LEVEL001
 100
AcDbTrace
   6
CONTINUOUS
  62
8
  10
 58.929633867277
  20
 131.31035469108
  30
0.0
  11
 57.929633867277
  21
 131.48668167178
  31
0.0
  12
 57.929633867277
  22
 131.13402771037
  32
0.0
  13
 57.929633867277
  23
 131.13402771037
  33
0.0
   0
MTEXT
   5
188
 100
AcDbEntity
   8
LEVEL001
 370
15
  62
8
 100
AcDbMText
  10
 56.179633867277
  20
 131.81035469108
  30
0.0
  40
 1.2500000000000
  41
0.0
  71
8
  72
1
   1
\A1;5.5
   7
GMM002
   0
ENDBLK
   5
189
 100
AcDbEntity
   8
0
 100
AcDbBlockEnd
   0
BLOCK
   5
18A
 100
AcDbEntity
   8
0
 100
AcDbBlockBegin
   2
*D22
  70
65
  10
0.0
  20
0.0
  30
0.0
   3
*D22
   0
LINE
   5
18B
 100
AcDbEntity
   8
LEVEL001
 370
15
 100
AcDbLine
   6
CONTINUOUS
  62
8
  10
 58.929633867277
  20
 128.29144419019
  30
0.0
  11
 58.929633867277
  21
 131.81035469108
  31
0.0
   0
LINE
   5
18C
 100
AcDbEntity
   8
LEVEL001
 370
15
 100
AcDbLine
   6
CONTINUOUS
  62
8
  10
 70.429633867277
  20
 126.81035469108
  30
0.0
  11
 70.429633867277
  21
 131.81035469108
  31
0.0
   0
LINE
   5
18D
 100
AcDbEntity
   8
LEVEL001
 370
15
 100
AcDbLine
   6
CONTINUOUS
  62
8
  10
 58.929633867277
  20
 131.31035469108
  30
0.0
  11
 64.679633867277
  21
 131.31035469108
  31
0.0
   0
LINE
   5
18E
 100
AcDbEntity
   8
LEVEL001
 370
15
 100
AcDbLine
   6
CONTINUOUS
  62
8
  10
 70.429633867277
  20
 131.31035469108
  30
0.0
  11
 64.679633867277
  21
 131.31035469108
  31
0.0
   0
SOLID
   5
18F
 100
AcDbEntity
   8
LEVEL001
 100
AcDbTrace
   6
CONTINUOUS
  62
8
  10
 58.929633867277
  20
 131.31035469108
  30
0.0
  11
 59.929633867277
  21
 131.13402771037
  31
0.0
  12
 59.929633867277
  22
 131.48668167178
  32
0.0
  13
 59.929633867277
  23
 131.48668167178
  33
0.0
   0
SOLID
   5
190
 100
AcDbEntity
   8
LEVEL001
 100
AcDbTrace
   6
CONTINUOUS
  62
8
  10
 70.429633867277
  20
 131.31035469108
  30
0.0
  11
 69.429633867277
  21
 131.48668167178
  31
0.0
  12
 69.429633867277
  22
 131.13402771037
  32
0.0
  13
 69.429633867277
  23
 131.13402771037
  33
0.0
   0
MTEXT
   5
191
 100
AcDbEntity
   8
LEVEL001
 370
15
  62
8
 100
AcDbMText
  10
 64.679633867277
  20
 131.81035469108
  30
0.0
  40
 1.2500000000000
  41
0.0
  71
8
  72
1
   1
\A1;11.5
   7
GMM002
   0
ENDBLK
   5
192
 100
AcDbEntity
   8
0
 100
AcDbBlockEnd
   0
BLOCK
   5
193
 100
AcDbEntity
   8
0
 100
AcDbBlockBegin
   2
*D23
  70
65
  10
0.0
  20
0.0
  30
0.0
   3
*D23
   0
LINE
   5
194
 100
AcDbEntity
   8
LEVEL001
 370
15
 100
AcDbLine
   6
CONTINUOUS
  62
8
  10
 15.877966353080
  20
 90.430533236331
  30
0.0
  11
 15.877966353080
  21
 95.430533236331
  31
0.0
   0
LINE
   5
195
 100
AcDbEntity
   8
LEVEL001
 370
15
 100
AcDbLine
   6
CONTINUOUS
  62
8
  10
 36.377966353080
  20
 90.430533236331
  30
0.0
  11
 36.377966353080
  21
 95.430533236331
  31
0.0
   0
LINE
   5
196
 100
AcDbEntity
   8
LEVEL001
 370
15
 100
AcDbLine
   6
CONTINUOUS
  62
8
  10
 15.877966353080
  20
 94.930533236331
  30
0.0
  11
 26.127966353080
  21
 94.930533236331
  31
0.0
   0
LINE
   5
197
 100
AcDbEntity
   8
LEVEL001
 370
15
 100
AcDbLine
   6
CONTINUOUS
  62
8
  10
 36.377966353080
  20
 94.930533236331
  30
0.0
  11
 26.127966353080
  21
 94.930533236331
  31
0.0
   0
SOLID
   5
198
 100
AcDbEntity
   8
LEVEL001
 100
AcDbTrace
   6
CONTINUOUS
  62
8
  10
 15.877966353080
  20
 94.930533236331
  30
0.0
  11
 16.877966353080
  21
 94.754206255623
  31
0.0
  12
 16.877966353080
  22
 95.106860217040
  32
0.0
  13
 16.877966353080
  23
 95.106860217040
  33
0.0
   0
SOLID
   5
199
 100
AcDbEntity
   8
LEVEL001
 100
AcDbTrace
   6
CONTINUOUS
  62
8
  10
 36.377966353080
  20
 94.930533236331
  30
0.0
  11
 35.377966353080
  21
 95.106860217040
  31
0.0
  12
 35.377966353080
  22
 94.754206255623
  32
0.0
  13
 35.377966353080
  23
 94.754206255623
  33
0.0
   0
MTEXT
   5
19A
 100
AcDbEntity
   8
LEVEL001
 370
15
  62
8
 100
AcDbMText
  10
 26.127966353080
  20
 95.430533236331
  30
0.0
  40
 1.2500000000000
  41
0.0
  71
8
  72
1
   1
\A1;20.5
   7
GMM002
   0
ENDBLK
   5
19B
 100
AcDbEntity
   8
0
 100
AcDbBlockEnd
   0
BLOCK
   5
19C
 100
AcDbEntity
   8
0
 100
AcDbBlockBegin
   2
*D24
  70
65
  10
0.0
  20
0.0
  30
0.0
   3
*D24
   0
LINE
   5
19D
 100
AcDbEntity
   8
LEVEL001
 370
15
 100
AcDbLine
   6
CONTINUOUS
  62
8
  10
 15.877966353080
  20
 85.430533236331
  30
0.0
  11
 15.877966353080
  21
 92.430533236331
  31
0.0
   0
LINE
   5
19E
 100
AcDbEntity
   8
LEVEL001
 370
15
 100
AcDbLine
   6
CONTINUOUS
  62
8
  10
 15.877966353080
  20
 91.930533236331
  30
0.0
  11
 19.377966353080
  21
 91.930533236331
  31
0.0
   0
LINE
   5
19F
 100
AcDbEntity
   8
LEVEL001
 370
15
 100
AcDbLine
   6
CONTINUOUS
  62
8
  10
 22.877966353080
  20
 91.930533236331
  30
0.0
  11
 19.377966353080
  21
 91.930533236331
  31
0.0
   0
SOLID
   5
1A0
 100
AcDbEntity
   8
LEVEL001
 100
AcDbTrace
   6
CONTINUOUS
  62
8
  10
 15.877966353080
  20
 91.930533236331
  30
0.0
  11
 16.877966353080
  21
 91.754206255623
  31
0.0
  12
 16.877966353080
  22
 92.106860217040
  32
0.0
  13
 16.877966353080
  23
 92.106860217040
  33
0.0
   0
SOLID
   5
1A1
 100
AcDbEntity
   8
LEVEL001
 100
AcDbTrace
   6
CONTINUOUS
  62
8
  10
 22.877966353080
  20
 91.930533236331
  30
0.0
  11
 21.877966353080
  21
 92.106860217040
  31
0.0
  12
 21.877966353080
  22
 91.754206255623
  32
0.0
  13
 21.877966353080
  23
 91.754206255623
  33
0.0
   0
MTEXT
   5
1A2
 100
AcDbEntity
   8
LEVEL001
 370
15
  62
8
 100
AcDbMText
  10
 19.377966353080
  20
 92.430533236331
  30
0.0
  40
 1.2500000000000
  41
0.0
  71
8
  72
1
   1
\A1;7
   7
GMM002
   0
ENDBLK
   5
1A3
 100
AcDbEntity
   8
0
 100
AcDbBlockEnd
   0
BLOCK
   5
1A4
 100
AcDbEntity
   8
0
 100
AcDbBlockBegin
   2
*D25
  70
65
  10
0.0
  20
0.0
  30
0.0
   3
*D25
   0
LINE
   5
1A5
 100
AcDbEntity
   8
LEVEL001
 370
15
 100
AcDbLine
   6
CONTINUOUS
  62
8
  10
 22.877966353080
  20
 87.300753027075
  30
0.0
  11
 22.877966353080
  21
 92.430533236331
  31
0.0
   0
LINE
   5
1A6
 100
AcDbEntity
   8
LEVEL001
 370
15
 100
AcDbLine
   6
CONTINUOUS
  62
8
  10
 36.377966353080
  20
 85.430533236331
  30
0.0
  11
 36.377966353080
  21
 92.430533236331
  31
0.0
   0
LINE
   5
1A7
 100
AcDbEntity
   8
LEVEL001
 370
15
 100
AcDbLine
   6
CONTINUOUS
  62
8
  10
 22.877966353080
  20
 91.930533236331
  30
0.0
  11
 29.627966353080
  21
 91.930533236331
  31
0.0
   0
LINE
   5
1A8
 100
AcDbEntity
   8
LEVEL001
 370
15
 100
AcDbLine
   6
CONTINUOUS
  62
8
  10
 36.377966353080
  20
 91.930533236331
  30
0.0
  11
 29.627966353080
  21
 91.930533236331
  31
0.0
   0
SOLID
   5
1A9
 100
AcDbEntity
   8
LEVEL001
 100
AcDbTrace
   6
CONTINUOUS
  62
8
  10
 22.877966353080
  20
 91.930533236331
  30
0.0
  11
 23.877966353080
  21
 91.754206255623
  31
0.0
  12
 23.877966353080
  22
 92.106860217040
  32
0.0
  13
 23.877966353080
  23
 92.106860217040
  33
0.0
   0
SOLID
   5
1AA
 100
AcDbEntity
   8
LEVEL001
 100
AcDbTrace
   6
CONTINUOUS
  62
8
  10
 36.377966353080
  20
 91.930533236331
  30
0.0
  11
 35.377966353080
  21
 92.106860217040
  31
0.0
  12
 35.377966353080
  22
 91.754206255623
  32
0.0
  13
 35.377966353080
  23
 91.754206255623
  33
0.0
   0
MTEXT
   5
1AB
 100
AcDbEntity
   8
LEVEL001
 370
15
  62
8
 100
AcDbMText
  10
 29.627966353080
  20
 92.430533236331
  30
0.0
  40
 1.2500000000000
  41
0.0
  71
8
  72
1
   1
\A1;13.5
   7
GMM002
   0
ENDBLK
   5
1AC
 100
AcDbEntity
   8
0
 100
AcDbBlockEnd
   0
BLOCK
   5
1AD
 100
AcDbEntity
   8
0
 100
AcDbBlockBegin
   2
*D26
  70
65
  10
0.0
  20
0.0
  30
0.0
   3
*D26
   0
LINE
   5
1AE
 100
AcDbEntity
   8
LEVEL001
 370
15
 100
AcDbLine
   6
CONTINUOUS
  62
8
  10
 20.877966353125
  20
 85.930533236331
  30
0.0
  11
 20.877966353125
  21
 89.430533236331
  31
0.0
   0
LINE
   5
1AF
 100
AcDbEntity
   8
LEVEL001
 370
15
 100
AcDbLine
   6
CONTINUOUS
  62
8
  10
 24.877966353124
  20
 85.930533236331
  30
0.0
  11
 24.877966353124
  21
 89.430533236331
  31
0.0
   0
LINE
   5
1B0
 100
AcDbEntity
   8
LEVEL001
 370
15
 100
AcDbLine
   6
CONTINUOUS
  62
8
  10
 19.627966353125
  20
 88.930533236331
  30
0.0
  11
 22.877966353125
  21
 88.930533236331
  31
0.0
   0
LINE
   5
1B1
 100
AcDbEntity
   8
LEVEL001
 370
15
 100
AcDbLine
   6
CONTINUOUS
  62
8
  10
 27.008460621432
  20
 88.930533236331
  30
0.0
  11
 22.877966353125
  21
 88.930533236331
  31
0.0
   0
SOLID
   5
1B2
 100
AcDbEntity
   8
LEVEL001
 100
AcDbTrace
   6
CONTINUOUS
  62
8
  10
 20.877966353125
  20
 88.930533236331
  30
0.0
  11
 19.877966353125
  21
 89.106860217040
  31
0.0
  12
 19.877966353125
  22
 88.754206255623
  32
0.0
  13
 19.877966353125
  23
 88.754206255623
  33
0.0
   0
SOLID
   5
1B3
 100
AcDbEntity
   8
LEVEL001
 100
AcDbTrace
   6
CONTINUOUS
  62
8
  10
 24.877966353124
  20
 88.930533236331
  30
0.0
  11
 25.877966353124
  21
 88.754206255623
  31
0.0
  12
 25.877966353124
  22
 89.106860217040
  32
0.0
  13
 25.877966353124
  23
 89.106860217040
  33
0.0
   0
MTEXT
   5
1B4
 100
AcDbEntity
   8
LEVEL001
 370
15
  62
8
 100
AcDbMText
  10
 25.758460621432
  20
 89.333387912528
  30
0.0
  40
 1.2500000000000
  41
0.0
  71
7
  72
1
   1
\A1;4
   7
GMM002
   0
ENDBLK
   5
1B5
 100
AcDbEntity
   8
0
 100
AcDbBlockEnd
   0
BLOCK
   5
1B6
 100
AcDbEntity
   8
0
 100
AcDbBlockBegin
   2
*D27
  70
65
  10
0.0
  20
0.0
  30
0.0
   3
*D27
   0
LINE
   5
1B7
 100
AcDbEntity
   8
LEVEL001
 370
15
 100
AcDbLine
   6
CONTINUOUS
  62
8
  10
 36.277966353080
  20
 82.930533236331
  30
0.0
  11
 39.877966353080
  21
 82.930533236331
  31
0.0
   0
LINE
   5
1B8
 100
AcDbEntity
   8
LEVEL001
 370
15
 100
AcDbLine
   6
CONTINUOUS
  62
8
  10
 35.877966353080
  20
 85.930533236331
  30
0.0
  11
 39.877966353080
  21
 85.930533236331
  31
0.0
   0
LINE
   5
1B9
 100
AcDbEntity
   8
LEVEL001
 370
15
 100
AcDbLine
   6
CONTINUOUS
  62
8
  10
 39.377966353080
  20
 82.930533236331
  30
0.0
  11
 39.377966353080
  21
 84.430533236331
  31
0.0
   0
LINE
   5
1BA
 100
AcDbEntity
   8
LEVEL001
 370
15
 100
AcDbLine
   6
CONTINUOUS
  62
8
  10
 39.377966353080
  20
 85.930533236331
  30
0.0
  11
 39.377966353080
  21
 84.430533236331
  31
0.0
   0
SOLID
   5
1BB
 100
AcDbEntity
   8
LEVEL001
 100
AcDbTrace
   6
CONTINUOUS
  62
8
  10
 39.377966353080
  20
 82.930533236331
  30
0.0
  11
 39.554293333789
  21
 83.930533236331
  31
0.0
  12
 39.201639372372
  22
 83.930533236331
  32
0.0
  13
 39.201639372372
  23
 83.930533236331
  33
0.0
   0
SOLID
   5
1BC
 100
AcDbEntity
   8
LEVEL001
 100
AcDbTrace
   6
CONTINUOUS
  62
8
  10
 39.377966353080
  20
 85.930533236331
  30
0.0
  11
 39.201639372372
  21
 84.930533236331
  31
0.0
  12
 39.554293333789
  22
 84.930533236331
  32
0.0
  13
 39.554293333789
  23
 84.930533236331
  33
0.0
   0
MTEXT
   5
1BD
 100
AcDbEntity
   8
LEVEL001
 370
15
  62
8
 100
AcDbMText
  10
 38.877966353080
  20
 84.430533236331
  30
0.0
  40
 1.2500000000000
  41
0.0
  71
8
  72
1
   1
\A1;3
   7
GMM002
  11
0.0
  21
 1.0000000000000
  31
0.0
   0
ENDBLK
   5
1BE
 100
AcDbEntity
   8
0
 100
AcDbBlockEnd
   0
BLOCK
   5
1BF
 100
AcDbEntity
   8
0
 100
AcDbBlockBegin
   2
*D28
  70
65
  10
0.0
  20
0.0
  30
0.0
   3
*D28
   0
LINE
   5
1C0
 100
AcDbEntity
   8
LEVEL001
 370
15
 100
AcDbLine
   6
CONTINUOUS
  62
8
  10
 73.163835918298
  20
 82.930533236331
  30
0.0
  11
 76.763835918298
  21
 82.930533236331
  31
0.0
   0
LINE
   5
1C1
 100
AcDbEntity
   8
LEVEL001
 370
15
 100
AcDbLine
   6
CONTINUOUS
  62
8
  10
 72.763835918298
  20
 85.930533236331
  30
0.0
  11
 76.763835918298
  21
 85.930533236331
  31
0.0
   0
LINE
   5
1C2
 100
AcDbEntity
   8
LEVEL001
 370
15
 100
AcDbLine
   6
CONTINUOUS
  62
8
  10
 76.263835918298
  20
 82.930533236331
  30
0.0
  11
 76.263835918298
  21
 84.430533236331
  31
0.0
   0
LINE
   5
1C3
 100
AcDbEntity
   8
LEVEL001
 370
15
 100
AcDbLine
   6
CONTINUOUS
  62
8
  10
 76.263835918298
  20
 85.930533236331
  30
0.0
  11
 76.263835918298
  21
 84.430533236331
  31
0.0
   0
SOLID
   5
1C4
 100
AcDbEntity
   8
LEVEL001
 100
AcDbTrace
   6
CONTINUOUS
  62
8
  10
 76.263835918298
  20
 82.930533236331
  30
0.0
  11
 76.440162899007
  21
 83.930533236331
  31
0.0
  12
 76.087508937590
  22
 83.930533236331
  32
0.0
  13
 76.087508937590
  23
 83.930533236331
  33
0.0
   0
SOLID
   5
1C5
 100
AcDbEntity
   8
LEVEL001
 100
AcDbTrace
   6
CONTINUOUS
  62
8
  10
 76.263835918298
  20
 85.930533236331
  30
0.0
  11
 76.087508937590
  21
 84.930533236331
  31
0.0
  12
 76.440162899007
  22
 84.930533236331
  32
0.0
  13
 76.440162899007
  23
 84.930533236331
  33
0.0
   0
MTEXT
   5
1C6
 100
AcDbEntity
   8
LEVEL001
 370
15
  62
8
 100
AcDbMText
  10
 75.763835918298
  20
 84.430533236331
  30
0.0
  40
 1.2500000000000
  41
0.0
  71
8
  72
1
   1
\A1;3
   7
GMM002
  11
0.0
  21
 1.0000000000000
  31
0.0
   0
ENDBLK
   5
1C7
 100
AcDbEntity
   8
0
 100
AcDbBlockEnd
   0
BLOCK
   5
1C8
 100
AcDbEntity
   8
0
 100
AcDbBlockBegin
   2
*D29
  70
65
  10
0.0
  20
0.0
  30
0.0
   3
*D29
   0
LINE
   5
1C9
 100
AcDbEntity
   8
LEVEL001
 370
15
 100
AcDbLine
   6
CONTINUOUS
  62
8
  10
 52.763835918299
  20
 90.430533236331
  30
0.0
  11
 52.763835918299
  21
 95.430533236331
  31
0.0
   0
LINE
   5
1CA
 100
AcDbEntity
   8
LEVEL001
 370
15
 100
AcDbLine
   6
CONTINUOUS
  62
8
  10
 73.263835918298
  20
 90.430533236331
  30
0.0
  11
 73.263835918298
  21
 95.430533236331
  31
0.0
   0
LINE
   5
1CB
 100
AcDbEntity
   8
LEVEL001
 370
15
 100
AcDbLine
   6
CONTINUOUS
  62
8
  10
 52.763835918299
  20
 94.930533236331
  30
0.0
  11
 63.013835918298
  21
 94.930533236331
  31
0.0
   0
LINE
   5
1CC
 100
AcDbEntity
   8
LEVEL001
 370
15
 100
AcDbLine
   6
CONTINUOUS
  62
8
  10
 73.263835918298
  20
 94.930533236331
  30
0.0
  11
 63.013835918298
  21
 94.930533236331
  31
0.0
   0
SOLID
   5
1CD
 100
AcDbEntity
   8
LEVEL001
 100
AcDbTrace
   6
CONTINUOUS
  62
8
  10
 52.763835918299
  20
 94.930533236331
  30
0.0
  11
 53.763835918299
  21
 94.754206255623
  31
0.0
  12
 53.763835918299
  22
 95.106860217040
  32
0.0
  13
 53.763835918299
  23
 95.106860217040
  33
0.0
   0
SOLID
   5
1CE
 100
AcDbEntity
   8
LEVEL001
 100
AcDbTrace
   6
CONTINUOUS
  62
8
  10
 73.263835918298
  20
 94.930533236331
  30
0.0
  11
 72.263835918298
  21
 95.106860217040
  31
0.0
  12
 72.263835918298
  22
 94.754206255623
  32
0.0
  13
 72.263835918298
  23
 94.754206255623
  33
0.0
   0
MTEXT
   5
1CF
 100
AcDbEntity
   8
LEVEL001
 370
15
  62
8
 100
AcDbMText
  10
 63.013835918298
  20
 95.430533236331
  30
0.0
  40
 1.2500000000000
  41
0.0
  71
8
  72
1
   1
\A1;20.5
   7
GMM002
   0
ENDBLK
   5
1D0
 100
AcDbEntity
   8
0
 100
AcDbBlockEnd
   0
BLOCK
   5
1D1
 100
AcDbEntity
   8
0
 100
AcDbBlockBegin
   2
*D30
  70
65
  10
0.0
  20
0.0
  30
0.0
   3
*D30
   0
LINE
   5
1D2
 100
AcDbEntity
   8
LEVEL001
 370
15
 100
AcDbLine
   6
CONTINUOUS
  62
8
  10
 61.013835918344
  20
 85.930533236331
  30
0.0
  11
 61.013835918344
  21
 89.430533236331
  31
0.0
   0
LINE
   5
1D3
 100
AcDbEntity
   8
LEVEL001
 370
15
 100
AcDbLine
   6
CONTINUOUS
  62
8
  10
 65.013835918343
  20
 85.930533236331
  30
0.0
  11
 65.013835918343
  21
 89.430533236331
  31
0.0
   0
LINE
   5
1D4
 100
AcDbEntity
   8
LEVEL001
 370
15
 100
AcDbLine
   6
CONTINUOUS
  62
8
  10
 59.763835918344
  20
 88.930533236331
  30
0.0
  11
 63.013835918344
  21
 88.930533236331
  31
0.0
   0
LINE
   5
1D5
 100
AcDbEntity
   8
LEVEL001
 370
15
 100
AcDbLine
   6
CONTINUOUS
  62
8
  10
 67.144330186651
  20
 88.930533236331
  30
0.0
  11
 63.013835918344
  21
 88.930533236331
  31
0.0
   0
SOLID
   5
1D6
 100
AcDbEntity
   8
LEVEL001
 100
AcDbTrace
   6
CONTINUOUS
  62
8
  10
 61.013835918344
  20
 88.930533236331
  30
0.0
  11
 60.013835918344
  21
 89.106860217040
  31
0.0
  12
 60.013835918344
  22
 88.754206255623
  32
0.0
  13
 60.013835918344
  23
 88.754206255623
  33
0.0
   0
SOLID
   5
1D7
 100
AcDbEntity
   8
LEVEL001
 100
AcDbTrace
   6
CONTINUOUS
  62
8
  10
 65.013835918343
  20
 88.930533236331
  30
0.0
  11
 66.013835918343
  21
 88.754206255623
  31
0.0
  12
 66.013835918343
  22
 89.106860217040
  32
0.0
  13
 66.013835918343
  23
 89.106860217040
  33
0.0
   0
MTEXT
   5
1D8
 100
AcDbEntity
   8
LEVEL001
 370
15
  62
8
 100
AcDbMText
  10
 65.894330186651
  20
 89.333387912528
  30
0.0
  40
 1.2500000000000
  41
0.0
  71
7
  72
1
   1
\A1;4
   7
GMM002
   0
ENDBLK
   5
1D9
 100
AcDbEntity
   8
0
 100
AcDbBlockEnd
   0
BLOCK
   5
1DA
 100
AcDbEntity
   8
0
 100
AcDbBlockBegin
   2
*D31
  70
65
  10
0.0
  20
0.0
  30
0.0
   3
*D31
   0
LINE
   5
1DB
 100
AcDbEntity
   8
LEVEL001
 370
15
 100
AcDbLine
   6
CONTINUOUS
  62
8
  10
 52.763835918299
  20
 85.430533236331
  30
0.0
  11
 52.763835918299
  21
 92.430533236331
  31
0.0
   0
LINE
   5
1DC
 100
AcDbEntity
   8
LEVEL001
 370
15
 100
AcDbLine
   6
CONTINUOUS
  62
8
  10
 52.763835918299
  20
 91.930533236331
  30
0.0
  11
 57.888835918299
  21
 91.930533236331
  31
0.0
   0
LINE
   5
1DD
 100
AcDbEntity
   8
LEVEL001
 370
15
 100
AcDbLine
   6
CONTINUOUS
  62
8
  10
 63.013835918298
  20
 91.930533236331
  30
0.0
  11
 57.888835918299
  21
 91.930533236331
  31
0.0
   0
SOLID
   5
1DE
 100
AcDbEntity
   8
LEVEL001
 100
AcDbTrace
   6
CONTINUOUS
  62
8
  10
 52.763835918299
  20
 91.930533236331
  30
0.0
  11
 53.763835918299
  21
 91.754206255623
  31
0.0
  12
 53.763835918299
  22
 92.106860217040
  32
0.0
  13
 53.763835918299
  23
 92.106860217040
  33
0.0
   0
SOLID
   5
1DF
 100
AcDbEntity
   8
LEVEL001
 100
AcDbTrace
   6
CONTINUOUS
  62
8
  10
 63.013835918298
  20
 91.930533236331
  30
0.0
  11
 62.013835918298
  21
 92.106860217040
  31
0.0
  12
 62.013835918298
  22
 91.754206255623
  32
0.0
  13
 62.013835918298
  23
 91.754206255623
  33
0.0
   0
MTEXT
   5
1E0
 100
AcDbEntity
   8
LEVEL001
 370
15
  62
8
 100
AcDbMText
  10
 57.888835918299
  20
 92.430533236331
  30
0.0
  40
 1.2500000000000
  41
0.0
  71
8
  72
1
   1
\A1;10.25
   7
GMM002
   0
ENDBLK
   5
1E1
 100
AcDbEntity
   8
0
 100
AcDbBlockEnd
   0
BLOCK
   5
1E2
 100
AcDbEntity
   8
0
 100
AcDbBlockBegin
   2
*D32
  70
65
  10
0.0
  20
0.0
  30
0.0
   3
*D32
   0
LINE
   5
1E3
 100
AcDbEntity
   8
LEVEL001
 370
15
 100
AcDbLine
   6
CONTINUOUS
  62
8
  10
 63.013835918298
  20
 87.481777600577
  30
0.0
  11
 63.013835918298
  21
 92.430533236331
  31
0.0
   0
LINE
   5
1E4
 100
AcDbEntity
   8
LEVEL001
 370
15
 100
AcDbLine
   6
CONTINUOUS
  62
8
  10
 73.263835918298
  20
 85.430533236331
  30
0.0
  11
 73.263835918298
  21
 92.430533236331
  31
0.0
   0
LINE
   5
1E5
 100
AcDbEntity
   8
LEVEL001
 370
15
 100
AcDbLine
   6
CONTINUOUS
  62
8
  10
 63.013835918298
  20
 91.930533236331
  30
0.0
  11
 68.138835918298
  21
 91.930533236331
  31
0.0
   0
LINE
   5
1E6
 100
AcDbEntity
   8
LEVEL001
 370
15
 100
AcDbLine
   6
CONTINUOUS
  62
8
  10
 73.263835918298
  20
 91.930533236331
  30
0.0
  11
 68.138835918298
  21
 91.930533236331
  31
0.0
   0
SOLID
   5
1E7
 100
AcDbEntity
   8
LEVEL001
 100
AcDbTrace
   6
CONTINUOUS
  62
8
  10
 63.013835918298
  20
 91.930533236331
  30
0.0
  11
 64.013835918298
  21
 91.754206255623
  31
0.0
  12
 64.013835918298
  22
 92.106860217040
  32
0.0
  13
 64.013835918298
  23
 92.106860217040
  33
0.0
   0
SOLID
   5
1E8
 100
AcDbEntity
   8
LEVEL001
 100
AcDbTrace
   6
CONTINUOUS
  62
8
  10
 73.263835918298
  20
 91.930533236331
  30
0.0
  11
 72.263835918298
  21
 92.106860217040
  31
0.0
  12
 72.263835918298
  22
 91.754206255623
  32
0.0
  13
 72.263835918298
  23
 91.754206255623
  33
0.0
   0
MTEXT
   5
1E9
 100
AcDbEntity
   8
LEVEL001
 370
15
  62
8
 100
AcDbMText
  10
 68.138835918298
  20
 92.430533236331
  30
0.0
  40
 1.2500000000000
  41
0.0
  71
8
  72
1
   1
\A1;10.25
   7
GMM002
   0
ENDBLK
   5
1EA
 100
AcDbEntity
   8
0
 100
AcDbBlockEnd
   0
BLOCK
   5
1EB
 100
AcDbEntity
   8
0
 100
AcDbBlockBegin
   2
*D33
  70
65
  10
0.0
  20
0.0
  30
0.0
   3
*D33
   0
LINE
   5
1EC
 100
AcDbEntity
   8
LEVEL001
 370
15
 100
AcDbLine
   6
CONTINUOUS
  62
8
  10
 94.273487159953
  20
 85.930533236331
  30
0.0
  11
 94.273487159953
  21
 89.430533236331
  31
0.0
   0
LINE
   5
1ED
 100
AcDbEntity
   8
LEVEL001
 370
15
 100
AcDbLine
   6
CONTINUOUS
  62
8
  10
 98.273487159952
  20
 85.930533236331
  30
0.0
  11
 98.273487159952
  21
 89.430533236331
  31
0.0
   0
LINE
   5
1EE
 100
AcDbEntity
   8
LEVEL001
 370
15
 100
AcDbLine
   6
CONTINUOUS
  62
8
  10
 94.273487159953
  20
 88.930533236331
  30
0.0
  11
 96.273487159952
  21
 88.930533236331
  31
0.0
   0
LINE
   5
1EF
 100
AcDbEntity
   8
LEVEL001
 370
15
 100
AcDbLine
   6
CONTINUOUS
  62
8
  10
 98.273487159952
  20
 88.930533236331
  30
0.0
  11
 96.273487159952
  21
 88.930533236331
  31
0.0
   0
SOLID
   5
1F0
 100
AcDbEntity
   8
LEVEL001
 100
AcDbTrace
   6
CONTINUOUS
  62
8
  10
 94.273487159953
  20
 88.930533236331
  30
0.0
  11
 95.273487159953
  21
 88.754206255623
  31
0.0
  12
 95.273487159953
  22
 89.106860217040
  32
0.0
  13
 95.273487159953
  23
 89.106860217040
  33
0.0
   0
SOLID
   5
1F1
 100
AcDbEntity
   8
LEVEL001
 100
AcDbTrace
   6
CONTINUOUS
  62
8
  10
 98.273487159952
  20
 88.930533236331
  30
0.0
  11
 97.273487159952
  21
 89.106860217040
  31
0.0
  12
 97.273487159952
  22
 88.754206255623
  32
0.0
  13
 97.273487159952
  23
 88.754206255623
  33
0.0
   0
MTEXT
   5
1F2
 100
AcDbEntity
   8
LEVEL001
 370
15
  62
8
 100
AcDbMText
  10
 96.273487159952
  20
 89.430533236331
  30
0.0
  40
 1.2500000000000
  41
0.0
  71
8
  72
1
   1
\A1;4
   7
GMM002
   0
ENDBLK
   5
1F3
 100
AcDbEntity
   8
0
 100
AcDbBlockEnd
   0
BLOCK
   5
1F4
 100
AcDbEntity
   8
0
 100
AcDbBlockBegin
   2
*D34
  70
65
  10
0.0
  20
0.0
  30
0.0
   3
*D34
   0
LINE
   5
1F5
 100
AcDbEntity
   8
LEVEL001
 370
15
 100
AcDbLine
   6
CONTINUOUS
  62
8
  10
 89.273487159907
  20
 92.430533236331
  30
0.0
  11
 89.273487159907
  21
 95.430533236331
  31
0.0
   0
LINE
   5
1F6
 100
AcDbEntity
   8
LEVEL001
 370
15
 100
AcDbLine
   6
CONTINUOUS
  62
8
  10
 106.77348715995
  20
 92.430533236331
  30
0.0
  11
 106.77348715995
  21
 95.430533236331
  31
0.0
   0
LINE
   5
1F7
 100
AcDbEntity
   8
LEVEL001
 370
15
 100
AcDbLine
   6
CONTINUOUS
  62
8
  10
 89.273487159907
  20
 94.930533236331
  30
0.0
  11
 98.023487159930
  21
 94.930533236331
  31
0.0
   0
LINE
   5
1F8
 100
AcDbEntity
   8
LEVEL001
 370
15
 100
AcDbLine
   6
CONTINUOUS
  62
8
  10
 106.77348715995
  20
 94.930533236331
  30
0.0
  11
 98.023487159930
  21
 94.930533236331
  31
0.0
   0
SOLID
   5
1F9
 100
AcDbEntity
   8
LEVEL001
 100
AcDbTrace
   6
CONTINUOUS
  62
8
  10
 89.273487159907
  20
 94.930533236331
  30
0.0
  11
 90.273487159907
  21
 94.754206255623
  31
0.0
  12
 90.273487159907
  22
 95.106860217040
  32
0.0
  13
 90.273487159907
  23
 95.106860217040
  33
0.0
   0
SOLID
   5
1FA
 100
AcDbEntity
   8
LEVEL001
 100
AcDbTrace
   6
CONTINUOUS
  62
8
  10
 106.77348715995
  20
 94.930533236331
  30
0.0
  11
 105.77348715995
  21
 95.106860217040
  31
0.0
  12
 105.77348715995
  22
 94.754206255623
  32
0.0
  13
 105.77348715995
  23
 94.754206255623
  33
0.0
   0
MTEXT
   5
1FB
 100
AcDbEntity
   8
LEVEL001
 370
15
  62
8
 100
AcDbMText
  10
 98.023487159930
  20
 95.430533236331
  30
0.0
  40
 1.2500000000000
  41
0.0
  71
8
  72
1
   1
\A1;17.5
   7
GMM002
   0
ENDBLK
   5
1FC
 100
AcDbEntity
   8
0
 100
AcDbBlockEnd
   0
BLOCK
   5
1FD
 100
AcDbEntity
   8
0
 100
AcDbBlockBegin
   2
*D35
  70
65
  10
0.0
  20
0.0
  30
0.0
   3
*D35
   0
LINE
   5
1FE
 100
AcDbEntity
   8
LEVEL001
 370
15
 100
AcDbLine
   6
CONTINUOUS
  62
8
  10
 89.273487159907
  20
 85.430533236331
  30
0.0
  11
 89.273487159907
  21
 92.430533236331
  31
0.0
   0
LINE
   5
1FF
 100
AcDbEntity
   8
LEVEL001
 370
15
 100
AcDbLine
   6
CONTINUOUS
  62
8
  10
 89.273487159907
  20
 91.930533236331
  30
0.0
  11
 92.773487159907
  21
 91.930533236331
  31
0.0
   0
LINE
   5
200
 100
AcDbEntity
   8
LEVEL001
 370
15
 100
AcDbLine
   6
CONTINUOUS
  62
8
  10
 96.273487159907
  20
 91.930533236331
  30
0.0
  11
 92.773487159907
  21
 91.930533236331
  31
0.0
   0
SOLID
   5
201
 100
AcDbEntity
   8
LEVEL001
 100
AcDbTrace
   6
CONTINUOUS
  62
8
  10
 89.273487159907
  20
 91.930533236331
  30
0.0
  11
 90.273487159907
  21
 91.754206255623
  31
0.0
  12
 90.273487159907
  22
 92.106860217040
  32
0.0
  13
 90.273487159907
  23
 92.106860217040
  33
0.0
   0
SOLID
   5
202
 100
AcDbEntity
   8
LEVEL001
 100
AcDbTrace
   6
CONTINUOUS
  62
8
  10
 96.273487159907
  20
 91.930533236331
  30
0.0
  11
 95.273487159907
  21
 92.106860217040
  31
0.0
  12
 95.273487159907
  22
 91.754206255623
  32
0.0
  13
 95.273487159907
  23
 91.754206255623
  33
0.0
   0
MTEXT
   5
203
 100
AcDbEntity
   8
LEVEL001
 370
15
  62
8
 100
AcDbMText
  10
 92.773487159907
  20
 92.430533236331
  30
0.0
  40
 1.2500000000000
  41
0.0
  71
8
  72
1
   1
\A1;7
   7
GMM002
   0
ENDBLK
   5
204
 100
AcDbEntity
   8
0
 100
AcDbBlockEnd
   0
BLOCK
   5
205
 100
AcDbEntity
   8
0
 100
AcDbBlockBegin
   2
*D36
  70
65
  10
0.0
  20
0.0
  30
0.0
   3
*D36
   0
LINE
   5
206
 100
AcDbEntity
   8
LEVEL001
 370
15
 100
AcDbLine
   6
CONTINUOUS
  62
8
  10
 96.273487159907
  20
 90.910749750833
  30
0.0
  11
 96.273487159907
  21
 92.430533236331
  31
0.0
   0
LINE
   5
207
 100
AcDbEntity
   8
LEVEL001
 370
15
 100
AcDbLine
   6
CONTINUOUS
  62
8
  10
 106.77348715995
  20
 85.430533236331
  30
0.0
  11
 106.77348715995
  21
 92.430533236331
  31
0.0
   0
LINE
   5
208
 100
AcDbEntity
   8
LEVEL001
 370
15
 100
AcDbLine
   6
CONTINUOUS
  62
8
  10
 96.273487159907
  20
 91.930533236331
  30
0.0
  11
 101.52348715993
  21
 91.930533236331
  31
0.0
   0
LINE
   5
209
 100
AcDbEntity
   8
LEVEL001
 370
15
 100
AcDbLine
   6
CONTINUOUS
  62
8
  10
 106.77348715995
  20
 91.930533236331
  30
0.0
  11
 101.52348715993
  21
 91.930533236331
  31
0.0
   0
SOLID
   5
20A
 100
AcDbEntity
   8
LEVEL001
 100
AcDbTrace
   6
CONTINUOUS
  62
8
  10
 96.273487159907
  20
 91.930533236331
  30
0.0
  11
 97.273487159907
  21
 91.754206255623
  31
0.0
  12
 97.273487159907
  22
 92.106860217040
  32
0.0
  13
 97.273487159907
  23
 92.106860217040
  33
0.0
   0
SOLID
   5
20B
 100
AcDbEntity
   8
LEVEL001
 100
AcDbTrace
   6
CONTINUOUS
  62
8
  10
 106.77348715995
  20
 91.930533236331
  30
0.0
  11
 105.77348715995
  21
 92.106860217040
  31
0.0
  12
 105.77348715995
  22
 91.754206255623
  32
0.0
  13
 105.77348715995
  23
 91.754206255623
  33
0.0
   0
MTEXT
   5
20C
 100
AcDbEntity
   8
LEVEL001
 370
15
  62
8
 100
AcDbMText
  10
 101.52348715993
  20
 92.430533236331
  30
0.0
  40
 1.2500000000000
  41
0.0
  71
8
  72
1
   1
\A1;10.5
   7
GMM002
   0
ENDBLK
   5
20D
 100
AcDbEntity
   8
0
 100
AcDbBlockEnd
   0
BLOCK
   5
20E
 100
AcDbEntity
   8
0
 100
AcDbBlockBegin
   2
*D37
  70
65
  10
0.0
  20
0.0
  30
0.0
   3
*D37
   0
LINE
   5
20F
 100
AcDbEntity
   8
LEVEL001
 370
15
 100
AcDbLine
   6
CONTINUOUS
  62
8
  10
 93.773487159907
  20
 83.730533236331
  30
0.0
  11
 86.273487159907
  21
 83.730533236331
  31
0.0
   0
LINE
   5
210
 100
AcDbEntity
   8
LEVEL001
 370
15
 100
AcDbLine
   6
CONTINUOUS
  62
8
  10
 89.773487159907
  20
 85.930533236331
  30
0.0
  11
 86.273487159907
  21
 85.930533236331
  31
0.0
   0
LINE
   5
211
 100
AcDbEntity
   8
LEVEL001
 370
15
 100
AcDbLine
   6
CONTINUOUS
  62
8
  10
 86.773487159907
  20
 82.480533236331
  30
0.0
  11
 86.773487159907
  21
 84.830533236331
  31
0.0
   0
LINE
   5
212
 100
AcDbEntity
   8
LEVEL001
 370
15
 100
AcDbLine
   6
CONTINUOUS
  62
8
  10
 86.773487159907
  20
 87.180533236331
  30
0.0
  11
 86.773487159907
  21
 84.830533236331
  31
0.0
   0
SOLID
   5
213
 100
AcDbEntity
   8
LEVEL001
 100
AcDbTrace
   6
CONTINUOUS
  62
8
  10
 86.773487159907
  20
 83.730533236331
  30
0.0
  11
 86.597160179199
  21
 82.730533236331
  31
0.0
  12
 86.949814140615
  22
 82.730533236331
  32
0.0
  13
 86.949814140615
  23
 82.730533236331
  33
0.0
   0
SOLID
   5
214
 100
AcDbEntity
   8
LEVEL001
 100
AcDbTrace
   6
CONTINUOUS
  62
8
  10
 86.773487159907
  20
 85.930533236331
  30
0.0
  11
 86.949814140615
  21
 86.930533236331
  31
0.0
  12
 86.597160179199
  22
 86.930533236331
  32
0.0
  13
 86.597160179199
  23
 86.930533236331
  33
0.0
   0
MTEXT
   5
215
 100
AcDbEntity
   8
LEVEL001
 370
15
  62
8
 100
AcDbMText
  10
 86.273487159907
  20
 84.830533236331
  30
0.0
  40
 1.2500000000000
  41
0.0
  71
8
  72
1
   1
\A1;2.2
   7
GMM002
  11
0.0
  21
 1.0000000000000
  31
0.0
   0
ENDBLK
   5
216
 100
AcDbEntity
   8
0
 100
AcDbBlockEnd
   0
BLOCK
   5
217
 100
AcDbEntity
   8
0
 100
AcDbBlockBegin
   2
*D38
  70
65
  10
0.0
  20
0.0
  30
0.0
   3
*D38
   0
LINE
   5
218
 100
AcDbEntity
   8
LEVEL001
 370
15
 100
AcDbLine
   6
CONTINUOUS
  62
8
  10
 106.67348715995
  20
 82.930533236331
  30
0.0
  11
 110.27348715995
  21
 82.930533236331
  31
0.0
   0
LINE
   5
219
 100
AcDbEntity
   8
LEVEL001
 370
15
 100
AcDbLine
   6
CONTINUOUS
  62
8
  10
 106.27348715995
  20
 85.930533236331
  30
0.0
  11
 110.27348715995
  21
 85.930533236331
  31
0.0
   0
LINE
   5
21A
 100
AcDbEntity
   8
LEVEL001
 370
15
 100
AcDbLine
   6
CONTINUOUS
  62
8
  10
 109.77348715995
  20
 82.930533236331
  30
0.0
  11
 109.77348715995
  21
 84.430533236331
  31
0.0
   0
LINE
   5
21B
 100
AcDbEntity
   8
LEVEL001
 370
15
 100
AcDbLine
   6
CONTINUOUS
  62
8
  10
 109.77348715995
  20
 85.930533236331
  30
0.0
  11
 109.77348715995
  21
 84.430533236331
  31
0.0
   0
SOLID
   5
21C
 100
AcDbEntity
   8
LEVEL001
 100
AcDbTrace
   6
CONTINUOUS
  62
8
  10
 109.77348715995
  20
 82.930533236331
  30
0.0
  11
 109.94981414066
  21
 83.930533236331
  31
0.0
  12
 109.59716017924
  22
 83.930533236331
  32
0.0
  13
 109.59716017924
  23
 83.930533236331
  33
0.0
   0
SOLID
   5
21D
 100
AcDbEntity
   8
LEVEL001
 100
AcDbTrace
   6
CONTINUOUS
  62
8
  10
 109.77348715995
  20
 85.930533236331
  30
0.0
  11
 109.59716017924
  21
 84.930533236331
  31
0.0
  12
 109.94981414066
  22
 84.930533236331
  32
0.0
  13
 109.94981414066
  23
 84.930533236331
  33
0.0
   0
MTEXT
   5
21E
 100
AcDbEntity
   8
LEVEL001
 370
15
  62
8
 100
AcDbMText
  10
 109.27348715995
  20
 84.430533236331
  30
0.0
  40
 1.2500000000000
  41
0.0
  71
8
  72
1
   1
\A1;3
   7
GMM002
  11
0.0
  21
 1.0000000000000
  31
0.0
   0
ENDBLK
   5
21F
 100
AcDbEntity
   8
0
 100
AcDbBlockEnd
   0
BLOCK
   5
220
 100
AcDbEntity
   8
0
 100
AcDbBlockBegin
   2
*D39
  70
65
  10
0.0
  20
0.0
  30
0.0
   3
*D39
   0
LINE
   5
221
 100
AcDbEntity
   8
LEVEL001
 370
15
 100
AcDbLine
   6
CONTINUOUS
  62
8
  10
 60.513835918307
  20
 83.730533236331
  30
0.0
  11
 49.763835918298
  21
 83.730533236331
  31
0.0
   0
LINE
   5
222
 100
AcDbEntity
   8
LEVEL001
 370
15
 100
AcDbLine
   6
CONTINUOUS
  62
8
  10
 53.263835918298
  20
 85.930533236331
  30
0.0
  11
 49.763835918298
  21
 85.930533236331
  31
0.0
   0
LINE
   5
223
 100
AcDbEntity
   8
LEVEL001
 370
15
 100
AcDbLine
   6
CONTINUOUS
  62
8
  10
 50.263835918298
  20
 82.480533236331
  30
0.0
  11
 50.263835918298
  21
 84.830533236331
  31
0.0
   0
LINE
   5
224
 100
AcDbEntity
   8
LEVEL001
 370
15
 100
AcDbLine
   6
CONTINUOUS
  62
8
  10
 50.263835918298
  20
 87.180533236331
  30
0.0
  11
 50.263835918298
  21
 84.830533236331
  31
0.0
   0
SOLID
   5
225
 100
AcDbEntity
   8
LEVEL001
 100
AcDbTrace
   6
CONTINUOUS
  62
8
  10
 50.263835918298
  20
 83.730533236331
  30
0.0
  11
 50.087508937590
  21
 82.730533236331
  31
0.0
  12
 50.440162899007
  22
 82.730533236331
  32
0.0
  13
 50.440162899007
  23
 82.730533236331
  33
0.0
   0
SOLID
   5
226
 100
AcDbEntity
   8
LEVEL001
 100
AcDbTrace
   6
CONTINUOUS
  62
8
  10
 50.263835918298
  20
 85.930533236331
  30
0.0
  11
 50.440162899007
  21
 86.930533236331
  31
0.0
  12
 50.087508937590
  22
 86.930533236331
  32
0.0
  13
 50.087508937590
  23
 86.930533236331
  33
0.0
   0
MTEXT
   5
227
 100
AcDbEntity
   8
LEVEL001
 370
15
  62
8
 100
AcDbMText
  10
 49.763835918298
  20
 84.830533236331
  30
0.0
  40
 1.2500000000000
  41
0.0
  71
8
  72
1
   1
\A1;2.2
   7
GMM002
  11
0.0
  21
 1.0000000000000
  31
0.0
   0
ENDBLK
   5
228
 100
AcDbEntity
   8
0
 100
AcDbBlockEnd
   0
BLOCK
   5
229
 100
AcDbEntity
   8
0
 100
AcDbBlockBegin
   2
*D40
  70
65
  10
0.0
  20
0.0
  30
0.0
   3
*D40
   0
LINE
   5
22A
 100
AcDbEntity
   8
LEVEL001
 370
15
 100
AcDbLine
   6
CONTINUOUS
  62
8
  10
 20.377966353080
  20
 83.730533236331
  30
0.0
  11
 12.877966353080
  21
 83.730533236331
  31
0.0
   0
LINE
   5
22B
 100
AcDbEntity
   8
LEVEL001
 370
15
 100
AcDbLine
   6
CONTINUOUS
  62
8
  10
 16.377966353080
  20
 85.930533236331
  30
0.0
  11
 12.877966353080
  21
 85.930533236331
  31
0.0
   0
LINE
   5
22C
 100
AcDbEntity
   8
LEVEL001
 370
15
 100
AcDbLine
   6
CONTINUOUS
  62
8
  10
 13.377966353080
  20
 82.480533236331
  30
0.0
  11
 13.377966353080
  21
 84.830533236331
  31
0.0
   0
LINE
   5
22D
 100
AcDbEntity
   8
LEVEL001
 370
15
 100
AcDbLine
   6
CONTINUOUS
  62
8
  10
 13.377966353080
  20
 87.180533236331
  30
0.0
  11
 13.377966353080
  21
 84.830533236331
  31
0.0
   0
SOLID
   5
22E
 100
AcDbEntity
   8
LEVEL001
 100
AcDbTrace
   6
CONTINUOUS
  62
8
  10
 13.377966353080
  20
 83.730533236331
  30
0.0
  11
 13.201639372372
  21
 82.730533236331
  31
0.0
  12
 13.554293333789
  22
 82.730533236331
  32
0.0
  13
 13.554293333789
  23
 82.730533236331
  33
0.0
   0
SOLID
   5
22F
 100
AcDbEntity
   8
LEVEL001
 100
AcDbTrace
   6
CONTINUOUS
  62
8
  10
 13.377966353080
  20
 85.930533236331
  30
0.0
  11
 13.554293333789
  21
 86.930533236331
  31
0.0
  12
 13.201639372372
  22
 86.930533236331
  32
0.0
  13
 13.201639372372
  23
 86.930533236331
  33
0.0
   0
MTEXT
   5
230
 100
AcDbEntity
   8
LEVEL001
 370
15
  62
8
 100
AcDbMText
  10
 12.877966353080
  20
 84.830533236331
  30
0.0
  40
 1.2500000000000
  41
0.0
  71
8
  72
1
   1
\A1;2.2
   7
GMM002
  11
0.0
  21
 1.0000000000000
  31
0.0
   0
ENDBLK
   5
231
 100
AcDbEntity
   8
0
 100
AcDbBlockEnd
   0
ENDSEC
   0
SECTION
   2
ENTITIES
   0
LINE
   5
232
 100
AcDbEntity
   8
LEVEL002
 370
30
 100
AcDbLine
   6
CONTINUOUS
  62
7
  10
 172.07500000000
  20
 136.03750000000
  30
0.0
  11
 168.47500000000
  21
 136.03750000000
  31
0.0
   0
LINE
   5
233
 100
AcDbEntity
   8
LEVEL002
 370
30
 100
AcDbLine
   6
CONTINUOUS
  62
7
  10
 168.47500000000
  20
 136.03750000000
  30
0.0
  11
 168.47500000000
  21
 130.63750000000
  31
0.0
   0
LINE
   5
234
 100
AcDbEntity
   8
LEVEL002
 370
30
 100
AcDbLine
   6
CONTINUOUS
  62
7
  10
 168.47500000000
  20
 130.63750000000
  30
0.0
  11
 170.27500000000
  21
 130.63750000000
  31
0.0
   0
LINE
   5
235
 100
AcDbEntity
   8
LEVEL002
 370
30
 100
AcDbLine
   6
CONTINUOUS
  62
7
  10
 170.27500000000
  20
 130.63750000000
  30
0.0
  11
 170.27500000000
  21
 131.53750000000
  31
0.0
   0
LINE
   5
236
 100
AcDbEntity
   8
LEVEL002
 370
30
 100
AcDbLine
   6
CONTINUOUS
  62
7
  10
 170.27500000000
  20
 131.53750000000
  30
0.0
  11
 172.07500000000
  21
 131.53750000000
  31
0.0
   0
ARC
   5
237
 100
AcDbEntity
   8
LEVEL002
 370
30
   6
CONTINUOUS
  62
7
 100
AcDbCircle
  10
 172.07500000000
  20
 133.78750000000
  30
0.0
  40
 2.2500000000000
 100
AcDbArc
  50
 270.00000000000
  51
 90.000000000000
   0
LINE
   5
238
 100
AcDbEntity
   8
LEVEL002
 370
30
 100
AcDbLine
   6
CONTINUOUS
  62
7
  10
 170.27500000000
  20
 133.33750000000
  30
0.0
  11
 172.07500000000
  21
 133.33750000000
  31
0.0
   0
ARC
   5
239
 100
AcDbEntity
   8
LEVEL002
 370
30
   6
CONTINUOUS
  62
7
 100
AcDbCircle
  10
 172.07500000000
  20
 133.78750000000
  30
0.0
  40
 0.45000000000000
 100
AcDbArc
  50
 270.00000000000
  51
 90.000000000000
   0
LINE
   5
23A
 100
AcDbEntity
   8
LEVEL002
 370
30
 100
AcDbLine
   6
CONTINUOUS
  62
7
  10
 172.07500000000
  20
 134.23750000000
  30
0.0
  11
 170.27500000000
  21
 134.23750000000
  31
0.0
   0
LINE
   5
23B
 100
AcDbEntity
   8
LEVEL002
 370
30
 100
AcDbLine
   6
CONTINUOUS
  62
7
  10
 170.27500000000
  20
 134.23750000000
  30
0.0
  11
 170.27500000000
  21
 133.33750000000
  31
0.0
   0
LINE
   5
23C
 100
AcDbEntity
   8
LEVEL002
 370
30
 100
AcDbLine
   6
CONTINUOUS
  62
7
  10
 172.97500000000
  20
 130.63750000000
  30
0.0
  11
 176.57500000000
  21
 136.03750000000
  31
0.0
   0
LINE
   5
23D
 100
AcDbEntity
   8
LEVEL002
 370
30
 100
AcDbLine
   6
CONTINUOUS
  62
7
  10
 176.57500000000
  20
 136.03750000000
  30
0.0
  11
 181.07500000000
  21
 136.03750000000
  31
0.0
   0
LINE
   5
23E
 100
AcDbEntity
   8
LEVEL002
 370
30
 100
AcDbLine
   6
CONTINUOUS
  62
7
  10
 181.07500000000
  20
 136.03750000000
  30
0.0
  11
 181.07500000000
  21
 132.43750000000
  31
0.0
   0
LINE
   5
23F
 100
AcDbEntity
   8
LEVEL002
 370
30
 100
AcDbLine
   6
CONTINUOUS
  62
7
  10
 181.07500000000
  20
 132.43750000000
  30
0.0
  11
 183.77500000000
  21
 132.43750000000
  31
0.0
   0
LINE
   5
240
 100
AcDbEntity
   8
LEVEL002
 370
30
 100
AcDbLine
   6
CONTINUOUS
  62
7
  10
 183.77500000000
  20
 132.43750000000
  30
0.0
  11
 183.77500000000
  21
 134.23750000000
  31
0.0
   0
LINE
   5
241
 100
AcDbEntity
   8
LEVEL002
 370
30
 100
AcDbLine
   6
CONTINUOUS
  62
7
  10
 183.77500000000
  20
 134.23750000000
  30
0.0
  11
 181.97500000000
  21
 134.23750000000
  31
0.0
   0
LINE
   5
242
 100
AcDbEntity
   8
LEVEL002
 370
30
 100
AcDbLine
   6
CONTINUOUS
  62
7
  10
 181.97500000000
  20
 134.23750000000
  30
0.0
  11
 181.97500000000
  21
 136.03750000000
  31
0.0
   0
LINE
   5
243
 100
AcDbEntity
   8
LEVEL002
 370
30
 100
AcDbLine
   6
CONTINUOUS
  62
7
  10
 181.97500000000
  20
 136.03750000000
  30
0.0
  11
 192.77500000000
  21
 136.03750000000
  31
0.0
   0
LINE
   5
244
 100
AcDbEntity
   8
LEVEL002
 370
30
 100
AcDbLine
   6
CONTINUOUS
  62
7
  10
 192.77500000000
  20
 136.03750000000
  30
0.0
  11
 192.77500000000
  21
 134.23750000000
  31
0.0
   0
LINE
   5
245
 100
AcDbEntity
   8
LEVEL002
 370
30
 100
AcDbLine
   6
CONTINUOUS
  62
7
  10
 192.77500000000
  20
 134.23750000000
  30
0.0
  11
 189.17500000000
  21
 134.23750000000
  31
0.0
   0
LINE
   5
246
 100
AcDbEntity
   8
LEVEL002
 370
30
 100
AcDbLine
   6
CONTINUOUS
  62
7
  10
 189.17500000000
  20
 134.23750000000
  30
0.0
  11
 189.17500000000
  21
 133.78750000000
  31
0.0
   0
LINE
   5
247
 100
AcDbEntity
   8
LEVEL002
 370
30
 100
AcDbLine
   6
CONTINUOUS
  62
7
  10
 189.17500000000
  20
 133.78750000000
  30
0.0
  11
 192.32500000000
  21
 133.78750000000
  31
0.0
   0
LINE
   5
248
 100
AcDbEntity
   8
LEVEL002
 370
30
 100
AcDbLine
   6
CONTINUOUS
  62
7
  10
 192.32500000000
  20
 133.78750000000
  30
0.0
  11
 192.32500000000
  21
 132.88750000000
  31
0.0
   0
LINE
   5
249
 100
AcDbEntity
   8
LEVEL002
 370
30
 100
AcDbLine
   6
CONTINUOUS
  62
7
  10
 192.32500000000
  20
 132.88750000000
  30
0.0
  11
 189.17500000000
  21
 132.88750000000
  31
0.0
   0
LINE
   5
24A
 100
AcDbEntity
   8
LEVEL002
 370
30
 100
AcDbLine
   6
CONTINUOUS
  62
7
  10
 189.17500000000
  20
 132.88750000000
  30
0.0
  11
 189.17500000000
  21
 132.43750000000
  31
0.0
   0
LINE
   5
24B
 100
AcDbEntity
   8
LEVEL002
 370
30
 100
AcDbLine
   6
CONTINUOUS
  62
7
  10
 189.17500000000
  20
 132.43750000000
  30
0.0
  11
 192.77500000000
  21
 132.43750000000
  31
0.0
   0
LINE
   5
24C
 100
AcDbEntity
   8
LEVEL002
 370
30
 100
AcDbLine
   6
CONTINUOUS
  62
7
  10
 192.77500000000
  20
 132.43750000000
  30
0.0
  11
 192.77500000000
  21
 130.63750000000
  31
0.0
   0
LINE
   5
24D
 100
AcDbEntity
   8
LEVEL002
 370
30
 100
AcDbLine
   6
CONTINUOUS
  62
7
  10
 192.77500000000
  20
 130.63750000000
  30
0.0
  11
 187.37500000000
  21
 130.63750000000
  31
0.0
   0
LINE
   5
24E
 100
AcDbEntity
   8
LEVEL002
 370
30
 100
AcDbLine
   6
CONTINUOUS
  62
7
  10
 187.37500000000
  20
 130.63750000000
  30
0.0
  11
 187.37500000000
  21
 134.23750000000
  31
0.0
   0
LINE
   5
24F
 100
AcDbEntity
   8
LEVEL002
 370
30
 100
AcDbLine
   6
CONTINUOUS
  62
7
  10
 187.37500000000
  20
 134.23750000000
  30
0.0
  11
 185.57500000000
  21
 134.23750000000
  31
0.0
   0
LINE
   5
250
 100
AcDbEntity
   8
LEVEL002
 370
30
 100
AcDbLine
   6
CONTINUOUS
  62
7
  10
 185.57500000000
  20
 134.23750000000
  30
0.0
  11
 185.57500000000
  21
 130.63750000000
  31
0.0
   0
LINE
   5
251
 100
AcDbEntity
   8
LEVEL002
 370
30
 100
AcDbLine
   6
CONTINUOUS
  62
7
  10
 185.57500000000
  20
 130.63750000000
  30
0.0
  11
 179.27500000000
  21
 130.63750000000
  31
0.0
   0
LINE
   5
252
 100
AcDbEntity
   8
LEVEL002
 370
30
 100
AcDbLine
   6
CONTINUOUS
  62
7
  10
 179.27500000000
  20
 130.63750000000
  30
0.0
  11
 179.27500000000
  21
 136.03750000000
  31
0.0
   0
LINE
   5
253
 100
AcDbEntity
   8
LEVEL002
 370
30
 100
AcDbLine
   6
CONTINUOUS
  62
7
  10
 179.27500000000
  20
 136.03750000000
  30
0.0
  11
 175.67500000000
  21
 130.63750000000
  31
0.0
   0
LINE
   5
254
 100
AcDbEntity
   8
LEVEL002
 370
30
 100
AcDbLine
   6
CONTINUOUS
  62
7
  10
 175.67500000000
  20
 130.63750000000
  30
0.0
  11
 172.97500000000
  21
 130.63750000000
  31
0.0
   0
LINE
   5
255
 100
AcDbEntity
   8
LEVEL002
 370
30
 100
AcDbLine
   6
CONTINUOUS
  62
7
  10
 178.67500000000
  20
 134.05583461735
  30
0.0
  11
 176.39611025510
  21
 130.63750000000
  31
0.0
   0
LINE
   5
256
 100
AcDbEntity
   8
LEVEL002
 370
30
 100
AcDbLine
   6
CONTINUOUS
  62
7
  10
 176.39611025510
  20
 130.63750000000
  30
0.0
  11
 178.67500000000
  21
 130.63750000000
  31
0.0
   0
LINE
   5
257
 100
AcDbEntity
   8
LEVEL002
 370
30
 100
AcDbLine
   6
CONTINUOUS
  62
7
  10
 178.67500000000
  20
 130.63750000000
  30
0.0
  11
 178.67500000000
  21
 134.05583461735
  31
0.0
   0
ARC
   5
258
 100
AcDbEntity
   8
LEVEL002
 370
30
   6
CONTINUOUS
  62
7
 100
AcDbCircle
  10
 195.47500000000
  20
 133.33750000000
  30
0.0
  40
 2.7000000000000
 100
AcDbArc
  50
 90.000000000000
  51
 270.00000000000
   0
ARC
   5
259
 100
AcDbEntity
   8
LEVEL002
 370
30
   6
CONTINUOUS
  62
7
 100
AcDbCircle
  10
 195.47500000000
  20
 133.33750000000
  30
0.0
  40
 0.90000000000000
 100
AcDbArc
  50
 90.000000000000
  51
 270.00000000000
   0
LINE
   5
25A
 100
AcDbEntity
   8
LEVEL002
 370
30
 100
AcDbLine
   6
CONTINUOUS
  62
7
  10
 195.47500000000
  20
 136.03750000000
  30
0.0
  11
 198.17500000000
  21
 136.03750000000
  31
0.0
   0
LINE
   5
25B
 100
AcDbEntity
   8
LEVEL002
 370
30
 100
AcDbLine
   6
CONTINUOUS
  62
7
  10
 198.17500000000
  20
 136.03750000000
  30
0.0
  11
 198.17500000000
  21
 134.23750000000
  31
0.0
   0
LINE
   5
25C
 100
AcDbEntity
   8
LEVEL002
 370
30
 100
AcDbLine
   6
CONTINUOUS
  62
7
  10
 198.17500000000
  20
 134.23750000000
  30
0.0
  11
 195.47500000000
  21
 134.23750000000
  31
0.0
   0
LINE
   5
25D
 100
AcDbEntity
   8
LEVEL002
 370
30
 100
AcDbLine
   6
CONTINUOUS
  62
7
  10
 168.47500000000
  20
 136.03750000000
  30
0.0
  11
 168.47500000000
  21
 130.63750000000
  31
0.0
   0
LINE
   5
25E
 100
AcDbEntity
   8
LEVEL002
 370
30
 100
AcDbLine
   6
CONTINUOUS
  62
7
  10
 168.47500000000
  20
 130.63750000000
  30
0.0
  11
 170.27500000000
  21
 130.63750000000
  31
0.0
   0
LINE
   5
25F
 100
AcDbEntity
   8
LEVEL002
 370
30
 100
AcDbLine
   6
CONTINUOUS
  62
7
  10
 170.27500000000
  20
 130.63750000000
  30
0.0
  11
 170.27500000000
  21
 131.53750000000
  31
0.0
   0
LINE
   5
260
 100
AcDbEntity
   8
LEVEL002
 370
30
 100
AcDbLine
   6
CONTINUOUS
  62
7
  10
 170.27500000000
  20
 131.53750000000
  30
0.0
  11
 172.07500000000
  21
 131.53750000000
  31
0.0
   0
ARC
   5
261
 100
AcDbEntity
   8
LEVEL002
 370
30
   6
CONTINUOUS
  62
7
 100
AcDbCircle
  10
 172.07500000000
  20
 133.78750000000
  30
0.0
  40
 2.2500000000000
 100
AcDbArc
  50
 270.00000000000
  51
 90.000000000000
   0
LINE
   5
262
 100
AcDbEntity
   8
LEVEL002
 370
30
 100
AcDbLine
   6
CONTINUOUS
  62
7
  10
 172.07500000000
  20
 136.03750000000
  30
0.0
  11
 168.47500000000
  21
 136.03750000000
  31
0.0
   0
LINE
   5
263
 100
AcDbEntity
   8
LEVEL002
 370
30
 100
AcDbLine
   6
CONTINUOUS
  62
7
  10
 170.27500000000
  20
 134.23750000000
  30
0.0
  11
 170.27500000000
  21
 133.33750000000
  31
0.0
   0
LINE
   5
264
 100
AcDbEntity
   8
LEVEL002
 370
30
 100
AcDbLine
   6
CONTINUOUS
  62
7
  10
 170.27500000000
  20
 133.33750000000
  30
0.0
  11
 172.07500000000
  21
 133.33750000000
  31
0.0
   0
ARC
   5
265
 100
AcDbEntity
   8
LEVEL002
 370
30
   6
CONTINUOUS
  62
7
 100
AcDbCircle
  10
 172.07500000000
  20
 133.78750000000
  30
0.0
  40
 0.45000000000000
 100
AcDbArc
  50
 270.00000000000
  51
 90.000000000000
   0
LINE
   5
266
 100
AcDbEntity
   8
LEVEL002
 370
30
 100
AcDbLine
   6
CONTINUOUS
  62
7
  10
 172.07500000000
  20
 134.23750000000
  30
0.0
  11
 170.27500000000
  21
 134.23750000000
  31
0.0
   0
LINE
   5
267
 100
AcDbEntity
   8
LEVEL002
 370
30
 100
AcDbLine
   6
CONTINUOUS
  62
7
  10
 176.57500000000
  20
 136.03750000000
  30
0.0
  11
 172.97500000000
  21
 130.63750000000
  31
0.0
   0
LINE
   5
268
 100
AcDbEntity
   8
LEVEL002
 370
30
 100
AcDbLine
   6
CONTINUOUS
  62
7
  10
 172.97500000000
  20
 130.63750000000
  30
0.0
  11
 175.67500000000
  21
 130.63750000000
  31
0.0
   0
LINE
   5
269
 100
AcDbEntity
   8
LEVEL002
 370
30
 100
AcDbLine
   6
CONTINUOUS
  62
7
  10
 175.67500000000
  20
 130.63750000000
  30
0.0
  11
 179.27500000000
  21
 136.03750000000
  31
0.0
   0
LINE
   5
26A
 100
AcDbEntity
   8
LEVEL002
 370
30
 100
AcDbLine
   6
CONTINUOUS
  62
7
  10
 179.27500000000
  20
 136.03750000000
  30
0.0
  11
 176.57500000000
  21
 136.03750000000
  31
0.0
   0
LINE
   5
26B
 100
AcDbEntity
   8
LEVEL002
 370
30
 100
AcDbLine
   6
CONTINUOUS
  62
7
  10
 178.67500000000
  20
 130.63750000000
  30
0.0
  11
 178.67500000000
  21
 134.05583461735
  31
0.0
   0
LINE
   5
26C
 100
AcDbEntity
   8
LEVEL002
 370
30
 100
AcDbLine
   6
CONTINUOUS
  62
7
  10
 178.67500000000
  20
 134.05583461735
  30
0.0
  11
 176.39611025510
  21
 130.63750000000
  31
0.0
   0
LINE
   5
26D
 100
AcDbEntity
   8
LEVEL002
 370
30
 100
AcDbLine
   6
CONTINUOUS
  62
7
  10
 176.39611025510
  20
 130.63750000000
  30
0.0
  11
 178.67500000000
  21
 130.63750000000
  31
0.0
   0
LINE
   5
26E
 100
AcDbEntity
   8
LEVEL002
 370
30
 100
AcDbLine
   6
CONTINUOUS
  62
7
  10
 179.27500000000
  20
 130.63750000000
  30
0.0
  11
 185.57500000000
  21
 130.63750000000
  31
0.0
   0
LINE
   5
26F
 100
AcDbEntity
   8
LEVEL002
 370
30
 100
AcDbLine
   6
CONTINUOUS
  62
7
  10
 185.57500000000
  20
 130.63750000000
  30
0.0
  11
 185.57500000000
  21
 134.23750000000
  31
0.0
   0
LINE
   5
270
 100
AcDbEntity
   8
LEVEL002
 370
30
 100
AcDbLine
   6
CONTINUOUS
  62
7
  10
 185.57500000000
  20
 134.23750000000
  30
0.0
  11
 187.37500000000
  21
 134.23750000000
  31
0.0
   0
LINE
   5
271
 100
AcDbEntity
   8
LEVEL002
 370
30
 100
AcDbLine
   6
CONTINUOUS
  62
7
  10
 187.37500000000
  20
 134.23750000000
  30
0.0
  11
 187.37500000000
  21
 130.63750000000
  31
0.0
   0
LINE
   5
272
 100
AcDbEntity
   8
LEVEL002
 370
30
 100
AcDbLine
   6
CONTINUOUS
  62
7
  10
 187.37500000000
  20
 130.63750000000
  30
0.0
  11
 192.77500000000
  21
 130.63750000000
  31
0.0
   0
LINE
   5
273
 100
AcDbEntity
   8
LEVEL002
 370
30
 100
AcDbLine
   6
CONTINUOUS
  62
7
  10
 192.77500000000
  20
 130.63750000000
  30
0.0
  11
 192.77500000000
  21
 132.43750000000
  31
0.0
   0
LINE
   5
274
 100
AcDbEntity
   8
LEVEL002
 370
30
 100
AcDbLine
   6
CONTINUOUS
  62
7
  10
 192.77500000000
  20
 132.43750000000
  30
0.0
  11
 189.17500000000
  21
 132.43750000000
  31
0.0
   0
LINE
   5
275
 100
AcDbEntity
   8
LEVEL002
 370
30
 100
AcDbLine
   6
CONTINUOUS
  62
7
  10
 189.17500000000
  20
 132.43750000000
  30
0.0
  11
 189.17500000000
  21
 132.88750000000
  31
0.0
   0
LINE
   5
276
 100
AcDbEntity
   8
LEVEL002
 370
30
 100
AcDbLine
   6
CONTINUOUS
  62
7
  10
 189.17500000000
  20
 132.88750000000
  30
0.0
  11
 192.32500000000
  21
 132.88750000000
  31
0.0
   0
LINE
   5
277
 100
AcDbEntity
   8
LEVEL002
 370
30
 100
AcDbLine
   6
CONTINUOUS
  62
7
  10
 192.32500000000
  20
 132.88750000000
  30
0.0
  11
 192.32500000000
  21
 133.78750000000
  31
0.0
   0
LINE
   5
278
 100
AcDbEntity
   8
LEVEL002
 370
30
 100
AcDbLine
   6
CONTINUOUS
  62
7
  10
 192.32500000000
  20
 133.78750000000
  30
0.0
  11
 189.17500000000
  21
 133.78750000000
  31
0.0
   0
LINE
   5
279
 100
AcDbEntity
   8
LEVEL002
 370
30
 100
AcDbLine
   6
CONTINUOUS
  62
7
  10
 189.17500000000
  20
 133.78750000000
  30
0.0
  11
 189.17500000000
  21
 134.23750000000
  31
0.0
   0
LINE
   5
27A
 100
AcDbEntity
   8
LEVEL002
 370
30
 100
AcDbLine
   6
CONTINUOUS
  62
7
  10
 189.17500000000
  20
 134.23750000000
  30
0.0
  11
 192.77500000000
  21
 134.23750000000
  31
0.0
   0
LINE
   5
27B
 100
AcDbEntity
   8
LEVEL002
 370
30
 100
AcDbLine
   6
CONTINUOUS
  62
7
  10
 192.77500000000
  20
 134.23750000000
  30
0.0
  11
 192.77500000000
  21
 136.03750000000
  31
0.0
   0
LINE
   5
27C
 100
AcDbEntity
   8
LEVEL002
 370
30
 100
AcDbLine
   6
CONTINUOUS
  62
7
  10
 192.77500000000
  20
 136.03750000000
  30
0.0
  11
 181.97500000000
  21
 136.03750000000
  31
0.0
   0
LINE
   5
27D
 100
AcDbEntity
   8
LEVEL002
 370
30
 100
AcDbLine
   6
CONTINUOUS
  62
7
  10
 181.97500000000
  20
 136.03750000000
  30
0.0
  11
 181.97500000000
  21
 134.23750000000
  31
0.0
   0
LINE
   5
27E
 100
AcDbEntity
   8
LEVEL002
 370
30
 100
AcDbLine
   6
CONTINUOUS
  62
7
  10
 181.97500000000
  20
 134.23750000000
  30
0.0
  11
 183.77500000000
  21
 134.23750000000
  31
0.0
   0
LINE
   5
27F
 100
AcDbEntity
   8
LEVEL002
 370
30
 100
AcDbLine
   6
CONTINUOUS
  62
7
  10
 183.77500000000
  20
 134.23750000000
  30
0.0
  11
 183.77500000000
  21
 132.43750000000
  31
0.0
   0
LINE
   5
280
 100
AcDbEntity
   8
LEVEL002
 370
30
 100
AcDbLine
   6
CONTINUOUS
  62
7
  10
 183.77500000000
  20
 132.43750000000
  30
0.0
  11
 181.07500000000
  21
 132.43750000000
  31
0.0
   0
LINE
   5
281
 100
AcDbEntity
   8
LEVEL002
 370
30
 100
AcDbLine
   6
CONTINUOUS
  62
7
  10
 181.07500000000
  20
 132.43750000000
  30
0.0
  11
 181.07500000000
  21
 136.03750000000
  31
0.0
   0
LINE
   5
282
 100
AcDbEntity
   8
LEVEL002
 370
30
 100
AcDbLine
   6
CONTINUOUS
  62
7
  10
 181.07500000000
  20
 136.03750000000
  30
0.0
  11
 179.27500000000
  21
 136.03750000000
  31
0.0
   0
LINE
   5
283
 100
AcDbEntity
   8
LEVEL002
 370
30
 100
AcDbLine
   6
CONTINUOUS
  62
7
  10
 179.27500000000
  20
 136.03750000000
  30
0.0
  11
 179.27500000000
  21
 130.63750000000
  31
0.0
   0
LINE
   5
284
 100
AcDbEntity
   8
LEVEL002
 370
30
 100
AcDbLine
   6
CONTINUOUS
  62
7
  10
 195.47500000000
  20
 130.63750000000
  30
0.0
  11
 198.17500000000
  21
 130.63750000000
  31
0.0
   0
LINE
   5
285
 100
AcDbEntity
   8
LEVEL002
 370
30
 100
AcDbLine
   6
CONTINUOUS
  62
7
  10
 198.17500000000
  20
 130.63750000000
  30
0.0
  11
 198.17500000000
  21
 132.43750000000
  31
0.0
   0
LINE
   5
286
 100
AcDbEntity
   8
LEVEL002
 370
30
 100
AcDbLine
   6
CONTINUOUS
  62
7
  10
 198.17500000000
  20
 132.43750000000
  30
0.0
  11
 195.47500000000
  21
 132.43750000000
  31
0.0
   0
ARC
   5
287
 100
AcDbEntity
   8
LEVEL002
 370
30
   6
CONTINUOUS
  62
7
 100
AcDbCircle
  10
 195.47500000000
  20
 133.33750000000
  30
0.0
  40
 0.90000000000000
 100
AcDbArc
  50
 90.000000000000
  51
 270.00000000000
   0
LINE
   5
288
 100
AcDbEntity
   8
LEVEL002
 370
30
 100
AcDbLine
   6
CONTINUOUS
  62
7
  10
 195.47500000000
  20
 134.23750000000
  30
0.0
  11
 198.17500000000
  21
 134.23750000000
  31
0.0
   0
LINE
   5
289
 100
AcDbEntity
   8
LEVEL002
 370
30
 100
AcDbLine
   6
CONTINUOUS
  62
7
  10
 198.17500000000
  20
 134.23750000000
  30
0.0
  11
 198.17500000000
  21
 136.03750000000
  31
0.0
   0
LINE
   5
28A
 100
AcDbEntity
   8
LEVEL002
 370
30
 100
AcDbLine
   6
CONTINUOUS
  62
7
  10
 198.17500000000
  20
 136.03750000000
  30
0.0
  11
 195.47500000000
  21
 136.03750000000
  31
0.0
   0
ARC
   5
28B
 100
AcDbEntity
   8
LEVEL002
 370
30
   6
CONTINUOUS
  62
7
 100
AcDbCircle
  10
 195.47500000000
  20
 133.33750000000
  30
0.0
  40
 2.7000000000000
 100
AcDbArc
  50
 90.000000000000
  51
 270.00000000000
   0
MTEXT
   5
28D
 100
AcDbEntity
   8
LEVEL002
 370
30
  62
7
 100
AcDbMText
  10
 168.47500000000
  20
 136.93750000000
  30
0.0
  40
 1.8750000000000
  41
0.0
  71
7
  72
1
   1
\T1.000000;ケージーパルテック株式会社
   7
GMM001
  44
 0.79999984000003
   0
LINE
   5
28E
 100
AcDbEntity
   8
LEVEL002
 370
30
 100
AcDbLine
   6
CONTINUOUS
  62
7
  10
 166.67500000000
  20
 131.83750000000
  30
0.0
  11
 164.42500000000
  21
 135.43750000000
  31
0.0
   0
LINE
   5
28F
 100
AcDbEntity
   8
LEVEL002
 370
30
 100
AcDbLine
   6
CONTINUOUS
  62
7
  10
 164.42500000000
  20
 135.43750000000
  30
0.0
  11
 166.67500000000
  21
 135.43750000000
  31
0.0
   0
LINE
   5
290
 100
AcDbEntity
   8
LEVEL002
 370
30
 100
AcDbLine
   6
CONTINUOUS
  62
7
  10
 166.67500000000
  20
 135.43750000000
  30
0.0
  11
 166.67500000000
  21
 131.83750000000
  31
0.0
   0
LINE
   5
291
 100
AcDbEntity
   8
LEVEL002
 370
30
 100
AcDbLine
   6
CONTINUOUS
  62
7
  10
 164.42500000000
  20
 135.43750000000
  30
0.0
  11
 166.67500000000
  21
 131.83750000000
  31
0.0
   0
LINE
   5
292
 100
AcDbEntity
   8
LEVEL002
 370
30
 100
AcDbLine
   6
CONTINUOUS
  62
7
  10
 166.67500000000
  20
 131.83750000000
  30
0.0
  11
 166.67500000000
  21
 135.43750000000
  31
0.0
   0
LINE
   5
293
 100
AcDbEntity
   8
LEVEL002
 370
30
 100
AcDbLine
   6
CONTINUOUS
  62
7
  10
 166.67500000000
  20
 135.43750000000
  30
0.0
  11
 164.42500000000
  21
 135.43750000000
  31
0.0
   0
LINE
   5
294
 100
AcDbEntity
   8
LEVEL002
 370
30
 100
AcDbLine
   6
CONTINUOUS
  62
7
  10
 159.52500000000
  20
 140.23750000000
  30
0.0
  11
 156.32500000000
  21
 135.43750000000
  31
0.0
   0
LINE
   5
295
 100
AcDbEntity
   8
LEVEL002
 370
30
 100
AcDbLine
   6
CONTINUOUS
  62
7
  10
 156.32500000000
  20
 135.43750000000
  30
0.0
  11
 159.52500000000
  21
 130.63750000000
  31
0.0
   0
LINE
   5
296
 100
AcDbEntity
   8
LEVEL002
 370
30
 100
AcDbLine
   6
CONTINUOUS
  62
7
  10
 162.22500000000
  20
 130.63750000000
  30
0.0
  11
 159.02500000000
  21
 135.43750000000
  31
0.0
   0
LINE
   5
297
 100
AcDbEntity
   8
LEVEL002
 370
30
 100
AcDbLine
   6
CONTINUOUS
  62
7
  10
 159.02500000000
  20
 135.43750000000
  30
0.0
  11
 162.22500000000
  21
 140.23750000000
  31
0.0
   0
LINE
   5
298
 100
AcDbEntity
   8
LEVEL002
 370
30
 100
AcDbLine
   6
CONTINUOUS
  62
7
  10
 163.57500000000
  20
 140.23750000000
  30
0.0
  11
 160.37500000000
  21
 135.43750000000
  31
0.0
   0
LINE
   5
299
 100
AcDbEntity
   8
LEVEL002
 370
30
 100
AcDbLine
   6
CONTINUOUS
  62
7
  10
 160.37500000000
  20
 135.43750000000
  30
0.0
  11
 163.57500000000
  21
 130.63750000000
  31
0.0
   0
LINE
   5
29A
 100
AcDbEntity
   8
LEVEL002
 370
30
 100
AcDbLine
   6
CONTINUOUS
  62
7
  10
 166.27500000000
  20
 130.63750000000
  30
0.0
  11
 163.07500000000
  21
 135.43750000000
  31
0.0
   0
LINE
   5
29B
 100
AcDbEntity
   8
LEVEL002
 370
30
 100
AcDbLine
   6
CONTINUOUS
  62
7
  10
 163.07500000000
  20
 135.43750000000
  30
0.0
  11
 166.27500000000
  21
 140.23750000000
  31
0.0
   0
LINE
   5
29C
 100
AcDbEntity
   8
LEVEL002
 370
30
 100
AcDbLine
   6
CONTINUOUS
  62
7
  10
 159.52500000000
  20
 130.63750000000
  30
0.0
  11
 156.32500000000
  21
 135.43750000000
  31
0.0
   0
LINE
   5
29D
 100
AcDbEntity
   8
LEVEL002
 370
30
 100
AcDbLine
   6
CONTINUOUS
  62
7
  10
 156.32500000000
  20
 135.43750000000
  30
0.0
  11
 159.52500000000
  21
 140.23750000000
  31
0.0
   0
LINE
   5
29E
 100
AcDbEntity
   8
LEVEL002
 370
30
 100
AcDbLine
   6
CONTINUOUS
  62
7
  10
 159.52500000000
  20
 140.23750000000
  30
0.0
  11
 162.22500000000
  21
 140.23750000000
  31
0.0
   0
LINE
   5
29F
 100
AcDbEntity
   8
LEVEL002
 370
30
 100
AcDbLine
   6
CONTINUOUS
  62
7
  10
 162.22500000000
  20
 140.23750000000
  30
0.0
  11
 159.02500000000
  21
 135.43750000000
  31
0.0
   0
LINE
   5
2A0
 100
AcDbEntity
   8
LEVEL002
 370
30
 100
AcDbLine
   6
CONTINUOUS
  62
7
  10
 159.02500000000
  20
 135.43750000000
  30
0.0
  11
 162.22500000000
  21
 130.63750000000
  31
0.0
   0
LINE
   5
2A1
 100
AcDbEntity
   8
LEVEL002
 370
30
 100
AcDbLine
   6
CONTINUOUS
  62
7
  10
 162.22500000000
  20
 130.63750000000
  30
0.0
  11
 159.52500000000
  21
 130.63750000000
  31
0.0
   0
LINE
   5
2A2
 100
AcDbEntity
   8
LEVEL002
 370
30
 100
AcDbLine
   6
CONTINUOUS
  62
7
  10
 163.57500000000
  20
 130.63750000000
  30
0.0
  11
 160.37500000000
  21
 135.43750000000
  31
0.0
   0
LINE
   5
2A3
 100
AcDbEntity
   8
LEVEL002
 370
30
 100
AcDbLine
   6
CONTINUOUS
  62
7
  10
 160.37500000000
  20
 135.43750000000
  30
0.0
  11
 163.57500000000
  21
 140.23750000000
  31
0.0
   0
LINE
   5
2A4
 100
AcDbEntity
   8
LEVEL002
 370
30
 100
AcDbLine
   6
CONTINUOUS
  62
7
  10
 163.57500000000
  20
 140.23750000000
  30
0.0
  11
 166.27500000000
  21
 140.23750000000
  31
0.0
   0
LINE
   5
2A5
 100
AcDbEntity
   8
LEVEL002
 370
30
 100
AcDbLine
   6
CONTINUOUS
  62
7
  10
 166.27500000000
  20
 140.23750000000
  30
0.0
  11
 163.07500000000
  21
 135.43750000000
  31
0.0
   0
LINE
   5
2A6
 100
AcDbEntity
   8
LEVEL002
 370
30
 100
AcDbLine
   6
CONTINUOUS
  62
7
  10
 163.07500000000
  20
 135.43750000000
  30
0.0
  11
 166.27500000000
  21
 130.63750000000
  31
0.0
   0
LINE
   5
2A7
 100
AcDbEntity
   8
LEVEL002
 370
30
 100
AcDbLine
   6
CONTINUOUS
  62
7
  10
 166.27500000000
  20
 130.63750000000
  30
0.0
  11
 163.57500000000
  21
 130.63750000000
  31
0.0
   0
LINE
   5
2A8
 100
AcDbEntity
   8
LEVEL001
 370
30
 100
AcDbLine
   6
DOT
  62
7
  10
0.0
  20
0.0
  30
0.0
  11
 210.00000000000
  21
0.0
  31
0.0
   0
LINE
   5
2A9
 100
AcDbEntity
   8
LEVEL001
 370
30
 100
AcDbLine
   6
DOT
  62
7
  10
 210.00000000000
  20
0.0
  30
0.0
  11
 210.00000000000
  21
 148.50000000000
  31
0.0
   0
LINE
   5
2AA
 100
AcDbEntity
   8
LEVEL001
 370
30
 100
AcDbLine
   6
DOT
  62
7
  10
 210.00000000000
  20
 148.50000000000
  30
0.0
  11
0.0
  21
 148.50000000000
  31
0.0
   0
LINE
   5
2AB
 100
AcDbEntity
   8
LEVEL001
 370
30
 100
AcDbLine
   6
DOT
  62
7
  10
0.0
  20
 148.50000000000
  30
0.0
  11
0.0
  21
0.0
  31
0.0
   0
LINE
   5
2AC
 100
AcDbEntity
   8
LEVEL002
 370
40
 100
AcDbLine
   6
CONTINUOUS
  62
3
  10
 7.7499999999750
  20
 137.50000000000
  30
0.0
  11
 152.24999999997
  21
 137.50000000000
  31
0.0
   0
LINE
   5
2AD
 100
AcDbEntity
   8
LEVEL002
 370
40
 100
AcDbLine
   6
CONTINUOUS
  62
3
  10
 152.24999999997
  20
 128.37500000000
  30
0.0
  11
 202.24999999997
  21
 128.37500000000
  31
0.0
   0
LINE
   5
2AE
 100
AcDbEntity
   8
LEVEL002
 370
40
 100
AcDbLine
   6
CONTINUOUS
  62
3
  10
 152.24999999997
  20
 118.37500000000
  30
0.0
  11
 202.24999999997
  21
 118.37500000000
  31
0.0
   0
LINE
   5
2AF
 100
AcDbEntity
   8
LEVEL002
 370
40
 100
AcDbLine
   6
CONTINUOUS
  62
3
  10
 152.24999999997
  20
 108.37500000000
  30
0.0
  11
 202.24999999997
  21
 108.37500000000
  31
0.0
   0
LINE
   5
2B0
 100
AcDbEntity
   8
LEVEL002
 370
40
 100
AcDbLine
   6
CONTINUOUS
  62
3
  10
 152.24999999997
  20
 36.000000000005
  30
0.0
  11
 202.24999999997
  21
 36.000000000005
  31
0.0
   0
LINE
   5
2B1
 100
AcDbEntity
   8
LEVEL002
 370
40
 100
AcDbLine
   6
CONTINUOUS
  62
3
  10
 152.24999999997
  20
 26.000000000005
  30
0.0
  11
 202.24999999997
  21
 26.000000000005
  31
0.0
   0
LINE
   5
2B2
 100
AcDbEntity
   8
LEVEL002
 370
40
 100
AcDbLine
   6
CONTINUOUS
  62
3
  10
 152.24999999997
  20
 16.000000000005
  30
0.0
  11
 202.24999999997
  21
 16.000000000005
  31
0.0
   0
LINE
   5
2B3
 100
AcDbEntity
   8
LEVEL002
 370
40
 100
AcDbLine
   6
CONTINUOUS
  62
3
  10
 177.24999999997
  20
 26.000000000005
  30
0.0
  11
 177.24999999997
  21
 6.0000000000050
  31
0.0
   0
LINE
   5
2B4
 100
AcDbEntity
   8
LEVEL002
 370
40
 100
AcDbLine
   6
CONTINUOUS
  62
3
  10
 177.24999999997
  20
 19.333333333340
  30
0.0
  11
 202.24999999997
  21
 19.333333333340
  31
0.0
   0
LINE
   5
2B5
 100
AcDbEntity
   8
LEVEL002
 370
40
 100
AcDbLine
   6
CONTINUOUS
  62
3
  10
 177.24999999997
  20
 22.666666666673
  30
0.0
  11
 202.24999999997
  21
 22.666666666673
  31
0.0
   0
LINE
   5
2B6
 100
AcDbEntity
   8
LEVEL002
 370
50
 100
AcDbLine
   6
CONTINUOUS
  62
4
  10
 202.24999999997
  20
 142.50000000000
  30
0.0
  11
 7.7499999999750
  21
 142.50000000000
  31
0.0
   0
LINE
   5
2B7
 100
AcDbEntity
   8
LEVEL002
 370
50
 100
AcDbLine
   6
CONTINUOUS
  62
4
  10
 152.24999999997
  20
 142.50000000000
  30
0.0
  11
 152.24999999997
  21
 6.0000000000050
  31
0.0
   0
LINE
   5
2B8
 100
AcDbEntity
   8
LEVEL002
 370
50
 100
AcDbLine
   6
CONTINUOUS
  62
4
  10
 202.24999999997
  20
 6.0000000000050
  30
0.0
  11
 202.24999999997
  21
 142.50000000000
  31
0.0
   0
LINE
   5
2B9
 100
AcDbEntity
   8
LEVEL002
 370
50
 100
AcDbLine
   6
CONTINUOUS
  62
4
  10
 7.7499999999750
  20
 142.50000000000
  30
0.0
  11
 7.7499999999750
  21
 6.0000000000050
  31
0.0
   0
LINE
   5
2BA
 100
AcDbEntity
   8
LEVEL002
 370
50
 100
AcDbLine
   6
CONTINUOUS
  62
4
  10
 7.7499999999750
  20
 6.0000000000050
  30
0.0
  11
 202.24999999997
  21
 6.0000000000050
  31
0.0
   0
HATCH
   5
2BB
 100
AcDbEntity
   8
LEVEL001
  62
1
 100
AcDbHatch
  10
0.0
  20
0.0
  30
0.0
 210
0.0
 220
0.0
 230
 1.0000000000000
   2
SOLID
  70
1
  71
1
  91
7
  92
1
  93
6
  72
1
  10
 162.22500000000
  20
 140.23750000000
  11
 159.02500000000
  21
 135.43750000000
  72
1
  10
 159.02500000000
  20
 135.43750000000
  11
 162.22500000000
  21
 130.63750000000
  72
1
  10
 162.22500000000
  20
 130.63750000000
  11
 159.52500000000
  21
 130.63750000000
  72
1
  10
 159.52500000000
  20
 130.63750000000
  11
 156.32500000000
  21
 135.43750000000
  72
1
  10
 156.32500000000
  20
 135.43750000000
  11
 159.52500000000
  21
 140.23750000000
  72
1
  10
 159.52500000000
  20
 140.23750000000
  11
 162.22500000000
  21
 140.23750000000
  97
1
 330

  92
16
  93
6
  72
1
  10
 163.57500000000
  20
 140.23750000000
  11
 166.27500000000
  21
 140.23750000000
  72
1
  10
 166.27500000000
  20
 140.23750000000
  11
 163.07500000000
  21
 135.43750000000
  72
1
  10
 163.07500000000
  20
 135.43750000000
  11
 166.27500000000
  21
 130.63750000000
  72
1
  10
 166.27500000000
  20
 130.63750000000
  11
 163.57500000000
  21
 130.63750000000
  72
1
  10
 163.57500000000
  20
 130.63750000000
  11
 160.37500000000
  21
 135.43750000000
  72
1
  10
 160.37500000000
  20
 135.43750000000
  11
 163.57500000000
  21
 140.23750000000
  97
1
 330

  92
16
  93
3
  72
1
  10
 166.67500000000
  20
 135.43750000000
  11
 164.42500000000
  21
 135.43750000000
  72
1
  10
 164.42500000000
  20
 135.43750000000
  11
 166.67500000000
  21
 131.83750000000
  72
1
  10
 166.67500000000
  20
 131.83750000000
  11
 166.67500000000
  21
 135.43750000000
  97
1
 330

  92
16
  93
6
  72
1
  10
 168.47500000000
  20
 136.03750000000
  11
 172.07500000000
  21
 136.03750000000
  72
2
  10
 172.07500000000
  20
 133.78750000000
  40
 2.2500000000000
  50
 270.00000000000
  51
 90.000000000000
  73
0
  72
1
  10
 172.07500000000
  20
 131.53750000000
  11
 170.27500000000
  21
 131.53750000000
  72
1
  10
 170.27500000000
  20
 131.53750000000
  11
 170.27500000000
  21
 130.63750000000
  72
1
  10
 170.27500000000
  20
 130.63750000000
  11
 168.47500000000
  21
 130.63750000000
  72
1
  10
 168.47500000000
  20
 130.63750000000
  11
 168.47500000000
  21
 136.03750000000
  97
1
 330

  92
16
  93
4
  72
1
  10
 172.07500000000
  20
 134.23750000000
  11
 170.27500000000
  21
 134.23750000000
  72
1
  10
 170.27500000000
  20
 134.23750000000
  11
 170.27500000000
  21
 133.33750000000
  72
1
  10
 170.27500000000
  20
 133.33750000000
  11
 172.07500000000
  21
 133.33750000000
  72
2
  10
 172.07500000000
  20
 133.78750000000
  40
 0.45000000000000
  50
 270.00000000000
  51
 90.000000000000
  73
1
  97
1
 330

  92
16
  93
4
  72
1
  10
 172.97500000000
  20
 130.63750000000
  11
 176.57500000000
  21
 136.03750000000
  72
1
  10
 176.57500000000
  20
 136.03750000000
  11
 179.27500000000
  21
 136.03750000000
  72
1
  10
 179.27500000000
  20
 136.03750000000
  11
 175.67500000000
  21
 130.63750000000
  72
1
  10
 175.67500000000
  20
 130.63750000000
  11
 172.97500000000
  21
 130.63750000000
  97
1
 330

  92
16
  93
3
  72
1
  10
 178.67500000000
  20
 134.05583461735
  11
 176.39611025510
  21
 130.63750000000
  72
1
  10
 176.39611025510
  20
 130.63750000000
  11
 178.67500000000
  21
 130.63750000000
  72
1
  10
 178.67500000000
  20
 130.63750000000
  11
 178.67500000000
  21
 134.05583461735
  97
1
 330

  75
0
  76
1
  98
1
  10
0.0
  20
0.0
   0
HATCH
   5
2BC
 100
AcDbEntity
   8
LEVEL001
  62
1
 100
AcDbHatch
  10
0.0
  20
0.0
  30
0.0
 210
0.0
 220
0.0
 230
 1.0000000000000
   2
SOLID
  70
1
  71
1
  91
1
  92
1
  93
22
  72
1
  10
 179.27500000000
  20
 136.03750000000
  11
 181.07500000000
  21
 136.03750000000
  72
1
  10
 181.07500000000
  20
 136.03750000000
  11
 181.07500000000
  21
 132.43750000000
  72
1
  10
 181.07500000000
  20
 132.43750000000
  11
 183.77500000000
  21
 132.43750000000
  72
1
  10
 183.77500000000
  20
 132.43750000000
  11
 183.77500000000
  21
 134.23750000000
  72
1
  10
 183.77500000000
  20
 134.23750000000
  11
 181.97500000000
  21
 134.23750000000
  72
1
  10
 181.97500000000
  20
 134.23750000000
  11
 181.97500000000
  21
 136.03750000000
  72
1
  10
 181.97500000000
  20
 136.03750000000
  11
 192.77500000000
  21
 136.03750000000
  72
1
  10
 192.77500000000
  20
 136.03750000000
  11
 192.77500000000
  21
 134.23750000000
  72
1
  10
 192.77500000000
  20
 134.23750000000
  11
 189.17500000000
  21
 134.23750000000
  72
1
  10
 189.17500000000
  20
 134.23750000000
  11
 189.17500000000
  21
 133.78750000000
  72
1
  10
 189.17500000000
  20
 133.78750000000
  11
 192.32500000000
  21
 133.78750000000
  72
1
  10
 192.32500000000
  20
 133.78750000000
  11
 192.32500000000
  21
 132.88750000000
  72
1
  10
 192.32500000000
  20
 132.88750000000
  11
 189.17500000000
  21
 132.88750000000
  72
1
  10
 189.17500000000
  20
 132.88750000000
  11
 189.17500000000
  21
 132.43750000000
  72
1
  10
 189.17500000000
  20
 132.43750000000
  11
 192.77500000000
  21
 132.43750000000
  72
1
  10
 192.77500000000
  20
 132.43750000000
  11
 192.77500000000
  21
 130.63750000000
  72
1
  10
 192.77500000000
  20
 130.63750000000
  11
 187.37500000000
  21
 130.63750000000
  72
1
  10
 187.37500000000
  20
 130.63750000000
  11
 187.37500000000
  21
 134.23750000000
  72
1
  10
 187.37500000000
  20
 134.23750000000
  11
 185.57500000000
  21
 134.23750000000
  72
1
  10
 185.57500000000
  20
 134.23750000000
  11
 185.57500000000
  21
 130.63750000000
  72
1
  10
 185.57500000000
  20
 130.63750000000
  11
 179.27500000000
  21
 130.63750000000
  72
1
  10
 179.27500000000
  20
 130.63750000000
  11
 179.27500000000
  21
 136.03750000000
  97
1
 330

  75
0
  76
1
  98
1
  10
0.0
  20
0.0
   0
HATCH
   5
2BD
 100
AcDbEntity
   8
LEVEL001
  62
1
 100
AcDbHatch
  10
0.0
  20
0.0
  30
0.0
 210
0.0
 220
0.0
 230
 1.0000000000000
   2
SOLID
  70
1
  71
1
  91
1
  92
1
  93
8
  72
1
  10
 198.17500000000
  20
 136.03750000000
  11
 195.47500000000
  21
 136.03750000000
  72
2
  10
 195.47500000000
  20
 133.33750000000
  40
 2.7000000000000
  50
 90.000000000000
  51
 270.00000000000
  73
1
  72
1
  10
 195.47500000000
  20
 130.63750000000
  11
 198.17500000000
  21
 130.63750000000
  72
1
  10
 198.17500000000
  20
 130.63750000000
  11
 198.17500000000
  21
 132.43750000000
  72
1
  10
 198.17500000000
  20
 132.43750000000
  11
 195.47500000000
  21
 132.43750000000
  72
2
  10
 195.47500000000
  20
 133.33750000000
  40
 0.90000000000000
  50
 90.000000000000
  51
 270.00000000000
  73
0
  72
1
  10
 195.47500000000
  20
 134.23750000000
  11
 198.17500000000
  21
 134.23750000000
  72
1
  10
 198.17500000000
  20
 134.23750000000
  11
 198.17500000000
  21
 136.03750000000
  97
1
 330

  75
0
  76
1
  98
1
  10
0.0
  20
0.0
   0
MTEXT
   5
2BF
 100
AcDbEntity
   8
LEVEL002
 370
15
  62
8
 100
AcDbMText
  10
 155.39999999997
  20
 14.125000000005
  30
0.0
  40
 1.5000000000000
  41
0.0
  71
5
  72
1
   1
\T1.000000;サイズ：
   7
GMM002
  44
 0.79999984000003
   0
MTEXT
   5
2C1
 100
AcDbEntity
   8
LEVEL002
 370
15
  62
8
 100
AcDbMText
  10
 154.64999999997
  20
 24.125000000005
  30
0.0
  40
 1.5000000000000
  41
0.0
  71
5
  72
1
   1
\T1.000000;縮尺：
   7
GMM002
  44
 0.79999984000003
   0
MTEXT
   5
2C3
 100
AcDbEntity
   8
LEVEL002
 370
15
  62
8
 100
AcDbMText
  10
 156.14999999997
  20
 34.125000000005
  30
0.0
  40
 1.5000000000000
  41
0.0
  71
5
  72
1
   1
\T1.000000;図面名称：
   7
GMM002
  44
 0.79999984000003
   0
MTEXT
   5
2C5
 100
AcDbEntity
   8
LEVEL002
 370
15
  62
8
 100
AcDbMText
  10
 181.89999999997
  20
 14.125000000005
  30
0.0
  40
 1.5000000000000
  41
0.0
  71
5
  72
1
   1
\T1.000000;ファイル名：
   7
GMM002
  44
 0.79999984000003
   0
MTEXT
   5
2C7
 100
AcDbEntity
   8
LEVEL002
 370
15
  62
8
 100
AcDbMText
  10
 181.14999999997
  20
 21.000000000005
  30
0.0
  40
 1.4000000000000
  41
0.0
  71
5
  72
1
   1
\T1.000000;変更日付：
   7
GMM003
  44
 0.79999984000003
   0
MTEXT
   5
2C9
 100
AcDbEntity
   8
LEVEL002
 370
15
  62
8
 100
AcDbMText
  10
 164.74999999997
  20
 9.1250000000050
  30
0.0
  40
 1.8750000000000
  41
0.0
  71
5
  72
1
   1
\T1.000000;Ａ３
   7
GMM002
  44
 0.79999984000003
   0
MTEXT
   5
2CB
 100
AcDbEntity
   8
LEVEL002
 370
15
  62
8
 100
AcDbMText
  10
 154.64999999997
  20
 106.50000000000
  30
0.0
  40
 1.5000000000000
  41
0.0
  71
5
  72
1
   1
\T1.000000;仕様：
   7
GMM002
  44
 0.79999984000003
   0
MTEXT
   5
2CD
 100
AcDbEntity
   8
LEVEL002
 370
15
  62
8
 100
AcDbMText
  10
 154.64999999997
  20
 116.50000000000
  30
0.0
  40
 1.5000000000000
  41
0.0
  71
5
  72
1
   1
\T1.000000;形式：
   7
GMM002
  44
 0.79999984000003
   0
MTEXT
   5
2CF
 100
AcDbEntity
   8
LEVEL002
 370
15
  62
8
 100
AcDbMText
  10
 155.39999999997
  20
 126.50000000000
  30
0.0
  40
 1.5000000000000
  41
0.0
  71
5
  72
1
   1
\T1.000000;商品名：
   7
GMM002
  44
 0.79999984000003
   0
MTEXT
   5
2D1
 100
AcDbEntity
   8
LEVEL002
 370
15
  62
8
 100
AcDbMText
  10
 173.44999999998
  20
 38.435401729506
  30
0.0
  40
 2.0000000000000
  41
0.0
  71
5
  72
1
   1
\T1.000000;　※本製品は予告無しに変更する事があります。
   7
GMM002
  44
 0.79999984000003
   0
LINE
   5
2D2
 100
AcDbEntity
   8
LEVEL001
 370
40
 100
AcDbLine
   6
CONTINUOUS
  62
3
  10
 79.999999999975
  20
 142.50000000000
  30
0.0
  11
 79.999999999975
  21
 6.0000000000050
  31
0.0
   0
LINE
   5
2D3
 100
AcDbEntity
   8
LEVEL001
 370
40
 100
AcDbLine
   6
CONTINUOUS
  62
3
  10
 116.12499999997
  20
 142.50000000000
  30
0.0
  11
 116.12499999997
  21
 6.0000000000050
  31
0.0
   0
MTEXT
   5
2D5
 100
AcDbEntity
   8
LEVEL002
 370
15
  62
8
 100
AcDbMText
  10
 181.14999999997
  20
 24.333333333340
  30
0.0
  40
 1.4000000000000
  41
0.0
  71
5
  72
1
   1
\T1.000000;作成日付：
   7
GMM003
  44
 0.79999984000003
   0
MTEXT
   5
2D7
 100
AcDbEntity
   8
LEVEL002
 370
15
  62
8
 100
AcDbMText
  10
 193.60754228038
  20
 21.000000000005
  30
0.0
  40
 1.5000000000000
  41
0.0
  71
5
  72
1
   1
\T1.000000;令和　　年　　月　　日
   7
GMM002
  44
 0.79999984000003
   0
MTEXT
   5
2D9
 100
AcDbEntity
   8
LEVEL002
 370
15
  62
8
 100
AcDbMText
  10
 193.60754228038
  20
 17.666666666673
  30
0.0
  40
 1.5000000000000
  41
0.0
  71
5
  72
1
   1
\T1.000000;令和　　年　　月　　日
   7
GMM002
  44
 0.79999984000003
   0
LINE
   5
2DA
 100
AcDbEntity
   8
LEVEL002
 370
40
 100
AcDbLine
   6
CONTINUOUS
  62
3
  10
 7.7499999999750
  20
 35.125000000004
  30
0.0
  11
 152.24999999997
  21
 35.125000000004
  31
0.0
   0
LINE
   5
2DB
 100
AcDbEntity
   8
LEVEL002
 370
40
 100
AcDbLine
   6
CONTINUOUS
  62
3
  10
 7.7499999999750
  20
 40.125000000004
  30
0.0
  11
 152.24999999997
  21
 40.125000000004
  31
0.0
   0
LINE
   5
2DC
 100
AcDbEntity
   8
LEVEL002
 370
40
 100
AcDbLine
   6
CONTINUOUS
  62
3
  10
 7.7499999999750
  20
 69.250000000003
  30
0.0
  11
 152.24999999997
  21
 69.250000000003
  31
0.0
   0
LINE
   5
2DD
 100
AcDbEntity
   8
LEVEL002
 370
40
 100
AcDbLine
   6
CONTINUOUS
  62
3
  10
 7.7499999999750
  20
 74.250000000003
  30
0.0
  11
 152.24999999997
  21
 74.250000000003
  31
0.0
   0
LINE
   5
2DE
 100
AcDbEntity
   8
LEVEL002
 370
40
 100
AcDbLine
   6
CONTINUOUS
  62
3
  10
 7.7499999999750
  20
 103.37500000000
  30
0.0
  11
 152.24999999997
  21
 103.37500000000
  31
0.0
   0
LINE
   5
2DF
 100
AcDbEntity
   8
LEVEL002
 370
40
 100
AcDbLine
   6
CONTINUOUS
  62
3
  10
 7.7499999999750
  20
 108.37500000000
  30
0.0
  11
 152.24999999997
  21
 108.37500000000
  31
0.0
   0
MTEXT
   5
2E1
 100
AcDbEntity
   8
LEVEL002
 370
15
  62
8
 100
AcDbMText
  10
 164.74999999997
  20
 19.125000000005
  30
0.0
  40
 1.8750000000000
  41
0.0
  71
5
  72
1
   1
\T1.000000;Ｓ＝２：１
   7
GMM002
  44
 0.79999984000003
   0
MTEXT
   5
2E3
 100
AcDbEntity
   8
LEVEL002
 370
15
  62
8
 100
AcDbMText
  10
 167.24999999997
  20
 122.25000000000
  30
0.0
  40
 2.2500000000000
  41
0.0
  71
7
  72
1
   1
\T1.000000;　パルフラットレール
   7
GMM004
  44
 0.79999984000003
   0
MTEXT
   5
2E5
 100
AcDbEntity
   8
LEVEL002
 370
15
  62
8
 100
AcDbMText
  10
 177.24999999997
  20
 29.125000000005
  30
0.0
  40
 1.8750000000000
  41
0.0
  71
5
  72
1
   1
\T1.000000;断面図
   7
GMM002
  44
 0.79999984000003
   0
MTEXT
   5
2E7
 100
AcDbEntity
   8
LEVEL002
 370
15
  62
8
 100
AcDbMText
  10
 189.74999999997
  20
 10.041666666673
  30
0.0
  40
 1.2500000000000
  41
0.0
  71
5
  72
1
   1
\T1.000000;ＰＦ－７
   7
GMM002
  44
 0.79999984000003
   0
MTEXT
   5
2E9
 100
AcDbEntity
   8
LEVEL001
 370
15
  62
8
 100
AcDbMText
  10
 7.8999999999750
  20
 140.00000000000
  30
0.0
  40
 1.5000000000000
  41
0.0
  71
4
  72
1
   1
\W0.500000;\T1.000000; \W1.000000;\T1.000000;　ＦＪＡ２２
   7
GMM002
  44
 0.79999984000003
   0
MTEXT
   5
2EB
 100
AcDbEntity
   8
LEVEL001
 370
15
  62
8
 100
AcDbMText
  10
 7.8999999999750
  20
 110.87500000000
  30
0.0
  40
 1.5000000000000
  41
0.0
  71
4
  72
1
   1
\W0.500000;\T1.000000; \W1.000000;\T1.000000;　堀込寸法：２１×３
   7
GMM002
  44
 0.79999984000003
   0
LINE
   5
2EC
 100
AcDbEntity
   8
LEVEL001
 370
15
 100
AcDbLine
   6
DASHDOT
  62
8
  10
 27.356313783318
  20
 122.51809626724
  30
0.0
  11
 27.356313783318
  21
 127.07615808846
  31
0.0
   0
DIMENSION
   5
2ED
 100
AcDbEntity
   8
LEVEL001
 370
15
   6
CONTINUOUS
  62
8
 100
AcDbDimension
   2
*D1
  10
 28.856313783223
  20
 120.31035469108
  30
0.0
  11
 27.356313783318
  21
 120.31035469108
  31
0.0
  70
0
   3
GMM001
 100
AcDbAlignedDimension
  13
 25.856313783412
  23
 125.51035469108
  33
0.0
  14
 28.856313783223
  24
 125.51035469108
  34
0.0
 100
AcDbRotatedDimension
   0
DIMENSION
   5
2EE
 100
AcDbEntity
   8
LEVEL001
 370
15
   6
CONTINUOUS
  62
8
 100
AcDbDimension
   2
*D2
  10
 30.702332971813
  20
 117.31035469108
  30
0.0
  11
 27.356313783318
  21
 117.31035469108
  31
0.0
  70
0
   1
\A1;6.7
   3
GMM001
 100
AcDbAlignedDimension
  13
 24.010294594822
  23
 123.31035469108
  33
0.0
  14
 30.702332971813
  24
 123.31035469108
  34
0.0
 100
AcDbRotatedDimension
   0
DIMENSION
   5
2EF
 100
AcDbEntity
   8
LEVEL001
 370
15
   6
CONTINUOUS
  62
8
 100
AcDbDimension
   2
*D3
  10
 34.856313783318
  20
 114.31035469108
  30
0.0
  11
 31.106313783318
  21
 114.31035469108
  31
0.0
  70
0
   3
GMM002
 100
AcDbAlignedDimension
  13
 27.356313783318
  23
 116.61710107596
  33
0.0
  14
 34.856313783318
  24
 123.31035469108
  34
0.0
 100
AcDbRotatedDimension
   0
DIMENSION
   5
2F0
 100
AcDbEntity
   8
LEVEL001
 370
15
   6
CONTINUOUS
  62
8
 100
AcDbDimension
   2
*D4
  10
 27.356313783318
  20
 114.31035469108
  30
0.0
  11
 20.856313783318
  21
 114.31035469108
  31
0.0
  70
0
   3
GMM001
 100
AcDbAlignedDimension
  13
 14.356313783318
  23
 123.31035469108
  33
0.0
  14
 27.356313783318
  24
 114.31035469108
  34
0.0
 100
AcDbRotatedDimension
   0
DIMENSION
   5
2F1
 100
AcDbEntity
   8
LEVEL001
 370
15
   6
CONTINUOUS
  62
8
 100
AcDbDimension
   2
*D5
  10
 40.856313783318
  20
 126.31035469108
  30
0.0
  11
 40.856313783318
  21
 124.81035469108
  31
0.0
  70
0
   3
GMM002
 100
AcDbAlignedDimension
  13
 34.856313783318
  23
 123.31035469108
  33
0.0
  14
 34.856313783318
  24
 126.31035469108
  34
0.0
  50
 90.000000000000
 100
AcDbRotatedDimension
   0
DIMENSION
   5
2F2
 100
AcDbEntity
   8
LEVEL001
 370
15
   6
CONTINUOUS
  62
8
 100
AcDbDimension
   2
*D6
  10
 37.856313783318
  20
 125.51035469108
  30
0.0
  11
 37.856313783318
  21
 122.02900038946
  31
0.0
  70
128
   3
GMM003
 100
AcDbAlignedDimension
  13
 34.856313783318
  23
 123.31035469108
  33
0.0
  14
 28.856313783223
  24
 125.51035469108
  34
0.0
  50
 90.000000000000
 100
AcDbRotatedDimension
   0
DIMENSION
   5
2F3
 100
AcDbEntity
   8
LEVEL001
 370
15
   6
CONTINUOUS
  62
8
 100
AcDbDimension
   2
*D7
  10
 12.504670198376
  20
 126.31035469108
  30
0.0
  11
 12.504670198376
  21
 125.21035469108
  31
0.0
  70
0
   3
GMM002
 100
AcDbAlignedDimension
  13
 19.456313783318
  23
 124.11035469108
  33
0.0
  14
 14.356313783318
  24
 126.31035469108
  34
0.0
  50
 90.000000000000
 100
AcDbRotatedDimension
   0
LINE
   5
2F4
 100
AcDbEntity
   8
LEVEL001
 370
15
 100
AcDbLine
   6
DASHDOT
  62
8
  10
 21.356313783318
  20
 122.51809626724
  30
0.0
  11
 21.356313783318
  21
 130.20138787993
  31
0.0
   0
DIMENSION
   5
2F5
 100
AcDbEntity
   8
LEVEL001
 370
15
   6
CONTINUOUS
  62
8
 100
AcDbDimension
   2
*D8
  10
 21.356313783318
  20
 131.31035469108
  30
0.0
  11
 17.856313783318
  21
 131.31035469108
  31
0.0
  70
0
   3
GMM002
 100
AcDbAlignedDimension
  13
 14.356313783318
  23
 126.31035469108
  33
0.0
  14
 21.356313783318
  24
 130.86441647597
  34
0.0
 100
AcDbRotatedDimension
   0
DIMENSION
   5
2F6
 100
AcDbEntity
   8
LEVEL001
 370
15
   6
CONTINUOUS
  62
8
 100
AcDbDimension
   2
*D9
  10
 34.856313783318
  20
 131.31035469108
  30
0.0
  11
 28.106313783318
  21
 131.31035469108
  31
0.0
  70
0
   3
GMM002
 100
AcDbAlignedDimension
  13
 21.356313783318
  23
 130.86441647597
  33
0.0
  14
 34.856313783318
  24
 126.31035469108
  34
0.0
 100
AcDbRotatedDimension
   0
DIMENSION
   5
2F7
 100
AcDbEntity
   8
LEVEL001
 370
15
   6
CONTINUOUS
  62
8
 100
AcDbDimension
   2
*D10
  10
 23.256313783171
  20
 128.81035469108
  30
0.0
  11
 19.290617848970
  21
 128.81035469108
  31
0.0
  70
128
   3
GMM004
 100
AcDbAlignedDimension
  13
 19.456313783464
  23
 125.81035469108
  33
0.0
  14
 23.256313783171
  24
 125.81035469108
  34
0.0
 100
AcDbRotatedDimension
   0
DIMENSION
   5
2F8
 100
AcDbEntity
   8
LEVEL001
 370
15
   6
CONTINUOUS
  62
8
 100
AcDbDimension
   2
*D11
  10
 34.856313783318
  20
 133.81035469108
  30
0.0
  11
 24.606313783318
  21
 133.81035469108
  31
0.0
  70
0
   3
GMM002
 100
AcDbAlignedDimension
  13
 14.356313783318
  23
 131.31035469108
  33
0.0
  14
 34.856313783318
  24
 131.31035469108
  34
0.0
 100
AcDbRotatedDimension
   0
LINE
   5
2F9
 100
AcDbEntity
   8
LEVEL001
 370
15
 100
AcDbLine
   6
DASHDOT
  62
8
  10
 64.429633867277
  20
 122.51809626724
  30
0.0
  11
 64.429633867277
  21
 127.07615808846
  31
0.0
   0
DIMENSION
   5
2FA
 100
AcDbEntity
   8
LEVEL001
 370
15
   6
CONTINUOUS
  62
8
 100
AcDbDimension
   2
*D12
  10
 52.084481113546
  20
 126.31035469108
  30
0.0
  11
 52.084481113546
  21
 125.41035469108
  31
0.0
  70
0
   3
GMM002
 100
AcDbAlignedDimension
  13
 57.029633867277
  23
 124.51035469108
  33
0.0
  14
 53.429633867277
  24
 126.31035469108
  34
0.0
  50
 90.000000000000
 100
AcDbRotatedDimension
   0
DIMENSION
   5
2FB
 100
AcDbEntity
   8
LEVEL001
 370
15
   6
CONTINUOUS
  62
8
 100
AcDbDimension
   2
*D13
  10
 76.702330083798
  20
 126.31035469108
  30
0.0
  11
 76.702330083798
  21
 124.81035469108
  31
0.0
  70
0
   3
GMM002
 100
AcDbAlignedDimension
  13
 70.429633867277
  23
 123.31035469108
  33
0.0
  14
 70.429633867277
  24
 126.31035469108
  34
0.0
  50
 90.000000000000
 100
AcDbRotatedDimension
   0
DIMENSION
   5
2FC
 100
AcDbEntity
   8
LEVEL001
 370
15
   6
CONTINUOUS
  62
8
 100
AcDbDimension
   2
*D14
  10
 73.455190495697
  20
 125.51035469108
  30
0.0
  11
 73.455190495697
  21
 122.14646797146
  31
0.0
  70
128
   3
GMM005
 100
AcDbAlignedDimension
  13
 70.429633867277
  23
 123.31035469108
  33
0.0
  14
 65.929633867182
  24
 125.51035469108
  34
0.0
  50
 90.000000000000
 100
AcDbRotatedDimension
   0
DIMENSION
   5
2FD
 100
AcDbEntity
   8
LEVEL001
 370
15
   6
CONTINUOUS
  62
8
 100
AcDbDimension
   2
*D15
  10
 65.929633867182
  20
 120.31035469108
  30
0.0
  11
 64.429633867277
  21
 120.31035469108
  31
0.0
  70
0
   3
GMM001
 100
AcDbAlignedDimension
  13
 62.929633867372
  23
 125.51035469108
  33
0.0
  14
 65.929633867182
  24
 125.51035469108
  34
0.0
 100
AcDbRotatedDimension
   0
DIMENSION
   5
2FE
 100
AcDbEntity
   8
LEVEL001
 370
15
   6
CONTINUOUS
  62
8
 100
AcDbDimension
   2
*D16
  10
 70.429633867277
  20
 114.31035469108
  30
0.0
  11
 67.429633867277
  21
 114.31035469108
  31
0.0
  70
0
   3
GMM002
 100
AcDbAlignedDimension
  13
 64.429633867277
  23
 116.85483308715
  33
0.0
  14
 70.429633867277
  24
 123.31035469108
  34
0.0
 100
AcDbRotatedDimension
   0
DIMENSION
   5
2FF
 100
AcDbEntity
   8
LEVEL001
 370
15
   6
CONTINUOUS
  62
8
 100
AcDbDimension
   2
*D17
  10
 67.775653055772
  20
 117.31035469108
  30
0.0
  11
 64.429633867277
  21
 117.31035469108
  31
0.0
  70
0
   1
\A1;6.7
   3
GMM001
 100
AcDbAlignedDimension
  13
 61.083614678782
  23
 123.31035469108
  33
0.0
  14
 67.775653055772
  24
 123.31035469108
  34
0.0
 100
AcDbRotatedDimension
   0
DIMENSION
   5
300
 100
AcDbEntity
   8
LEVEL001
 370
15
   6
CONTINUOUS
  62
8
 100
AcDbDimension
   2
*D18
  10
 64.429633867277
  20
 114.31035469108
  30
0.0
  11
 58.929633867277
  21
 114.31035469108
  31
0.0
  70
0
   3
GMM001
 100
AcDbAlignedDimension
  13
 53.429633867277
  23
 123.31035469108
  33
0.0
  14
 64.429633867277
  24
 114.31035469108
  34
0.0
 100
AcDbRotatedDimension
   0
LINE
   5
301
 100
AcDbEntity
   8
LEVEL001
 370
15
 100
AcDbLine
   6
DASHDOT
  62
8
  10
 58.929633867277
  20
 122.51809626724
  30
0.0
  11
 58.929633867277
  21
 127.79144419019
  31
0.0
   0
DIMENSION
   5
302
 100
AcDbEntity
   8
LEVEL001
 370
15
   6
CONTINUOUS
  62
8
 100
AcDbDimension
   2
*D19
  10
 60.829633867131
  20
 128.81035469108
  30
0.0
  11
 56.653699466057
  21
 128.81035469108
  31
0.0
  70
128
   3
GMM006
 100
AcDbAlignedDimension
  13
 57.029633867423
  23
 125.81035469108
  33
0.0
  14
 60.829633867131
  24
 125.81035469108
  34
0.0
 100
AcDbRotatedDimension
   0
DIMENSION
   5
303
 100
AcDbEntity
   8
LEVEL001
 370
15
   6
CONTINUOUS
  62
8
 100
AcDbDimension
   2
*D20
  10
 70.429633867277
  20
 133.81035469108
  30
0.0
  11
 61.929633867277
  21
 133.81035469108
  31
0.0
  70
0
   3
GMM002
 100
AcDbAlignedDimension
  13
 53.429633867277
  23
 126.86123824053
  33
0.0
  14
 70.429633867277
  24
 126.86123824053
  34
0.0
 100
AcDbRotatedDimension
   0
DIMENSION
   5
304
 100
AcDbEntity
   8
LEVEL001
 370
15
   6
CONTINUOUS
  62
8
 100
AcDbDimension
   2
*D21
  10
 58.929633867277
  20
 131.31035469108
  30
0.0
  11
 56.179633867277
  21
 131.31035469108
  31
0.0
  70
0
   3
GMM002
 100
AcDbAlignedDimension
  13
 53.429633867277
  23
 126.31035469108
  33
0.0
  14
 58.929633867277
  24
 127.79144419019
  34
0.0
 100
AcDbRotatedDimension
   0
DIMENSION
   5
305
 100
AcDbEntity
   8
LEVEL001
 370
15
   6
CONTINUOUS
  62
8
 100
AcDbDimension
   2
*D22
  10
 70.429633867277
  20
 131.31035469108
  30
0.0
  11
 64.679633867277
  21
 131.31035469108
  31
0.0
  70
0
   3
GMM002
 100
AcDbAlignedDimension
  13
 58.929633867277
  23
 127.79144419019
  33
0.0
  14
 70.429633867277
  24
 126.31035469108
  34
0.0
 100
AcDbRotatedDimension
   0
MTEXT
   5
307
 100
AcDbEntity
   8
LEVEL001
 370
15
  62
8
 100
AcDbMText
  10
 44.024999999975
  20
 140.00000000000
  30
0.0
  40
 1.5000000000000
  41
0.0
  71
4
  72
1
   1
\W0.500000;\T1.000000; \W1.000000;\T1.000000;　ＦＪＡ７２
   7
GMM002
  44
 0.79999984000003
   0
MTEXT
   5
309
 100
AcDbEntity
   8
LEVEL001
 370
15
  62
8
 100
AcDbMText
  10
 44.024999999975
  20
 110.87500000000
  30
0.0
  40
 1.5000000000000
  41
0.0
  71
4
  72
1
   1
\W0.500000;\T1.000000; \W1.000000;\T1.000000;　堀込寸法：１７×３
   7
GMM002
  44
 0.79999984000003
   0
ARC
   5
30A
 100
AcDbEntity
   8
LEVEL001
 370
30
   6
CONTINUOUS
  62
7
 100
AcDbCircle
  10
 15.356313783318
  20
 124.31035469108
  30
0.0
  40
 1.0000000000000
 100
AcDbArc
  50
 180.00000000000
  51
 270.00000000000
   0
POINT
   5
30B
 100
AcDbEntity
   8
LEVEL001
 100
AcDbPoint
  62
7
  10
 14.356313783318
  20
 123.31035469108
  30
0.0
   0
ARC
   5
30C
 100
AcDbEntity
   8
LEVEL001
 370
30
   6
CONTINUOUS
  62
7
 100
AcDbCircle
  10
 15.356313783318
  20
 125.31035469108
  30
0.0
  40
 1.0000000000000
 100
AcDbArc
  50
 90.000000000000
  51
 180.00000000000
   0
POINT
   5
30D
 100
AcDbEntity
   8
LEVEL001
 100
AcDbPoint
  62
7
  10
 14.356313783318
  20
 126.31035469108
  30
0.0
   0
LINE
   5
30E
 100
AcDbEntity
   8
LEVEL001
 370
30
 100
AcDbLine
   6
CONTINUOUS
  62
7
  10
 14.356313783318
  20
 125.31035469108
  30
0.0
  11
 14.356313783318
  21
 124.31035469108
  31
0.0
   0
LINE
   5
30F
 100
AcDbEntity
   8
LEVEL001
 370
30
 100
AcDbLine
   6
CONTINUOUS
  62
7
  10
 18.082575073736
  20
 126.31035469108
  30
0.0
  11
 15.356313783318
  21
 126.31035469108
  31
0.0
   0
ARC
   5
310
 100
AcDbEntity
   8
LEVEL001
 370
30
   6
CONTINUOUS
  62
7
 100
AcDbCircle
  10
 33.856313783318
  20
 124.31035469108
  30
0.0
  40
 1.0000000000000
 100
AcDbArc
  50
 270.00000000000
  51
0.0
   0
LINE
   5
311
 100
AcDbEntity
   8
LEVEL001
 370
30
 100
AcDbLine
   6
CONTINUOUS
  62
7
  10
 34.856313783318
  20
 124.31035469108
  30
0.0
  11
 34.856313783318
  21
 125.31035469108
  31
0.0
   0
ARC
   5
312
 100
AcDbEntity
   8
LEVEL001
 370
30
   6
CONTINUOUS
  62
7
 100
AcDbCircle
  10
 33.856313783318
  20
 125.31035469108
  30
0.0
  40
 1.0000000000000
 100
AcDbArc
  50
0.0
  51
 90.000000000000
   0
LINE
   5
313
 100
AcDbEntity
   8
LEVEL001
 370
30
 100
AcDbLine
   6
CONTINUOUS
  62
7
  10
 30.702332971813
  20
 123.31035469108
  30
0.0
  11
 33.856313783318
  21
 123.31035469108
  31
0.0
   0
POINT
   5
314
 100
AcDbEntity
   8
LEVEL001
 100
AcDbPoint
  62
7
  10
 34.856313783318
  20
 123.31035469108
  30
0.0
   0
POINT
   5
315
 100
AcDbEntity
   8
LEVEL001
 100
AcDbPoint
  62
7
  10
 34.856313783318
  20
 126.31035469108
  30
0.0
   0
LWPOLYLINE
   5
316
 100
AcDbEntity
   8
LEVEL001
 370
30
   6
CONTINUOUS
  62
7
 100
AcDbPolyline
  90
3
  70
0
  10
 27.356313783318
  20
 125.51035469108
  10
 28.856313783223
  20
 125.51035469108
  10
 30.702332971813
  20
 123.31035469108
   0
LWPOLYLINE
   5
317
 100
AcDbEntity
   8
LEVEL001
 370
30
   6
CONTINUOUS
  62
7
 100
AcDbPolyline
  90
3
  70
0
  10
 27.356313783318
  20
 125.51035469108
  10
 25.856313783412
  20
 125.51035469108
  10
 24.010294594822
  20
 123.31035469108
   0
LINE
   5
318
 100
AcDbEntity
   8
LEVEL001
 370
30
 100
AcDbLine
   6
CONTINUOUS
  62
7
  10
 15.356313783318
  20
 123.31035469108
  30
0.0
  11
 24.010294594822
  21
 123.31035469108
  31
0.0
   0
LINE
   5
319
 100
AcDbEntity
   8
LEVEL001
 370
30
 100
AcDbLine
   6
CONTINUOUS
  62
7
  10
 33.856313783318
  20
 126.31035469108
  30
0.0
  11
 24.630052492899
  21
 126.31035469108
  31
0.0
   0
LINE
   5
31A
 100
AcDbEntity
   8
LEVEL001
 370
30
 100
AcDbLine
   6
CONTINUOUS
  62
7
  10
 23.256313783171
  20
 125.81035469108
  30
0.0
  11
 24.630052492899
  21
 126.31035469108
  31
0.0
   0
LINE
   5
31B
 100
AcDbEntity
   8
LEVEL001
 370
30
 100
AcDbLine
   6
CONTINUOUS
  62
7
  10
 19.456313783464
  20
 125.81035469108
  30
0.0
  11
 18.082575073736
  21
 126.31035469108
  31
0.0
   0
LINE
   5
31C
 100
AcDbEntity
   8
LEVEL001
 370
30
 100
AcDbLine
   6
CONTINUOUS
  62
7
  10
 19.456313783273
  20
 124.11035469108
  30
0.0
  11
 19.456313783464
  21
 125.81035469108
  31
0.0
   0
LINE
   5
31D
 100
AcDbEntity
   8
LEVEL001
 370
30
 100
AcDbLine
   6
CONTINUOUS
  62
7
  10
 21.356313783318
  20
 124.11035469108
  30
0.0
  11
 19.456313783273
  21
 124.11035469108
  31
0.0
   0
LINE
   5
31E
 100
AcDbEntity
   8
LEVEL001
 370
30
 100
AcDbLine
   6
CONTINUOUS
  62
7
  10
 21.356313783318
  20
 124.11035469108
  30
0.0
  11
 23.256313783363
  21
 124.11035469108
  31
0.0
   0
LINE
   5
31F
 100
AcDbEntity
   8
LEVEL001
 370
30
 100
AcDbLine
   6
CONTINUOUS
  62
7
  10
 23.256313783363
  20
 124.11035469108
  30
0.0
  11
 23.256313783171
  21
 125.81035469108
  31
0.0
   0
ARC
   5
320
 100
AcDbEntity
   8
LEVEL001
 370
30
   6
CONTINUOUS
  62
7
 100
AcDbCircle
  10
 54.429633867277
  20
 124.31035469108
  30
0.0
  40
 1.0000000000000
 100
AcDbArc
  50
 180.00000000000
  51
 270.00000000000
   0
POINT
   5
321
 100
AcDbEntity
   8
LEVEL001
 100
AcDbPoint
  62
7
  10
 53.429633867277
  20
 123.31035469108
  30
0.0
   0
ARC
   5
322
 100
AcDbEntity
   8
LEVEL001
 370
30
   6
CONTINUOUS
  62
7
 100
AcDbCircle
  10
 69.429633867277
  20
 124.31035469108
  30
0.0
  40
 1.0000000000000
 100
AcDbArc
  50
 270.00000000000
  51
0.0
   0
POINT
   5
323
 100
AcDbEntity
   8
LEVEL001
 100
AcDbPoint
  62
7
  10
 70.429633867277
  20
 123.31035469108
  30
0.0
   0
LINE
   5
324
 100
AcDbEntity
   8
LEVEL001
 370
30
 100
AcDbLine
   6
CONTINUOUS
  62
7
  10
 70.429633867277
  20
 124.31035469108
  30
0.0
  11
 70.429633867277
  21
 125.31035469108
  31
0.0
   0
ARC
   5
325
 100
AcDbEntity
   8
LEVEL001
 370
30
   6
CONTINUOUS
  62
7
 100
AcDbCircle
  10
 69.429633867277
  20
 125.31035469108
  30
0.0
  40
 1.0000000000000
 100
AcDbArc
  50
0.0
  51
 90.000000000000
   0
POINT
   5
326
 100
AcDbEntity
   8
LEVEL001
 100
AcDbPoint
  62
7
  10
 70.429633867277
  20
 126.31035469108
  30
0.0
   0
ARC
   5
327
 100
AcDbEntity
   8
LEVEL001
 370
30
   6
CONTINUOUS
  62
7
 100
AcDbCircle
  10
 54.429633867277
  20
 125.31035469108
  30
0.0
  40
 1.0000000000000
 100
AcDbArc
  50
 90.000000000000
  51
 180.00000000000
   0
POINT
   5
328
 100
AcDbEntity
   8
LEVEL001
 100
AcDbPoint
  62
7
  10
 53.429633867277
  20
 126.31035469108
  30
0.0
   0
LINE
   5
329
 100
AcDbEntity
   8
LEVEL001
 370
30
 100
AcDbLine
   6
CONTINUOUS
  62
7
  10
 53.429633867277
  20
 125.31035469108
  30
0.0
  11
 53.429633867277
  21
 124.31035469108
  31
0.0
   0
LWPOLYLINE
   5
32A
 100
AcDbEntity
   8
LEVEL001
 370
30
   6
CONTINUOUS
  62
7
 100
AcDbPolyline
  90
3
  70
0
  10
 64.429633867277
  20
 125.51035469108
  10
 65.929633867182
  20
 125.51035469108
  10
 67.775653055772
  20
 123.31035469108
   0
LWPOLYLINE
   5
32B
 100
AcDbEntity
   8
LEVEL001
 370
30
   6
CONTINUOUS
  62
7
 100
AcDbPolyline
  90
3
  70
0
  10
 64.429633867277
  20
 125.51035469108
  10
 62.929633867372
  20
 125.51035469108
  10
 61.083614678782
  20
 123.31035469108
   0
LINE
   5
32C
 100
AcDbEntity
   8
LEVEL001
 370
30
 100
AcDbLine
   6
CONTINUOUS
  62
7
  10
 54.429633867277
  20
 123.31035469108
  30
0.0
  11
 61.083614678782
  21
 123.31035469108
  31
0.0
   0
LINE
   5
32D
 100
AcDbEntity
   8
LEVEL001
 370
30
 100
AcDbLine
   6
CONTINUOUS
  62
7
  10
 67.775653055772
  20
 123.31035469108
  30
0.0
  11
 69.429633867277
  21
 123.31035469108
  31
0.0
   0
LWPOLYLINE
   5
32E
 100
AcDbEntity
   8
LEVEL001
 370
30
   6
CONTINUOUS
  62
7
 100
AcDbPolyline
  90
4
  70
0
  10
 58.929633867277
  20
 124.51035469108
  10
 60.829633867277
  20
 124.51035469108
  10
 60.829633867131
  20
 125.81035469108
  10
 62.203372576858
  20
 126.31035469108
   0
LWPOLYLINE
   5
32F
 100
AcDbEntity
   8
LEVEL001
 370
30
   6
CONTINUOUS
  62
7
 100
AcDbPolyline
  90
4
  70
0
  10
 58.929633867277
  20
 124.51035469108
  10
 57.029633867277
  20
 124.51035469108
  10
 57.029633867423
  20
 125.81035469108
  10
 55.655895157696
  20
 126.31035469108
   0
LINE
   5
330
 100
AcDbEntity
   8
LEVEL001
 370
30
 100
AcDbLine
   6
CONTINUOUS
  62
7
  10
 55.655895157696
  20
 126.31035469108
  30
0.0
  11
 54.429633867277
  21
 126.31035469108
  31
0.0
   0
LINE
   5
331
 100
AcDbEntity
   8
LEVEL001
 370
30
 100
AcDbLine
   6
CONTINUOUS
  62
7
  10
 69.429633867277
  20
 126.31035469108
  30
0.0
  11
 62.203372576858
  21
 126.31035469108
  31
0.0
   0
LINE
   5
332
 100
AcDbEntity
   8
LEVEL001
 370
40
 100
AcDbLine
   6
CONTINUOUS
  62
3
  10
 43.874999999975
  20
 142.50000000000
  30
0.0
  11
 43.874999999975
  21
 6.0000000000050
  31
0.0
   0
MTEXT
   5
334
 100
AcDbEntity
   8
LEVEL002
 370
15
  62
8
 100
AcDbMText
  10
 193.60754228038
  20
 24.333333333340
  30
0.0
  40
 1.5000000000000
  41
0.0
  71
5
  72
1
   1
\T1.000000;令和　４年　８月３１日
   7
GMM002
  44
 0.79999984000003
   0
MTEXT
   5
336
 100
AcDbEntity
   8
LEVEL001
 370
15
  62
8
 100
AcDbMText
  10
 7.8999999999750
  20
 105.87500000000
  30
0.0
  40
 1.5000000000000
  41
0.0
  71
4
  72
1
   1
\T1.000000;　　ＹＸＡ２２
   7
GMM002
  44
 0.79999984000003
   0
MTEXT
   5
338
 100
AcDbEntity
   8
LEVEL001
 370
15
  62
8
 100
AcDbMText
  10
 7.8999999999750
  20
 76.750000000003
  30
0.0
  40
 1.5000000000000
  41
0.0
  71
4
  72
1
   1
\W0.500000;\T1.000000; \W1.000000;\T1.000000;　堀込寸法：２１×３
   7
GMM002
  44
 0.79999984000003
   0
LINE
   5
339
 100
AcDbEntity
   8
LEVEL002
 370
15
 100
AcDbLine
   6
DASHDOT
  62
8
  10
 22.877966353080
  20
 82.060313445587
  30
0.0
  11
 22.877966353080
  21
 86.800753027075
  31
0.0
   0
MTEXT
   5
33B
 100
AcDbEntity
   8
LEVEL001
 370
15
  62
8
 100
AcDbMText
  10
 44.024999999975
  20
 105.87500000000
  30
0.0
  40
 1.5000000000000
  41
0.0
  71
4
  72
1
   1
\W0.500000;\T1.000000; \W1.000000;\T1.000000;　ＹＸＡ２１
   7
GMM002
  44
 0.79999984000003
   0
MTEXT
   5
33D
 100
AcDbEntity
   8
LEVEL001
 370
15
  62
8
 100
AcDbMText
  10
 44.024999999975
  20
 76.750000000003
  30
0.0
  40
 1.5000000000000
  41
0.0
  71
4
  72
1
   1
\W0.500000;\T1.000000; \W1.000000;\T1.000000;　堀込寸法：２１×３
   7
GMM002
  44
 0.79999984000003
   0
LINE
   5
33E
 100
AcDbEntity
   8
LEVEL002
 370
15
 100
AcDbLine
   6
DASHDOT
  62
8
  10
 63.013835918298
  20
 80.839288872085
  30
0.0
  11
 63.013835918298
  21
 86.981777600577
  31
0.0
   0
MTEXT
   5
340
 100
AcDbEntity
   8
LEVEL001
 370
15
  62
8
 100
AcDbMText
  10
 80.149999999975
  20
 105.87500000000
  30
0.0
  40
 1.5000000000000
  41
0.0
  71
4
  72
1
   1
\W0.500000;\T1.000000; \W1.000000;\T1.000000;　ＹＸＡ７２
   7
GMM002
  44
 0.79999984000003
   0
LINE
   5
341
 100
AcDbEntity
   8
LEVEL002
 370
15
 100
AcDbLine
   6
DASHDOT
  62
8
  10
 96.273487159907
  20
 82.624975200716
  30
0.0
  11
 96.273487159907
  21
 88.296333274860
  31
0.0
   0
MTEXT
   5
343
 100
AcDbEntity
   8
LEVEL001
 370
15
  62
8
 100
AcDbMText
  10
 80.149999999975
  20
 76.750000000003
  30
0.0
  40
 1.5000000000000
  41
0.0
  71
4
  72
1
   1
\W0.500000;\T1.000000; \W1.000000;\T1.000000;　堀込寸法：１８×３
   7
GMM002
  44
 0.79999984000003
   0
LINE
   5
344
 100
AcDbEntity
   8
LEVEL002
 370
30
 100
AcDbLine
   6
CONTINUOUS
  62
7
  10
 19.504227643398
  20
 85.930533236331
  30
0.0
  11
 16.877966353080
  21
 85.930533236331
  31
0.0
   0
LINE
   5
345
 100
AcDbEntity
   8
LEVEL002
 370
30
 100
AcDbLine
   6
CONTINUOUS
  62
7
  10
 19.504227643398
  20
 85.930533236331
  30
0.0
  11
 20.877966353125
  21
 85.430533236331
  31
0.0
   0
LINE
   5
346
 100
AcDbEntity
   8
LEVEL002
 370
30
 100
AcDbLine
   6
CONTINUOUS
  62
7
  10
 20.877966353125
  20
 85.430533236331
  30
0.0
  11
 20.877966353080
  21
 83.730533236331
  31
0.0
   0
LINE
   5
347
 100
AcDbEntity
   8
LEVEL002
 370
30
 100
AcDbLine
   6
CONTINUOUS
  62
7
  10
 20.877966353080
  20
 83.730533236331
  30
0.0
  11
 24.877966353080
  21
 83.730533236331
  31
0.0
   0
LINE
   5
348
 100
AcDbEntity
   8
LEVEL002
 370
30
 100
AcDbLine
   6
CONTINUOUS
  62
7
  10
 24.877966353080
  20
 83.730533236331
  30
0.0
  11
 24.877966353124
  21
 85.430533236331
  31
0.0
   0
LINE
   5
349
 100
AcDbEntity
   8
LEVEL002
 370
30
 100
AcDbLine
   6
CONTINUOUS
  62
7
  10
 24.877966353124
  20
 85.430533236331
  30
0.0
  11
 26.251705062852
  21
 85.930533236331
  31
0.0
   0
LINE
   5
34A
 100
AcDbEntity
   8
LEVEL002
 370
30
 100
AcDbLine
   6
CONTINUOUS
  62
7
  10
 26.251705062852
  20
 85.930533236331
  30
0.0
  11
 35.377966353080
  21
 85.930533236331
  31
0.0
   0
LINE
   5
34B
 100
AcDbEntity
   8
LEVEL002
 370
30
 100
AcDbLine
   6
CONTINUOUS
  62
7
  10
 33.077966353080
  20
 82.930533236331
  30
0.0
  11
 35.777966353080
  21
 82.930533236331
  31
0.0
   0
LINE
   5
34C
 100
AcDbEntity
   8
LEVEL002
 370
30
 100
AcDbLine
   6
CONTINUOUS
  62
7
  10
 34.127966353080
  20
 83.930533236331
  30
0.0
  11
 34.127966353080
  21
 84.630533236331
  31
0.0
   0
LINE
   5
34D
 100
AcDbEntity
   8
LEVEL002
 370
30
 100
AcDbLine
   6
CONTINUOUS
  62
7
  10
 34.127966353080
  20
 84.630533236331
  30
0.0
  11
 28.127966353080
  21
 84.630533236331
  31
0.0
   0
LINE
   5
34E
 100
AcDbEntity
   8
LEVEL002
 370
30
 100
AcDbLine
   6
CONTINUOUS
  62
7
  10
 28.127966353080
  20
 84.630533236331
  30
0.0
  11
 28.127966353080
  21
 83.930533236331
  31
0.0
   0
LINE
   5
34F
 100
AcDbEntity
   8
LEVEL002
 370
30
 100
AcDbLine
   6
CONTINUOUS
  62
7
  10
 28.127966353080
  20
 83.930533236331
  30
0.0
  11
 29.273672415410
  21
 83.306147443140
  31
0.0
   0
LINE
   5
350
 100
AcDbEntity
   8
LEVEL002
 370
30
 100
AcDbLine
   6
CONTINUOUS
  62
7
  10
 34.127966353080
  20
 83.930533236331
  30
0.0
  11
 32.982260290749
  21
 83.306147443140
  31
0.0
   0
ARC
   5
351
 100
AcDbEntity
   8
LEVEL002
 370
30
   6
CONTINUOUS
  62
7
 100
AcDbCircle
  10
 29.177966353080
  20
 83.130533236331
  30
0.0
  40
 0.20000000000000
 100
AcDbArc
  50
 269.99999999992
  51
 61.410541726460
   0
ARC
   5
352
 100
AcDbEntity
   8
LEVEL002
 370
30
   6
CONTINUOUS
  62
7
 100
AcDbCircle
  10
 33.077966353079
  20
 83.130533236331
  30
0.0
  40
 0.20000000000000
 100
AcDbArc
  50
 118.58945827352
  51
 270.00000000012
   0
LINE
   5
353
 100
AcDbEntity
   8
LEVEL002
 370
30
 100
AcDbLine
   6
CONTINUOUS
  62
7
  10
 16.477966353080
  20
 82.930533236331
  30
0.0
  11
 17.377966353125
  21
 82.930533236331
  31
0.0
   0
LINE
   5
354
 100
AcDbEntity
   8
LEVEL002
 370
30
 100
AcDbLine
   6
CONTINUOUS
  62
7
  10
 19.377966353125
  20
 82.930533236331
  30
0.0
  11
 29.177966353080
  21
 82.930533236331
  31
0.0
   0
LINE
   5
355
 100
AcDbEntity
   8
LEVEL002
 370
30
 100
AcDbLine
   6
CONTINUOUS
  62
7
  10
 17.377966353125
  20
 82.930533236331
  30
0.0
  11
 17.377966353125
  21
 84.930533236331
  31
0.0
   0
LINE
   5
356
 100
AcDbEntity
   8
LEVEL002
 370
30
 100
AcDbLine
   6
CONTINUOUS
  62
7
  10
 17.377966353125
  20
 84.930533236331
  30
0.0
  11
 19.377966353125
  21
 84.930533236331
  31
0.0
   0
LINE
   5
357
 100
AcDbEntity
   8
LEVEL002
 370
30
 100
AcDbLine
   6
CONTINUOUS
  62
7
  10
 19.377966353125
  20
 84.930533236331
  30
0.0
  11
 19.377966353125
  21
 82.930533236331
  31
0.0
   0
ARC
   5
358
 100
AcDbEntity
   8
LEVEL002
 370
30
   6
CONTINUOUS
  62
7
 100
AcDbCircle
  10
 16.877966353080
  20
 84.930533236331
  30
0.0
  40
 1.0000000000000
 100
AcDbArc
  50
 90.000000000000
  51
 180.00000000000
   0
LINE
   5
359
 100
AcDbEntity
   8
LEVEL001
 370
30
 100
AcDbLine
   6
CONTINUOUS
  62
7
  10
 16.477966353081
  20
 82.930533236331
  30
0.0
  11
 16.049101747052
  21
 83.436571920323
  31
0.0
   0
LINE
   5
35A
 100
AcDbEntity
   8
LEVEL002
 370
30
 100
AcDbLine
   6
CONTINUOUS
  62
7
  10
 16.277966353081
  20
 83.930533236331
  30
0.0
  11
 16.477966353081
  21
 83.930533236331
  31
0.0
   0
ARC
   5
35B
 100
AcDbEntity
   8
LEVEL001
 370
30
   6
CONTINUOUS
  62
7
 100
AcDbCircle
  10
 16.277966353081
  20
 83.630533236331
  30
0.0
  40
 0.30000000000000
 100
AcDbArc
  50
 90.000000000003
  51
 220.28106657775
   0
LINE
   5
35C
 100
AcDbEntity
   8
LEVEL002
 370
30
 100
AcDbLine
   6
CONTINUOUS
  62
7
  10
 15.877966353081
  20
 84.930533236331
  30
0.0
  11
 15.877966353081
  21
 84.766423130685
  31
0.0
   0
LINE
   5
35D
 100
AcDbEntity
   8
LEVEL002
 370
30
 100
AcDbLine
   6
CONTINUOUS
  62
7
  10
 16.477966353081
  20
 83.930533236331
  30
0.0
  11
 15.946432416468
  21
 84.575656162379
  31
0.0
   0
ARC
   5
35E
 100
AcDbEntity
   8
LEVEL001
 370
30
   6
CONTINUOUS
  62
7
 100
AcDbCircle
  10
 16.177966353081
  20
 84.766423130685
  30
0.0
  40
 0.30000000000000
 100
AcDbArc
  50
 180.00000000000
  51
 219.48601755867
   0
ARC
   5
35F
 100
AcDbEntity
   8
LEVEL002
 370
30
   6
CONTINUOUS
  62
7
 100
AcDbCircle
  10
 35.377966353080
  20
 84.930533236331
  30
0.0
  40
 1.0000000000000
 100
AcDbArc
  50
0.0
  51
 90.000000000000
   0
LINE
   5
360
 100
AcDbEntity
   8
LEVEL001
 370
30
 100
AcDbLine
   6
CONTINUOUS
  62
7
  10
 35.777966353080
  20
 82.930533236331
  30
0.0
  11
 36.206830959109
  21
 83.436571920323
  31
0.0
   0
LINE
   5
361
 100
AcDbEntity
   8
LEVEL002
 370
30
 100
AcDbLine
   6
CONTINUOUS
  62
7
  10
 35.977966353080
  20
 83.930533236331
  30
0.0
  11
 35.777966353080
  21
 83.930533236331
  31
0.0
   0
ARC
   5
362
 100
AcDbEntity
   8
LEVEL001
 370
30
   6
CONTINUOUS
  62
7
 100
AcDbCircle
  10
 35.977966353080
  20
 83.630533236331
  30
0.0
  40
 0.30000000000000
 100
AcDbArc
  50
 319.71893342225
  51
 89.999999999997
   0
LINE
   5
363
 100
AcDbEntity
   8
LEVEL002
 370
30
 100
AcDbLine
   6
CONTINUOUS
  62
7
  10
 36.377966353080
  20
 84.930533236331
  30
0.0
  11
 36.377966353080
  21
 84.766423130685
  31
0.0
   0
LINE
   5
364
 100
AcDbEntity
   8
LEVEL002
 370
30
 100
AcDbLine
   6
CONTINUOUS
  62
7
  10
 35.777966353080
  20
 83.930533236331
  30
0.0
  11
 36.309500289693
  21
 84.575656162379
  31
0.0
   0
ARC
   5
365
 100
AcDbEntity
   8
LEVEL001
 370
30
   6
CONTINUOUS
  62
7
 100
AcDbCircle
  10
 36.077966353080
  20
 84.766423130685
  30
0.0
  40
 0.30000000000000
 100
AcDbArc
  50
 320.51398244133
  51
 0.27140733281822E-11
   0
ARC
   5
366
 100
AcDbEntity
   8
LEVEL002
 370
30
   6
CONTINUOUS
  62
7
 100
AcDbCircle
  10
 72.263835918298
  20
 84.930533236331
  30
0.0
  40
 1.0000000000000
 100
AcDbArc
  50
0.0
  51
 90.000000000000
   0
LINE
   5
367
 100
AcDbEntity
   8
LEVEL002
 370
30
 100
AcDbLine
   6
CONTINUOUS
  62
7
  10
 59.640097208617
  20
 85.930533236331
  30
0.0
  11
 61.013835918344
  21
 85.430533236331
  31
0.0
   0
LINE
   5
368
 100
AcDbEntity
   8
LEVEL002
 370
30
 100
AcDbLine
   6
CONTINUOUS
  62
7
  10
 61.013835918344
  20
 85.430533236331
  30
0.0
  11
 61.013835918298
  21
 83.730533236331
  31
0.0
   0
LINE
   5
369
 100
AcDbEntity
   8
LEVEL002
 370
30
 100
AcDbLine
   6
CONTINUOUS
  62
7
  10
 61.013835918298
  20
 83.730533236331
  30
0.0
  11
 65.013835918298
  21
 83.730533236331
  31
0.0
   0
LINE
   5
36A
 100
AcDbEntity
   8
LEVEL002
 370
30
 100
AcDbLine
   6
CONTINUOUS
  62
7
  10
 65.013835918298
  20
 83.730533236331
  30
0.0
  11
 65.013835918343
  21
 85.430533236331
  31
0.0
   0
LINE
   5
36B
 100
AcDbEntity
   8
LEVEL002
 370
30
 100
AcDbLine
   6
CONTINUOUS
  62
7
  10
 65.013835918343
  20
 85.430533236331
  30
0.0
  11
 66.387574628070
  21
 85.930533236331
  31
0.0
   0
LINE
   5
36C
 100
AcDbEntity
   8
LEVEL002
 370
30
 100
AcDbLine
   6
CONTINUOUS
  62
7
  10
 66.387574628070
  20
 85.930533236331
  30
0.0
  11
 72.263835918298
  21
 85.930533236331
  31
0.0
   0
LINE
   5
36D
 100
AcDbEntity
   8
LEVEL002
 370
30
 100
AcDbLine
   6
CONTINUOUS
  62
7
  10
 59.640097208617
  20
 85.930533236331
  30
0.0
  11
 53.763835918298
  21
 85.930533236331
  31
0.0
   0
LINE
   5
36E
 100
AcDbEntity
   8
LEVEL002
 370
30
 100
AcDbLine
   6
CONTINUOUS
  62
7
  10
 71.913835918298
  20
 83.910533236331
  30
0.0
  11
 71.913835918298
  21
 84.630533236331
  31
0.0
   0
LINE
   5
36F
 100
AcDbEntity
   8
LEVEL002
 370
30
 100
AcDbLine
   6
CONTINUOUS
  62
7
  10
 71.913835918298
  20
 84.630533236331
  30
0.0
  11
 69.413835918298
  21
 84.630533236331
  31
0.0
   0
LINE
   5
370
 100
AcDbEntity
   8
LEVEL002
 370
30
 100
AcDbLine
   6
CONTINUOUS
  62
7
  10
 66.913835918298
  20
 83.910533236331
  30
0.0
  11
 66.913835918298
  21
 84.630533236331
  31
0.0
   0
LINE
   5
371
 100
AcDbEntity
   8
LEVEL002
 370
30
 100
AcDbLine
   6
CONTINUOUS
  62
7
  10
 66.913835918298
  20
 84.630533236331
  30
0.0
  11
 69.413835918298
  21
 84.630533236331
  31
0.0
   0
LWPOLYLINE
   5
372
 100
AcDbEntity
   8
LEVEL001
 370
30
   6
CONTINUOUS
  62
7
 100
AcDbPolyline
  90
4
  70
0
  10
 54.463835918299
  20
 82.930533236331
  10
 54.463835918299
  20
 84.630533236331
  10
 59.463835918299
  20
 84.630533236331
  10
 59.463835918299
  20
 82.930533236331
   0
LINE
   5
373
 100
AcDbEntity
   8
LEVEL001
 370
30
 100
AcDbLine
   6
CONTINUOUS
  62
7
  10
 66.913835918298
  20
 83.910533236331
  30
0.0
  11
 67.495150379403
  21
 83.469541742863
  31
0.0
   0
LINE
   5
374
 100
AcDbEntity
   8
LEVEL001
 370
30
 100
AcDbLine
   6
CONTINUOUS
  62
7
  10
 71.913835918298
  20
 83.910533236331
  30
0.0
  11
 71.332521457194
  21
 83.469541742863
  31
0.0
   0
LINE
   5
375
 100
AcDbEntity
   8
LEVEL002
 370
30
 100
AcDbLine
   6
CONTINUOUS
  62
7
  10
 72.863835918298
  20
 83.930533236331
  30
0.0
  11
 72.663835918298
  21
 83.930533236331
  31
0.0
   0
ARC
   5
376
 100
AcDbEntity
   8
LEVEL001
 370
30
   6
CONTINUOUS
  62
7
 100
AcDbCircle
  10
 72.863835918298
  20
 83.630533236331
  30
0.0
  40
 0.30000000000000
 100
AcDbArc
  50
 319.71893342225
  51
 89.999999999997
   0
LINE
   5
377
 100
AcDbEntity
   8
LEVEL002
 370
30
 100
AcDbLine
   6
CONTINUOUS
  62
7
  10
 73.263835918298
  20
 84.930533236331
  30
0.0
  11
 73.263835918298
  21
 84.766423130685
  31
0.0
   0
LINE
   5
378
 100
AcDbEntity
   8
LEVEL002
 370
30
 100
AcDbLine
   6
CONTINUOUS
  62
7
  10
 72.663835918298
  20
 83.930533236331
  30
0.0
  11
 73.195369854911
  21
 84.575656162379
  31
0.0
   0
ARC
   5
379
 100
AcDbEntity
   8
LEVEL001
 370
30
   6
CONTINUOUS
  62
7
 100
AcDbCircle
  10
 72.963835918298
  20
 84.766423130685
  30
0.0
  40
 0.30000000000000
 100
AcDbArc
  50
 320.51398244133
  51
 0.27140733281822E-11
   0
ARC
   5
37A
 100
AcDbEntity
   8
LEVEL002
 370
30
   6
CONTINUOUS
  62
7
 100
AcDbCircle
  10
 72.263835918298
  20
 84.930533236331
  30
0.0
  40
 1.0000000000000
 100
AcDbArc
  50
0.0
  51
 90.000000000000
   0
LINE
   5
37B
 100
AcDbEntity
   8
LEVEL002
 370
30
 100
AcDbLine
   6
CONTINUOUS
  62
7
  10
 59.640097208617
  20
 85.930533236331
  30
0.0
  11
 61.013835918344
  21
 85.430533236331
  31
0.0
   0
LINE
   5
37C
 100
AcDbEntity
   8
LEVEL002
 370
30
 100
AcDbLine
   6
CONTINUOUS
  62
7
  10
 61.013835918344
  20
 85.430533236331
  30
0.0
  11
 61.013835918298
  21
 83.730533236331
  31
0.0
   0
LINE
   5
37D
 100
AcDbEntity
   8
LEVEL002
 370
30
 100
AcDbLine
   6
CONTINUOUS
  62
7
  10
 61.013835918298
  20
 83.730533236331
  30
0.0
  11
 65.013835918298
  21
 83.730533236331
  31
0.0
   0
LINE
   5
37E
 100
AcDbEntity
   8
LEVEL002
 370
30
 100
AcDbLine
   6
CONTINUOUS
  62
7
  10
 65.013835918298
  20
 83.730533236331
  30
0.0
  11
 65.013835918343
  21
 85.430533236331
  31
0.0
   0
LINE
   5
37F
 100
AcDbEntity
   8
LEVEL002
 370
30
 100
AcDbLine
   6
CONTINUOUS
  62
7
  10
 65.013835918343
  20
 85.430533236331
  30
0.0
  11
 66.387574628070
  21
 85.930533236331
  31
0.0
   0
LINE
   5
380
 100
AcDbEntity
   8
LEVEL002
 370
30
 100
AcDbLine
   6
CONTINUOUS
  62
7
  10
 66.387574628070
  20
 85.930533236331
  30
0.0
  11
 72.263835918298
  21
 85.930533236331
  31
0.0
   0
LINE
   5
381
 100
AcDbEntity
   8
LEVEL002
 370
30
 100
AcDbLine
   6
CONTINUOUS
  62
7
  10
 59.640097208617
  20
 85.930533236331
  30
0.0
  11
 53.763835918298
  21
 85.930533236331
  31
0.0
   0
LINE
   5
382
 100
AcDbEntity
   8
LEVEL002
 370
30
 100
AcDbLine
   6
CONTINUOUS
  62
7
  10
 71.913835918298
  20
 83.910533236331
  30
0.0
  11
 71.913835918298
  21
 84.630533236331
  31
0.0
   0
LINE
   5
383
 100
AcDbEntity
   8
LEVEL002
 370
30
 100
AcDbLine
   6
CONTINUOUS
  62
7
  10
 71.913835918298
  20
 84.630533236331
  30
0.0
  11
 69.413835918298
  21
 84.630533236331
  31
0.0
   0
LINE
   5
384
 100
AcDbEntity
   8
LEVEL002
 370
30
 100
AcDbLine
   6
CONTINUOUS
  62
7
  10
 66.913835918298
  20
 83.910533236331
  30
0.0
  11
 66.913835918298
  21
 84.630533236331
  31
0.0
   0
LINE
   5
385
 100
AcDbEntity
   8
LEVEL002
 370
30
 100
AcDbLine
   6
CONTINUOUS
  62
7
  10
 66.913835918298
  20
 84.630533236331
  30
0.0
  11
 69.413835918298
  21
 84.630533236331
  31
0.0
   0
LWPOLYLINE
   5
386
 100
AcDbEntity
   8
LEVEL002
 370
30
   6
CONTINUOUS
  62
7
 100
AcDbPolyline
  90
4
  70
0
  10
 54.463835918299
  20
 82.930533236331
  10
 54.463835918299
  20
 84.630533236331
  10
 59.463835918299
  20
 84.630533236331
  10
 59.463835918299
  20
 82.930533236331
   0
LINE
   5
387
 100
AcDbEntity
   8
LEVEL002
 370
30
 100
AcDbLine
   6
CONTINUOUS
  62
7
  10
 66.913835918298
  20
 83.910533236331
  30
0.0
  11
 67.495150379403
  21
 83.469541742863
  31
0.0
   0
LINE
   5
388
 100
AcDbEntity
   8
LEVEL002
 370
30
 100
AcDbLine
   6
CONTINUOUS
  62
7
  10
 71.913835918298
  20
 83.910533236331
  30
0.0
  11
 71.332521457194
  21
 83.469541742863
  31
0.0
   0
LINE
   5
389
 100
AcDbEntity
   8
LEVEL002
 370
30
 100
AcDbLine
   6
CONTINUOUS
  62
7
  10
 72.863835918298
  20
 83.930533236331
  30
0.0
  11
 72.663835918298
  21
 83.930533236331
  31
0.0
   0
ARC
   5
38A
 100
AcDbEntity
   8
LEVEL002
 370
30
   6
CONTINUOUS
  62
7
 100
AcDbCircle
  10
 72.863835918298
  20
 83.630533236331
  30
0.0
  40
 0.30000000000000
 100
AcDbArc
  50
 319.71893342225
  51
 89.999999999997
   0
LINE
   5
38B
 100
AcDbEntity
   8
LEVEL002
 370
30
 100
AcDbLine
   6
CONTINUOUS
  62
7
  10
 73.263835918298
  20
 84.930533236331
  30
0.0
  11
 73.263835918298
  21
 84.766423130685
  31
0.0
   0
LINE
   5
38C
 100
AcDbEntity
   8
LEVEL002
 370
30
 100
AcDbLine
   6
CONTINUOUS
  62
7
  10
 72.663835918298
  20
 83.930533236331
  30
0.0
  11
 73.195369854911
  21
 84.575656162379
  31
0.0
   0
ARC
   5
38D
 100
AcDbEntity
   8
LEVEL002
 370
30
   6
CONTINUOUS
  62
7
 100
AcDbCircle
  10
 72.963835918298
  20
 84.766423130685
  30
0.0
  40
 0.30000000000000
 100
AcDbArc
  50
 320.51398244133
  51
 0.27140733281822E-11
   0
ARC
   5
38E
 100
AcDbEntity
   8
LEVEL002
 370
30
   6
CONTINUOUS
  62
7
 100
AcDbCircle
  10
 53.763835918298
  20
 84.930533236331
  30
0.0
  40
 1.0000000000000
 100
AcDbArc
  50
 90.000000000000
  51
 180.00000000000
   0
LINE
   5
38F
 100
AcDbEntity
   8
LEVEL002
 370
30
 100
AcDbLine
   6
CONTINUOUS
  62
7
  10
 53.363835918299
  20
 82.930533236331
  30
0.0
  11
 54.463835918299
  21
 82.930533236331
  31
0.0
   0
ARC
   5
390
 100
AcDbEntity
   8
LEVEL001
 370
30
   6
CONTINUOUS
  62
7
 100
AcDbCircle
  10
 67.313835918299
  20
 83.230533236331
  30
0.0
  40
 0.30000000000000
 100
AcDbArc
  50
 269.99999999999
  51
 52.815649130362
   0
LINE
   5
391
 100
AcDbEntity
   8
LEVEL002
 370
30
 100
AcDbLine
   6
CONTINUOUS
  62
7
  10
 59.463835918299
  20
 82.930533236331
  30
0.0
  11
 67.313835918298
  21
 82.930533236331
  31
0.0
   0
LINE
   5
392
 100
AcDbEntity
   8
LEVEL001
 370
30
 100
AcDbLine
   6
CONTINUOUS
  62
7
  10
 53.363835918299
  20
 82.930533236331
  30
0.0
  11
 52.934971312270
  21
 83.436571920323
  31
0.0
   0
LINE
   5
393
 100
AcDbEntity
   8
LEVEL002
 370
30
 100
AcDbLine
   6
CONTINUOUS
  62
7
  10
 53.163835918299
  20
 83.930533236331
  30
0.0
  11
 53.363835918299
  21
 83.930533236331
  31
0.0
   0
ARC
   5
394
 100
AcDbEntity
   8
LEVEL001
 370
30
   6
CONTINUOUS
  62
7
 100
AcDbCircle
  10
 53.163835918299
  20
 83.630533236331
  30
0.0
  40
 0.30000000000000
 100
AcDbArc
  50
 90.000000000003
  51
 220.28106657775
   0
LINE
   5
395
 100
AcDbEntity
   8
LEVEL002
 370
30
 100
AcDbLine
   6
CONTINUOUS
  62
7
  10
 52.763835918299
  20
 84.930533236331
  30
0.0
  11
 52.763835918299
  21
 84.766423130685
  31
0.0
   0
LINE
   5
396
 100
AcDbEntity
   8
LEVEL002
 370
30
 100
AcDbLine
   6
CONTINUOUS
  62
7
  10
 53.363835918299
  20
 83.930533236331
  30
0.0
  11
 52.832301981686
  21
 84.575656162379
  31
0.0
   0
ARC
   5
397
 100
AcDbEntity
   8
LEVEL001
 370
30
   6
CONTINUOUS
  62
7
 100
AcDbCircle
  10
 53.063835918299
  20
 84.766423130685
  30
0.0
  40
 0.30000000000000
 100
AcDbArc
  50
 180.00000000000
  51
 219.48601755867
   0
ARC
   5
398
 100
AcDbEntity
   8
LEVEL002
 370
30
   6
CONTINUOUS
  62
7
 100
AcDbCircle
  10
 53.763835918298
  20
 84.930533236331
  30
0.0
  40
 1.0000000000000
 100
AcDbArc
  50
 90.000000000000
  51
 180.00000000000
   0
LINE
   5
399
 100
AcDbEntity
   8
LEVEL002
 370
30
 100
AcDbLine
   6
CONTINUOUS
  62
7
  10
 53.363835918299
  20
 82.930533236331
  30
0.0
  11
 54.463835918299
  21
 82.930533236331
  31
0.0
   0
ARC
   5
39A
 100
AcDbEntity
   8
LEVEL002
 370
30
   6
CONTINUOUS
  62
7
 100
AcDbCircle
  10
 67.313835918299
  20
 83.230533236331
  30
0.0
  40
 0.30000000000000
 100
AcDbArc
  50
 269.99999999999
  51
 52.815649130362
   0
LINE
   5
39B
 100
AcDbEntity
   8
LEVEL002
 370
30
 100
AcDbLine
   6
CONTINUOUS
  62
7
  10
 59.463835918299
  20
 82.930533236331
  30
0.0
  11
 67.313835918298
  21
 82.930533236331
  31
0.0
   0
LINE
   5
39C
 100
AcDbEntity
   8
LEVEL002
 370
30
 100
AcDbLine
   6
CONTINUOUS
  62
7
  10
 53.363835918299
  20
 82.930533236331
  30
0.0
  11
 52.934971312270
  21
 83.436571920323
  31
0.0
   0
LINE
   5
39D
 100
AcDbEntity
   8
LEVEL002
 370
30
 100
AcDbLine
   6
CONTINUOUS
  62
7
  10
 53.163835918299
  20
 83.930533236331
  30
0.0
  11
 53.363835918299
  21
 83.930533236331
  31
0.0
   0
ARC
   5
39E
 100
AcDbEntity
   8
LEVEL002
 370
30
   6
CONTINUOUS
  62
7
 100
AcDbCircle
  10
 53.163835918299
  20
 83.630533236331
  30
0.0
  40
 0.30000000000000
 100
AcDbArc
  50
 90.000000000003
  51
 220.28106657775
   0
LINE
   5
39F
 100
AcDbEntity
   8
LEVEL002
 370
30
 100
AcDbLine
   6
CONTINUOUS
  62
7
  10
 52.763835918299
  20
 84.930533236331
  30
0.0
  11
 52.763835918299
  21
 84.766423130685
  31
0.0
   0
LINE
   5
3A0
 100
AcDbEntity
   8
LEVEL002
 370
30
 100
AcDbLine
   6
CONTINUOUS
  62
7
  10
 53.363835918299
  20
 83.930533236331
  30
0.0
  11
 52.832301981686
  21
 84.575656162379
  31
0.0
   0
ARC
   5
3A1
 100
AcDbEntity
   8
LEVEL002
 370
30
   6
CONTINUOUS
  62
7
 100
AcDbCircle
  10
 53.063835918299
  20
 84.766423130685
  30
0.0
  40
 0.30000000000000
 100
AcDbArc
  50
 180.00000000000
  51
 219.48601755867
   0
LINE
   5
3A2
 100
AcDbEntity
   8
LEVEL002
 370
30
 100
AcDbLine
   6
CONTINUOUS
  62
7
  10
 71.513835918298
  20
 82.930533236331
  30
0.0
  11
 72.663835918298
  21
 82.930533236331
  31
0.0
   0
ARC
   5
3A3
 100
AcDbEntity
   8
LEVEL001
 370
30
   6
CONTINUOUS
  62
7
 100
AcDbCircle
  10
 71.513835918298
  20
 83.230533236331
  30
0.0
  40
 0.30000000000000
 100
AcDbArc
  50
 127.18435086964
  51
 270.00000000001
   0
LINE
   5
3A4
 100
AcDbEntity
   8
LEVEL001
 370
30
 100
AcDbLine
   6
CONTINUOUS
  62
7
  10
 72.663835918298
  20
 82.930533236331
  30
0.0
  11
 73.092700524327
  21
 83.436571920323
  31
0.0
   0
LINE
   5
3A5
 100
AcDbEntity
   8
LEVEL002
 370
30
 100
AcDbLine
   6
CONTINUOUS
  62
7
  10
 71.513835918298
  20
 82.930533236331
  30
0.0
  11
 72.663835918298
  21
 82.930533236331
  31
0.0
   0
ARC
   5
3A6
 100
AcDbEntity
   8
LEVEL002
 370
30
   6
CONTINUOUS
  62
7
 100
AcDbCircle
  10
 71.513835918298
  20
 83.230533236331
  30
0.0
  40
 0.30000000000000
 100
AcDbArc
  50
 127.18435086964
  51
 270.00000000001
   0
LINE
   5
3A7
 100
AcDbEntity
   8
LEVEL002
 370
30
 100
AcDbLine
   6
CONTINUOUS
  62
7
  10
 72.663835918298
  20
 82.930533236331
  30
0.0
  11
 73.092700524327
  21
 83.436571920323
  31
0.0
   0
LINE
   5
3A8
 100
AcDbEntity
   8
LEVEL002
 370
30
 100
AcDbLine
   6
CONTINUOUS
  62
7
  10
 92.899748450226
  20
 85.930533236331
  30
0.0
  11
 90.273487159907
  21
 85.930533236331
  31
0.0
   0
LINE
   5
3A9
 100
AcDbEntity
   8
LEVEL002
 370
30
 100
AcDbLine
   6
CONTINUOUS
  62
7
  10
 92.899748450226
  20
 85.930533236331
  30
0.0
  11
 94.273487159953
  21
 85.430533236331
  31
0.0
   0
LINE
   5
3AA
 100
AcDbEntity
   8
LEVEL002
 370
30
 100
AcDbLine
   6
CONTINUOUS
  62
7
  10
 94.273487159953
  20
 85.430533236331
  30
0.0
  11
 94.273487159907
  21
 83.730533236331
  31
0.0
   0
LINE
   5
3AB
 100
AcDbEntity
   8
LEVEL002
 370
30
 100
AcDbLine
   6
CONTINUOUS
  62
7
  10
 94.273487159907
  20
 83.730533236331
  30
0.0
  11
 98.273487159907
  21
 83.730533236331
  31
0.0
   0
LINE
   5
3AC
 100
AcDbEntity
   8
LEVEL002
 370
30
 100
AcDbLine
   6
CONTINUOUS
  62
7
  10
 98.273487159907
  20
 83.730533236331
  30
0.0
  11
 98.273487159952
  21
 85.430533236331
  31
0.0
   0
LINE
   5
3AD
 100
AcDbEntity
   8
LEVEL002
 370
30
 100
AcDbLine
   6
CONTINUOUS
  62
7
  10
 98.273487159952
  20
 85.430533236331
  30
0.0
  11
 99.647225869679
  21
 85.930533236331
  31
0.0
   0
LINE
   5
3AE
 100
AcDbEntity
   8
LEVEL002
 370
30
 100
AcDbLine
   6
CONTINUOUS
  62
7
  10
 99.647225869679
  20
 85.930533236331
  30
0.0
  11
 105.77348715995
  21
 85.930533236331
  31
0.0
   0
LINE
   5
3AF
 100
AcDbEntity
   8
LEVEL002
 370
30
 100
AcDbLine
   6
CONTINUOUS
  62
7
  10
 89.573487159907
  20
 83.930533236331
  30
0.0
  11
 89.873487159907
  21
 83.930533236331
  31
0.0
   0
LINE
   5
3B0
 100
AcDbEntity
   8
LEVEL002
 370
30
 100
AcDbLine
   6
CONTINUOUS
  62
7
  10
 89.873487159907
  20
 83.930533236331
  30
0.0
  11
 89.319131202165
  21
 84.603355257460
  31
0.0
   0
LINE
   5
3B1
 100
AcDbEntity
   8
LEVEL002
 370
30
 100
AcDbLine
   6
CONTINUOUS
  62
7
  10
 89.873487159907
  20
 82.930533236331
  30
0.0
  11
 89.407862527295
  21
 83.618423999101
  31
0.0
   0
LINE
   5
3B2
 100
AcDbEntity
   8
LEVEL002
 370
30
 100
AcDbLine
   6
CONTINUOUS
  62
7
  10
 89.273487159907
  20
 84.930533236331
  30
0.0
  11
 89.273487159907
  21
 84.730533236331
  31
0.0
   0
ARC
   5
3B3
 100
AcDbEntity
   8
LEVEL002
 370
30
   6
CONTINUOUS
  62
7
 100
AcDbCircle
  10
 90.273487159907
  20
 84.930533236331
  30
0.0
  40
 1.0000000000000
 100
AcDbArc
  50
 90.000000000000
  51
 180.00000000000
   0
ARC
   5
3B4
 100
AcDbEntity
   8
LEVEL002
 370
30
   6
CONTINUOUS
  62
7
 100
AcDbCircle
  10
 89.473487159907
  20
 84.730533236331
  30
0.0
  40
 0.20000000000000
 100
AcDbArc
  50
 179.99999999993
  51
 219.48601755857
   0
ARC
   5
3B5
 100
AcDbEntity
   8
LEVEL002
 370
30
   6
CONTINUOUS
  62
7
 100
AcDbCircle
  10
 89.573487159907
  20
 83.730533236331
  30
0.0
  40
 0.20000000000000
 100
AcDbArc
  50
 90.000000000016
  51
 214.09357857319
   0
LINE
   5
3B6
 100
AcDbEntity
   8
LEVEL002
 370
30
 100
AcDbLine
   6
CONTINUOUS
  62
7
  10
 106.47348715995
  20
 83.930533236331
  30
0.0
  11
 106.17348715995
  21
 83.930533236331
  31
0.0
   0
LINE
   5
3B7
 100
AcDbEntity
   8
LEVEL002
 370
30
 100
AcDbLine
   6
CONTINUOUS
  62
7
  10
 106.17348715995
  20
 83.930533236331
  30
0.0
  11
 106.72784311769
  21
 84.603355257460
  31
0.0
   0
LINE
   5
3B8
 100
AcDbEntity
   8
LEVEL002
 370
30
 100
AcDbLine
   6
CONTINUOUS
  62
7
  10
 106.17348715995
  20
 82.930533236331
  30
0.0
  11
 106.63911179256
  21
 83.618423999101
  31
0.0
   0
LINE
   5
3B9
 100
AcDbEntity
   8
LEVEL002
 370
30
 100
AcDbLine
   6
CONTINUOUS
  62
7
  10
 106.77348715995
  20
 84.930533236331
  30
0.0
  11
 106.77348715995
  21
 84.730533236331
  31
0.0
   0
ARC
   5
3BA
 100
AcDbEntity
   8
LEVEL002
 370
30
   6
CONTINUOUS
  62
7
 100
AcDbCircle
  10
 105.77348715995
  20
 84.930533236331
  30
0.0
  40
 1.0000000000000
 100
AcDbArc
  50
0.0
  51
 90.000000000000
   0
ARC
   5
3BB
 100
AcDbEntity
   8
LEVEL002
 370
30
   6
CONTINUOUS
  62
7
 100
AcDbCircle
  10
 106.57348715995
  20
 84.730533236330
  30
0.0
  40
 0.20000000000000
 100
AcDbArc
  50
 320.51398244153
  51
0.0
   0
ARC
   5
3BC
 100
AcDbEntity
   8
LEVEL002
 370
30
   6
CONTINUOUS
  62
7
 100
AcDbCircle
  10
 106.47348715995
  20
 83.730533236331
  30
0.0
  40
 0.20000000000000
 100
AcDbArc
  50
 325.90642142682
  51
 89.999999999976
   0
LINE
   5
3BD
 100
AcDbEntity
   8
LEVEL002
 370
30
 100
AcDbLine
   6
CONTINUOUS
  62
7
  10
 89.873487159907
  20
 82.930533236331
  30
0.0
  11
 90.773487159953
  21
 82.930533236331
  31
0.0
   0
LINE
   5
3BE
 100
AcDbEntity
   8
LEVEL002
 370
30
 100
AcDbLine
   6
CONTINUOUS
  62
7
  10
 100.02348715995
  20
 83.930533236331
  30
0.0
  11
 100.66675986930
  21
 83.270078679671
  31
0.0
   0
LINE
   5
3BF
 100
AcDbEntity
   8
LEVEL002
 370
30
 100
AcDbLine
   6
CONTINUOUS
  62
7
  10
 105.02348715995
  20
 83.930533236331
  30
0.0
  11
 104.38021445061
  21
 83.270078679671
  31
0.0
   0
LINE
   5
3C0
 100
AcDbEntity
   8
LEVEL002
 370
30
 100
AcDbLine
   6
CONTINUOUS
  62
7
  10
 100.02348715995
  20
 83.930533236331
  30
0.0
  11
 100.02348715995
  21
 84.630533236331
  31
0.0
   0
LINE
   5
3C1
 100
AcDbEntity
   8
LEVEL002
 370
30
 100
AcDbLine
   6
CONTINUOUS
  62
7
  10
 100.02348715995
  20
 84.630533236331
  30
0.0
  11
 105.02348715995
  21
 84.630533236331
  31
0.0
   0
LINE
   5
3C2
 100
AcDbEntity
   8
LEVEL002
 370
30
 100
AcDbLine
   6
CONTINUOUS
  62
7
  10
 105.02348715995
  20
 84.630533236331
  30
0.0
  11
 105.02348715995
  21
 83.930533236331
  31
0.0
   0
ARC
   5
3C3
 100
AcDbEntity
   8
LEVEL002
 370
30
   6
CONTINUOUS
  62
7
 100
AcDbCircle
  10
 100.52348715995
  20
 83.130533236331
  30
0.0
  40
 0.20000000000000
 100
AcDbArc
  50
 270.00000000000
  51
 44.244941505861
   0
ARC
   5
3C4
 100
AcDbEntity
   8
LEVEL002
 370
30
   6
CONTINUOUS
  62
7
 100
AcDbCircle
  10
 104.52348715995
  20
 83.130533236331
  30
0.0
  40
 0.20000000000000
 100
AcDbArc
  50
 135.75505849413
  51
 270.00000000002
   0
LINE
   5
3C5
 100
AcDbEntity
   8
LEVEL002
 370
30
 100
AcDbLine
   6
CONTINUOUS
  62
7
  10
 104.52348715995
  20
 82.930533236331
  30
0.0
  11
 106.17348715995
  21
 82.930533236331
  31
0.0
   0
LINE
   5
3C6
 100
AcDbEntity
   8
LEVEL002
 370
30
 100
AcDbLine
   6
CONTINUOUS
  62
7
  10
 93.073487159953
  20
 82.930533236331
  30
0.0
  11
 100.52348715995
  21
 82.930533236331
  31
0.0
   0
LINE
   5
3C7
 100
AcDbEntity
   8
LEVEL002
 370
30
 100
AcDbLine
   6
CONTINUOUS
  62
7
  10
 90.773487159953
  20
 82.930533236331
  30
0.0
  11
 90.773487159953
  21
 84.930533236331
  31
0.0
   0
LINE
   5
3C8
 100
AcDbEntity
   8
LEVEL002
 370
30
 100
AcDbLine
   6
CONTINUOUS
  62
7
  10
 90.773487159953
  20
 84.930533236331
  30
0.0
  11
 93.073487159953
  21
 84.930533236331
  31
0.0
   0
LINE
   5
3C9
 100
AcDbEntity
   8
LEVEL002
 370
30
 100
AcDbLine
   6
CONTINUOUS
  62
7
  10
 93.073487159953
  20
 84.930533236331
  30
0.0
  11
 93.073487159953
  21
 82.930533236331
  31
0.0
   0
DIMENSION
   5
3CA
 100
AcDbEntity
   8
LEVEL001
 370
15
   6
CONTINUOUS
  62
8
 100
AcDbDimension
   2
*D23
  10
 36.377966353080
  20
 94.930533236331
  30
0.0
  11
 26.127966353080
  21
 94.930533236331
  31
0.0
  70
0
   3
GMM001
 100
AcDbAlignedDimension
  13
 15.877966353080
  23
 89.930533236331
  33
0.0
  14
 36.377966353080
  24
 89.930533236331
  34
0.0
 100
AcDbRotatedDimension
   0
DIMENSION
   5
3CB
 100
AcDbEntity
   8
LEVEL001
 370
15
   6
CONTINUOUS
  62
8
 100
AcDbDimension
   2
*D24
  10
 22.877966353080
  20
 91.930533236331
  30
0.0
  11
 19.377966353080
  21
 91.930533236331
  31
0.0
  70
0
   3
GMM001
 100
AcDbAlignedDimension
  13
 15.877966353080
  23
 84.930533236331
  33
0.0
  14
 22.877966353080
  24
 86.800753027075
  34
0.0
 100
AcDbRotatedDimension
   0
DIMENSION
   5
3CC
 100
AcDbEntity
   8
LEVEL001
 370
15
   6
CONTINUOUS
  62
8
 100
AcDbDimension
   2
*D25
  10
 36.377966353080
  20
 91.930533236331
  30
0.0
  11
 29.627966353080
  21
 91.930533236331
  31
0.0
  70
0
   3
GMM001
 100
AcDbAlignedDimension
  13
 22.877966353080
  23
 86.800753027075
  33
0.0
  14
 36.377966353080
  24
 84.930533236331
  34
0.0
 100
AcDbRotatedDimension
   0
DIMENSION
   5
3CD
 100
AcDbEntity
   8
LEVEL001
 370
15
   6
CONTINUOUS
  62
8
 100
AcDbDimension
   2
*D26
  10
 24.877966353124
  20
 88.930533236331
  30
0.0
  11
 25.758460621432
  21
 88.930533236331
  31
0.0
  70
128
   3
GMM007
 100
AcDbAlignedDimension
  13
 20.877966353125
  23
 85.430533236331
  33
0.0
  14
 24.877966353124
  24
 85.430533236331
  34
0.0
 100
AcDbRotatedDimension
   0
DIMENSION
   5
3CE
 100
AcDbEntity
   8
LEVEL001
 370
15
   6
CONTINUOUS
  62
8
 100
AcDbDimension
   2
*D27
  10
 39.377966353080
  20
 85.930533236331
  30
0.0
  11
 39.377966353080
  21
 84.430533236331
  31
0.0
  70
0
   3
GMM001
 100
AcDbAlignedDimension
  13
 35.777966353080
  23
 82.930533236331
  33
0.0
  14
 35.377966353080
  24
 85.930533236331
  34
0.0
  50
 90.000000000000
 100
AcDbRotatedDimension
   0
DIMENSION
   5
3CF
 100
AcDbEntity
   8
LEVEL001
 370
15
   6
CONTINUOUS
  62
8
 100
AcDbDimension
   2
*D28
  10
 76.263835918298
  20
 85.930533236331
  30
0.0
  11
 76.263835918298
  21
 84.430533236331
  31
0.0
  70
0
   3
GMM001
 100
AcDbAlignedDimension
  13
 72.663835918298
  23
 82.930533236331
  33
0.0
  14
 72.263835918298
  24
 85.930533236331
  34
0.0
  50
 90.000000000000
 100
AcDbRotatedDimension
   0
DIMENSION
   5
3D0
 100
AcDbEntity
   8
LEVEL001
 370
15
   6
CONTINUOUS
  62
8
 100
AcDbDimension
   2
*D29
  10
 73.263835918298
  20
 94.930533236331
  30
0.0
  11
 63.013835918298
  21
 94.930533236331
  31
0.0
  70
0
   3
GMM001
 100
AcDbAlignedDimension
  13
 52.763835918299
  23
 89.930533236331
  33
0.0
  14
 73.263835918298
  24
 89.930533236331
  34
0.0
 100
AcDbRotatedDimension
   0
DIMENSION
   5
3D1
 100
AcDbEntity
   8
LEVEL001
 370
15
   6
CONTINUOUS
  62
8
 100
AcDbDimension
   2
*D30
  10
 65.013835918343
  20
 88.930533236331
  30
0.0
  11
 65.894330186651
  21
 88.930533236331
  31
0.0
  70
128
   3
GMM007
 100
AcDbAlignedDimension
  13
 61.013835918344
  23
 85.430533236331
  33
0.0
  14
 65.013835918343
  24
 85.430533236331
  34
0.0
 100
AcDbRotatedDimension
   0
DIMENSION
   5
3D2
 100
AcDbEntity
   8
LEVEL001
 370
15
   6
CONTINUOUS
  62
8
 100
AcDbDimension
   2
*D31
  10
 63.013835918298
  20
 91.930533236331
  30
0.0
  11
 57.888835918299
  21
 91.930533236331
  31
0.0
  70
0
   3
GMM001
 100
AcDbAlignedDimension
  13
 52.763835918299
  23
 84.930533236331
  33
0.0
  14
 63.013835918298
  24
 86.981777600577
  34
0.0
 100
AcDbRotatedDimension
   0
DIMENSION
   5
3D3
 100
AcDbEntity
   8
LEVEL001
 370
15
   6
CONTINUOUS
  62
8
 100
AcDbDimension
   2
*D32
  10
 73.263835918298
  20
 91.930533236331
  30
0.0
  11
 68.138835918298
  21
 91.930533236331
  31
0.0
  70
0
   3
GMM001
 100
AcDbAlignedDimension
  13
 63.013835918298
  23
 86.981777600577
  33
0.0
  14
 73.263835918298
  24
 84.930533236331
  34
0.0
 100
AcDbRotatedDimension
   0
DIMENSION
   5
3D4
 100
AcDbEntity
   8
LEVEL001
 370
15
   6
CONTINUOUS
  62
8
 100
AcDbDimension
   2
*D33
  10
 98.273487159952
  20
 88.930533236331
  30
0.0
  11
 96.273487159952
  21
 88.930533236331
  31
0.0
  70
0
   3
GMM001
 100
AcDbAlignedDimension
  13
 94.273487159953
  23
 85.430533236331
  33
0.0
  14
 98.273487159952
  24
 85.430533236331
  34
0.0
 100
AcDbRotatedDimension
   0
DIMENSION
   5
3D5
 100
AcDbEntity
   8
LEVEL001
 370
15
   6
CONTINUOUS
  62
8
 100
AcDbDimension
   2
*D34
  10
 106.77348715995
  20
 94.930533236331
  30
0.0
  11
 98.023487159930
  21
 94.930533236331
  31
0.0
  70
0
   3
GMM001
 100
AcDbAlignedDimension
  13
 89.273487159907
  23
 91.930533236331
  33
0.0
  14
 106.77348715995
  24
 91.930533236331
  34
0.0
 100
AcDbRotatedDimension
   0
DIMENSION
   5
3D6
 100
AcDbEntity
   8
LEVEL001
 370
15
   6
CONTINUOUS
  62
8
 100
AcDbDimension
   2
*D35
  10
 96.273487159907
  20
 91.930533236331
  30
0.0
  11
 92.773487159907
  21
 91.930533236331
  31
0.0
  70
0
   3
GMM001
 100
AcDbAlignedDimension
  13
 89.273487159907
  23
 84.930533236331
  33
0.0
  14
 96.273487159907
  24
 90.410749750833
  34
0.0
 100
AcDbRotatedDimension
   0
DIMENSION
   5
3D7
 100
AcDbEntity
   8
LEVEL001
 370
15
   6
CONTINUOUS
  62
8
 100
AcDbDimension
   2
*D36
  10
 106.77348715995
  20
 91.930533236331
  30
0.0
  11
 101.52348715993
  21
 91.930533236331
  31
0.0
  70
0
   3
GMM001
 100
AcDbAlignedDimension
  13
 96.273487159907
  23
 90.410749750833
  33
0.0
  14
 106.77348715995
  24
 84.930533236331
  34
0.0
 100
AcDbRotatedDimension
   0
DIMENSION
   5
3D8
 100
AcDbEntity
   8
LEVEL001
 370
15
   6
CONTINUOUS
  62
8
 100
AcDbDimension
   2
*D37
  10
 86.773487159907
  20
 85.930533236331
  30
0.0
  11
 86.773487159907
  21
 84.830533236331
  31
0.0
  70
0
   3
GMM001
 100
AcDbAlignedDimension
  13
 94.273487159907
  23
 83.730533236331
  33
0.0
  14
 90.273487159907
  24
 85.930533236331
  34
0.0
  50
 90.000000000000
 100
AcDbRotatedDimension
   0
DIMENSION
   5
3D9
 100
AcDbEntity
   8
LEVEL001
 370
15
   6
CONTINUOUS
  62
8
 100
AcDbDimension
   2
*D38
  10
 109.77348715995
  20
 85.930533236331
  30
0.0
  11
 109.77348715995
  21
 84.430533236331
  31
0.0
  70
0
   3
GMM001
 100
AcDbAlignedDimension
  13
 106.17348715995
  23
 82.930533236331
  33
0.0
  14
 105.77348715995
  24
 85.930533236331
  34
0.0
  50
 90.000000000000
 100
AcDbRotatedDimension
   0
DIMENSION
   5
3DA
 100
AcDbEntity
   8
LEVEL001
 370
15
   6
CONTINUOUS
  62
8
 100
AcDbDimension
   2
*D39
  10
 50.263835918298
  20
 85.930533236331
  30
0.0
  11
 50.263835918298
  21
 84.830533236331
  31
0.0
  70
0
   3
GMM001
 100
AcDbAlignedDimension
  13
 61.013835918307
  23
 83.730533236331
  33
0.0
  14
 53.763835918298
  24
 85.930533236331
  34
0.0
  50
 90.000000000000
 100
AcDbRotatedDimension
   0
DIMENSION
   5
3DB
 100
AcDbEntity
   8
LEVEL001
 370
15
   6
CONTINUOUS
  62
8
 100
AcDbDimension
   2
*D40
  10
 13.377966353080
  20
 85.930533236331
  30
0.0
  11
 13.377966353080
  21
 84.830533236331
  31
0.0
  70
0
   3
GMM001
 100
AcDbAlignedDimension
  13
 20.877966353080
  23
 83.730533236331
  33
0.0
  14
 16.877966353080
  24
 85.930533236331
  34
0.0
  50
 90.000000000000
 100
AcDbRotatedDimension
   0
MTEXT
   5
3DD
 100
AcDbEntity
   8
LEVEL002
 370
15
  62
8
 100
AcDbMText
  10
 156.91819221965
  20
 107.12995804731
  30
0.0
  40
 1.7500000000000
  41
0.0
  71
1
  72
1
   3
{\W1.000000;\T1.000000;アルミ}\P{\W1.000000;\T1.000000;材質：Ａ６０６３Ｓ－Ｔ５}\P\P{\W1.000000;\T1.000000;仕上：アルマイト処理}\P\P{\W1.000000;\T1.000000;　色：Ｂ２　シルバー}\P{\W1.000000;\T1.000000;　　　ＵＢ　アーバンブラウン}\P{\W1.000000;\T1.00
   3
0000;　　}\P{\W0.500000;\T1.000000; (\W1.000000;\T1.000000;※ＦＪＡ２２\W0.500000;\T1.000000;/\W1.000000;\T1.000000;ＦＪＡ７２のみ\W0.500000;\T1.000000;)}\P{\W0.500000;\T1.000000;      \W1.000000;\T1.000000;ＰＧ　苛性ゴールド}\P{\W1.000000;\T1.000000
   3
;　　　　　\W0.500000;\T1.000000; }\P{\W1.000000;\T1.000000;（※ＦＪＡ２２\W0.500000;\T1.000000;/\W1.000000;\T1.000000;ＦＪＡ７２）}\P{\W1.000000;\T1.000000;長さ（定尺）：２０１０\W0.500000;\T1.000000;mm}\P{\W1.000000;\T1.000000;　　　　　　　３０１
   3
０\W0.500000;\T1.000000;mm}\P{\W1.000000;\T1.000000;　　　　　　　４０２０\W0.500000;\T1.000000;mm}\P\P{\W1.000000;\T1.000000;（ＹＸＡ２２\W0.500000;\T1.000000;/\W1.000000;\T1.000000;ＹＸＡ２１\W0.500000;\T1.000000;/\W1.000000;\T1.000000;ＹＸＡ７２）
   3
}\P{\W1.000000;\T1.000000;長さ（定尺）：１８３０\W0.500000;\T1.000000;mm}\P{\W1.000000;\T1.000000;　　　　　　　２７４０\W0.500000;\T1.000000;mm}\P{\W1.000000;\T1.000000;　　　　　　　３６６０\W0.500000;\T1.000000;mm}\P{\W1.000000;\T1.000000;　　　　
   1
　　　２０１０\W0.500000;\T1.000000;mm}\P{\W1.000000;\T1.000000;　　　　　　　３０１０\W0.500000;\T1.000000;mm}\P{\W1.000000;\T1.000000;　　　　　　　４０２０\W0.500000;\T1.000000;mm}
   7
GMM002
  44
 0.79999984000003
   0
MTEXT
   5
3DF
 100
AcDbEntity
   8
LEVEL002
 370
15
  62
8
 100
AcDbMText
  10
 177.24999999997
  20
 114.70833333333
  30
0.0
  40
 2.0000000000000
  41
0.0
  71
2
  72
1
   1
{\W1.000000;\T1.000000;アルミ\W0.500000;\T1.000000;･\W1.000000;\T1.000000;Ｙ溝レール（Ｙタイプ①）}\P{\W0.500000;\T1.000000;(\W1.000000;\T1.000000;ＦＪ型・ＹＸ型）}
   7
GMM002
  44
 0.79999984000003
   0
ENDSEC
  0
SECTION
  2
OBJECTS
  0
DICTIONARY
  5
C
100
AcDbDictionary
  3
ACAD_GROUP
350
D
  3
ACAD_MLINESTYLE
350
1B
  3
DWGPROPS
350
1C
  0
DICTIONARY
  5
D
102
{ACAD_REACTORS
330
C
102
}
100
AcDbDictionary
  0
DICTIONARY
  5
1B
102
{ACAD_REACTORS
330
C
102
}
100
AcDbDictionary
  3
STANDARD
350
1D
  0
MLINESTYLE
  5
1D
102
{ACAD_REACTORS
330
1B
102
}
100
AcDbMlineStyle
  2
STANDARD
 70
     0
  3

 62
   256
 51
90.0
 52
90.0
 71
     2
 49
0.5
 62
   256
  6
BYLAYER
 49
-0.5
 62
   256
  6
BYLAYER
   0
XRECORD
   5
1C
 102
{ACAD_REACTORS
 330
C
 102
}
 330
C
 100
AcDbXrecord
 280
1
   1
DWGPROPS COOKIE
   2
 
   3
 
   4
haruna
   6
 
   7
ﾊﾟﾙﾌﾗｯﾄﾚｰﾙ-Y溝(Yﾀｲﾌﾟ①)(Y型･FJ型
   8
haruna
   9

 300
 = 
 301
 = 
 302
 = 
 303
 = 
 304
 = 
 305
 = 
 306
 = 
 307
 = 
 308
 = 
 309
 = 
  40
0.0
  41
 2459766.5000000
  42
 2460032.5000000
   1

  90
10
   0
ENDSEC
   0
EOF
