   0
SECTION
   2
HEADER
   9
$ACADVER
   1
AC1015
   9
$DWGCODEPAGE
   3
ANSI_932
   9
$LIMMIN
  10
0.0
  20
0.0
   9
$LIMMAX
  10
 840.00000000000
  20
 594.00000000000
   9
$EXTMIN
  10
0.0
  20
0.0
  30
0.0
   9
$EXTMAX
  10
 840.00000000000
  20
 594.00000000000
  30
0.0
   9
$LTSCALE
  40
 16.800000000000
   9
$HANDSEED
   5
2B2
   0
ENDSEC
   0
SECTION
   2
TABLES
  0
TABLE
  2
VPORT
  5
8
100
AcDbSymbolTable
 70
     1
  0
VPORT
  5
2B1
100
AcDbSymbolTableRecord
100
AcDbViewportTableRecord
  2
*ACTIVE
 70
     0
 10
0.0
 20
0.0
 11
1.0
 21
1.0
  12
 420.00000000000
  22
 297.00000000000
 13
0.0
 23
0.0
 14
1.0
 24
1.0
 15
0.0
 25
0.0
 16
0.0
 26
0.0
 36
1.0
 17
0.0
 27
0.0
 37
0.0
  40
 840.00000000000
  41
 1.4787878787879
 42
50.0
 43
0.0
 44
0.0
 50
0.0
 51
0.0
 71
     0
 72
   100
 73
     1
 74
     1
 75
     0
 76
     0
 77
     0
 78
     0
  0
ENDTAB
  0
TABLE
  2
LTYPE
  5
5
100
AcDbSymbolTable
 70
    25
  0
LTYPE
  5
12
100
AcDbSymbolTableRecord
100
AcDbLinetypeTableRecord
  2
BYBLOCK
 70
     0
  3

 72
    65
 73
     0
 40
0.0
  0
LTYPE
  5
13
100
AcDbSymbolTableRecord
100
AcDbLinetypeTableRecord
  2
BYLAYER
 70
     0
  3

 72
    65
 73
     0
 40
0.0
  0
LTYPE
  5
14
100
AcDbSymbolTableRecord
100
AcDbLinetypeTableRecord
  2
CONTINUOUS
 70
     0
  3
Solid line
 72
    65
 73
     0
 40
0.0
  0
LTYPE
  5
20
100
AcDbSymbolTableRecord
100
AcDbLinetypeTableRecord
  2
BORDER
 70
     0
  3
__ __ . __ __ . __ __ . __ __ . __ __ . __ __ .
 72
    65
 73
     6
 40
1.75
 49
0.5
 74
     0
 49
-0.25
 74
     0
 49
0.5
 74
     0
 49
-0.25
 74
     0
 49
0.0
 74
     0
 49
-0.25
 74
     0
  0
LTYPE
  5
21
100
AcDbSymbolTableRecord
100
AcDbLinetypeTableRecord
  2
BORDER2
 70
     0
  3
__.__.__.__.__.__.__.__.__.__.__.__.__.__.__.__
 72
    65
 73
     6
 40
0.875
 49
0.25
 74
     0
 49
-0.125
 74
     0
 49
0.25
 74
     0
 49
-0.125
 74
     0
 49
0.0
 74
     0
 49
-0.125
 74
     0
  0
LTYPE
  5
22
100
AcDbSymbolTableRecord
100
AcDbLinetypeTableRecord
  2
BORDERX2
 70
     0
  3
____  ____  .  ____  ____  .  ____  ____  .  __
 72
    65
 73
     6
 40
3.5
 49
1.0
 74
     0
 49
-0.5
 74
     0
 49
1.0
 74
     0
 49
-0.5
 74
     0
 49
0.0
 74
     0
 49
-0.5
 74
     0
  0
LTYPE
  5
23
100
AcDbSymbolTableRecord
100
AcDbLinetypeTableRecord
  2
CENTER
 70
     0
  3
____ _ ____ _ ____ _ ____ _ ____ _ ____ _ ____ 
 72
    65
 73
     4
 40
2.0
 49
1.25
 74
     0
 49
-0.25
 74
     0
 49
0.25
 74
     0
 49
-0.25
 74
     0
  0
LTYPE
  5
24
100
AcDbSymbolTableRecord
100
AcDbLinetypeTableRecord
  2
CENTER2
 70
     0
  3
___ _ ___ _ ___ _ ___ _ ___ _ ___ _ ___ _ ___ _
 72
    65
 73
     4
 40
1.125
 49
0.75
 74
     0
 49
-0.125
 74
     0
 49
0.125
 74
     0
 49
-0.125
 74
     0
  0
LTYPE
  5
25
100
AcDbSymbolTableRecord
100
AcDbLinetypeTableRecord
  2
CENTERX2
 70
     0
  3
________  __  ________  __  ________  __  _____
 72
    65
 73
     4
 40
4.0
 49
2.5
 74
     0
 49
-0.5
 74
     0
 49
0.5
 74
     0
 49
-0.5
 74
     0
  0
LTYPE
  5
26
100
AcDbSymbolTableRecord
100
AcDbLinetypeTableRecord
  2
DASHDOT
 70
     0
  3
__ . __ . __ . __ . __ . __ . __ . __ . __ . __
 72
    65
 73
     4
 40
1.0
 49
0.5
 74
     0
 49
-0.25
 74
     0
 49
0.0
 74
     0
 49
-0.25
 74
     0
  0
LTYPE
  5
27
100
AcDbSymbolTableRecord
100
AcDbLinetypeTableRecord
  2
DASHDOT2
 70
     0
  3
_._._._._._._._._._._._._._._._._._._._._._._._
 72
    65
 73
     4
 40
0.5
 49
0.25
 74
     0
 49
-0.125
 74
     0
 49
0.0
 74
     0
 49
-0.125
 74
     0
  0
LTYPE
  5
28
100
AcDbSymbolTableRecord
100
AcDbLinetypeTableRecord
  2
DASHDOTX2
 70
     0
  3
____  .  ____  .  ____  .  ____  .  ____  .  __
 72
    65
 73
     4
 40
2.0
 49
1.0
 74
     0
 49
-0.5
 74
     0
 49
0.0
 74
     0
 49
-0.5
 74
     0
  0
LTYPE
  5
29
100
AcDbSymbolTableRecord
100
AcDbLinetypeTableRecord
  2
DASHED
 70
     0
  3
__ __ __ __ __ __ __ __ __ __ __ __ __ __ __ __
 72
    65
 73
     2
 40
0.75
 49
0.5
 74
     0
 49
-0.25
 74
     0
  0
LTYPE
  5
2A
100
AcDbSymbolTableRecord
100
AcDbLinetypeTableRecord
  2
DASHED2
 70
     0
  3
_ _ _ _ _ _ _ _ _ _ _ _ _ _ _ _ _ _ _ _ _ _ _ _
 72
    65
 73
     2
 40
0.375
 49
0.25
 74
     0
 49
-0.125
 74
     0
  0
LTYPE
  5
2B
100
AcDbSymbolTableRecord
100
AcDbLinetypeTableRecord
  2
DASHEDX2
 70
     0
  3
____  ____  ____  ____  ____  ____  ____  ____ 
 72
    65
 73
     2
 40
1.5
 49
1.0
 74
     0
 49
-0.5
 74
     0
  0
LTYPE
  5
2C
100
AcDbSymbolTableRecord
100
AcDbLinetypeTableRecord
  2
DIVIDE
 70
     0
  3
____ . . ____ . . ____ . . ____ . . ____ . . __
 72
    65
 73
     6
 40
1.25
 49
0.5
 74
     0
 49
-0.25
 74
     0
 49
0.0
 74
     0
 49
-0.25
 74
     0
 49
0.0
 74
     0
 49
-0.25
 74
     0
  0
LTYPE
  5
2D
100
AcDbSymbolTableRecord
100
AcDbLinetypeTableRecord
  2
DIVIDE2
 70
     0
  3
__..__..__..__..__..__..__..__..__..__..__..__.
 72
    65
 73
     6
 40
0.625
 49
0.25
 74
     0
 49
-0.125
 74
     0
 49
0.0
 74
     0
 49
-0.125
 74
     0
 49
0.0
 74
     0
 49
-0.125
 74
     0
  0
LTYPE
  5
2E
100
AcDbSymbolTableRecord
100
AcDbLinetypeTableRecord
  2
DIVIDEX2
 70
     0
  3
________  .  .  ________  .  .  ________  .  . 
 72
    65
 73
     6
 40
2.5
 49
1.0
 74
     0
 49
-0.5
 74
     0
 49
0.0
 74
     0
 49
-0.5
 74
     0
 49
0.0
 74
     0
 49
-0.5
 74
     0
  0
LTYPE
  5
2F
100
AcDbSymbolTableRecord
100
AcDbLinetypeTableRecord
  2
DOT
 70
     0
  3
. . . . . . . . . . . . . . . . . . . . . . . .
 72
    65
 73
     2
 40
0.25
 49
0.0
 74
     0
 49
-0.25
 74
     0
  0
LTYPE
  5
30
100
AcDbSymbolTableRecord
100
AcDbLinetypeTableRecord
  2
DOT2
 70
     0
  3
...............................................
 72
    65
 73
     2
 40
0.125
 49
0.0
 74
     0
 49
-0.125
 74
     0
  0
LTYPE
  5
31
100
AcDbSymbolTableRecord
100
AcDbLinetypeTableRecord
  2
DOTX2
 70
     0
  3
.  .  .  .  .  .  .  .  .  .  .  .  .  .  .  . 
 72
    65
 73
     2
 40
0.5
 49
0.0
 74
     0
 49
-0.5
 74
     0
  0
LTYPE
  5
32
100
AcDbSymbolTableRecord
100
AcDbLinetypeTableRecord
  2
HIDDEN
 70
     0
  3
__ __ __ __ __ __ __ __ __ __ __ __ __ __ __ __
 72
    65
 73
     2
 40
0.375
 49
0.25
 74
     0
 49
-0.125
 74
     0
  0
LTYPE
  5
33
100
AcDbSymbolTableRecord
100
AcDbLinetypeTableRecord
  2
HIDDEN2
 70
     0
  3
_ _ _ _ _ _ _ _ _ _ _ _ _ _ _ _ _ _ _ _ _ _ _ _
 72
    65
 73
     2
 40
0.1875
 49
0.125
 74
     0
 49
-0.0625
 74
     0
  0
LTYPE
  5
34
100
AcDbSymbolTableRecord
100
AcDbLinetypeTableRecord
  2
HIDDENX2
 70
     0
  3
____ ____ ____ ____ ____ ____ ____ ____ ____ __
 72
    65
 73
     2
 40
0.75
 49
0.5
 74
     0
 49
-0.25
 74
     0
  0
LTYPE
  5
35
100
AcDbSymbolTableRecord
100
AcDbLinetypeTableRecord
  2
PHANTOM
 70
     0
  3
______  __  __  ______  __  __  ______  __  __ 
 72
    65
 73
     6
 40
2.5
 49
1.25
 74
     0
 49
-0.25
 74
     0
 49
0.25
 74
     0
 49
-0.25
 74
     0
 49
0.25
 74
     0
 49
-0.25
 74
     0
  0
LTYPE
  5
36
100
AcDbSymbolTableRecord
100
AcDbLinetypeTableRecord
  2
PHANTOM2
 70
     0
  3
___ _ _ ___ _ _ ___ _ _ ___ _ _ ___ _ _ ___ _ _
 72
    65
 73
     6
 40
1.25
 49
0.625
 74
     0
 49
-0.125
 74
     0
 49
0.125
 74
     0
 49
-0.125
 74
     0
 49
0.125
 74
     0
 49
-0.125
 74
     0
  0
LTYPE
  5
37
100
AcDbSymbolTableRecord
100
AcDbLinetypeTableRecord
  2
PHANTOMX2
 70
     0
  3
____________    ____    ____    ____________   
 72
    65
 73
     6
 40
5.0
 49
2.5
 74
     0
 49
-0.5
 74
     0
 49
0.5
 74
     0
 49
-0.5
 74
     0
 49
0.5
 74
     0
 49
-0.5
 74
     0
  0
ENDTAB
   0
TABLE
   2
LAYER
   5
2
 100
AcDbSymbolTable
  70
3
   0
LAYER
   5
E
 100
AcDbSymbolTableRecord
 100
AcDbLayerTableRecord
   2
0
  70
0
  62
7
   6
CONTINUOUS
 390
30
   0
LAYER
   5
39
 100
AcDbSymbolTableRecord
 100
AcDbLayerTableRecord
   2
LEVEL001
  70
0
  62
7
   6
CONTINUOUS
 390
30
   0
LAYER
   5
3A
 100
AcDbSymbolTableRecord
 100
AcDbLayerTableRecord
   2
LEVEL002
  70
0
  62
7
   6
CONTINUOUS
 390
30
   0
ENDTAB
  0
TABLE
  2
STYLE
  5
3
100
AcDbSymbolTable
  70
5
  0
STYLE
  5
F
100
AcDbSymbolTableRecord
100
AcDbTextStyleTableRecord
  2
STANDARD
 70
     0
 40
0.0
 41
1.0
 50
0.0
 71
     0
 42
0.2
  3
TXT
  4
BIGFONT
  0
STYLE
  5
38
100
AcDbSymbolTableRecord
100
AcDbTextStyleTableRecord
  2
STANDARD1
 70
     4
 40
0.0
 41
1.0
 50
0.0
 71
     0
 42
0.2
  3
TXT
  4
BIGFONT
   0
STYLE
   5
3B
 100
AcDbSymbolTableRecord
 100
AcDbTextStyleTableRecord
   2
GMM001
  70
0
  40
0.0
  41
 1.0000000000000
  50
0.0
  71
     0
  42
1.0
   3
txt.shx
   4
bigfont.shx
   0
STYLE
   5
3C
 100
AcDbSymbolTableRecord
 100
AcDbTextStyleTableRecord
   2
GMM002
  70
0
  40
0.0
  41
 1.0714285714286
  50
0.0
  71
     0
  42
1.0
   3
txt.shx
   4
bigfont.shx
   0
STYLE
   5
3D
 100
AcDbSymbolTableRecord
 100
AcDbTextStyleTableRecord
   2
GMM003
  70
0
  40
0.0
  41
 0.80000000000000
  50
0.0
  71
     0
  42
1.0
   3
txt.shx
   4
bigfont.shx
   0
ENDTAB
  0
TABLE
  2
VIEW
  5
6
100
AcDbSymbolTable
 70
     0
  0
ENDTAB
  0
TABLE
  2
UCS
  5
7
100
AcDbSymbolTable
 70
     0
  0
ENDTAB
  0
TABLE
  2
APPID
  5
9
100
AcDbSymbolTable
 70
     1
  0
APPID
  5
10
100
AcDbSymbolTableRecord
100
AcDbRegAppTableRecord
  2
ACAD
 70
     0
  0
ENDTAB
   0
TABLE
   2
DIMSTYLE
   5
A
 100
AcDbSymbolTable
  70
7
 100
AcDbDimStyleTable
  0
DIMSTYLE
105
1D
100
AcDbSymbolTableRecord
100
AcDbDimStyleTableRecord
  2
STANDARD
 70
     0
  3

  4

  5

  6

  7

 40
1.0
 41
0.18
 42
0.0625
 43
0.38
 44
0.18
 45
0.0
 46
0.0
 47
0.0
 48
0.0
140
0.18
141
0.09
142
0.0
143
25.4
144
1.0
145
0.0
146
1.0
147
0.09
 71
     0
 72
     0
 73
     1
 74
     1
 75
     0
 76
     0
 77
     0
 78
     0
170
     0
171
     2
172
     0
173
     0
174
     0
175
     0
176
     0
177
     0
178
     0
270
     2
271
     4
272
     4
273
     2
274
     2
340
F
275
     0
280
     0
281
     0
282
     0
283
     1
284
     0
285
     0
286
     0
287
     3
288
     0
   0
DIMSTYLE
 105
3E
 100
AcDbSymbolTableRecord
 100
AcDbDimStyleTableRecord
   2
GMM001
  70
0
   3

   4

   5

   6

   7

  40
 1.0000000000000
  41
 3.0000000000000
  42
 2.0000000000000
  43
 16.000000000000
  44
 2.0000000000000
  45
0.0
  46
0.0
  47
0.0
  48
0.0
 140
 4.0000000000000
 141
 2.0000000000000
 142
0.0
 143
 0.39400000000000E-1
 144
 1.0000000000000
 145
0.0
 146
 1.2500000000000
 147
 2.0456240784108
  71
0
  72
0
  73
0
  74
0
  75
0
  76
0
  77
3
  78
8
 170
0
 171
2
 172
1
 173
1
 174
0
 175
0
 176
8
 177
8
 178
8
 270
2
 271
6
 272
0
 273
2
 274
2
 340
3B
 275
0
 280
0
 281
0
 282
0
 283
1
 284
0
 285
0
 286
0
 287
3
 288
1
   0
DIMSTYLE
 105
3F
 100
AcDbSymbolTableRecord
 100
AcDbDimStyleTableRecord
   2
GMM002
  70
0
   3

   4

   5

   6

   7

  40
 1.0000000000000
  41
 3.0000000000000
  42
 2.0000000000000
  43
 16.000000000000
  44
 2.0000000000000
  45
0.0
  46
0.0
  47
0.0
  48
0.0
 140
 4.0000000000000
 141
 2.0000000000000
 142
0.0
 143
 0.39400000000000E-1
 144
 1.0000000000000
 145
0.0
 146
 1.2500000000000
 147
 2.0000000000000
  71
0
  72
0
  73
0
  74
0
  75
0
  76
0
  77
3
  78
8
 170
0
 171
2
 172
1
 173
1
 174
0
 175
0
 176
8
 177
8
 178
8
 270
2
 271
6
 272
0
 273
2
 274
2
 340
3B
 275
0
 280
0
 281
0
 282
0
 283
1
 284
0
 285
0
 286
0
 287
3
 288
0
   0
DIMSTYLE
 105
40
 100
AcDbSymbolTableRecord
 100
AcDbDimStyleTableRecord
   2
GMM003
  70
0
   3

   4

   5

   6

   7

  40
 1.0000000000000
  41
 3.0000000000000
  42
 2.0000000000000
  43
 16.000000000000
  44
 2.0000000000000
  45
0.0
  46
0.0
  47
0.0
  48
0.0
 140
 4.0000000000000
 141
 2.0000000000000
 142
0.0
 143
 0.39400000000000E-1
 144
 1.0000000000000
 145
0.0
 146
 1.2500000000000
 147
 2.0306784496313
  71
0
  72
0
  73
0
  74
0
  75
0
  76
0
  77
3
  78
8
 170
0
 171
2
 172
1
 173
1
 174
0
 175
0
 176
8
 177
8
 178
8
 270
2
 271
6
 272
0
 273
2
 274
2
 340
3B
 275
0
 280
0
 281
0
 282
0
 283
1
 284
0
 285
0
 286
0
 287
3
 288
1
   0
DIMSTYLE
 105
41
 100
AcDbSymbolTableRecord
 100
AcDbDimStyleTableRecord
   2
GMM004
  70
0
   3

   4

   5

   6

   7

  40
 1.0000000000000
  41
 3.0000000000000
  42
 2.0000000000000
  43
 16.000000000000
  44
 2.0000000000000
  45
0.0
  46
0.0
  47
0.0
  48
0.0
 140
 4.0000000000000
 141
 2.0000000000000
 142
0.0
 143
 0.39400000000000E-1
 144
 1.0000000000000
 145
0.0
 146
 1.2500000000000
 147
0.0
  71
0
  72
0
  73
0
  74
0
  75
0
  76
0
  77
0
  78
8
 170
0
 171
2
 172
1
 173
1
 174
0
 175
0
 176
8
 177
8
 178
8
 270
2
 271
6
 272
0
 273
2
 274
2
 340
3B
 275
1
 280
0
 281
0
 282
0
 283
1
 284
0
 285
0
 286
0
 287
3
 288
0
   0
DIMSTYLE
 105
42
 100
AcDbSymbolTableRecord
 100
AcDbDimStyleTableRecord
   2
GMM005
  70
0
   3

   4

   5

   6

   7

  40
 1.0000000000000
  41
 3.0000000000000
  42
 2.0000000000000
  43
 16.000000000000
  44
 2.0000000000000
  45
0.0
  46
0.0
  47
0.0
  48
0.0
 140
 4.0000000000000
 141
 2.0000000000000
 142
0.0
 143
 0.39400000000000E-1
 144
 1.0000000000000
 145
0.0
 146
 1.2500000000000
 147
 2.1544283618787
  71
0
  72
0
  73
0
  74
0
  75
0
  76
0
  77
3
  78
8
 170
0
 171
2
 172
1
 173
1
 174
0
 175
0
 176
8
 177
8
 178
8
 270
2
 271
6
 272
0
 273
2
 274
2
 340
3B
 275
0
 280
0
 281
0
 282
0
 283
1
 284
0
 285
0
 286
0
 287
3
 288
1
   0
ENDTAB
  0
TABLE
  2
BLOCK_RECORD
  5
1
100
AcDbSymbolTable
 70
     0
  0
BLOCK_RECORD
  5
18
100
AcDbSymbolTableRecord
100
AcDbBlockTableRecord
  2
*MODEL_SPACE
  0
BLOCK_RECORD
  5
15
100
AcDbSymbolTableRecord
100
AcDbBlockTableRecord
  2
*PAPER_SPACE
   0
BLOCK_RECORD
   5
43
 100
AcDbSymbolTableRecord
 100
AcDbBlockTableRecord
   2
*D1
   0
BLOCK_RECORD
   5
44
 100
AcDbSymbolTableRecord
 100
AcDbBlockTableRecord
   2
*D2
   0
BLOCK_RECORD
   5
45
 100
AcDbSymbolTableRecord
 100
AcDbBlockTableRecord
   2
*D3
   0
BLOCK_RECORD
   5
46
 100
AcDbSymbolTableRecord
 100
AcDbBlockTableRecord
   2
*D4
   0
BLOCK_RECORD
   5
47
 100
AcDbSymbolTableRecord
 100
AcDbBlockTableRecord
   2
*D7
   0
BLOCK_RECORD
   5
48
 100
AcDbSymbolTableRecord
 100
AcDbBlockTableRecord
   2
*D8
   0
BLOCK_RECORD
   5
49
 100
AcDbSymbolTableRecord
 100
AcDbBlockTableRecord
   2
*D9
   0
BLOCK_RECORD
   5
4A
 100
AcDbSymbolTableRecord
 100
AcDbBlockTableRecord
   2
*D10
   0
BLOCK_RECORD
   5
4B
 100
AcDbSymbolTableRecord
 100
AcDbBlockTableRecord
   2
*D11
   0
BLOCK_RECORD
   5
4C
 100
AcDbSymbolTableRecord
 100
AcDbBlockTableRecord
   2
*D14
   0
BLOCK_RECORD
   5
4D
 100
AcDbSymbolTableRecord
 100
AcDbBlockTableRecord
   2
*D15
   0
BLOCK_RECORD
   5
4E
 100
AcDbSymbolTableRecord
 100
AcDbBlockTableRecord
   2
*D16
   0
BLOCK_RECORD
   5
4F
 100
AcDbSymbolTableRecord
 100
AcDbBlockTableRecord
   2
*D17
   0
BLOCK_RECORD
   5
50
 100
AcDbSymbolTableRecord
 100
AcDbBlockTableRecord
   2
*D18
   0
BLOCK_RECORD
   5
51
 100
AcDbSymbolTableRecord
 100
AcDbBlockTableRecord
   2
*D19
   0
BLOCK_RECORD
   5
52
 100
AcDbSymbolTableRecord
 100
AcDbBlockTableRecord
   2
*D20
   0
BLOCK_RECORD
   5
53
 100
AcDbSymbolTableRecord
 100
AcDbBlockTableRecord
   2
*D21
   0
BLOCK_RECORD
   5
54
 100
AcDbSymbolTableRecord
 100
AcDbBlockTableRecord
   2
*D22
   0
BLOCK_RECORD
   5
55
 100
AcDbSymbolTableRecord
 100
AcDbBlockTableRecord
   2
_ARCHTICK
   0
BLOCK_RECORD
   5
56
 100
AcDbSymbolTableRecord
 100
AcDbBlockTableRecord
   2
_BOXBLANK
   0
BLOCK_RECORD
   5
57
 100
AcDbSymbolTableRecord
 100
AcDbBlockTableRecord
   2
_BOXFILLED
   0
BLOCK_RECORD
   5
58
 100
AcDbSymbolTableRecord
 100
AcDbBlockTableRecord
   2
_CLOSED
   0
BLOCK_RECORD
   5
59
 100
AcDbSymbolTableRecord
 100
AcDbBlockTableRecord
   2
_CLOSEDBLANK
   0
BLOCK_RECORD
   5
5A
 100
AcDbSymbolTableRecord
 100
AcDbBlockTableRecord
   2
_DATUMBLANK
   0
BLOCK_RECORD
   5
5B
 100
AcDbSymbolTableRecord
 100
AcDbBlockTableRecord
   2
_DATUMFILLED
   0
BLOCK_RECORD
   5
5C
 100
AcDbSymbolTableRecord
 100
AcDbBlockTableRecord
   2
_DOT
   0
BLOCK_RECORD
   5
5D
 100
AcDbSymbolTableRecord
 100
AcDbBlockTableRecord
   2
_DOTBLANK
   0
BLOCK_RECORD
   5
5E
 100
AcDbSymbolTableRecord
 100
AcDbBlockTableRecord
   2
_DOTSMALL
   0
BLOCK_RECORD
   5
5F
 100
AcDbSymbolTableRecord
 100
AcDbBlockTableRecord
   2
_INTEGRAL
   0
BLOCK_RECORD
   5
60
 100
AcDbSymbolTableRecord
 100
AcDbBlockTableRecord
   2
_NONE
   0
BLOCK_RECORD
   5
61
 100
AcDbSymbolTableRecord
 100
AcDbBlockTableRecord
   2
_OBLIQUE
   0
BLOCK_RECORD
   5
62
 100
AcDbSymbolTableRecord
 100
AcDbBlockTableRecord
   2
_OPEN
   0
BLOCK_RECORD
   5
63
 100
AcDbSymbolTableRecord
 100
AcDbBlockTableRecord
   2
_OPEN30
   0
BLOCK_RECORD
   5
64
 100
AcDbSymbolTableRecord
 100
AcDbBlockTableRecord
   2
_OPEN90
   0
BLOCK_RECORD
   5
65
 100
AcDbSymbolTableRecord
 100
AcDbBlockTableRecord
   2
_ORIGIN
   0
ENDTAB
   0
ENDSEC
  0
SECTION
  2
BLOCKS
  0
BLOCK
  5
19
100
AcDbEntity
  8
0
100
AcDbBlockBegin
  2
*MODEL_SPACE
 70
     0
 10
0.0
 20
0.0
 30
0.0
  3
*MODEL_SPACE
  1

  0
ENDBLK
  5
1A
100
AcDbEntity
  8
0
100
AcDbBlockEnd
  0
BLOCK
  5
16
100
AcDbEntity
 67
     1
  8
0
100
AcDbBlockBegin
  2
*PAPER_SPACE
 70
     0
 10
0.0
 20
0.0
 30
0.0
  3
*PAPER_SPACE
  1

  0
ENDBLK
  5
17
100
AcDbEntity
 67
     1
  8
0
100
AcDbBlockEnd
   0
BLOCK
   5
66
 100
AcDbEntity
   8
0
 100
AcDbBlockBegin
   2
_ARCHTICK
  70
0
  10
0.0
  20
0.0
  30
0.0
   3
_ARCHTICK
   0
POLYLINE
   5
67
 100
AcDbEntity
   8
0
 370
-2
   6
BYBLOCK
  62
0
 100
AcDb2dPolyline
  66
1
  10
0.0
  20
0.0
  30
0.0
  70
1
  40
 0.15000000000000
  41
 0.15000000000000
   0
VERTEX
   5
68
 100
AcDbEntity
   8
0
   6
BYBLOCK
  62
0
 100
AcDbVertex
 100
AcDb2dVertex
  10
-0.50000000000000
  20
-0.50000000000000
  30
0.0
  40
 0.15000000000000
  41
 0.15000000000000
   0
VERTEX
   5
69
 100
AcDbEntity
   8
0
   6
BYBLOCK
  62
0
 100
AcDbVertex
 100
AcDb2dVertex
  10
 0.50000000000000
  20
 0.50000000000000
  30
0.0
  40
 0.15000000000000
  41
 0.15000000000000
   0
SEQEND
   5
6A
 100
AcDbEntity
   8
0
   6
BYBLOCK
  62
0
   0
ENDBLK
   5
6B
 100
AcDbEntity
   8
0
 100
AcDbBlockEnd
   0
BLOCK
   5
6C
 100
AcDbEntity
   8
0
 100
AcDbBlockBegin
   2
_OBLIQUE
  70
0
  10
0.0
  20
0.0
  30
0.0
   3
_OBLIQUE
   0
LINE
   5
6D
 100
AcDbEntity
   8
0
 370
-2
 100
AcDbLine
   6
BYBLOCK
  62
0
  10
-0.50000000000000
  20
-0.50000000000000
  30
0.0
  11
 0.50000000000000
  21
 0.50000000000000
  31
0.0
   0
ENDBLK
   5
6E
 100
AcDbEntity
   8
0
 100
AcDbBlockEnd
   0
BLOCK
   5
6F
 100
AcDbEntity
   8
0
 100
AcDbBlockBegin
   2
_BOXBLANK
  70
0
  10
0.0
  20
0.0
  30
0.0
   3
_BOXBLANK
   0
LINE
   5
70
 100
AcDbEntity
   8
0
 370
-2
 100
AcDbLine
   6
BYBLOCK
  62
0
  10
-0.50000000000000
  20
-0.50000000000000
  30
0.0
  11
 0.50000000000000
  21
-0.50000000000000
  31
0.0
   0
LINE
   5
71
 100
AcDbEntity
   8
0
 370
-2
 100
AcDbLine
   6
BYBLOCK
  62
0
  10
 0.50000000000000
  20
-0.50000000000000
  30
0.0
  11
 0.50000000000000
  21
 0.50000000000000
  31
0.0
   0
LINE
   5
72
 100
AcDbEntity
   8
0
 370
-2
 100
AcDbLine
   6
BYBLOCK
  62
0
  10
 0.50000000000000
  20
 0.50000000000000
  30
0.0
  11
-0.50000000000000
  21
 0.50000000000000
  31
0.0
   0
LINE
   5
73
 100
AcDbEntity
   8
0
 370
-2
 100
AcDbLine
   6
BYBLOCK
  62
0
  10
-0.50000000000000
  20
 0.50000000000000
  30
0.0
  11
-0.50000000000000
  21
-0.50000000000000
  31
0.0
   0
LINE
   5
74
 100
AcDbEntity
   8
0
 370
-2
 100
AcDbLine
   6
BYBLOCK
  62
0
  10
-0.50000000000000
  20
0.0
  30
0.0
  11
-1.0000000000000
  21
0.0
  31
0.0
   0
ENDBLK
   5
75
 100
AcDbEntity
   8
0
 100
AcDbBlockEnd
   0
BLOCK
   5
76
 100
AcDbEntity
   8
0
 100
AcDbBlockBegin
   2
_BOXFILLED
  70
0
  10
0.0
  20
0.0
  30
0.0
   3
_BOXFILLED
   0
SOLID
   5
77
 100
AcDbEntity
   8
0
 100
AcDbTrace
   6
BYBLOCK
  62
0
  10
-0.50000000000000
  20
 0.50000000000000
  30
0.0
  11
 0.50000000000000
  21
 0.50000000000000
  31
0.0
  12
-0.50000000000000
  22
-0.50000000000000
  32
0.0
  13
 0.50000000000000
  23
-0.50000000000000
  33
0.0
   0
LINE
   5
78
 100
AcDbEntity
   8
0
 370
-2
 100
AcDbLine
   6
BYBLOCK
  62
0
  10
-0.50000000000000
  20
0.0
  30
0.0
  11
-1.0000000000000
  21
0.0
  31
0.0
   0
ENDBLK
   5
79
 100
AcDbEntity
   8
0
 100
AcDbBlockEnd
   0
BLOCK
   5
7A
 100
AcDbEntity
   8
0
 100
AcDbBlockBegin
   2
_CLOSED
  70
0
  10
0.0
  20
0.0
  30
0.0
   3
_CLOSED
   0
LINE
   5
7B
 100
AcDbEntity
   8
0
 370
-2
 100
AcDbLine
   6
BYBLOCK
  62
0
  10
-1.0000000000000
  20
 0.16666666666667
  30
0.0
  11
0.0
  21
0.0
  31
0.0
   0
LINE
   5
7C
 100
AcDbEntity
   8
0
 370
-2
 100
AcDbLine
   6
BYBLOCK
  62
0
  10
0.0
  20
0.0
  30
0.0
  11
-1.0000000000000
  21
-0.16666666666667
  31
0.0
   0
LINE
   5
7D
 100
AcDbEntity
   8
0
 370
-2
 100
AcDbLine
   6
BYBLOCK
  62
0
  10
-1.0000000000000
  20
 0.16666666666667
  30
0.0
  11
-1.0000000000000
  21
-0.16666666666667
  31
0.0
   0
LINE
   5
7E
 100
AcDbEntity
   8
0
 370
-2
 100
AcDbLine
   6
BYBLOCK
  62
0
  10
0.0
  20
0.0
  30
0.0
  11
-1.0000000000000
  21
0.0
  31
0.0
   0
ENDBLK
   5
7F
 100
AcDbEntity
   8
0
 100
AcDbBlockEnd
   0
BLOCK
   5
80
 100
AcDbEntity
   8
0
 100
AcDbBlockBegin
   2
_OPEN
  70
0
  10
0.0
  20
0.0
  30
0.0
   3
_OPEN
   0
LINE
   5
81
 100
AcDbEntity
   8
0
 370
-2
 100
AcDbLine
   6
BYBLOCK
  62
0
  10
-1.0000000000000
  20
 0.16666666666667
  30
0.0
  11
0.0
  21
0.0
  31
0.0
   0
LINE
   5
82
 100
AcDbEntity
   8
0
 370
-2
 100
AcDbLine
   6
BYBLOCK
  62
0
  10
0.0
  20
0.0
  30
0.0
  11
-1.0000000000000
  21
-0.16666666666667
  31
0.0
   0
LINE
   5
83
 100
AcDbEntity
   8
0
 370
-2
 100
AcDbLine
   6
BYBLOCK
  62
0
  10
0.0
  20
0.0
  30
0.0
  11
-1.0000000000000
  21
0.0
  31
0.0
   0
ENDBLK
   5
84
 100
AcDbEntity
   8
0
 100
AcDbBlockEnd
   0
BLOCK
   5
85
 100
AcDbEntity
   8
0
 100
AcDbBlockBegin
   2
_OPEN30
  70
0
  10
0.0
  20
0.0
  30
0.0
   3
_OPEN30
   0
LINE
   5
86
 100
AcDbEntity
   8
0
 370
-2
 100
AcDbLine
   6
BYBLOCK
  62
0
  10
-1.0000000000000
  20
 0.26794919243110
  30
0.0
  11
0.0
  21
0.0
  31
0.0
   0
LINE
   5
87
 100
AcDbEntity
   8
0
 370
-2
 100
AcDbLine
   6
BYBLOCK
  62
0
  10
0.0
  20
0.0
  30
0.0
  11
-1.0000000000000
  21
-0.26794919243110
  31
0.0
   0
LINE
   5
88
 100
AcDbEntity
   8
0
 370
-2
 100
AcDbLine
   6
BYBLOCK
  62
0
  10
0.0
  20
0.0
  30
0.0
  11
-1.0000000000000
  21
0.0
  31
0.0
   0
ENDBLK
   5
89
 100
AcDbEntity
   8
0
 100
AcDbBlockEnd
   0
BLOCK
   5
8A
 100
AcDbEntity
   8
0
 100
AcDbBlockBegin
   2
_OPEN90
  70
0
  10
0.0
  20
0.0
  30
0.0
   3
_OPEN90
   0
LINE
   5
8B
 100
AcDbEntity
   8
0
 370
-2
 100
AcDbLine
   6
BYBLOCK
  62
0
  10
-0.50000000000000
  20
 0.50000000000000
  30
0.0
  11
0.0
  21
0.0
  31
0.0
   0
LINE
   5
8C
 100
AcDbEntity
   8
0
 370
-2
 100
AcDbLine
   6
BYBLOCK
  62
0
  10
0.0
  20
0.0
  30
0.0
  11
-0.50000000000000
  21
-0.50000000000000
  31
0.0
   0
LINE
   5
8D
 100
AcDbEntity
   8
0
 370
-2
 100
AcDbLine
   6
BYBLOCK
  62
0
  10
0.0
  20
0.0
  30
0.0
  11
-1.0000000000000
  21
0.0
  31
0.0
   0
ENDBLK
   5
8E
 100
AcDbEntity
   8
0
 100
AcDbBlockEnd
   0
BLOCK
   5
8F
 100
AcDbEntity
   8
0
 100
AcDbBlockBegin
   2
_CLOSEDBLANK
  70
0
  10
0.0
  20
0.0
  30
0.0
   3
_CLOSEDBLANK
   0
LINE
   5
90
 100
AcDbEntity
   8
0
 370
-2
 100
AcDbLine
   6
BYBLOCK
  62
0
  10
-1.0000000000000
  20
 0.16666666666667
  30
0.0
  11
0.0
  21
0.0
  31
0.0
   0
LINE
   5
91
 100
AcDbEntity
   8
0
 370
-2
 100
AcDbLine
   6
BYBLOCK
  62
0
  10
0.0
  20
0.0
  30
0.0
  11
-1.0000000000000
  21
-0.16666666666667
  31
0.0
   0
LINE
   5
92
 100
AcDbEntity
   8
0
 370
-2
 100
AcDbLine
   6
BYBLOCK
  62
0
  10
-1.0000000000000
  20
 0.16666666666667
  30
0.0
  11
-1.0000000000000
  21
-0.16666666666667
  31
0.0
   0
ENDBLK
   5
93
 100
AcDbEntity
   8
0
 100
AcDbBlockEnd
   0
BLOCK
   5
94
 100
AcDbEntity
   8
0
 100
AcDbBlockBegin
   2
_DOT
  70
0
  10
0.0
  20
0.0
  30
0.0
   3
_DOT
   0
POLYLINE
   5
95
 100
AcDbEntity
   8
0
 370
-2
   6
BYBLOCK
  62
0
 100
AcDb2dPolyline
  66
1
  10
0.0
  20
0.0
  30
0.0
  70
1
  40
 0.50000000000000
  41
 0.50000000000000
   0
VERTEX
   5
96
 100
AcDbEntity
   8
0
   6
BYBLOCK
  62
0
 100
AcDbVertex
 100
AcDb2dVertex
  10
-0.25000000000000
  20
0.0
  30
0.0
  42
 1.0000000000000
  40
 0.50000000000000
  41
 0.50000000000000
   0
VERTEX
   5
97
 100
AcDbEntity
   8
0
   6
BYBLOCK
  62
0
 100
AcDbVertex
 100
AcDb2dVertex
  10
 0.25000000000000
  20
0.0
  30
0.0
  42
 1.0000000000000
  40
 0.50000000000000
  41
 0.50000000000000
   0
SEQEND
   5
98
 100
AcDbEntity
   8
0
   6
BYBLOCK
  62
0
   0
LINE
   5
99
 100
AcDbEntity
   8
0
 370
-2
 100
AcDbLine
   6
BYBLOCK
  62
0
  10
-0.50000000000000
  20
0.0
  30
0.0
  11
-1.0000000000000
  21
0.0
  31
0.0
   0
ENDBLK
   5
9A
 100
AcDbEntity
   8
0
 100
AcDbBlockEnd
   0
BLOCK
   5
9B
 100
AcDbEntity
   8
0
 100
AcDbBlockBegin
   2
_DOTSMALL
  70
0
  10
0.0
  20
0.0
  30
0.0
   3
_DOTSMALL
   0
POLYLINE
   5
9C
 100
AcDbEntity
   8
0
 370
-2
   6
BYBLOCK
  62
0
 100
AcDb2dPolyline
  66
1
  10
0.0
  20
0.0
  30
0.0
  70
1
  40
 0.50000000000000
  41
 0.50000000000000
   0
VERTEX
   5
9D
 100
AcDbEntity
   8
0
   6
BYBLOCK
  62
0
 100
AcDbVertex
 100
AcDb2dVertex
  10
-0.62500000000000E-1
  20
0.0
  30
0.0
  42
 1.0000000000000
  40
 0.50000000000000
  41
 0.50000000000000
   0
VERTEX
   5
9E
 100
AcDbEntity
   8
0
   6
BYBLOCK
  62
0
 100
AcDbVertex
 100
AcDb2dVertex
  10
 0.62500000000000E-1
  20
0.0
  30
0.0
  42
 1.0000000000000
  40
 0.50000000000000
  41
 0.50000000000000
   0
SEQEND
   5
9F
 100
AcDbEntity
   8
0
   6
BYBLOCK
  62
0
   0
ENDBLK
   5
A0
 100
AcDbEntity
   8
0
 100
AcDbBlockEnd
   0
BLOCK
   5
A1
 100
AcDbEntity
   8
0
 100
AcDbBlockBegin
   2
_DATUMBLANK
  70
0
  10
0.0
  20
0.0
  30
0.0
   3
_DATUMBLANK
   0
LINE
   5
A2
 100
AcDbEntity
   8
0
 370
-2
 100
AcDbLine
   6
BYBLOCK
  62
0
  10
0.0
  20
 0.57735027000000
  30
0.0
  11
-1.0000000000000
  21
0.0
  31
0.0
   0
LINE
   5
A3
 100
AcDbEntity
   8
0
 370
-2
 100
AcDbLine
   6
BYBLOCK
  62
0
  10
-1.0000000000000
  20
0.0
  30
0.0
  11
0.0
  21
-0.57735027000000
  31
0.0
   0
LINE
   5
A4
 100
AcDbEntity
   8
0
 370
-2
 100
AcDbLine
   6
BYBLOCK
  62
0
  10
0.0
  20
-0.57735027000000
  30
0.0
  11
0.0
  21
 0.57735027000000
  31
0.0
   0
ENDBLK
   5
A5
 100
AcDbEntity
   8
0
 100
AcDbBlockEnd
   0
BLOCK
   5
A6
 100
AcDbEntity
   8
0
 100
AcDbBlockBegin
   2
_DATUMFILLED
  70
0
  10
0.0
  20
0.0
  30
0.0
   3
_DATUMFILLED
   0
SOLID
   5
A7
 100
AcDbEntity
   8
0
 100
AcDbTrace
   6
BYBLOCK
  62
0
  10
0.0
  20
 0.57735027000000
  30
0.0
  11
-1.0000000000000
  21
0.0
  31
0.0
  12
0.0
  22
-0.57735027000000
  32
0.0
  13
0.0
  23
-0.57735027000000
  33
0.0
   0
ENDBLK
   5
A8
 100
AcDbEntity
   8
0
 100
AcDbBlockEnd
   0
BLOCK
   5
A9
 100
AcDbEntity
   8
0
 100
AcDbBlockBegin
   2
_ORIGIN
  70
0
  10
0.0
  20
0.0
  30
0.0
   3
_ORIGIN
   0
CIRCLE
   5
AA
 100
AcDbEntity
   8
0
 370
-2
 100
AcDbCircle
   6
BYBLOCK
  62
0
  10
0.0
  20
0.0
  30
0.0
  40
 0.50000000000000
   0
LINE
   5
AB
 100
AcDbEntity
   8
0
 370
-2
 100
AcDbLine
   6
BYBLOCK
  62
0
  10
0.0
  20
0.0
  30
0.0
  11
-1.0000000000000
  21
0.0
  31
0.0
   0
ENDBLK
   5
AC
 100
AcDbEntity
   8
0
 100
AcDbBlockEnd
   0
BLOCK
   5
AD
 100
AcDbEntity
   8
0
 100
AcDbBlockBegin
   2
_NONE
  70
0
  10
0.0
  20
0.0
  30
0.0
   3
_NONE
   0
CIRCLE
   5
AE
 100
AcDbEntity
   8
0
 370
-2
 100
AcDbCircle
   6
BYBLOCK
  62
0
  10
0.0
  20
0.0
  30
0.0
  40
 0.25000000000000
   0
ENDBLK
   5
AF
 100
AcDbEntity
   8
0
 100
AcDbBlockEnd
   0
BLOCK
   5
B0
 100
AcDbEntity
   8
0
 100
AcDbBlockBegin
   2
_DOTBLANK
  70
0
  10
0.0
  20
0.0
  30
0.0
   3
_DOTBLANK
   0
CIRCLE
   5
B1
 100
AcDbEntity
   8
0
 370
-2
 100
AcDbCircle
   6
BYBLOCK
  62
0
  10
0.0
  20
0.0
  30
0.0
  40
 0.50000000000000
   0
LINE
   5
B2
 100
AcDbEntity
   8
0
 370
-2
 100
AcDbLine
   6
BYBLOCK
  62
0
  10
-0.50000000000000
  20
0.0
  30
0.0
  11
-1.0000000000000
  21
0.0
  31
0.0
   0
ENDBLK
   5
B3
 100
AcDbEntity
   8
0
 100
AcDbBlockEnd
   0
BLOCK
   5
B4
 100
AcDbEntity
   8
0
 100
AcDbBlockBegin
   2
_INTEGRAL
  70
0
  10
0.0
  20
0.0
  30
0.0
   3
_INTEGRAL
   0
ARC
   5
B5
 100
AcDbEntity
   8
0
 370
-2
   6
BYBLOCK
  62
0
 100
AcDbCircle
  10
 0.44488800000000
  20
-0.91335000000000E-1
  30
0.0
  40
 0.45416700000000
 100
AcDbArc
  50
 102.00000000000
  51
 168.00000000000
   0
ARC
   5
B6
 100
AcDbEntity
   8
0
 370
-2
   6
BYBLOCK
  62
0
 100
AcDbCircle
  10
-0.44488800000000
  20
 0.91335000000000E-1
  30
0.0
  40
 0.45416700000000
 100
AcDbArc
  50
 282.00000000000
  51
 348.00000000000
   0
ENDBLK
   5
B7
 100
AcDbEntity
   8
0
 100
AcDbBlockEnd
   0
BLOCK
   5
B8
 100
AcDbEntity
   8
0
 100
AcDbBlockBegin
   2
*D1
  70
65
  10
0.0
  20
0.0
  30
0.0
   3
*D1
   0
LINE
   5
B9
 100
AcDbEntity
   8
LEVEL001
 370
15
 100
AcDbLine
   6
CONTINUOUS
  62
8
  10
 105.24999999996
  20
 476.37973827182
  30
0.0
  11
 112.84000382311
  21
 476.37973827182
  31
0.0
   0
LINE
   5
BA
 100
AcDbEntity
   8
LEVEL001
 370
15
 100
AcDbLine
   6
CONTINUOUS
  62
8
  10
 110.84000382311
  20
 472.62973827182
  30
0.0
  11
 110.84000382311
  21
 477.77973827182
  31
0.0
   0
LINE
   5
BB
 100
AcDbEntity
   8
LEVEL001
 370
15
 100
AcDbLine
   6
CONTINUOUS
  62
8
  10
 110.84000382311
  20
 491.54093878006
  30
0.0
  11
 110.84000382311
  21
 477.77973827182
  31
0.0
   0
SOLID
   5
BC
 100
AcDbEntity
   8
LEVEL001
 100
AcDbTrace
   6
CONTINUOUS
  62
8
  10
 110.84000382311
  20
 476.37973827182
  30
0.0
  11
 110.31102288098
  21
 473.37973827182
  31
0.0
  12
 111.36898476523
  22
 473.37973827182
  32
0.0
  13
 111.36898476523
  23
 473.37973827182
  33
0.0
   0
SOLID
   5
BD
 100
AcDbEntity
   8
LEVEL001
 100
AcDbTrace
   6
CONTINUOUS
  62
8
  10
 110.84000382311
  20
 479.17973827182
  30
0.0
  11
 111.36898476523
  21
 482.17973827182
  31
0.0
  12
 110.31102288098
  22
 482.17973827182
  32
0.0
  13
 110.31102288098
  23
 482.17973827182
  33
0.0
   0
MTEXT
   5
BE
 100
AcDbEntity
   8
LEVEL001
 370
15
  62
8
 100
AcDbMText
  10
 108.79437974470
  20
 483.04093878006
  30
0.0
  40
 4.0000000000000
  41
0.0
  71
7
  72
1
   1
\A1;2.8
   7
GMM001
  11
0.0
  21
 1.0000000000000
  31
0.0
   0
ENDBLK
   5
BF
 100
AcDbEntity
   8
0
 100
AcDbBlockEnd
   0
BLOCK
   5
C0
 100
AcDbEntity
   8
0
 100
AcDbBlockBegin
   2
*D2
  70
65
  10
0.0
  20
0.0
  30
0.0
   3
*D2
   0
LINE
   5
C1
 100
AcDbEntity
   8
LEVEL001
 370
15
 100
AcDbLine
   6
CONTINUOUS
  62
8
  10
 83.249999999958
  20
 479.37973827182
  30
0.0
  11
 83.249999999958
  21
 491.17973827182
  31
0.0
   0
LINE
   5
C2
 100
AcDbEntity
   8
LEVEL001
 370
15
 100
AcDbLine
   6
CONTINUOUS
  62
8
  10
 103.24999999996
  20
 484.57840177103
  30
0.0
  11
 103.24999999996
  21
 491.17973827182
  31
0.0
   0
LINE
   5
C3
 100
AcDbEntity
   8
LEVEL001
 370
15
 100
AcDbLine
   6
CONTINUOUS
  62
8
  10
 83.249999999958
  20
 489.17973827182
  30
0.0
  11
 93.249999999958
  21
 489.17973827182
  31
0.0
   0
LINE
   5
C4
 100
AcDbEntity
   8
LEVEL001
 370
15
 100
AcDbLine
   6
CONTINUOUS
  62
8
  10
 103.24999999996
  20
 489.17973827182
  30
0.0
  11
 93.249999999958
  21
 489.17973827182
  31
0.0
   0
SOLID
   5
C5
 100
AcDbEntity
   8
LEVEL001
 100
AcDbTrace
   6
CONTINUOUS
  62
8
  10
 83.249999999958
  20
 489.17973827182
  30
0.0
  11
 86.249999999958
  21
 488.65075732970
  31
0.0
  12
 86.249999999958
  22
 489.70871921395
  32
0.0
  13
 86.249999999958
  23
 489.70871921395
  33
0.0
   0
SOLID
   5
C6
 100
AcDbEntity
   8
LEVEL001
 100
AcDbTrace
   6
CONTINUOUS
  62
8
  10
 103.24999999996
  20
 489.17973827182
  30
0.0
  11
 100.24999999996
  21
 489.70871921395
  31
0.0
  12
 100.24999999996
  22
 488.65075732970
  32
0.0
  13
 100.24999999996
  23
 488.65075732970
  33
0.0
   0
MTEXT
   5
C7
 100
AcDbEntity
   8
LEVEL001
 370
15
  62
8
 100
AcDbMText
  10
 93.249999999958
  20
 491.17973827182
  30
0.0
  40
 4.0000000000000
  41
0.0
  71
8
  72
1
   1
\A1;20
   7
GMM001
   0
ENDBLK
   5
C8
 100
AcDbEntity
   8
0
 100
AcDbBlockEnd
   0
BLOCK
   5
C9
 100
AcDbEntity
   8
0
 100
AcDbBlockBegin
   2
*D3
  70
65
  10
0.0
  20
0.0
  30
0.0
   3
*D3
   0
LINE
   5
CA
 100
AcDbEntity
   8
LEVEL001
 370
15
 100
AcDbLine
   6
CONTINUOUS
  62
8
  10
 83.249999999958
  20
 478.28609634610
  30
0.0
  11
 83.249999999958
  21
 501.17973827182
  31
0.0
   0
LINE
   5
CB
 100
AcDbEntity
   8
LEVEL001
 370
15
 100
AcDbLine
   6
CONTINUOUS
  62
8
  10
 123.24999999996
  20
 478.28609634610
  30
0.0
  11
 123.24999999996
  21
 501.17973827182
  31
0.0
   0
LINE
   5
CC
 100
AcDbEntity
   8
LEVEL001
 370
15
 100
AcDbLine
   6
CONTINUOUS
  62
8
  10
 83.249999999958
  20
 499.17973827182
  30
0.0
  11
 103.24999999996
  21
 499.17973827182
  31
0.0
   0
LINE
   5
CD
 100
AcDbEntity
   8
LEVEL001
 370
15
 100
AcDbLine
   6
CONTINUOUS
  62
8
  10
 123.24999999996
  20
 499.17973827182
  30
0.0
  11
 103.24999999996
  21
 499.17973827182
  31
0.0
   0
SOLID
   5
CE
 100
AcDbEntity
   8
LEVEL001
 100
AcDbTrace
   6
CONTINUOUS
  62
8
  10
 83.249999999958
  20
 499.17973827182
  30
0.0
  11
 86.249999999958
  21
 498.65075732970
  31
0.0
  12
 86.249999999958
  22
 499.70871921395
  32
0.0
  13
 86.249999999958
  23
 499.70871921395
  33
0.0
   0
SOLID
   5
CF
 100
AcDbEntity
   8
LEVEL001
 100
AcDbTrace
   6
CONTINUOUS
  62
8
  10
 123.24999999996
  20
 499.17973827182
  30
0.0
  11
 120.24999999996
  21
 499.70871921395
  31
0.0
  12
 120.24999999996
  22
 498.65075732970
  32
0.0
  13
 120.24999999996
  23
 498.65075732970
  33
0.0
   0
MTEXT
   5
D0
 100
AcDbEntity
   8
LEVEL001
 370
15
  62
8
 100
AcDbMText
  10
 103.24999999996
  20
 501.17973827182
  30
0.0
  40
 4.0000000000000
  41
0.0
  71
8
  72
1
   1
\A1;40
   7
GMM001
   0
ENDBLK
   5
D1
 100
AcDbEntity
   8
0
 100
AcDbBlockEnd
   0
BLOCK
   5
D2
 100
AcDbEntity
   8
0
 100
AcDbBlockBegin
   2
*D4
  70
65
  10
0.0
  20
0.0
  30
0.0
   3
*D4
   0
LINE
   5
D3
 100
AcDbEntity
   8
LEVEL001
 370
15
 100
AcDbLine
   6
CONTINUOUS
  62
8
  10
 83.049999999958
  20
 475.57973827183
  30
0.0
  11
 76.249999999958
  21
 475.57973827183
  31
0.0
   0
LINE
   5
D4
 100
AcDbEntity
   8
LEVEL001
 370
15
 100
AcDbLine
   6
CONTINUOUS
  62
8
  10
 83.049999999958
  20
 479.17973827182
  30
0.0
  11
 76.249999999958
  21
 479.17973827182
  31
0.0
   0
LINE
   5
D5
 100
AcDbEntity
   8
LEVEL001
 370
15
 100
AcDbLine
   6
CONTINUOUS
  62
8
  10
 78.249999999958
  20
 471.82973827183
  30
0.0
  11
 78.249999999958
  21
 477.37973827182
  31
0.0
   0
LINE
   5
D6
 100
AcDbEntity
   8
LEVEL001
 370
15
 100
AcDbLine
   6
CONTINUOUS
  62
8
  10
 78.249999999958
  20
 489.75483417429
  30
0.0
  11
 78.249999999958
  21
 477.37973827182
  31
0.0
   0
SOLID
   5
D7
 100
AcDbEntity
   8
LEVEL001
 100
AcDbTrace
   6
CONTINUOUS
  62
8
  10
 78.249999999958
  20
 475.57973827183
  30
0.0
  11
 77.721019057833
  21
 472.57973827183
  31
0.0
  12
 78.778980942084
  22
 472.57973827183
  32
0.0
  13
 78.778980942084
  23
 472.57973827183
  33
0.0
   0
SOLID
   5
D8
 100
AcDbEntity
   8
LEVEL001
 100
AcDbTrace
   6
CONTINUOUS
  62
8
  10
 78.249999999958
  20
 479.17973827182
  30
0.0
  11
 78.778980942084
  21
 482.17973827182
  31
0.0
  12
 77.721019057833
  22
 482.17973827182
  32
0.0
  13
 77.721019057833
  23
 482.17973827182
  33
0.0
   0
MTEXT
   5
D9
 100
AcDbEntity
   8
LEVEL001
 370
15
  62
8
 100
AcDbMText
  10
 76.219321550327
  20
 481.25483417429
  30
0.0
  40
 4.0000000000000
  41
0.0
  71
7
  72
1
   1
\A1;3.6
   7
GMM001
  11
0.0
  21
 1.0000000000000
  31
0.0
   0
ENDBLK
   5
DA
 100
AcDbEntity
   8
0
 100
AcDbBlockEnd
   0
BLOCK
   5
DB
 100
AcDbEntity
   8
0
 100
AcDbBlockBegin
   2
*D7
  70
65
  10
0.0
  20
0.0
  30
0.0
   3
*D7
   0
LINE
   5
DC
 100
AcDbEntity
   8
LEVEL001
 370
15
 100
AcDbLine
   6
CONTINUOUS
  62
8
  10
 267.74999999998
  20
 476.37973827183
  30
0.0
  11
 275.34000382313
  21
 476.37973827183
  31
0.0
   0
LINE
   5
DD
 100
AcDbEntity
   8
LEVEL001
 370
15
 100
AcDbLine
   6
CONTINUOUS
  62
8
  10
 273.34000382313
  20
 472.62973827183
  30
0.0
  11
 273.34000382313
  21
 477.77973827182
  31
0.0
   0
LINE
   5
DE
 100
AcDbEntity
   8
LEVEL001
 370
15
 100
AcDbLine
   6
CONTINUOUS
  62
8
  10
 273.34000382313
  20
 491.54093878006
  30
0.0
  11
 273.34000382313
  21
 477.77973827182
  31
0.0
   0
SOLID
   5
DF
 100
AcDbEntity
   8
LEVEL001
 100
AcDbTrace
   6
CONTINUOUS
  62
8
  10
 273.34000382313
  20
 476.37973827183
  30
0.0
  11
 272.81102288100
  21
 473.37973827183
  31
0.0
  12
 273.86898476526
  22
 473.37973827183
  32
0.0
  13
 273.86898476526
  23
 473.37973827183
  33
0.0
   0
SOLID
   5
E0
 100
AcDbEntity
   8
LEVEL001
 100
AcDbTrace
   6
CONTINUOUS
  62
8
  10
 273.34000382313
  20
 479.17973827182
  30
0.0
  11
 273.86898476526
  21
 482.17973827182
  31
0.0
  12
 272.81102288100
  22
 482.17973827182
  32
0.0
  13
 272.81102288100
  23
 482.17973827182
  33
0.0
   0
MTEXT
   5
E1
 100
AcDbEntity
   8
LEVEL001
 370
15
  62
8
 100
AcDbMText
  10
 271.29437974472
  20
 483.04093878006
  30
0.0
  40
 4.0000000000000
  41
0.0
  71
7
  72
1
   1
\A1;2.8
   7
GMM001
  11
0.0
  21
 1.0000000000000
  31
0.0
   0
ENDBLK
   5
E2
 100
AcDbEntity
   8
0
 100
AcDbBlockEnd
   0
BLOCK
   5
E3
 100
AcDbEntity
   8
0
 100
AcDbBlockBegin
   2
*D8
  70
65
  10
0.0
  20
0.0
  30
0.0
   3
*D8
   0
LINE
   5
E4
 100
AcDbEntity
   8
LEVEL001
 370
15
 100
AcDbLine
   6
CONTINUOUS
  62
8
  10
 197.54999999998
  20
 475.57973827183
  30
0.0
  11
 190.74999999998
  21
 475.57973827183
  31
0.0
   0
LINE
   5
E5
 100
AcDbEntity
   8
LEVEL001
 370
15
 100
AcDbLine
   6
CONTINUOUS
  62
8
  10
 197.54999999998
  20
 479.17973827182
  30
0.0
  11
 190.74999999998
  21
 479.17973827182
  31
0.0
   0
LINE
   5
E6
 100
AcDbEntity
   8
LEVEL001
 370
15
 100
AcDbLine
   6
CONTINUOUS
  62
8
  10
 192.74999999998
  20
 471.82973827183
  30
0.0
  11
 192.74999999998
  21
 477.37973827182
  31
0.0
   0
LINE
   5
E7
 100
AcDbEntity
   8
LEVEL001
 370
15
 100
AcDbLine
   6
CONTINUOUS
  62
8
  10
 192.74999999998
  20
 489.57164395831
  30
0.0
  11
 192.74999999998
  21
 477.37973827182
  31
0.0
   0
SOLID
   5
E8
 100
AcDbEntity
   8
LEVEL001
 100
AcDbTrace
   6
CONTINUOUS
  62
8
  10
 192.74999999998
  20
 475.57973827183
  30
0.0
  11
 192.22101905786
  21
 472.57973827183
  31
0.0
  12
 193.27898094211
  22
 472.57973827183
  32
0.0
  13
 193.27898094211
  23
 472.57973827183
  33
0.0
   0
SOLID
   5
E9
 100
AcDbEntity
   8
LEVEL001
 100
AcDbTrace
   6
CONTINUOUS
  62
8
  10
 192.74999999998
  20
 479.17973827182
  30
0.0
  11
 193.27898094211
  21
 482.17973827182
  31
0.0
  12
 192.22101905786
  22
 482.17973827182
  32
0.0
  13
 192.22101905786
  23
 482.17973827182
  33
0.0
   0
MTEXT
   5
EA
 100
AcDbEntity
   8
LEVEL001
 370
15
  62
8
 100
AcDbMText
  10
 190.59557163810
  20
 481.07164395831
  30
0.0
  40
 4.0000000000000
  41
0.0
  71
7
  72
1
   1
\A1;3.6
   7
GMM001
  11
0.0
  21
 1.0000000000000
  31
0.0
   0
ENDBLK
   5
EB
 100
AcDbEntity
   8
0
 100
AcDbBlockEnd
   0
BLOCK
   5
EC
 100
AcDbEntity
   8
0
 100
AcDbBlockBegin
   2
*D9
  70
65
  10
0.0
  20
0.0
  30
0.0
   3
*D9
   0
LINE
   5
ED
 100
AcDbEntity
   8
LEVEL001
 370
15
 100
AcDbLine
   6
CONTINUOUS
  62
8
  10
 197.74999999998
  20
 479.28609634610
  30
0.0
  11
 197.74999999998
  21
 491.17973827182
  31
0.0
   0
LINE
   5
EE
 100
AcDbEntity
   8
LEVEL001
 370
15
 100
AcDbLine
   6
CONTINUOUS
  62
8
  10
 197.74999999998
  20
 489.17973827182
  30
0.0
  11
 213.74999999998
  21
 489.17973827182
  31
0.0
   0
LINE
   5
EF
 100
AcDbEntity
   8
LEVEL001
 370
15
 100
AcDbLine
   6
CONTINUOUS
  62
8
  10
 229.74999999998
  20
 489.17973827182
  30
0.0
  11
 213.74999999998
  21
 489.17973827182
  31
0.0
   0
SOLID
   5
F0
 100
AcDbEntity
   8
LEVEL001
 100
AcDbTrace
   6
CONTINUOUS
  62
8
  10
 197.74999999998
  20
 489.17973827182
  30
0.0
  11
 200.74999999998
  21
 488.65075732970
  31
0.0
  12
 200.74999999998
  22
 489.70871921395
  32
0.0
  13
 200.74999999998
  23
 489.70871921395
  33
0.0
   0
SOLID
   5
F1
 100
AcDbEntity
   8
LEVEL001
 100
AcDbTrace
   6
CONTINUOUS
  62
8
  10
 229.74999999998
  20
 489.17973827182
  30
0.0
  11
 226.74999999998
  21
 489.70871921395
  31
0.0
  12
 226.74999999998
  22
 488.65075732970
  32
0.0
  13
 226.74999999998
  23
 488.65075732970
  33
0.0
   0
MTEXT
   5
F2
 100
AcDbEntity
   8
LEVEL001
 370
15
  62
8
 100
AcDbMText
  10
 213.74999999998
  20
 491.17973827182
  30
0.0
  40
 4.0000000000000
  41
0.0
  71
8
  72
1
   1
\A1;32
   7
GMM001
   0
ENDBLK
   5
F3
 100
AcDbEntity
   8
0
 100
AcDbBlockEnd
   0
BLOCK
   5
F4
 100
AcDbEntity
   8
0
 100
AcDbBlockBegin
   2
*D10
  70
65
  10
0.0
  20
0.0
  30
0.0
   3
*D10
   0
LINE
   5
F5
 100
AcDbEntity
   8
LEVEL001
 370
15
 100
AcDbLine
   6
CONTINUOUS
  62
8
  10
 229.74999999998
  20
 484.57840177103
  30
0.0
  11
 229.74999999998
  21
 491.17973827182
  31
0.0
   0
LINE
   5
F6
 100
AcDbEntity
   8
LEVEL001
 370
15
 100
AcDbLine
   6
CONTINUOUS
  62
8
  10
 265.74999999998
  20
 484.57840177103
  30
0.0
  11
 265.74999999998
  21
 491.17973827182
  31
0.0
   0
LINE
   5
F7
 100
AcDbEntity
   8
LEVEL001
 370
15
 100
AcDbLine
   6
CONTINUOUS
  62
8
  10
 229.74999999998
  20
 489.17973827182
  30
0.0
  11
 247.74999999998
  21
 489.17973827182
  31
0.0
   0
LINE
   5
F8
 100
AcDbEntity
   8
LEVEL001
 370
15
 100
AcDbLine
   6
CONTINUOUS
  62
8
  10
 265.74999999998
  20
 489.17973827182
  30
0.0
  11
 247.74999999998
  21
 489.17973827182
  31
0.0
   0
SOLID
   5
F9
 100
AcDbEntity
   8
LEVEL001
 100
AcDbTrace
   6
CONTINUOUS
  62
8
  10
 229.74999999998
  20
 489.17973827182
  30
0.0
  11
 232.74999999998
  21
 488.65075732970
  31
0.0
  12
 232.74999999998
  22
 489.70871921395
  32
0.0
  13
 232.74999999998
  23
 489.70871921395
  33
0.0
   0
SOLID
   5
FA
 100
AcDbEntity
   8
LEVEL001
 100
AcDbTrace
   6
CONTINUOUS
  62
8
  10
 265.74999999998
  20
 489.17973827182
  30
0.0
  11
 262.74999999998
  21
 489.70871921395
  31
0.0
  12
 262.74999999998
  22
 488.65075732970
  32
0.0
  13
 262.74999999998
  23
 488.65075732970
  33
0.0
   0
MTEXT
   5
FB
 100
AcDbEntity
   8
LEVEL001
 370
15
  62
8
 100
AcDbMText
  10
 247.74999999998
  20
 491.17973827182
  30
0.0
  40
 4.0000000000000
  41
0.0
  71
8
  72
1
   1
\A1;36
   7
GMM001
   0
ENDBLK
   5
FC
 100
AcDbEntity
   8
0
 100
AcDbBlockEnd
   0
BLOCK
   5
FD
 100
AcDbEntity
   8
0
 100
AcDbBlockBegin
   2
*D11
  70
65
  10
0.0
  20
0.0
  30
0.0
   3
*D11
   0
LINE
   5
FE
 100
AcDbEntity
   8
LEVEL001
 370
15
 100
AcDbLine
   6
CONTINUOUS
  62
8
  10
 197.74999999998
  20
 478.28609634610
  30
0.0
  11
 197.74999999998
  21
 501.17973827182
  31
0.0
   0
LINE
   5
FF
 100
AcDbEntity
   8
LEVEL001
 370
15
 100
AcDbLine
   6
CONTINUOUS
  62
8
  10
 297.74999999998
  20
 478.28609634610
  30
0.0
  11
 297.74999999998
  21
 501.17973827182
  31
0.0
   0
LINE
   5
100
 100
AcDbEntity
   8
LEVEL001
 370
15
 100
AcDbLine
   6
CONTINUOUS
  62
8
  10
 197.74999999998
  20
 499.17973827182
  30
0.0
  11
 247.74999999998
  21
 499.17973827182
  31
0.0
   0
LINE
   5
101
 100
AcDbEntity
   8
LEVEL001
 370
15
 100
AcDbLine
   6
CONTINUOUS
  62
8
  10
 297.74999999998
  20
 499.17973827182
  30
0.0
  11
 247.74999999998
  21
 499.17973827182
  31
0.0
   0
SOLID
   5
102
 100
AcDbEntity
   8
LEVEL001
 100
AcDbTrace
   6
CONTINUOUS
  62
8
  10
 197.74999999998
  20
 499.17973827182
  30
0.0
  11
 200.74999999998
  21
 498.65075732970
  31
0.0
  12
 200.74999999998
  22
 499.70871921395
  32
0.0
  13
 200.74999999998
  23
 499.70871921395
  33
0.0
   0
SOLID
   5
103
 100
AcDbEntity
   8
LEVEL001
 100
AcDbTrace
   6
CONTINUOUS
  62
8
  10
 297.74999999998
  20
 499.17973827182
  30
0.0
  11
 294.74999999998
  21
 499.70871921395
  31
0.0
  12
 294.74999999998
  22
 498.65075732970
  32
0.0
  13
 294.74999999998
  23
 498.65075732970
  33
0.0
   0
MTEXT
   5
104
 100
AcDbEntity
   8
LEVEL001
 370
15
  62
8
 100
AcDbMText
  10
 247.74999999998
  20
 501.17973827182
  30
0.0
  40
 4.0000000000000
  41
0.0
  71
8
  72
1
   1
\A1;100
   7
GMM001
   0
ENDBLK
   5
105
 100
AcDbEntity
   8
0
 100
AcDbBlockEnd
   0
BLOCK
   5
106
 100
AcDbEntity
   8
0
 100
AcDbBlockBegin
   2
*D14
  70
65
  10
0.0
  20
0.0
  30
0.0
   3
*D14
   0
LINE
   5
107
 100
AcDbEntity
   8
LEVEL001
 370
15
 100
AcDbLine
   6
CONTINUOUS
  62
8
  10
 105.24999999996
  20
 208.37973827188
  30
0.0
  11
 112.84000382311
  21
 208.37973827188
  31
0.0
   0
LINE
   5
108
 100
AcDbEntity
   8
LEVEL001
 370
15
 100
AcDbLine
   6
CONTINUOUS
  62
8
  10
 110.84000382311
  20
 204.62973827188
  30
0.0
  11
 110.84000382311
  21
 209.77973827188
  31
0.0
   0
LINE
   5
109
 100
AcDbEntity
   8
LEVEL001
 370
15
 100
AcDbLine
   6
CONTINUOUS
  62
8
  10
 110.84000382311
  20
 223.54093878012
  30
0.0
  11
 110.84000382311
  21
 209.77973827188
  31
0.0
   0
SOLID
   5
10A
 100
AcDbEntity
   8
LEVEL001
 100
AcDbTrace
   6
CONTINUOUS
  62
8
  10
 110.84000382311
  20
 208.37973827188
  30
0.0
  11
 110.31102288098
  21
 205.37973827188
  31
0.0
  12
 111.36898476523
  22
 205.37973827188
  32
0.0
  13
 111.36898476523
  23
 205.37973827188
  33
0.0
   0
SOLID
   5
10B
 100
AcDbEntity
   8
LEVEL001
 100
AcDbTrace
   6
CONTINUOUS
  62
8
  10
 110.84000382311
  20
 211.17973827188
  30
0.0
  11
 111.36898476523
  21
 214.17973827188
  31
0.0
  12
 110.31102288098
  22
 214.17973827188
  32
0.0
  13
 110.31102288098
  23
 214.17973827188
  33
0.0
   0
MTEXT
   5
10C
 100
AcDbEntity
   8
LEVEL001
 370
15
  62
8
 100
AcDbMText
  10
 108.79437974470
  20
 215.04093878012
  30
0.0
  40
 4.0000000000000
  41
0.0
  71
7
  72
1
   1
\A1;2.8
   7
GMM001
  11
0.0
  21
 1.0000000000000
  31
0.0
   0
ENDBLK
   5
10D
 100
AcDbEntity
   8
0
 100
AcDbBlockEnd
   0
BLOCK
   5
10E
 100
AcDbEntity
   8
0
 100
AcDbBlockBegin
   2
*D15
  70
65
  10
0.0
  20
0.0
  30
0.0
   3
*D15
   0
LINE
   5
10F
 100
AcDbEntity
   8
LEVEL001
 370
15
 100
AcDbLine
   6
CONTINUOUS
  62
8
  10
 83.049999999958
  20
 207.57973827188
  30
0.0
  11
 76.249999999958
  21
 207.57973827188
  31
0.0
   0
LINE
   5
110
 100
AcDbEntity
   8
LEVEL001
 370
15
 100
AcDbLine
   6
CONTINUOUS
  62
8
  10
 86.709406921946
  20
 211.17973827188
  30
0.0
  11
 76.249999999958
  21
 211.17973827188
  31
0.0
   0
LINE
   5
111
 100
AcDbEntity
   8
LEVEL001
 370
15
 100
AcDbLine
   6
CONTINUOUS
  62
8
  10
 78.249999999958
  20
 203.82973827188
  30
0.0
  11
 78.249999999958
  21
 209.37973827188
  31
0.0
   0
LINE
   5
112
 100
AcDbEntity
   8
LEVEL001
 370
15
 100
AcDbLine
   6
CONTINUOUS
  62
8
  10
 78.249999999958
  20
 221.75483417435
  30
0.0
  11
 78.249999999958
  21
 209.37973827188
  31
0.0
   0
SOLID
   5
113
 100
AcDbEntity
   8
LEVEL001
 100
AcDbTrace
   6
CONTINUOUS
  62
8
  10
 78.249999999958
  20
 207.57973827188
  30
0.0
  11
 77.721019057833
  21
 204.57973827188
  31
0.0
  12
 78.778980942084
  22
 204.57973827188
  32
0.0
  13
 78.778980942084
  23
 204.57973827188
  33
0.0
   0
SOLID
   5
114
 100
AcDbEntity
   8
LEVEL001
 100
AcDbTrace
   6
CONTINUOUS
  62
8
  10
 78.249999999958
  20
 211.17973827188
  30
0.0
  11
 78.778980942084
  21
 214.17973827188
  31
0.0
  12
 77.721019057833
  22
 214.17973827188
  32
0.0
  13
 77.721019057833
  23
 214.17973827188
  33
0.0
   0
MTEXT
   5
115
 100
AcDbEntity
   8
LEVEL001
 370
15
  62
8
 100
AcDbMText
  10
 76.219321550327
  20
 213.25483417435
  30
0.0
  40
 4.0000000000000
  41
0.0
  71
7
  72
1
   1
\A1;3.6
   7
GMM001
  11
0.0
  21
 1.0000000000000
  31
0.0
   0
ENDBLK
   5
116
 100
AcDbEntity
   8
0
 100
AcDbBlockEnd
   0
BLOCK
   5
117
 100
AcDbEntity
   8
0
 100
AcDbBlockBegin
   2
*D16
  70
65
  10
0.0
  20
0.0
  30
0.0
   3
*D16
   0
LINE
   5
118
 100
AcDbEntity
   8
LEVEL001
 370
15
 100
AcDbLine
   6
CONTINUOUS
  62
8
  10
 83.249999999958
  20
 211.37973827188
  30
0.0
  11
 83.249999999958
  21
 223.17973827188
  31
0.0
   0
LINE
   5
119
 100
AcDbEntity
   8
LEVEL001
 370
15
 100
AcDbLine
   6
CONTINUOUS
  62
8
  10
 103.24999999996
  20
 216.57840177109
  30
0.0
  11
 103.24999999996
  21
 223.17973827188
  31
0.0
   0
LINE
   5
11A
 100
AcDbEntity
   8
LEVEL001
 370
15
 100
AcDbLine
   6
CONTINUOUS
  62
8
  10
 83.249999999958
  20
 221.17973827188
  30
0.0
  11
 93.249999999958
  21
 221.17973827188
  31
0.0
   0
LINE
   5
11B
 100
AcDbEntity
   8
LEVEL001
 370
15
 100
AcDbLine
   6
CONTINUOUS
  62
8
  10
 103.24999999996
  20
 221.17973827188
  30
0.0
  11
 93.249999999958
  21
 221.17973827188
  31
0.0
   0
SOLID
   5
11C
 100
AcDbEntity
   8
LEVEL001
 100
AcDbTrace
   6
CONTINUOUS
  62
8
  10
 83.249999999958
  20
 221.17973827188
  30
0.0
  11
 86.249999999958
  21
 220.65075732976
  31
0.0
  12
 86.249999999958
  22
 221.70871921401
  32
0.0
  13
 86.249999999958
  23
 221.70871921401
  33
0.0
   0
SOLID
   5
11D
 100
AcDbEntity
   8
LEVEL001
 100
AcDbTrace
   6
CONTINUOUS
  62
8
  10
 103.24999999996
  20
 221.17973827188
  30
0.0
  11
 100.24999999996
  21
 221.70871921401
  31
0.0
  12
 100.24999999996
  22
 220.65075732976
  32
0.0
  13
 100.24999999996
  23
 220.65075732976
  33
0.0
   0
MTEXT
   5
11E
 100
AcDbEntity
   8
LEVEL001
 370
15
  62
8
 100
AcDbMText
  10
 93.249999999958
  20
 223.17973827188
  30
0.0
  40
 4.0000000000000
  41
0.0
  71
8
  72
1
   1
\A1;20
   7
GMM001
   0
ENDBLK
   5
11F
 100
AcDbEntity
   8
0
 100
AcDbBlockEnd
   0
BLOCK
   5
120
 100
AcDbEntity
   8
0
 100
AcDbBlockBegin
   2
*D17
  70
65
  10
0.0
  20
0.0
  30
0.0
   3
*D17
   0
LINE
   5
121
 100
AcDbEntity
   8
LEVEL001
 370
15
 100
AcDbLine
   6
CONTINUOUS
  62
8
  10
 83.249999999958
  20
 210.28609634616
  30
0.0
  11
 83.249999999958
  21
 233.17973827188
  31
0.0
   0
LINE
   5
122
 100
AcDbEntity
   8
LEVEL001
 370
15
 100
AcDbLine
   6
CONTINUOUS
  62
8
  10
 123.24999999996
  20
 210.28609634616
  30
0.0
  11
 123.24999999996
  21
 233.17973827188
  31
0.0
   0
LINE
   5
123
 100
AcDbEntity
   8
LEVEL001
 370
15
 100
AcDbLine
   6
CONTINUOUS
  62
8
  10
 83.249999999958
  20
 231.17973827188
  30
0.0
  11
 103.24999999996
  21
 231.17973827188
  31
0.0
   0
LINE
   5
124
 100
AcDbEntity
   8
LEVEL001
 370
15
 100
AcDbLine
   6
CONTINUOUS
  62
8
  10
 123.24999999996
  20
 231.17973827188
  30
0.0
  11
 103.24999999996
  21
 231.17973827188
  31
0.0
   0
SOLID
   5
125
 100
AcDbEntity
   8
LEVEL001
 100
AcDbTrace
   6
CONTINUOUS
  62
8
  10
 83.249999999958
  20
 231.17973827188
  30
0.0
  11
 86.249999999958
  21
 230.65075732976
  31
0.0
  12
 86.249999999958
  22
 231.70871921401
  32
0.0
  13
 86.249999999958
  23
 231.70871921401
  33
0.0
   0
SOLID
   5
126
 100
AcDbEntity
   8
LEVEL001
 100
AcDbTrace
   6
CONTINUOUS
  62
8
  10
 123.24999999996
  20
 231.17973827188
  30
0.0
  11
 120.24999999996
  21
 231.70871921401
  31
0.0
  12
 120.24999999996
  22
 230.65075732976
  32
0.0
  13
 120.24999999996
  23
 230.65075732976
  33
0.0
   0
MTEXT
   5
127
 100
AcDbEntity
   8
LEVEL001
 370
15
  62
8
 100
AcDbMText
  10
 103.24999999996
  20
 233.17973827188
  30
0.0
  40
 4.0000000000000
  41
0.0
  71
8
  72
1
   1
\A1;40
   7
GMM001
   0
ENDBLK
   5
128
 100
AcDbEntity
   8
0
 100
AcDbBlockEnd
   0
BLOCK
   5
129
 100
AcDbEntity
   8
0
 100
AcDbBlockBegin
   2
*D18
  70
65
  10
0.0
  20
0.0
  30
0.0
   3
*D18
   0
LINE
   5
12A
 100
AcDbEntity
   8
LEVEL001
 370
15
 100
AcDbLine
   6
CONTINUOUS
  62
8
  10
 267.74999999998
  20
 208.37973827188
  30
0.0
  11
 275.34000382313
  21
 208.37973827188
  31
0.0
   0
LINE
   5
12B
 100
AcDbEntity
   8
LEVEL001
 370
15
 100
AcDbLine
   6
CONTINUOUS
  62
8
  10
 273.34000382313
  20
 204.62973827188
  30
0.0
  11
 273.34000382313
  21
 209.77973827188
  31
0.0
   0
LINE
   5
12C
 100
AcDbEntity
   8
LEVEL001
 370
15
 100
AcDbLine
   6
CONTINUOUS
  62
8
  10
 273.34000382313
  20
 223.54093878012
  30
0.0
  11
 273.34000382313
  21
 209.77973827188
  31
0.0
   0
SOLID
   5
12D
 100
AcDbEntity
   8
LEVEL001
 100
AcDbTrace
   6
CONTINUOUS
  62
8
  10
 273.34000382313
  20
 208.37973827188
  30
0.0
  11
 272.81102288100
  21
 205.37973827188
  31
0.0
  12
 273.86898476526
  22
 205.37973827188
  32
0.0
  13
 273.86898476526
  23
 205.37973827188
  33
0.0
   0
SOLID
   5
12E
 100
AcDbEntity
   8
LEVEL001
 100
AcDbTrace
   6
CONTINUOUS
  62
8
  10
 273.34000382313
  20
 211.17973827188
  30
0.0
  11
 273.86898476526
  21
 214.17973827188
  31
0.0
  12
 272.81102288100
  22
 214.17973827188
  32
0.0
  13
 272.81102288100
  23
 214.17973827188
  33
0.0
   0
MTEXT
   5
12F
 100
AcDbEntity
   8
LEVEL001
 370
15
  62
8
 100
AcDbMText
  10
 271.29437974472
  20
 215.04093878012
  30
0.0
  40
 4.0000000000000
  41
0.0
  71
7
  72
1
   1
\A1;2.8
   7
GMM001
  11
0.0
  21
 1.0000000000000
  31
0.0
   0
ENDBLK
   5
130
 100
AcDbEntity
   8
0
 100
AcDbBlockEnd
   0
BLOCK
   5
131
 100
AcDbEntity
   8
0
 100
AcDbBlockBegin
   2
*D19
  70
65
  10
0.0
  20
0.0
  30
0.0
   3
*D19
   0
LINE
   5
132
 100
AcDbEntity
   8
LEVEL001
 370
15
 100
AcDbLine
   6
CONTINUOUS
  62
8
  10
 197.54999999998
  20
 207.57973827188
  30
0.0
  11
 190.74999999998
  21
 207.57973827188
  31
0.0
   0
LINE
   5
133
 100
AcDbEntity
   8
LEVEL001
 370
15
 100
AcDbLine
   6
CONTINUOUS
  62
8
  10
 201.40886932422
  20
 211.17973827188
  30
0.0
  11
 190.74999999998
  21
 211.17973827188
  31
0.0
   0
LINE
   5
134
 100
AcDbEntity
   8
LEVEL001
 370
15
 100
AcDbLine
   6
CONTINUOUS
  62
8
  10
 192.74999999998
  20
 203.82973827188
  30
0.0
  11
 192.74999999998
  21
 209.37973827188
  31
0.0
   0
LINE
   5
135
 100
AcDbEntity
   8
LEVEL001
 370
15
 100
AcDbLine
   6
CONTINUOUS
  62
8
  10
 192.74999999998
  20
 221.57164395837
  30
0.0
  11
 192.74999999998
  21
 209.37973827188
  31
0.0
   0
SOLID
   5
136
 100
AcDbEntity
   8
LEVEL001
 100
AcDbTrace
   6
CONTINUOUS
  62
8
  10
 192.74999999998
  20
 207.57973827188
  30
0.0
  11
 192.22101905786
  21
 204.57973827188
  31
0.0
  12
 193.27898094211
  22
 204.57973827188
  32
0.0
  13
 193.27898094211
  23
 204.57973827188
  33
0.0
   0
SOLID
   5
137
 100
AcDbEntity
   8
LEVEL001
 100
AcDbTrace
   6
CONTINUOUS
  62
8
  10
 192.74999999998
  20
 211.17973827188
  30
0.0
  11
 193.27898094211
  21
 214.17973827188
  31
0.0
  12
 192.22101905786
  22
 214.17973827188
  32
0.0
  13
 192.22101905786
  23
 214.17973827188
  33
0.0
   0
MTEXT
   5
138
 100
AcDbEntity
   8
LEVEL001
 370
15
  62
8
 100
AcDbMText
  10
 190.59557163810
  20
 213.07164395837
  30
0.0
  40
 4.0000000000000
  41
0.0
  71
7
  72
1
   1
\A1;3.6
   7
GMM001
  11
0.0
  21
 1.0000000000000
  31
0.0
   0
ENDBLK
   5
139
 100
AcDbEntity
   8
0
 100
AcDbBlockEnd
   0
BLOCK
   5
13A
 100
AcDbEntity
   8
0
 100
AcDbBlockBegin
   2
*D20
  70
65
  10
0.0
  20
0.0
  30
0.0
   3
*D20
   0
LINE
   5
13B
 100
AcDbEntity
   8
LEVEL001
 370
15
 100
AcDbLine
   6
CONTINUOUS
  62
8
  10
 197.74999999998
  20
 211.28609634616
  30
0.0
  11
 197.74999999998
  21
 223.17973827188
  31
0.0
   0
LINE
   5
13C
 100
AcDbEntity
   8
LEVEL001
 370
15
 100
AcDbLine
   6
CONTINUOUS
  62
8
  10
 197.74999999998
  20
 221.17973827188
  30
0.0
  11
 213.74999999998
  21
 221.17973827188
  31
0.0
   0
LINE
   5
13D
 100
AcDbEntity
   8
LEVEL001
 370
15
 100
AcDbLine
   6
CONTINUOUS
  62
8
  10
 229.74999999998
  20
 221.17973827188
  30
0.0
  11
 213.74999999998
  21
 221.17973827188
  31
0.0
   0
SOLID
   5
13E
 100
AcDbEntity
   8
LEVEL001
 100
AcDbTrace
   6
CONTINUOUS
  62
8
  10
 197.74999999998
  20
 221.17973827188
  30
0.0
  11
 200.74999999998
  21
 220.65075732976
  31
0.0
  12
 200.74999999998
  22
 221.70871921401
  32
0.0
  13
 200.74999999998
  23
 221.70871921401
  33
0.0
   0
SOLID
   5
13F
 100
AcDbEntity
   8
LEVEL001
 100
AcDbTrace
   6
CONTINUOUS
  62
8
  10
 229.74999999998
  20
 221.17973827188
  30
0.0
  11
 226.74999999998
  21
 221.70871921401
  31
0.0
  12
 226.74999999998
  22
 220.65075732976
  32
0.0
  13
 226.74999999998
  23
 220.65075732976
  33
0.0
   0
MTEXT
   5
140
 100
AcDbEntity
   8
LEVEL001
 370
15
  62
8
 100
AcDbMText
  10
 213.74999999998
  20
 223.17973827188
  30
0.0
  40
 4.0000000000000
  41
0.0
  71
8
  72
1
   1
\A1;32
   7
GMM001
   0
ENDBLK
   5
141
 100
AcDbEntity
   8
0
 100
AcDbBlockEnd
   0
BLOCK
   5
142
 100
AcDbEntity
   8
0
 100
AcDbBlockBegin
   2
*D21
  70
65
  10
0.0
  20
0.0
  30
0.0
   3
*D21
   0
LINE
   5
143
 100
AcDbEntity
   8
LEVEL001
 370
15
 100
AcDbLine
   6
CONTINUOUS
  62
8
  10
 229.74999999998
  20
 216.57840177109
  30
0.0
  11
 229.74999999998
  21
 223.17973827188
  31
0.0
   0
LINE
   5
144
 100
AcDbEntity
   8
LEVEL001
 370
15
 100
AcDbLine
   6
CONTINUOUS
  62
8
  10
 265.74999999998
  20
 216.57840177109
  30
0.0
  11
 265.74999999998
  21
 223.17973827188
  31
0.0
   0
LINE
   5
145
 100
AcDbEntity
   8
LEVEL001
 370
15
 100
AcDbLine
   6
CONTINUOUS
  62
8
  10
 229.74999999998
  20
 221.17973827188
  30
0.0
  11
 247.74999999998
  21
 221.17973827188
  31
0.0
   0
LINE
   5
146
 100
AcDbEntity
   8
LEVEL001
 370
15
 100
AcDbLine
   6
CONTINUOUS
  62
8
  10
 265.74999999998
  20
 221.17973827188
  30
0.0
  11
 247.74999999998
  21
 221.17973827188
  31
0.0
   0
SOLID
   5
147
 100
AcDbEntity
   8
LEVEL001
 100
AcDbTrace
   6
CONTINUOUS
  62
8
  10
 229.74999999998
  20
 221.17973827188
  30
0.0
  11
 232.74999999998
  21
 220.65075732976
  31
0.0
  12
 232.74999999998
  22
 221.70871921401
  32
0.0
  13
 232.74999999998
  23
 221.70871921401
  33
0.0
   0
SOLID
   5
148
 100
AcDbEntity
   8
LEVEL001
 100
AcDbTrace
   6
CONTINUOUS
  62
8
  10
 265.74999999998
  20
 221.17973827188
  30
0.0
  11
 262.74999999998
  21
 221.70871921401
  31
0.0
  12
 262.74999999998
  22
 220.65075732976
  32
0.0
  13
 262.74999999998
  23
 220.65075732976
  33
0.0
   0
MTEXT
   5
149
 100
AcDbEntity
   8
LEVEL001
 370
15
  62
8
 100
AcDbMText
  10
 247.74999999998
  20
 223.17973827188
  30
0.0
  40
 4.0000000000000
  41
0.0
  71
8
  72
1
   1
\A1;36
   7
GMM001
   0
ENDBLK
   5
14A
 100
AcDbEntity
   8
0
 100
AcDbBlockEnd
   0
BLOCK
   5
14B
 100
AcDbEntity
   8
0
 100
AcDbBlockBegin
   2
*D22
  70
65
  10
0.0
  20
0.0
  30
0.0
   3
*D22
   0
LINE
   5
14C
 100
AcDbEntity
   8
LEVEL001
 370
15
 100
AcDbLine
   6
CONTINUOUS
  62
8
  10
 197.74999999998
  20
 210.28609634616
  30
0.0
  11
 197.74999999998
  21
 233.17973827188
  31
0.0
   0
LINE
   5
14D
 100
AcDbEntity
   8
LEVEL001
 370
15
 100
AcDbLine
   6
CONTINUOUS
  62
8
  10
 297.74999999998
  20
 210.28609634616
  30
0.0
  11
 297.74999999998
  21
 233.17973827188
  31
0.0
   0
LINE
   5
14E
 100
AcDbEntity
   8
LEVEL001
 370
15
 100
AcDbLine
   6
CONTINUOUS
  62
8
  10
 197.74999999998
  20
 231.17973827188
  30
0.0
  11
 247.74999999998
  21
 231.17973827188
  31
0.0
   0
LINE
   5
14F
 100
AcDbEntity
   8
LEVEL001
 370
15
 100
AcDbLine
   6
CONTINUOUS
  62
8
  10
 297.74999999998
  20
 231.17973827188
  30
0.0
  11
 247.74999999998
  21
 231.17973827188
  31
0.0
   0
SOLID
   5
150
 100
AcDbEntity
   8
LEVEL001
 100
AcDbTrace
   6
CONTINUOUS
  62
8
  10
 197.74999999998
  20
 231.17973827188
  30
0.0
  11
 200.74999999998
  21
 230.65075732976
  31
0.0
  12
 200.74999999998
  22
 231.70871921401
  32
0.0
  13
 200.74999999998
  23
 231.70871921401
  33
0.0
   0
SOLID
   5
151
 100
AcDbEntity
   8
LEVEL001
 100
AcDbTrace
   6
CONTINUOUS
  62
8
  10
 297.74999999998
  20
 231.17973827188
  30
0.0
  11
 294.74999999998
  21
 231.70871921401
  31
0.0
  12
 294.74999999998
  22
 230.65075732976
  32
0.0
  13
 294.74999999998
  23
 230.65075732976
  33
0.0
   0
MTEXT
   5
152
 100
AcDbEntity
   8
LEVEL001
 370
15
  62
8
 100
AcDbMText
  10
 247.74999999998
  20
 233.17973827188
  30
0.0
  40
 4.0000000000000
  41
0.0
  71
8
  72
1
   1
\A1;100
   7
GMM001
   0
ENDBLK
   5
153
 100
AcDbEntity
   8
0
 100
AcDbBlockEnd
   0
ENDSEC
   0
SECTION
   2
ENTITIES
   0
LINE
   5
154
 100
AcDbEntity
   8
LEVEL001
 370
30
 100
AcDbLine
   6
DOT
  62
7
  10
0.0
  20
0.0
  30
0.0
  11
 840.00000000000
  21
0.0
  31
0.0
   0
LINE
   5
155
 100
AcDbEntity
   8
LEVEL001
 370
30
 100
AcDbLine
   6
DOT
  62
7
  10
 840.00000000000
  20
0.0
  30
0.0
  11
 840.00000000000
  21
 594.00000000000
  31
0.0
   0
LINE
   5
156
 100
AcDbEntity
   8
LEVEL001
 370
30
 100
AcDbLine
   6
DOT
  62
7
  10
 840.00000000000
  20
 594.00000000000
  30
0.0
  11
0.0
  21
 594.00000000000
  31
0.0
   0
LINE
   5
157
 100
AcDbEntity
   8
LEVEL001
 370
30
 100
AcDbLine
   6
DOT
  62
7
  10
0.0
  20
 594.00000000000
  30
0.0
  11
0.0
  21
0.0
  31
0.0
   0
LINE
   5
158
 100
AcDbEntity
   8
LEVEL002
 370
40
 100
AcDbLine
   6
CONTINUOUS
  62
3
  10
 30.999999999900
  20
 433.50000000000
  30
0.0
  11
 608.99999999990
  21
 433.50000000000
  31
0.0
   0
LINE
   5
159
 100
AcDbEntity
   8
LEVEL002
 370
40
 100
AcDbLine
   6
CONTINUOUS
  62
3
  10
 30.999999999900
  20
 550.00000000000
  30
0.0
  11
 608.99999999990
  21
 550.00000000000
  31
0.0
   0
LINE
   5
15A
 100
AcDbEntity
   8
LEVEL002
 370
40
 100
AcDbLine
   6
CONTINUOUS
  62
3
  10
 30.999999999900
  20
 413.50000000000
  30
0.0
  11
 608.99999999990
  21
 413.50000000000
  31
0.0
   0
LINE
   5
15B
 100
AcDbEntity
   8
LEVEL002
 370
40
 100
AcDbLine
   6
CONTINUOUS
  62
3
  10
 608.99999999990
  20
 513.50000000000
  30
0.0
  11
 808.99999999990
  21
 513.50000000000
  31
0.0
   0
LINE
   5
15C
 100
AcDbEntity
   8
LEVEL002
 370
40
 100
AcDbLine
   6
CONTINUOUS
  62
3
  10
 608.99999999990
  20
 473.50000000000
  30
0.0
  11
 808.99999999990
  21
 473.50000000000
  31
0.0
   0
LINE
   5
15D
 100
AcDbEntity
   8
LEVEL002
 370
40
 100
AcDbLine
   6
CONTINUOUS
  62
3
  10
 608.99999999990
  20
 433.50000000000
  30
0.0
  11
 808.99999999990
  21
 433.50000000000
  31
0.0
   0
LINE
   5
15E
 100
AcDbEntity
   8
LEVEL002
 370
40
 100
AcDbLine
   6
CONTINUOUS
  62
3
  10
 464.49999999990
  20
 570.00000000000
  30
0.0
  11
 464.49999999990
  21
 24.000000000020
  31
0.0
   0
LINE
   5
15F
 100
AcDbEntity
   8
LEVEL002
 370
40
 100
AcDbLine
   6
CONTINUOUS
  62
3
  10
 319.99999999990
  20
 570.00000000000
  30
0.0
  11
 319.99999999990
  21
 24.000000000020
  31
0.0
   0
LINE
   5
160
 100
AcDbEntity
   8
LEVEL002
 370
40
 100
AcDbLine
   6
CONTINUOUS
  62
3
  10
 175.49999999990
  20
 570.00000000000
  30
0.0
  11
 175.49999999990
  21
 24.000000000020
  31
0.0
   0
LINE
   5
161
 100
AcDbEntity
   8
LEVEL002
 370
40
 100
AcDbLine
   6
CONTINUOUS
  62
3
  10
 30.999999999900
  20
 297.00000000002
  30
0.0
  11
 608.99999999990
  21
 297.00000000002
  31
0.0
   0
LINE
   5
162
 100
AcDbEntity
   8
LEVEL002
 370
40
 100
AcDbLine
   6
CONTINUOUS
  62
3
  10
 30.999999999900
  20
 277.00000000002
  30
0.0
  11
 608.99999999990
  21
 277.00000000002
  31
0.0
   0
LINE
   5
163
 100
AcDbEntity
   8
LEVEL002
 370
40
 100
AcDbLine
   6
CONTINUOUS
  62
3
  10
 30.999999999900
  20
 160.50000000002
  30
0.0
  11
 608.99999999990
  21
 160.50000000002
  31
0.0
   0
LINE
   5
164
 100
AcDbEntity
   8
LEVEL002
 370
40
 100
AcDbLine
   6
CONTINUOUS
  62
3
  10
 30.999999999900
  20
 140.50000000002
  30
0.0
  11
 608.99999999990
  21
 140.50000000002
  31
0.0
   0
LINE
   5
165
 100
AcDbEntity
   8
LEVEL002
 370
40
 100
AcDbLine
   6
CONTINUOUS
  62
3
  10
 608.99999999990
  20
 144.00000000002
  30
0.0
  11
 808.99999999990
  21
 144.00000000002
  31
0.0
   0
LINE
   5
166
 100
AcDbEntity
   8
LEVEL002
 370
40
 100
AcDbLine
   6
CONTINUOUS
  62
3
  10
 608.99999999990
  20
 104.00000000002
  30
0.0
  11
 808.99999999990
  21
 104.00000000002
  31
0.0
   0
LINE
   5
167
 100
AcDbEntity
   8
LEVEL002
 370
40
 100
AcDbLine
   6
CONTINUOUS
  62
3
  10
 608.99999999990
  20
 64.000000000020
  30
0.0
  11
 808.99999999990
  21
 64.000000000020
  31
0.0
   0
LINE
   5
168
 100
AcDbEntity
   8
LEVEL002
 370
40
 100
AcDbLine
   6
CONTINUOUS
  62
3
  10
 708.99999999990
  20
 104.00000000002
  30
0.0
  11
 708.99999999990
  21
 24.000000000020
  31
0.0
   0
LINE
   5
169
 100
AcDbEntity
   8
LEVEL002
 370
40
 100
AcDbLine
   6
CONTINUOUS
  62
3
  10
 708.99999999990
  20
 77.333333333360
  30
0.0
  11
 808.99999999990
  21
 77.333333333360
  31
0.0
   0
LINE
   5
16A
 100
AcDbEntity
   8
LEVEL002
 370
40
 100
AcDbLine
   6
CONTINUOUS
  62
3
  10
 708.99999999990
  20
 90.666666666690
  30
0.0
  11
 808.99999999990
  21
 90.666666666690
  31
0.0
   0
LINE
   5
16B
 100
AcDbEntity
   8
LEVEL002
 370
50
 100
AcDbLine
   6
CONTINUOUS
  62
4
  10
 808.99999999990
  20
 570.00000000000
  30
0.0
  11
 30.999999999900
  21
 570.00000000000
  31
0.0
   0
LINE
   5
16C
 100
AcDbEntity
   8
LEVEL002
 370
50
 100
AcDbLine
   6
CONTINUOUS
  62
4
  10
 608.99999999990
  20
 570.00000000000
  30
0.0
  11
 608.99999999990
  21
 24.000000000020
  31
0.0
   0
LINE
   5
16D
 100
AcDbEntity
   8
LEVEL002
 370
50
 100
AcDbLine
   6
CONTINUOUS
  62
4
  10
 808.99999999990
  20
 24.000000000020
  30
0.0
  11
 808.99999999990
  21
 570.00000000000
  31
0.0
   0
LINE
   5
16E
 100
AcDbEntity
   8
LEVEL002
 370
50
 100
AcDbLine
   6
CONTINUOUS
  62
4
  10
 30.999999999900
  20
 570.00000000000
  30
0.0
  11
 30.999999999900
  21
 24.000000000020
  31
0.0
   0
LINE
   5
16F
 100
AcDbEntity
   8
LEVEL002
 370
50
 100
AcDbLine
   6
CONTINUOUS
  62
4
  10
 30.999999999900
  20
 24.000000000020
  30
0.0
  11
 808.99999999990
  21
 24.000000000020
  31
0.0
   0
HATCH
   5
170
 100
AcDbEntity
   8
LEVEL001
  62
1
 100
AcDbHatch
  10
0.0
  20
0.0
  30
0.0
 210
0.0
 220
0.0
 230
 1.0000000000000
   2
SOLID
  70
1
  71
1
  91
7
  92
1
  93
6
  72
1
  10
 648.90000000000
  20
 560.95000000000
  11
 636.10000000000
  21
 541.75000000000
  72
1
  10
 636.10000000000
  20
 541.75000000000
  11
 648.90000000000
  21
 522.55000000000
  72
1
  10
 648.90000000000
  20
 522.55000000000
  11
 638.10000000000
  21
 522.55000000000
  72
1
  10
 638.10000000000
  20
 522.55000000000
  11
 625.30000000000
  21
 541.75000000000
  72
1
  10
 625.30000000000
  20
 541.75000000000
  11
 638.10000000000
  21
 560.95000000000
  72
1
  10
 638.10000000000
  20
 560.95000000000
  11
 648.90000000000
  21
 560.95000000000
  97
1
 330

  92
16
  93
6
  72
1
  10
 654.30000000000
  20
 560.95000000000
  11
 665.10000000000
  21
 560.95000000000
  72
1
  10
 665.10000000000
  20
 560.95000000000
  11
 652.30000000000
  21
 541.75000000000
  72
1
  10
 652.30000000000
  20
 541.75000000000
  11
 665.10000000000
  21
 522.55000000000
  72
1
  10
 665.10000000000
  20
 522.55000000000
  11
 654.30000000000
  21
 522.55000000000
  72
1
  10
 654.30000000000
  20
 522.55000000000
  11
 641.50000000000
  21
 541.75000000000
  72
1
  10
 641.50000000000
  20
 541.75000000000
  11
 654.30000000000
  21
 560.95000000000
  97
1
 330

  92
16
  93
3
  72
1
  10
 666.70000000000
  20
 541.75000000000
  11
 657.70000000000
  21
 541.75000000000
  72
1
  10
 657.70000000000
  20
 541.75000000000
  11
 666.70000000000
  21
 527.35000000000
  72
1
  10
 666.70000000000
  20
 527.35000000000
  11
 666.70000000000
  21
 541.75000000000
  97
1
 330

  92
16
  93
6
  72
1
  10
 673.90000000000
  20
 544.15000000000
  11
 688.30000000000
  21
 544.15000000000
  72
2
  10
 688.30000000000
  20
 535.15000000000
  40
 9.0000000000000
  50
 270.00000000000
  51
 90.000000000000
  73
0
  72
1
  10
 688.30000000000
  20
 526.15000000000
  11
 681.10000000000
  21
 526.15000000000
  72
1
  10
 681.10000000000
  20
 526.15000000000
  11
 681.10000000000
  21
 522.55000000000
  72
1
  10
 681.10000000000
  20
 522.55000000000
  11
 673.90000000000
  21
 522.55000000000
  72
1
  10
 673.90000000000
  20
 522.55000000000
  11
 673.90000000000
  21
 544.15000000000
  97
1
 330

  92
16
  93
4
  72
1
  10
 688.30000000000
  20
 536.95000000000
  11
 681.10000000000
  21
 536.95000000000
  72
1
  10
 681.10000000000
  20
 536.95000000000
  11
 681.10000000000
  21
 533.35000000000
  72
1
  10
 681.10000000000
  20
 533.35000000000
  11
 688.30000000000
  21
 533.35000000000
  72
2
  10
 688.30000000000
  20
 535.15000000000
  40
 1.8000000000000
  50
 270.00000000000
  51
 90.000000000000
  73
1
  97
1
 330

  92
16
  93
4
  72
1
  10
 691.90000000000
  20
 522.55000000000
  11
 706.30000000000
  21
 544.15000000000
  72
1
  10
 706.30000000000
  20
 544.15000000000
  11
 717.10000000000
  21
 544.15000000000
  72
1
  10
 717.10000000000
  20
 544.15000000000
  11
 702.70000000000
  21
 522.55000000000
  72
1
  10
 702.70000000000
  20
 522.55000000000
  11
 691.90000000000
  21
 522.55000000000
  97
1
 330

  92
16
  93
3
  72
1
  10
 714.70000000000
  20
 536.22333846940
  11
 705.58444102040
  21
 522.55000000000
  72
1
  10
 705.58444102040
  20
 522.55000000000
  11
 714.70000000000
  21
 522.55000000000
  72
1
  10
 714.70000000000
  20
 522.55000000000
  11
 714.70000000000
  21
 536.22333846940
  97
1
 330

  75
0
  76
1
  98
1
  10
0.0
  20
0.0
   0
HATCH
   5
171
 100
AcDbEntity
   8
LEVEL001
  62
1
 100
AcDbHatch
  10
0.0
  20
0.0
  30
0.0
 210
0.0
 220
0.0
 230
 1.0000000000000
   2
SOLID
  70
1
  71
1
  91
1
  92
1
  93
22
  72
1
  10
 717.10000000000
  20
 544.15000000000
  11
 724.30000000000
  21
 544.15000000000
  72
1
  10
 724.30000000000
  20
 544.15000000000
  11
 724.30000000000
  21
 529.75000000000
  72
1
  10
 724.30000000000
  20
 529.75000000000
  11
 735.10000000000
  21
 529.75000000000
  72
1
  10
 735.10000000000
  20
 529.75000000000
  11
 735.10000000000
  21
 536.95000000000
  72
1
  10
 735.10000000000
  20
 536.95000000000
  11
 727.90000000000
  21
 536.95000000000
  72
1
  10
 727.90000000000
  20
 536.95000000000
  11
 727.90000000000
  21
 544.15000000000
  72
1
  10
 727.90000000000
  20
 544.15000000000
  11
 771.10000000000
  21
 544.15000000000
  72
1
  10
 771.10000000000
  20
 544.15000000000
  11
 771.10000000000
  21
 536.95000000000
  72
1
  10
 771.10000000000
  20
 536.95000000000
  11
 756.70000000000
  21
 536.95000000000
  72
1
  10
 756.70000000000
  20
 536.95000000000
  11
 756.70000000000
  21
 535.15000000000
  72
1
  10
 756.70000000000
  20
 535.15000000000
  11
 769.30000000000
  21
 535.15000000000
  72
1
  10
 769.30000000000
  20
 535.15000000000
  11
 769.30000000000
  21
 531.55000000000
  72
1
  10
 769.30000000000
  20
 531.55000000000
  11
 756.70000000000
  21
 531.55000000000
  72
1
  10
 756.70000000000
  20
 531.55000000000
  11
 756.70000000000
  21
 529.75000000000
  72
1
  10
 756.70000000000
  20
 529.75000000000
  11
 771.10000000000
  21
 529.75000000000
  72
1
  10
 771.10000000000
  20
 529.75000000000
  11
 771.10000000000
  21
 522.55000000000
  72
1
  10
 771.10000000000
  20
 522.55000000000
  11
 749.50000000000
  21
 522.55000000000
  72
1
  10
 749.50000000000
  20
 522.55000000000
  11
 749.50000000000
  21
 536.95000000000
  72
1
  10
 749.50000000000
  20
 536.95000000000
  11
 742.30000000000
  21
 536.95000000000
  72
1
  10
 742.30000000000
  20
 536.95000000000
  11
 742.30000000000
  21
 522.55000000000
  72
1
  10
 742.30000000000
  20
 522.55000000000
  11
 717.10000000000
  21
 522.55000000000
  72
1
  10
 717.10000000000
  20
 522.55000000000
  11
 717.10000000000
  21
 544.15000000000
  97
1
 330

  75
0
  76
1
  98
1
  10
0.0
  20
0.0
   0
HATCH
   5
172
 100
AcDbEntity
   8
LEVEL001
  62
1
 100
AcDbHatch
  10
0.0
  20
0.0
  30
0.0
 210
0.0
 220
0.0
 230
 1.0000000000000
   2
SOLID
  70
1
  71
1
  91
1
  92
1
  93
8
  72
1
  10
 792.70000000000
  20
 544.15000000000
  11
 781.90000000000
  21
 544.15000000000
  72
2
  10
 781.90000000000
  20
 533.35000000000
  40
 10.800000000000
  50
 90.000000000000
  51
 270.00000000000
  73
1
  72
1
  10
 781.90000000000
  20
 522.55000000000
  11
 792.70000000000
  21
 522.55000000000
  72
1
  10
 792.70000000000
  20
 522.55000000000
  11
 792.70000000000
  21
 529.75000000000
  72
1
  10
 792.70000000000
  20
 529.75000000000
  11
 781.90000000000
  21
 529.75000000000
  72
2
  10
 781.90000000000
  20
 533.35000000000
  40
 3.6000000000000
  50
 90.000000000000
  51
 270.00000000000
  73
0
  72
1
  10
 781.90000000000
  20
 536.95000000000
  11
 792.70000000000
  21
 536.95000000000
  72
1
  10
 792.70000000000
  20
 536.95000000000
  11
 792.70000000000
  21
 544.15000000000
  97
1
 330

  75
0
  76
1
  98
1
  10
0.0
  20
0.0
   0
MTEXT
   5
174
 100
AcDbEntity
   8
LEVEL002
 370
15
  62
8
 100
AcDbMText
  10
 621.59999999990
  20
 56.500000000020
  30
0.0
  40
 6.0000000000000
  41
0.0
  71
5
  72
1
   1
\T1.000000;サイズ：
   7
GMM001
  44
 0.79999984000003
   0
MTEXT
   5
176
 100
AcDbEntity
   8
LEVEL002
 370
15
  62
8
 100
AcDbMText
  10
 618.59999999990
  20
 96.500000000020
  30
0.0
  40
 6.0000000000000
  41
0.0
  71
5
  72
1
   1
\T1.000000;縮尺：
   7
GMM001
  44
 0.79999984000003
   0
MTEXT
   5
178
 100
AcDbEntity
   8
LEVEL002
 370
15
  62
8
 100
AcDbMText
  10
 624.59999999990
  20
 136.50000000002
  30
0.0
  40
 6.0000000000000
  41
0.0
  71
5
  72
1
   1
\T1.000000;図面名称：
   7
GMM001
  44
 0.79999984000003
   0
MTEXT
   5
17A
 100
AcDbEntity
   8
LEVEL002
 370
15
  62
8
 100
AcDbMText
  10
 658.99999999990
  20
 76.500000000020
  30
0.0
  40
 7.5000000000000
  41
0.0
  71
5
  72
1
   1
\T1.000000;Ｓ＝１：２
   7
GMM001
  44
 0.79999984000003
   0
MTEXT
   5
17C
 100
AcDbEntity
   8
LEVEL002
 370
15
  62
8
 100
AcDbMText
  10
 658.99999999990
  20
 36.500000000020
  30
0.0
  40
 7.5000000000000
  41
0.0
  71
5
  72
1
   1
\T1.000000;Ａ３
   7
GMM001
  44
 0.79999984000003
   0
MTEXT
   5
17E
 100
AcDbEntity
   8
LEVEL002
 370
15
  62
8
 100
AcDbMText
  10
 618.59999999990
  20
 466.00000000000
  30
0.0
  40
 6.0000000000000
  41
0.0
  71
5
  72
1
   1
\T1.000000;形式：
   7
GMM001
  44
 0.79999984000003
   0
MTEXT
   5
180
 100
AcDbEntity
   8
LEVEL002
 370
15
  62
8
 100
AcDbMText
  10
 708.99999999990
  20
 493.50000000000
  30
0.0
  40
 9.0000000000000
  41
0.0
  71
5
  72
1
   1
\T1.000000;パルステン敷居レール
   7
GMM001
  44
 0.79999984000003
   0
MTEXT
   5
182
 100
AcDbEntity
   8
LEVEL002
 370
15
  62
8
 100
AcDbMText
  10
 727.59999999990
  20
 56.500000000020
  30
0.0
  40
 6.0000000000000
  41
0.0
  71
5
  72
1
   1
\T1.000000;ファイル名：
   7
GMM001
  44
 0.79999984000003
   0
MTEXT
   5
184
 100
AcDbEntity
   8
LEVEL002
 370
15
  62
8
 100
AcDbMText
  10
 724.59999999990
  20
 97.333333333360
  30
0.0
  40
 5.6000000000000
  41
0.0
  71
5
  72
1
   1
\T1.000000;作成日付：
   7
GMM002
  44
 0.79999984000003
   0
MTEXT
   5
186
 100
AcDbEntity
   8
LEVEL002
 370
15
  62
8
 100
AcDbMText
  10
 724.59999999990
  20
 84.000000000020
  30
0.0
  40
 5.6000000000000
  41
0.0
  71
5
  72
1
   1
\T1.000000;変更日付：
   7
GMM002
  44
 0.79999984000003
   0
MTEXT
   5
188
 100
AcDbEntity
   8
LEVEL002
 370
15
  62
8
 100
AcDbMText
  10
 708.99999999990
  20
 116.50000000002
  30
0.0
  40
 7.5000000000000
  41
0.0
  71
5
  72
1
   1
\T1.000000;断面図
   7
GMM001
  44
 0.79999984000003
   0
LINE
   5
189
 100
AcDbEntity
   8
LEVEL002
 370
25
 100
AcDbLine
   6
CONTINUOUS
  62
1
  10
 688.30000000000
  20
 544.15000000000
  30
0.0
  11
 673.90000000000
  21
 544.15000000000
  31
0.0
   0
LINE
   5
18A
 100
AcDbEntity
   8
LEVEL002
 370
25
 100
AcDbLine
   6
CONTINUOUS
  62
1
  10
 673.90000000000
  20
 544.15000000000
  30
0.0
  11
 673.90000000000
  21
 522.55000000000
  31
0.0
   0
LINE
   5
18B
 100
AcDbEntity
   8
LEVEL002
 370
25
 100
AcDbLine
   6
CONTINUOUS
  62
1
  10
 673.90000000000
  20
 522.55000000000
  30
0.0
  11
 681.10000000000
  21
 522.55000000000
  31
0.0
   0
LINE
   5
18C
 100
AcDbEntity
   8
LEVEL002
 370
25
 100
AcDbLine
   6
CONTINUOUS
  62
1
  10
 681.10000000000
  20
 522.55000000000
  30
0.0
  11
 681.10000000000
  21
 526.15000000000
  31
0.0
   0
LINE
   5
18D
 100
AcDbEntity
   8
LEVEL002
 370
25
 100
AcDbLine
   6
CONTINUOUS
  62
1
  10
 681.10000000000
  20
 526.15000000000
  30
0.0
  11
 688.30000000000
  21
 526.15000000000
  31
0.0
   0
ARC
   5
18E
 100
AcDbEntity
   8
LEVEL002
 370
25
   6
CONTINUOUS
  62
1
 100
AcDbCircle
  10
 688.30000000000
  20
 535.15000000000
  30
0.0
  40
 9.0000000000000
 100
AcDbArc
  50
 270.00000000000
  51
 90.000000000000
   0
LINE
   5
18F
 100
AcDbEntity
   8
LEVEL002
 370
25
 100
AcDbLine
   6
CONTINUOUS
  62
1
  10
 681.10000000000
  20
 533.35000000000
  30
0.0
  11
 688.30000000000
  21
 533.35000000000
  31
0.0
   0
ARC
   5
190
 100
AcDbEntity
   8
LEVEL002
 370
25
   6
CONTINUOUS
  62
1
 100
AcDbCircle
  10
 688.30000000000
  20
 535.15000000000
  30
0.0
  40
 1.8000000000000
 100
AcDbArc
  50
 270.00000000000
  51
 90.000000000000
   0
LINE
   5
191
 100
AcDbEntity
   8
LEVEL002
 370
25
 100
AcDbLine
   6
CONTINUOUS
  62
1
  10
 688.30000000000
  20
 536.95000000000
  30
0.0
  11
 681.10000000000
  21
 536.95000000000
  31
0.0
   0
LINE
   5
192
 100
AcDbEntity
   8
LEVEL002
 370
25
 100
AcDbLine
   6
CONTINUOUS
  62
1
  10
 681.10000000000
  20
 536.95000000000
  30
0.0
  11
 681.10000000000
  21
 533.35000000000
  31
0.0
   0
LINE
   5
193
 100
AcDbEntity
   8
LEVEL002
 370
25
 100
AcDbLine
   6
CONTINUOUS
  62
1
  10
 691.90000000000
  20
 522.55000000000
  30
0.0
  11
 706.30000000000
  21
 544.15000000000
  31
0.0
   0
LINE
   5
194
 100
AcDbEntity
   8
LEVEL002
 370
25
 100
AcDbLine
   6
CONTINUOUS
  62
1
  10
 706.30000000000
  20
 544.15000000000
  30
0.0
  11
 724.30000000000
  21
 544.15000000000
  31
0.0
   0
LINE
   5
195
 100
AcDbEntity
   8
LEVEL002
 370
25
 100
AcDbLine
   6
CONTINUOUS
  62
1
  10
 724.30000000000
  20
 544.15000000000
  30
0.0
  11
 724.30000000000
  21
 529.75000000000
  31
0.0
   0
LINE
   5
196
 100
AcDbEntity
   8
LEVEL002
 370
25
 100
AcDbLine
   6
CONTINUOUS
  62
1
  10
 724.30000000000
  20
 529.75000000000
  30
0.0
  11
 735.10000000000
  21
 529.75000000000
  31
0.0
   0
LINE
   5
197
 100
AcDbEntity
   8
LEVEL002
 370
25
 100
AcDbLine
   6
CONTINUOUS
  62
1
  10
 735.10000000000
  20
 529.75000000000
  30
0.0
  11
 735.10000000000
  21
 536.95000000000
  31
0.0
   0
LINE
   5
198
 100
AcDbEntity
   8
LEVEL002
 370
25
 100
AcDbLine
   6
CONTINUOUS
  62
1
  10
 735.10000000000
  20
 536.95000000000
  30
0.0
  11
 727.90000000000
  21
 536.95000000000
  31
0.0
   0
LINE
   5
199
 100
AcDbEntity
   8
LEVEL002
 370
25
 100
AcDbLine
   6
CONTINUOUS
  62
1
  10
 727.90000000000
  20
 536.95000000000
  30
0.0
  11
 727.90000000000
  21
 544.15000000000
  31
0.0
   0
LINE
   5
19A
 100
AcDbEntity
   8
LEVEL002
 370
25
 100
AcDbLine
   6
CONTINUOUS
  62
1
  10
 727.90000000000
  20
 544.15000000000
  30
0.0
  11
 771.10000000000
  21
 544.15000000000
  31
0.0
   0
LINE
   5
19B
 100
AcDbEntity
   8
LEVEL002
 370
25
 100
AcDbLine
   6
CONTINUOUS
  62
1
  10
 771.10000000000
  20
 544.15000000000
  30
0.0
  11
 771.10000000000
  21
 536.95000000000
  31
0.0
   0
LINE
   5
19C
 100
AcDbEntity
   8
LEVEL002
 370
25
 100
AcDbLine
   6
CONTINUOUS
  62
1
  10
 771.10000000000
  20
 536.95000000000
  30
0.0
  11
 756.70000000000
  21
 536.95000000000
  31
0.0
   0
LINE
   5
19D
 100
AcDbEntity
   8
LEVEL002
 370
25
 100
AcDbLine
   6
CONTINUOUS
  62
1
  10
 756.70000000000
  20
 536.95000000000
  30
0.0
  11
 756.70000000000
  21
 535.15000000000
  31
0.0
   0
LINE
   5
19E
 100
AcDbEntity
   8
LEVEL002
 370
25
 100
AcDbLine
   6
CONTINUOUS
  62
1
  10
 756.70000000000
  20
 535.15000000000
  30
0.0
  11
 769.30000000000
  21
 535.15000000000
  31
0.0
   0
LINE
   5
19F
 100
AcDbEntity
   8
LEVEL002
 370
25
 100
AcDbLine
   6
CONTINUOUS
  62
1
  10
 769.30000000000
  20
 535.15000000000
  30
0.0
  11
 769.30000000000
  21
 531.55000000000
  31
0.0
   0
LINE
   5
1A0
 100
AcDbEntity
   8
LEVEL002
 370
25
 100
AcDbLine
   6
CONTINUOUS
  62
1
  10
 769.30000000000
  20
 531.55000000000
  30
0.0
  11
 756.70000000000
  21
 531.55000000000
  31
0.0
   0
LINE
   5
1A1
 100
AcDbEntity
   8
LEVEL002
 370
25
 100
AcDbLine
   6
CONTINUOUS
  62
1
  10
 756.70000000000
  20
 531.55000000000
  30
0.0
  11
 756.70000000000
  21
 529.75000000000
  31
0.0
   0
LINE
   5
1A2
 100
AcDbEntity
   8
LEVEL002
 370
25
 100
AcDbLine
   6
CONTINUOUS
  62
1
  10
 756.70000000000
  20
 529.75000000000
  30
0.0
  11
 771.10000000000
  21
 529.75000000000
  31
0.0
   0
LINE
   5
1A3
 100
AcDbEntity
   8
LEVEL002
 370
25
 100
AcDbLine
   6
CONTINUOUS
  62
1
  10
 771.10000000000
  20
 529.75000000000
  30
0.0
  11
 771.10000000000
  21
 522.55000000000
  31
0.0
   0
LINE
   5
1A4
 100
AcDbEntity
   8
LEVEL002
 370
25
 100
AcDbLine
   6
CONTINUOUS
  62
1
  10
 771.10000000000
  20
 522.55000000000
  30
0.0
  11
 749.50000000000
  21
 522.55000000000
  31
0.0
   0
LINE
   5
1A5
 100
AcDbEntity
   8
LEVEL002
 370
25
 100
AcDbLine
   6
CONTINUOUS
  62
1
  10
 749.50000000000
  20
 522.55000000000
  30
0.0
  11
 749.50000000000
  21
 536.95000000000
  31
0.0
   0
LINE
   5
1A6
 100
AcDbEntity
   8
LEVEL002
 370
25
 100
AcDbLine
   6
CONTINUOUS
  62
1
  10
 749.50000000000
  20
 536.95000000000
  30
0.0
  11
 742.30000000000
  21
 536.95000000000
  31
0.0
   0
LINE
   5
1A7
 100
AcDbEntity
   8
LEVEL002
 370
25
 100
AcDbLine
   6
CONTINUOUS
  62
1
  10
 742.30000000000
  20
 536.95000000000
  30
0.0
  11
 742.30000000000
  21
 522.55000000000
  31
0.0
   0
LINE
   5
1A8
 100
AcDbEntity
   8
LEVEL002
 370
25
 100
AcDbLine
   6
CONTINUOUS
  62
1
  10
 742.30000000000
  20
 522.55000000000
  30
0.0
  11
 717.10000000000
  21
 522.55000000000
  31
0.0
   0
LINE
   5
1A9
 100
AcDbEntity
   8
LEVEL002
 370
25
 100
AcDbLine
   6
CONTINUOUS
  62
1
  10
 717.10000000000
  20
 522.55000000000
  30
0.0
  11
 717.10000000000
  21
 544.15000000000
  31
0.0
   0
LINE
   5
1AA
 100
AcDbEntity
   8
LEVEL002
 370
25
 100
AcDbLine
   6
CONTINUOUS
  62
1
  10
 717.10000000000
  20
 544.15000000000
  30
0.0
  11
 702.70000000000
  21
 522.55000000000
  31
0.0
   0
LINE
   5
1AB
 100
AcDbEntity
   8
LEVEL002
 370
25
 100
AcDbLine
   6
CONTINUOUS
  62
1
  10
 702.70000000000
  20
 522.55000000000
  30
0.0
  11
 691.90000000000
  21
 522.55000000000
  31
0.0
   0
LINE
   5
1AC
 100
AcDbEntity
   8
LEVEL002
 370
25
 100
AcDbLine
   6
CONTINUOUS
  62
1
  10
 714.70000000000
  20
 536.22333846940
  30
0.0
  11
 705.58444102040
  21
 522.55000000000
  31
0.0
   0
LINE
   5
1AD
 100
AcDbEntity
   8
LEVEL002
 370
25
 100
AcDbLine
   6
CONTINUOUS
  62
1
  10
 705.58444102040
  20
 522.55000000000
  30
0.0
  11
 714.70000000000
  21
 522.55000000000
  31
0.0
   0
LINE
   5
1AE
 100
AcDbEntity
   8
LEVEL002
 370
25
 100
AcDbLine
   6
CONTINUOUS
  62
1
  10
 714.70000000000
  20
 522.55000000000
  30
0.0
  11
 714.70000000000
  21
 536.22333846940
  31
0.0
   0
ARC
   5
1AF
 100
AcDbEntity
   8
LEVEL002
 370
25
   6
CONTINUOUS
  62
1
 100
AcDbCircle
  10
 781.90000000000
  20
 533.35000000000
  30
0.0
  40
 10.800000000000
 100
AcDbArc
  50
 90.000000000000
  51
 270.00000000000
   0
ARC
   5
1B0
 100
AcDbEntity
   8
LEVEL002
 370
25
   6
CONTINUOUS
  62
1
 100
AcDbCircle
  10
 781.90000000000
  20
 533.35000000000
  30
0.0
  40
 3.6000000000000
 100
AcDbArc
  50
 90.000000000000
  51
 270.00000000000
   0
LINE
   5
1B1
 100
AcDbEntity
   8
LEVEL002
 370
25
 100
AcDbLine
   6
CONTINUOUS
  62
1
  10
 781.90000000000
  20
 544.15000000000
  30
0.0
  11
 792.70000000000
  21
 544.15000000000
  31
0.0
   0
LINE
   5
1B2
 100
AcDbEntity
   8
LEVEL002
 370
25
 100
AcDbLine
   6
CONTINUOUS
  62
1
  10
 792.70000000000
  20
 544.15000000000
  30
0.0
  11
 792.70000000000
  21
 536.95000000000
  31
0.0
   0
LINE
   5
1B3
 100
AcDbEntity
   8
LEVEL002
 370
25
 100
AcDbLine
   6
CONTINUOUS
  62
1
  10
 792.70000000000
  20
 536.95000000000
  30
0.0
  11
 781.90000000000
  21
 536.95000000000
  31
0.0
   0
LINE
   5
1B4
 100
AcDbEntity
   8
LEVEL002
 370
25
 100
AcDbLine
   6
CONTINUOUS
  62
1
  10
 673.90000000000
  20
 544.15000000000
  30
0.0
  11
 673.90000000000
  21
 522.55000000000
  31
0.0
   0
LINE
   5
1B5
 100
AcDbEntity
   8
LEVEL002
 370
25
 100
AcDbLine
   6
CONTINUOUS
  62
1
  10
 673.90000000000
  20
 522.55000000000
  30
0.0
  11
 681.10000000000
  21
 522.55000000000
  31
0.0
   0
LINE
   5
1B6
 100
AcDbEntity
   8
LEVEL002
 370
25
 100
AcDbLine
   6
CONTINUOUS
  62
1
  10
 681.10000000000
  20
 522.55000000000
  30
0.0
  11
 681.10000000000
  21
 526.15000000000
  31
0.0
   0
LINE
   5
1B7
 100
AcDbEntity
   8
LEVEL002
 370
25
 100
AcDbLine
   6
CONTINUOUS
  62
1
  10
 681.10000000000
  20
 526.15000000000
  30
0.0
  11
 688.30000000000
  21
 526.15000000000
  31
0.0
   0
ARC
   5
1B8
 100
AcDbEntity
   8
LEVEL002
 370
25
   6
CONTINUOUS
  62
1
 100
AcDbCircle
  10
 688.30000000000
  20
 535.15000000000
  30
0.0
  40
 9.0000000000000
 100
AcDbArc
  50
 270.00000000000
  51
 90.000000000000
   0
LINE
   5
1B9
 100
AcDbEntity
   8
LEVEL002
 370
25
 100
AcDbLine
   6
CONTINUOUS
  62
1
  10
 688.30000000000
  20
 544.15000000000
  30
0.0
  11
 673.90000000000
  21
 544.15000000000
  31
0.0
   0
LINE
   5
1BA
 100
AcDbEntity
   8
LEVEL002
 370
25
 100
AcDbLine
   6
CONTINUOUS
  62
1
  10
 681.10000000000
  20
 536.95000000000
  30
0.0
  11
 681.10000000000
  21
 533.35000000000
  31
0.0
   0
LINE
   5
1BB
 100
AcDbEntity
   8
LEVEL002
 370
25
 100
AcDbLine
   6
CONTINUOUS
  62
1
  10
 681.10000000000
  20
 533.35000000000
  30
0.0
  11
 688.30000000000
  21
 533.35000000000
  31
0.0
   0
ARC
   5
1BC
 100
AcDbEntity
   8
LEVEL002
 370
25
   6
CONTINUOUS
  62
1
 100
AcDbCircle
  10
 688.30000000000
  20
 535.15000000000
  30
0.0
  40
 1.8000000000000
 100
AcDbArc
  50
 270.00000000000
  51
 90.000000000000
   0
LINE
   5
1BD
 100
AcDbEntity
   8
LEVEL002
 370
25
 100
AcDbLine
   6
CONTINUOUS
  62
1
  10
 688.30000000000
  20
 536.95000000000
  30
0.0
  11
 681.10000000000
  21
 536.95000000000
  31
0.0
   0
LINE
   5
1BE
 100
AcDbEntity
   8
LEVEL002
 370
25
 100
AcDbLine
   6
CONTINUOUS
  62
1
  10
 706.30000000000
  20
 544.15000000000
  30
0.0
  11
 691.90000000000
  21
 522.55000000000
  31
0.0
   0
LINE
   5
1BF
 100
AcDbEntity
   8
LEVEL002
 370
25
 100
AcDbLine
   6
CONTINUOUS
  62
1
  10
 691.90000000000
  20
 522.55000000000
  30
0.0
  11
 702.70000000000
  21
 522.55000000000
  31
0.0
   0
LINE
   5
1C0
 100
AcDbEntity
   8
LEVEL002
 370
25
 100
AcDbLine
   6
CONTINUOUS
  62
1
  10
 702.70000000000
  20
 522.55000000000
  30
0.0
  11
 717.10000000000
  21
 544.15000000000
  31
0.0
   0
LINE
   5
1C1
 100
AcDbEntity
   8
LEVEL002
 370
25
 100
AcDbLine
   6
CONTINUOUS
  62
1
  10
 717.10000000000
  20
 544.15000000000
  30
0.0
  11
 706.30000000000
  21
 544.15000000000
  31
0.0
   0
LINE
   5
1C2
 100
AcDbEntity
   8
LEVEL002
 370
25
 100
AcDbLine
   6
CONTINUOUS
  62
1
  10
 714.70000000000
  20
 522.55000000000
  30
0.0
  11
 714.70000000000
  21
 536.22333846940
  31
0.0
   0
LINE
   5
1C3
 100
AcDbEntity
   8
LEVEL002
 370
25
 100
AcDbLine
   6
CONTINUOUS
  62
1
  10
 714.70000000000
  20
 536.22333846940
  30
0.0
  11
 705.58444102040
  21
 522.55000000000
  31
0.0
   0
LINE
   5
1C4
 100
AcDbEntity
   8
LEVEL002
 370
25
 100
AcDbLine
   6
CONTINUOUS
  62
1
  10
 705.58444102040
  20
 522.55000000000
  30
0.0
  11
 714.70000000000
  21
 522.55000000000
  31
0.0
   0
LINE
   5
1C5
 100
AcDbEntity
   8
LEVEL002
 370
25
 100
AcDbLine
   6
CONTINUOUS
  62
1
  10
 717.10000000000
  20
 522.55000000000
  30
0.0
  11
 742.30000000000
  21
 522.55000000000
  31
0.0
   0
LINE
   5
1C6
 100
AcDbEntity
   8
LEVEL002
 370
25
 100
AcDbLine
   6
CONTINUOUS
  62
1
  10
 742.30000000000
  20
 522.55000000000
  30
0.0
  11
 742.30000000000
  21
 536.95000000000
  31
0.0
   0
LINE
   5
1C7
 100
AcDbEntity
   8
LEVEL002
 370
25
 100
AcDbLine
   6
CONTINUOUS
  62
1
  10
 742.30000000000
  20
 536.95000000000
  30
0.0
  11
 749.50000000000
  21
 536.95000000000
  31
0.0
   0
LINE
   5
1C8
 100
AcDbEntity
   8
LEVEL002
 370
25
 100
AcDbLine
   6
CONTINUOUS
  62
1
  10
 749.50000000000
  20
 536.95000000000
  30
0.0
  11
 749.50000000000
  21
 522.55000000000
  31
0.0
   0
LINE
   5
1C9
 100
AcDbEntity
   8
LEVEL002
 370
25
 100
AcDbLine
   6
CONTINUOUS
  62
1
  10
 749.50000000000
  20
 522.55000000000
  30
0.0
  11
 771.10000000000
  21
 522.55000000000
  31
0.0
   0
LINE
   5
1CA
 100
AcDbEntity
   8
LEVEL002
 370
25
 100
AcDbLine
   6
CONTINUOUS
  62
1
  10
 771.10000000000
  20
 522.55000000000
  30
0.0
  11
 771.10000000000
  21
 529.75000000000
  31
0.0
   0
LINE
   5
1CB
 100
AcDbEntity
   8
LEVEL002
 370
25
 100
AcDbLine
   6
CONTINUOUS
  62
1
  10
 771.10000000000
  20
 529.75000000000
  30
0.0
  11
 756.70000000000
  21
 529.75000000000
  31
0.0
   0
LINE
   5
1CC
 100
AcDbEntity
   8
LEVEL002
 370
25
 100
AcDbLine
   6
CONTINUOUS
  62
1
  10
 756.70000000000
  20
 529.75000000000
  30
0.0
  11
 756.70000000000
  21
 531.55000000000
  31
0.0
   0
LINE
   5
1CD
 100
AcDbEntity
   8
LEVEL002
 370
25
 100
AcDbLine
   6
CONTINUOUS
  62
1
  10
 756.70000000000
  20
 531.55000000000
  30
0.0
  11
 769.30000000000
  21
 531.55000000000
  31
0.0
   0
LINE
   5
1CE
 100
AcDbEntity
   8
LEVEL002
 370
25
 100
AcDbLine
   6
CONTINUOUS
  62
1
  10
 769.30000000000
  20
 531.55000000000
  30
0.0
  11
 769.30000000000
  21
 535.15000000000
  31
0.0
   0
LINE
   5
1CF
 100
AcDbEntity
   8
LEVEL002
 370
25
 100
AcDbLine
   6
CONTINUOUS
  62
1
  10
 769.30000000000
  20
 535.15000000000
  30
0.0
  11
 756.70000000000
  21
 535.15000000000
  31
0.0
   0
LINE
   5
1D0
 100
AcDbEntity
   8
LEVEL002
 370
25
 100
AcDbLine
   6
CONTINUOUS
  62
1
  10
 756.70000000000
  20
 535.15000000000
  30
0.0
  11
 756.70000000000
  21
 536.95000000000
  31
0.0
   0
LINE
   5
1D1
 100
AcDbEntity
   8
LEVEL002
 370
25
 100
AcDbLine
   6
CONTINUOUS
  62
1
  10
 756.70000000000
  20
 536.95000000000
  30
0.0
  11
 771.10000000000
  21
 536.95000000000
  31
0.0
   0
LINE
   5
1D2
 100
AcDbEntity
   8
LEVEL002
 370
25
 100
AcDbLine
   6
CONTINUOUS
  62
1
  10
 771.10000000000
  20
 536.95000000000
  30
0.0
  11
 771.10000000000
  21
 544.15000000000
  31
0.0
   0
LINE
   5
1D3
 100
AcDbEntity
   8
LEVEL002
 370
25
 100
AcDbLine
   6
CONTINUOUS
  62
1
  10
 771.10000000000
  20
 544.15000000000
  30
0.0
  11
 727.90000000000
  21
 544.15000000000
  31
0.0
   0
LINE
   5
1D4
 100
AcDbEntity
   8
LEVEL002
 370
25
 100
AcDbLine
   6
CONTINUOUS
  62
1
  10
 727.90000000000
  20
 544.15000000000
  30
0.0
  11
 727.90000000000
  21
 536.95000000000
  31
0.0
   0
LINE
   5
1D5
 100
AcDbEntity
   8
LEVEL002
 370
25
 100
AcDbLine
   6
CONTINUOUS
  62
1
  10
 727.90000000000
  20
 536.95000000000
  30
0.0
  11
 735.10000000000
  21
 536.95000000000
  31
0.0
   0
LINE
   5
1D6
 100
AcDbEntity
   8
LEVEL002
 370
25
 100
AcDbLine
   6
CONTINUOUS
  62
1
  10
 735.10000000000
  20
 536.95000000000
  30
0.0
  11
 735.10000000000
  21
 529.75000000000
  31
0.0
   0
LINE
   5
1D7
 100
AcDbEntity
   8
LEVEL002
 370
25
 100
AcDbLine
   6
CONTINUOUS
  62
1
  10
 735.10000000000
  20
 529.75000000000
  30
0.0
  11
 724.30000000000
  21
 529.75000000000
  31
0.0
   0
LINE
   5
1D8
 100
AcDbEntity
   8
LEVEL002
 370
25
 100
AcDbLine
   6
CONTINUOUS
  62
1
  10
 724.30000000000
  20
 529.75000000000
  30
0.0
  11
 724.30000000000
  21
 544.15000000000
  31
0.0
   0
LINE
   5
1D9
 100
AcDbEntity
   8
LEVEL002
 370
25
 100
AcDbLine
   6
CONTINUOUS
  62
1
  10
 724.30000000000
  20
 544.15000000000
  30
0.0
  11
 717.10000000000
  21
 544.15000000000
  31
0.0
   0
LINE
   5
1DA
 100
AcDbEntity
   8
LEVEL002
 370
25
 100
AcDbLine
   6
CONTINUOUS
  62
1
  10
 717.10000000000
  20
 544.15000000000
  30
0.0
  11
 717.10000000000
  21
 522.55000000000
  31
0.0
   0
LINE
   5
1DB
 100
AcDbEntity
   8
LEVEL002
 370
25
 100
AcDbLine
   6
CONTINUOUS
  62
1
  10
 781.90000000000
  20
 522.55000000000
  30
0.0
  11
 792.70000000000
  21
 522.55000000000
  31
0.0
   0
LINE
   5
1DC
 100
AcDbEntity
   8
LEVEL002
 370
25
 100
AcDbLine
   6
CONTINUOUS
  62
1
  10
 792.70000000000
  20
 522.55000000000
  30
0.0
  11
 792.70000000000
  21
 529.75000000000
  31
0.0
   0
LINE
   5
1DD
 100
AcDbEntity
   8
LEVEL002
 370
25
 100
AcDbLine
   6
CONTINUOUS
  62
1
  10
 792.70000000000
  20
 529.75000000000
  30
0.0
  11
 781.90000000000
  21
 529.75000000000
  31
0.0
   0
ARC
   5
1DE
 100
AcDbEntity
   8
LEVEL002
 370
25
   6
CONTINUOUS
  62
1
 100
AcDbCircle
  10
 781.90000000000
  20
 533.35000000000
  30
0.0
  40
 3.6000000000000
 100
AcDbArc
  50
 90.000000000000
  51
 270.00000000000
   0
LINE
   5
1DF
 100
AcDbEntity
   8
LEVEL002
 370
25
 100
AcDbLine
   6
CONTINUOUS
  62
1
  10
 781.90000000000
  20
 536.95000000000
  30
0.0
  11
 792.70000000000
  21
 536.95000000000
  31
0.0
   0
LINE
   5
1E0
 100
AcDbEntity
   8
LEVEL002
 370
25
 100
AcDbLine
   6
CONTINUOUS
  62
1
  10
 792.70000000000
  20
 536.95000000000
  30
0.0
  11
 792.70000000000
  21
 544.15000000000
  31
0.0
   0
LINE
   5
1E1
 100
AcDbEntity
   8
LEVEL002
 370
25
 100
AcDbLine
   6
CONTINUOUS
  62
1
  10
 792.70000000000
  20
 544.15000000000
  30
0.0
  11
 781.90000000000
  21
 544.15000000000
  31
0.0
   0
ARC
   5
1E2
 100
AcDbEntity
   8
LEVEL002
 370
25
   6
CONTINUOUS
  62
1
 100
AcDbCircle
  10
 781.90000000000
  20
 533.35000000000
  30
0.0
  40
 10.800000000000
 100
AcDbArc
  50
 90.000000000000
  51
 270.00000000000
   0
MTEXT
   5
1E4
 100
AcDbEntity
   8
LEVEL002
 370
25
  62
1
 100
AcDbMText
  10
 673.90000000000
  20
 547.75000000000
  30
0.0
  40
 7.5000000000000
  41
0.0
  71
7
  72
1
   1
\T1.000000;ケージーパルテック株式会社
   7
GMM003
  44
 0.79999984000003
   0
LINE
   5
1E5
 100
AcDbEntity
   8
LEVEL002
 370
25
 100
AcDbLine
   6
CONTINUOUS
  62
1
  10
 666.70000000000
  20
 527.35000000000
  30
0.0
  11
 657.70000000000
  21
 541.75000000000
  31
0.0
   0
LINE
   5
1E6
 100
AcDbEntity
   8
LEVEL002
 370
25
 100
AcDbLine
   6
CONTINUOUS
  62
1
  10
 657.70000000000
  20
 541.75000000000
  30
0.0
  11
 666.70000000000
  21
 541.75000000000
  31
0.0
   0
LINE
   5
1E7
 100
AcDbEntity
   8
LEVEL002
 370
25
 100
AcDbLine
   6
CONTINUOUS
  62
1
  10
 666.70000000000
  20
 541.75000000000
  30
0.0
  11
 666.70000000000
  21
 527.35000000000
  31
0.0
   0
LINE
   5
1E8
 100
AcDbEntity
   8
LEVEL002
 370
25
 100
AcDbLine
   6
CONTINUOUS
  62
1
  10
 657.70000000000
  20
 541.75000000000
  30
0.0
  11
 666.70000000000
  21
 527.35000000000
  31
0.0
   0
LINE
   5
1E9
 100
AcDbEntity
   8
LEVEL002
 370
25
 100
AcDbLine
   6
CONTINUOUS
  62
1
  10
 666.70000000000
  20
 527.35000000000
  30
0.0
  11
 666.70000000000
  21
 541.75000000000
  31
0.0
   0
LINE
   5
1EA
 100
AcDbEntity
   8
LEVEL002
 370
25
 100
AcDbLine
   6
CONTINUOUS
  62
1
  10
 666.70000000000
  20
 541.75000000000
  30
0.0
  11
 657.70000000000
  21
 541.75000000000
  31
0.0
   0
LINE
   5
1EB
 100
AcDbEntity
   8
LEVEL002
 370
25
 100
AcDbLine
   6
CONTINUOUS
  62
1
  10
 638.10000000000
  20
 560.95000000000
  30
0.0
  11
 625.30000000000
  21
 541.75000000000
  31
0.0
   0
LINE
   5
1EC
 100
AcDbEntity
   8
LEVEL002
 370
25
 100
AcDbLine
   6
CONTINUOUS
  62
1
  10
 625.30000000000
  20
 541.75000000000
  30
0.0
  11
 638.10000000000
  21
 522.55000000000
  31
0.0
   0
LINE
   5
1ED
 100
AcDbEntity
   8
LEVEL002
 370
25
 100
AcDbLine
   6
CONTINUOUS
  62
1
  10
 648.90000000000
  20
 522.55000000000
  30
0.0
  11
 636.10000000000
  21
 541.75000000000
  31
0.0
   0
LINE
   5
1EE
 100
AcDbEntity
   8
LEVEL002
 370
25
 100
AcDbLine
   6
CONTINUOUS
  62
1
  10
 636.10000000000
  20
 541.75000000000
  30
0.0
  11
 648.90000000000
  21
 560.95000000000
  31
0.0
   0
LINE
   5
1EF
 100
AcDbEntity
   8
LEVEL002
 370
25
 100
AcDbLine
   6
CONTINUOUS
  62
1
  10
 654.30000000000
  20
 560.95000000000
  30
0.0
  11
 641.50000000000
  21
 541.75000000000
  31
0.0
   0
LINE
   5
1F0
 100
AcDbEntity
   8
LEVEL002
 370
25
 100
AcDbLine
   6
CONTINUOUS
  62
1
  10
 641.50000000000
  20
 541.75000000000
  30
0.0
  11
 654.30000000000
  21
 522.55000000000
  31
0.0
   0
LINE
   5
1F1
 100
AcDbEntity
   8
LEVEL002
 370
25
 100
AcDbLine
   6
CONTINUOUS
  62
1
  10
 665.10000000000
  20
 522.55000000000
  30
0.0
  11
 652.30000000000
  21
 541.75000000000
  31
0.0
   0
LINE
   5
1F2
 100
AcDbEntity
   8
LEVEL002
 370
25
 100
AcDbLine
   6
CONTINUOUS
  62
1
  10
 652.30000000000
  20
 541.75000000000
  30
0.0
  11
 665.10000000000
  21
 560.95000000000
  31
0.0
   0
LINE
   5
1F3
 100
AcDbEntity
   8
LEVEL002
 370
25
 100
AcDbLine
   6
CONTINUOUS
  62
1
  10
 638.10000000000
  20
 522.55000000000
  30
0.0
  11
 625.30000000000
  21
 541.75000000000
  31
0.0
   0
LINE
   5
1F4
 100
AcDbEntity
   8
LEVEL002
 370
25
 100
AcDbLine
   6
CONTINUOUS
  62
1
  10
 625.30000000000
  20
 541.75000000000
  30
0.0
  11
 638.10000000000
  21
 560.95000000000
  31
0.0
   0
LINE
   5
1F5
 100
AcDbEntity
   8
LEVEL002
 370
25
 100
AcDbLine
   6
CONTINUOUS
  62
1
  10
 638.10000000000
  20
 560.95000000000
  30
0.0
  11
 648.90000000000
  21
 560.95000000000
  31
0.0
   0
LINE
   5
1F6
 100
AcDbEntity
   8
LEVEL002
 370
25
 100
AcDbLine
   6
CONTINUOUS
  62
1
  10
 648.90000000000
  20
 560.95000000000
  30
0.0
  11
 636.10000000000
  21
 541.75000000000
  31
0.0
   0
LINE
   5
1F7
 100
AcDbEntity
   8
LEVEL002
 370
25
 100
AcDbLine
   6
CONTINUOUS
  62
1
  10
 636.10000000000
  20
 541.75000000000
  30
0.0
  11
 648.90000000000
  21
 522.55000000000
  31
0.0
   0
LINE
   5
1F8
 100
AcDbEntity
   8
LEVEL002
 370
25
 100
AcDbLine
   6
CONTINUOUS
  62
1
  10
 648.90000000000
  20
 522.55000000000
  30
0.0
  11
 638.10000000000
  21
 522.55000000000
  31
0.0
   0
LINE
   5
1F9
 100
AcDbEntity
   8
LEVEL002
 370
25
 100
AcDbLine
   6
CONTINUOUS
  62
1
  10
 654.30000000000
  20
 522.55000000000
  30
0.0
  11
 641.50000000000
  21
 541.75000000000
  31
0.0
   0
LINE
   5
1FA
 100
AcDbEntity
   8
LEVEL002
 370
25
 100
AcDbLine
   6
CONTINUOUS
  62
1
  10
 641.50000000000
  20
 541.75000000000
  30
0.0
  11
 654.30000000000
  21
 560.95000000000
  31
0.0
   0
LINE
   5
1FB
 100
AcDbEntity
   8
LEVEL002
 370
25
 100
AcDbLine
   6
CONTINUOUS
  62
1
  10
 654.30000000000
  20
 560.95000000000
  30
0.0
  11
 665.10000000000
  21
 560.95000000000
  31
0.0
   0
LINE
   5
1FC
 100
AcDbEntity
   8
LEVEL002
 370
25
 100
AcDbLine
   6
CONTINUOUS
  62
1
  10
 665.10000000000
  20
 560.95000000000
  30
0.0
  11
 652.30000000000
  21
 541.75000000000
  31
0.0
   0
LINE
   5
1FD
 100
AcDbEntity
   8
LEVEL002
 370
25
 100
AcDbLine
   6
CONTINUOUS
  62
1
  10
 652.30000000000
  20
 541.75000000000
  30
0.0
  11
 665.10000000000
  21
 522.55000000000
  31
0.0
   0
LINE
   5
1FE
 100
AcDbEntity
   8
LEVEL002
 370
25
 100
AcDbLine
   6
CONTINUOUS
  62
1
  10
 665.10000000000
  20
 522.55000000000
  30
0.0
  11
 654.30000000000
  21
 522.55000000000
  31
0.0
   0
MTEXT
   5
200
 100
AcDbEntity
   8
LEVEL002
 370
15
  62
8
 100
AcDbMText
  10
 35.999999999900
  20
 542.33333333340
  30
0.0
  40
 4.0000000000000
  41
0.0
  71
7
  72
1
   1
\T1.125000;※コンクリート・木製兼用
   7
GMM001
  44
 0.79999984000003
   0
MTEXT
   5
202
 100
AcDbEntity
   8
LEVEL002
 370
15
  62
8
 100
AcDbMText
  10
 180.49999999990
  20
 542.33333333340
  30
0.0
  40
 4.0000000000000
  41
0.0
  71
7
  72
1
   1
\T1.125000;※コンクリート・木製兼用
   7
GMM001
  44
 0.79999984000003
   0
MTEXT
   5
204
 100
AcDbEntity
   8
LEVEL002
 370
15
  62
8
 100
AcDbMText
  10
 35.999999999900
  20
 269.33333333342
  30
0.0
  40
 4.0000000000000
  41
0.0
  71
7
  72
1
   1
\T1.125000;※コンクリート・木製兼用
   7
GMM001
  44
 0.79999984000003
   0
MTEXT
   5
206
 100
AcDbEntity
   8
LEVEL002
 370
15
  62
8
 100
AcDbMText
  10
 180.49999999990
  20
 269.33333333342
  30
0.0
  40
 4.0000000000000
  41
0.0
  71
7
  72
1
   1
\T1.125000;※コンクリート・木製兼用
   7
GMM001
  44
 0.79999984000003
   0
MTEXT
   5
208
 100
AcDbEntity
   8
LEVEL002
 370
15
  62
8
 100
AcDbMText
  10
 700.22115562877
  20
 171.59954361476
  30
0.0
  40
 6.5000000000000
  41
0.0
  71
2
  72
1
   1
{\T1.000000;　※掲載は既製品のみでございます。}\P{\T1.000000;　　別注品に関しましてはお問い合わせお願い致します。　}\P{\T1.000000;　※本製品は予告無しに変更する事があります。}
   7
GMM001
  44
 0.79999984000003
   0
MTEXT
   5
20A
 100
AcDbEntity
   8
LEVEL002
 370
15
  62
8
 100
AcDbMText
  10
 774.43016912150
  20
 97.333333333360
  30
0.0
  40
 6.0000000000000
  41
0.0
  71
5
  72
1
   1
\T1.000000;令和　４年　１月１１日
   7
GMM003
  44
 0.79999984000003
   0
MTEXT
   5
20C
 100
AcDbEntity
   8
LEVEL002
 370
15
  62
8
 100
AcDbMText
  10
 774.43016912150
  20
 84.000000000020
  30
0.0
  40
 6.0000000000000
  41
0.0
  71
5
  72
1
   1
\T1.000000;令和　　年　　月　　日
   7
GMM003
  44
 0.79999984000003
   0
MTEXT
   5
20E
 100
AcDbEntity
   8
LEVEL002
 370
15
  62
8
 100
AcDbMText
  10
 774.43016912150
  20
 70.666666666690
  30
0.0
  40
 6.0000000000000
  41
0.0
  71
5
  72
1
   1
\T1.000000;令和　　年　　月　　日
   7
GMM003
  44
 0.79999984000003
   0
MTEXT
   5
210
 100
AcDbEntity
   8
LEVEL002
 370
15
  62
8
 100
AcDbMText
  10
 708.99999999990
  20
 453.50000000000
  30
0.0
  40
 8.0000000000000
  41
0.0
  71
5
  72
1
   1
\T1.000000;ＹＦ型
   7
GMM001
  44
 0.79999984000003
   0
MTEXT
   5
212
 100
AcDbEntity
   8
LEVEL002
 370
15
  62
8
 100
AcDbMText
  10
 176.09999999990
  20
 560.00000000000
  30
0.0
  40
 6.0000000000000
  41
0.0
  71
4
  72
1
   1
\T1.000000;　ＹＦＷ１００Ｎ２
   7
GMM001
  44
 0.79999984000003
   0
MTEXT
   5
214
 100
AcDbEntity
   8
LEVEL002
 370
15
  62
8
 100
AcDbMText
  10
 176.09999999990
  20
 287.00000000002
  30
0.0
  40
 6.0000000000000
  41
0.0
  71
4
  72
1
   1
\T1.000000;　ＹＦＷ１００Ｐ２
   7
GMM001
  44
 0.79999984000003
   0
LINE
   5
215
 100
AcDbEntity
   8
LEVEL001
 370
15
 100
AcDbLine
   6
DASHDOT
  62
8
  10
 103.24999999996
  20
 472.43660146651
  30
0.0
  11
 103.24999999996
  21
 482.57840177103
  31
0.0
   0
DIMENSION
   5
216
 100
AcDbEntity
   8
LEVEL001
 370
15
   6
CONTINUOUS
  62
8
 100
AcDbDimension
   2
*D1
  10
 110.84000382311
  20
 479.17973827182
  30
0.0
  11
 110.84000382311
  21
 483.04093878006
  31
0.0
  70
128
   3
GMM001
 100
AcDbAlignedDimension
  13
 103.24999999996
  23
 476.37973827182
  33
0.0
  14
 110.84000382311
  24
 479.17973827182
  34
0.0
  50
 90.000000000000
 100
AcDbRotatedDimension
   0
DIMENSION
   5
217
 100
AcDbEntity
   8
LEVEL001
 370
15
   6
CONTINUOUS
  62
8
 100
AcDbDimension
   2
*D2
  10
 103.24999999996
  20
 489.17973827182
  30
0.0
  11
 93.249999999958
  21
 489.17973827182
  31
0.0
  70
0
   3
GMM002
 100
AcDbAlignedDimension
  13
 83.249999999958
  23
 477.37973827182
  33
0.0
  14
 103.24999999996
  24
 482.57840177103
  34
0.0
 100
AcDbRotatedDimension
   0
DIMENSION
   5
218
 100
AcDbEntity
   8
LEVEL001
 370
15
   6
CONTINUOUS
  62
8
 100
AcDbDimension
   2
*D3
  10
 123.24999999996
  20
 499.17973827182
  30
0.0
  11
 103.24999999996
  21
 499.17973827182
  31
0.0
  70
0
   3
GMM002
 100
AcDbAlignedDimension
  13
 83.249999999958
  23
 476.28609634610
  33
0.0
  14
 123.24999999996
  24
 476.28609634610
  34
0.0
 100
AcDbRotatedDimension
   0
DIMENSION
   5
219
 100
AcDbEntity
   8
LEVEL001
 370
15
   6
CONTINUOUS
  62
8
 100
AcDbDimension
   2
*D4
  10
 78.249999999958
  20
 479.17973827182
  30
0.0
  11
 78.249999999958
  21
 481.25483417429
  31
0.0
  70
128
   3
GMM003
 100
AcDbAlignedDimension
  13
 85.049999999958
  23
 475.57973827183
  33
0.0
  14
 85.049999999958
  24
 479.17973827182
  34
0.0
  50
 90.000000000000
 100
AcDbRotatedDimension
   0
LEADER
   5
21A
 100
AcDbEntity
   8
LEVEL001
 370
15
   6
CONTINUOUS
  62
8
 100
AcDbLeader
   3
GMM004
  73
3
  74
1
  75
0
  40
 4.0000000000000
  41
0.0
  76
2
  10
 93.249999999958
  20
 479.17973827182
  30
0.0
  10
 93.249999999958
  20
 486.31982547325
  30
0.0
  77
8
   0
LEADER
   5
21B
 100
AcDbEntity
   8
LEVEL001
 370
15
   6
CONTINUOUS
  62
8
 100
AcDbLeader
   3
GMM004
  73
3
  74
1
  75
0
  40
 4.0000000000000
  41
0.0
  76
2
  10
 113.24999999996
  20
 479.17973827182
  30
0.0
  10
 113.24999999996
  20
 486.31982547325
  30
0.0
  77
8
   0
MTEXT
   5
21D
 100
AcDbEntity
   8
LEVEL002
 370
15
  62
8
 100
AcDbMText
  10
 31.599999999900
  20
 560.00000000000
  30
0.0
  40
 6.0000000000000
  41
0.0
  71
4
  72
1
   1
\T1.000000;　ＹＦＳ４０Ｎ２
   7
GMM001
  44
 0.79999984000003
   0
LINE
   5
21E
 100
AcDbEntity
   8
LEVEL001
 370
15
 100
AcDbLine
   6
DASHDOT
  62
8
  10
 229.74999999998
  20
 472.43660146651
  30
0.0
  11
 229.74999999998
  21
 482.57840177103
  31
0.0
   0
LINE
   5
21F
 100
AcDbEntity
   8
LEVEL001
 370
15
 100
AcDbLine
   6
DASHDOT
  62
8
  10
 247.74999999998
  20
 471.20006750866
  30
0.0
  11
 247.74999999998
  21
 485.68712981295
  31
0.0
   0
LINE
   5
220
 100
AcDbEntity
   8
LEVEL001
 370
15
 100
AcDbLine
   6
DASHDOT
  62
8
  10
 265.74999999998
  20
 472.43660146651
  30
0.0
  11
 265.74999999998
  21
 482.57840177103
  31
0.0
   0
DIMENSION
   5
221
 100
AcDbEntity
   8
LEVEL001
 370
15
   6
CONTINUOUS
  62
8
 100
AcDbDimension
   2
*D7
  10
 273.34000382313
  20
 479.17973827182
  30
0.0
  11
 273.34000382313
  21
 483.04093878006
  31
0.0
  70
128
   3
GMM001
 100
AcDbAlignedDimension
  13
 265.74999999998
  23
 476.37973827183
  33
0.0
  14
 273.34000382313
  24
 479.17973827182
  34
0.0
  50
 90.000000000000
 100
AcDbRotatedDimension
   0
DIMENSION
   5
222
 100
AcDbEntity
   8
LEVEL001
 370
15
   6
CONTINUOUS
  62
8
 100
AcDbDimension
   2
*D8
  10
 192.74999999998
  20
 479.17973827182
  30
0.0
  11
 192.74999999998
  21
 481.07164395831
  31
0.0
  70
128
   3
GMM005
 100
AcDbAlignedDimension
  13
 199.54999999998
  23
 475.57973827183
  33
0.0
  14
 199.54999999998
  24
 479.17973827182
  34
0.0
  50
 90.000000000000
 100
AcDbRotatedDimension
   0
DIMENSION
   5
223
 100
AcDbEntity
   8
LEVEL001
 370
15
   6
CONTINUOUS
  62
8
 100
AcDbDimension
   2
*D9
  10
 229.74999999998
  20
 489.17973827182
  30
0.0
  11
 213.74999999998
  21
 489.17973827182
  31
0.0
  70
0
   3
GMM002
 100
AcDbAlignedDimension
  13
 197.74999999998
  23
 477.28609634610
  33
0.0
  14
 229.74999999998
  24
 482.57840177103
  34
0.0
 100
AcDbRotatedDimension
   0
DIMENSION
   5
224
 100
AcDbEntity
   8
LEVEL001
 370
15
   6
CONTINUOUS
  62
8
 100
AcDbDimension
   2
*D10
  10
 265.74999999998
  20
 489.17973827182
  30
0.0
  11
 247.74999999998
  21
 489.17973827182
  31
0.0
  70
0
   3
GMM002
 100
AcDbAlignedDimension
  13
 229.74999999998
  23
 482.57840177103
  33
0.0
  14
 265.74999999998
  24
 482.57840177103
  34
0.0
 100
AcDbRotatedDimension
   0
DIMENSION
   5
225
 100
AcDbEntity
   8
LEVEL001
 370
15
   6
CONTINUOUS
  62
8
 100
AcDbDimension
   2
*D11
  10
 297.74999999998
  20
 499.17973827182
  30
0.0
  11
 247.74999999998
  21
 499.17973827182
  31
0.0
  70
0
   3
GMM002
 100
AcDbAlignedDimension
  13
 197.74999999998
  23
 476.28609634610
  33
0.0
  14
 297.74999999998
  24
 476.28609634610
  34
0.0
 100
AcDbRotatedDimension
   0
LEADER
   5
226
 100
AcDbEntity
   8
LEVEL001
 370
15
   6
CONTINUOUS
  62
8
 100
AcDbLeader
   3
GMM004
  73
3
  74
1
  75
0
  40
 4.0000000000000
  41
0.0
  76
2
  10
 213.74999999998
  20
 479.17973827182
  30
0.0
  10
 213.74999999998
  20
 486.31982547325
  30
0.0
  77
8
   0
LEADER
   5
227
 100
AcDbEntity
   8
LEVEL001
 370
15
   6
CONTINUOUS
  62
8
 100
AcDbLeader
   3
GMM004
  73
3
  74
1
  75
0
  40
 4.0000000000000
  41
0.0
  76
2
  10
 281.74999999998
  20
 479.17973827182
  30
0.0
  10
 281.74999999998
  20
 486.31982547325
  30
0.0
  77
8
   0
LINE
   5
228
 100
AcDbEntity
   8
LEVEL001
 370
15
 100
AcDbLine
   6
DASHDOT
  62
8
  10
 103.24999999996
  20
 204.08882629092
  30
0.0
  11
 103.24999999996
  21
 214.57840177109
  31
0.0
   0
DIMENSION
   5
229
 100
AcDbEntity
   8
LEVEL001
 370
15
   6
CONTINUOUS
  62
8
 100
AcDbDimension
   2
*D14
  10
 110.84000382311
  20
 211.17973827188
  30
0.0
  11
 110.84000382311
  21
 215.04093878012
  31
0.0
  70
128
   3
GMM001
 100
AcDbAlignedDimension
  13
 103.24999999996
  23
 208.37973827188
  33
0.0
  14
 110.84000382311
  24
 211.17973827188
  34
0.0
  50
 90.000000000000
 100
AcDbRotatedDimension
   0
DIMENSION
   5
22A
 100
AcDbEntity
   8
LEVEL001
 370
15
   6
CONTINUOUS
  62
8
 100
AcDbDimension
   2
*D15
  10
 78.249999999958
  20
 211.17973827188
  30
0.0
  11
 78.249999999958
  21
 213.25483417435
  31
0.0
  70
128
   3
GMM003
 100
AcDbAlignedDimension
  13
 85.049999999958
  23
 207.57973827188
  33
0.0
  14
 88.709406921946
  24
 211.17973827188
  34
0.0
  50
 90.000000000000
 100
AcDbRotatedDimension
   0
DIMENSION
   5
22B
 100
AcDbEntity
   8
LEVEL001
 370
15
   6
CONTINUOUS
  62
8
 100
AcDbDimension
   2
*D16
  10
 103.24999999996
  20
 221.17973827188
  30
0.0
  11
 93.249999999958
  21
 221.17973827188
  31
0.0
  70
0
   3
GMM002
 100
AcDbAlignedDimension
  13
 83.249999999958
  23
 209.37973827188
  33
0.0
  14
 103.24999999996
  24
 214.57840177109
  34
0.0
 100
AcDbRotatedDimension
   0
DIMENSION
   5
22C
 100
AcDbEntity
   8
LEVEL001
 370
15
   6
CONTINUOUS
  62
8
 100
AcDbDimension
   2
*D17
  10
 123.24999999996
  20
 231.17973827188
  30
0.0
  11
 103.24999999996
  21
 231.17973827188
  31
0.0
  70
0
   3
GMM002
 100
AcDbAlignedDimension
  13
 83.249999999958
  23
 208.28609634616
  33
0.0
  14
 123.24999999996
  24
 208.28609634616
  34
0.0
 100
AcDbRotatedDimension
   0
LINE
   5
22D
 100
AcDbEntity
   8
LEVEL001
 370
15
 100
AcDbLine
   6
DASHDOT
  62
8
  10
 229.74999999998
  20
 204.08882629092
  30
0.0
  11
 229.74999999998
  21
 214.57840177109
  31
0.0
   0
LINE
   5
22E
 100
AcDbEntity
   8
LEVEL001
 370
15
 100
AcDbLine
   6
DASHDOT
  62
8
  10
 247.74999999998
  20
 204.08882629092
  30
0.0
  11
 247.74999999998
  21
 220.77181304072
  31
0.0
   0
LINE
   5
22F
 100
AcDbEntity
   8
LEVEL001
 370
15
 100
AcDbLine
   6
DASHDOT
  62
8
  10
 265.74999999998
  20
 204.08882629092
  30
0.0
  11
 265.74999999998
  21
 214.57840177109
  31
0.0
   0
DIMENSION
   5
230
 100
AcDbEntity
   8
LEVEL001
 370
15
   6
CONTINUOUS
  62
8
 100
AcDbDimension
   2
*D18
  10
 273.34000382313
  20
 211.17973827188
  30
0.0
  11
 273.34000382313
  21
 215.04093878012
  31
0.0
  70
128
   3
GMM001
 100
AcDbAlignedDimension
  13
 265.74999999998
  23
 208.37973827188
  33
0.0
  14
 273.34000382313
  24
 211.17973827188
  34
0.0
  50
 90.000000000000
 100
AcDbRotatedDimension
   0
DIMENSION
   5
231
 100
AcDbEntity
   8
LEVEL001
 370
15
   6
CONTINUOUS
  62
8
 100
AcDbDimension
   2
*D19
  10
 192.74999999998
  20
 211.17973827188
  30
0.0
  11
 192.74999999998
  21
 213.07164395837
  31
0.0
  70
128
   3
GMM005
 100
AcDbAlignedDimension
  13
 199.54999999998
  23
 207.57973827188
  33
0.0
  14
 203.40886932422
  24
 211.17973827188
  34
0.0
  50
 90.000000000000
 100
AcDbRotatedDimension
   0
DIMENSION
   5
232
 100
AcDbEntity
   8
LEVEL001
 370
15
   6
CONTINUOUS
  62
8
 100
AcDbDimension
   2
*D20
  10
 229.74999999998
  20
 221.17973827188
  30
0.0
  11
 213.74999999998
  21
 221.17973827188
  31
0.0
  70
0
   3
GMM002
 100
AcDbAlignedDimension
  13
 197.74999999998
  23
 209.28609634616
  33
0.0
  14
 229.74999999998
  24
 214.57840177109
  34
0.0
 100
AcDbRotatedDimension
   0
DIMENSION
   5
233
 100
AcDbEntity
   8
LEVEL001
 370
15
   6
CONTINUOUS
  62
8
 100
AcDbDimension
   2
*D21
  10
 265.74999999998
  20
 221.17973827188
  30
0.0
  11
 247.74999999998
  21
 221.17973827188
  31
0.0
  70
0
   3
GMM002
 100
AcDbAlignedDimension
  13
 229.74999999998
  23
 214.57840177109
  33
0.0
  14
 265.74999999998
  24
 214.57840177109
  34
0.0
 100
AcDbRotatedDimension
   0
DIMENSION
   5
234
 100
AcDbEntity
   8
LEVEL001
 370
15
   6
CONTINUOUS
  62
8
 100
AcDbDimension
   2
*D22
  10
 297.74999999998
  20
 231.17973827188
  30
0.0
  11
 247.74999999998
  21
 231.17973827188
  31
0.0
  70
0
   3
GMM002
 100
AcDbAlignedDimension
  13
 197.74999999998
  23
 208.28609634616
  33
0.0
  14
 297.74999999998
  24
 208.28609634616
  34
0.0
 100
AcDbRotatedDimension
   0
ARC
   5
235
 100
AcDbEntity
   8
LEVEL001
 370
30
   6
CONTINUOUS
  62
7
 100
AcDbCircle
  10
 99.314999999958
  20
 209.30473827188
  30
0.0
  40
 1.8750000000000
 100
AcDbArc
  50
0.0
  51
 90.000000000000
   0
ARC
   5
236
 100
AcDbEntity
   8
LEVEL001
 370
30
   6
CONTINUOUS
  62
7
 100
AcDbCircle
  10
 99.314999999958
  20
 209.30473827188
  30
0.0
  40
 1.0750000000000
 100
AcDbArc
  50
 1.1179871328281
  51
 89.999999999997
   0
ARC
   5
237
 100
AcDbEntity
   8
LEVEL001
 370
30
   6
CONTINUOUS
  62
7
 100
AcDbCircle
  10
 101.88950981294
  20
 209.35497991644
  30
0.0
  40
 1.5000000000000
 100
AcDbArc
  50
 181.11798713160
  51
 247.12565221813
   0
ARC
   5
238
 100
AcDbEntity
   8
LEVEL001
 370
30
   6
CONTINUOUS
  62
7
 100
AcDbCircle
  10
 104.61049018697
  20
 209.35497991644
  30
0.0
  40
 1.5000000000000
 100
AcDbArc
  50
 292.87434778258
  51
 358.88201286892
   0
ARC
   5
239
 100
AcDbEntity
   8
LEVEL001
 370
30
   6
CONTINUOUS
  62
7
 100
AcDbCircle
  10
 107.18499999996
  20
 209.30473827188
  30
0.0
  40
 1.8750000000000
 100
AcDbArc
  50
 90.000000000000
  51
 180.00000000000
   0
ARC
   5
23A
 100
AcDbEntity
   8
LEVEL001
 370
30
   6
CONTINUOUS
  62
7
 100
AcDbCircle
  10
 107.18499999996
  20
 209.30473827188
  30
0.0
  40
 1.0750000000000
 100
AcDbArc
  50
 90.000000000013
  51
 178.88201286644
   0
LINE
   5
23B
 100
AcDbEntity
   8
LEVEL001
 370
30
 100
AcDbLine
   6
CONTINUOUS
  62
7
  10
 101.18999999996
  20
 208.99345886280
  30
0.0
  11
 101.18999999996
  21
 209.30473827188
  31
0.0
   0
ARC
   5
23C
 100
AcDbEntity
   8
LEVEL001
 370
30
   6
CONTINUOUS
  62
7
 100
AcDbCircle
  10
 101.31499999996
  20
 208.99345886280
  30
0.0
  40
 0.12500000000000
 100
AcDbArc
  50
 179.99999999997
  51
 241.65063568189
   0
LINE
   5
23D
 100
AcDbEntity
   8
LEVEL001
 370
30
 100
AcDbLine
   6
CONTINUOUS
  62
7
  10
 105.30999999996
  20
 209.30473827188
  30
0.0
  11
 105.30999999996
  21
 209.03849555216
  31
0.0
   0
ARC
   5
23E
 100
AcDbEntity
   8
LEVEL001
 370
30
   6
CONTINUOUS
  62
7
 100
AcDbCircle
  10
 103.24999999996
  20
 212.57973827188
  30
0.0
  40
 4.2000000000000
 100
AcDbArc
  50
 241.56310985114
  51
 297.71022204924
   0
ARC
   5
23F
 100
AcDbEntity
   8
LEVEL001
 370
30
   6
CONTINUOUS
  62
7
 100
AcDbCircle
  10
 105.10999999996
  20
 209.03849555216
  30
0.0
  40
 0.20000000000000
 100
AcDbArc
  50
 297.71022204926
  51
 0.81422199845465E-10
   0
ARC
   5
240
 100
AcDbEntity
   8
LEVEL001
 370
30
   6
CONTINUOUS
  62
7
 100
AcDbCircle
  10
 103.24999999996
  20
 212.57973827188
  30
0.0
  40
 5.0000000000000
 100
AcDbArc
  50
 247.12565221863
  51
 292.87434778158
   0
LINE
   5
241
 100
AcDbEntity
   8
LEVEL001
 370
30
 100
AcDbLine
   6
CONTINUOUS
  62
7
  10
 117.79059307797
  20
 211.17973827188
  30
0.0
  11
 107.18499999996
  21
 211.17973827188
  31
0.0
   0
LINE
   5
242
 100
AcDbEntity
   8
LEVEL001
 370
30
 100
AcDbLine
   6
CONTINUOUS
  62
7
  10
 117.59113067572
  20
 210.37973827188
  30
0.0
  11
 107.18499999996
  21
 210.37973827188
  31
0.0
   0
LWPOLYLINE
   5
243
 100
AcDbEntity
   8
LEVEL001
 370
30
   6
CONTINUOUS
  62
7
 100
AcDbPolyline
  90
4
  70
0
  10
 117.79059307797
  20
 211.17973827188
  10
 123.23274202891
  20
 208.28609634616
  10
 122.85716477869
  20
 207.57973827188
  10
 117.59113067572
  20
 210.37973827188
   0
LINE
   5
244
 100
AcDbEntity
   8
LEVEL001
 370
30
 100
AcDbLine
   6
CONTINUOUS
  62
7
  10
 88.709406921947
  20
 211.17973827188
  30
0.0
  11
 99.314999999958
  21
 211.17973827188
  31
0.0
   0
LWPOLYLINE
   5
245
 100
AcDbEntity
   8
LEVEL001
 370
30
   6
CONTINUOUS
  62
7
 100
AcDbPolyline
  90
4
  70
0
  10
 88.709406921947
  20
 211.17973827188
  10
 83.267257971002
  20
 208.28609634616
  10
 83.642835221225
  20
 207.57973827188
  10
 88.908869324195
  20
 210.37973827188
   0
LINE
   5
246
 100
AcDbEntity
   8
LEVEL001
 370
30
 100
AcDbLine
   6
CONTINUOUS
  62
7
  10
 88.908869324195
  20
 210.37973827188
  30
0.0
  11
 99.314999999958
  21
 210.37973827188
  31
0.0
   0
LWPOLYLINE
   5
247
 100
AcDbEntity
   8
LEVEL001
 370
30
   6
CONTINUOUS
  62
7
 100
AcDbPolyline
  90
4
  70
0
  10
 203.20940692197
  20
 211.17973827188
  10
 197.76725797102
  20
 208.28609634616
  10
 198.14283522125
  20
 207.57973827188
  10
 203.40886932422
  20
 210.37973827188
   0
LWPOLYLINE
   5
248
 100
AcDbEntity
   8
LEVEL001
 370
30
   6
CONTINUOUS
  62
7
 100
AcDbPolyline
  90
4
  70
0
  10
 292.29059307799
  20
 211.17973827188
  10
 297.73274202894
  20
 208.28609634616
  10
 297.35716477871
  20
 207.57973827188
  10
 292.09113067574
  20
 210.37973827188
   0
ARC
   5
249
 100
AcDbEntity
   8
LEVEL001
 370
30
   6
CONTINUOUS
  62
7
 100
AcDbCircle
  10
 225.81499999998
  20
 209.30473827188
  30
0.0
  40
 1.8750000000000
 100
AcDbArc
  50
0.0
  51
 90.000000000000
   0
ARC
   5
24A
 100
AcDbEntity
   8
LEVEL001
 370
30
   6
CONTINUOUS
  62
7
 100
AcDbCircle
  10
 225.81499999998
  20
 209.30473827188
  30
0.0
  40
 1.0750000000000
 100
AcDbArc
  50
 1.1179871328281
  51
 89.999999999997
   0
ARC
   5
24B
 100
AcDbEntity
   8
LEVEL001
 370
30
   6
CONTINUOUS
  62
7
 100
AcDbCircle
  10
 228.38950981296
  20
 209.35497991644
  30
0.0
  40
 1.5000000000000
 100
AcDbArc
  50
 181.11798713159
  51
 247.12565221811
   0
ARC
   5
24C
 100
AcDbEntity
   8
LEVEL001
 370
30
   6
CONTINUOUS
  62
7
 100
AcDbCircle
  10
 231.11049018700
  20
 209.35497991644
  30
0.0
  40
 1.5000000000000
 100
AcDbArc
  50
 292.87434778256
  51
 358.88201286891
   0
ARC
   5
24D
 100
AcDbEntity
   8
LEVEL001
 370
30
   6
CONTINUOUS
  62
7
 100
AcDbCircle
  10
 233.68499999998
  20
 209.30473827188
  30
0.0
  40
 1.8750000000000
 100
AcDbArc
  50
 90.000000000000
  51
 180.00000000000
   0
ARC
   5
24E
 100
AcDbEntity
   8
LEVEL001
 370
30
   6
CONTINUOUS
  62
7
 100
AcDbCircle
  10
 233.68499999998
  20
 209.30473827188
  30
0.0
  40
 1.0750000000000
 100
AcDbArc
  50
 90.000000000014
  51
 178.88201286644
   0
LINE
   5
24F
 100
AcDbEntity
   8
LEVEL001
 370
30
 100
AcDbLine
   6
CONTINUOUS
  62
7
  10
 227.68999999998
  20
 208.99345886280
  30
0.0
  11
 227.68999999998
  21
 209.30473827188
  31
0.0
   0
ARC
   5
250
 100
AcDbEntity
   8
LEVEL001
 370
30
   6
CONTINUOUS
  62
7
 100
AcDbCircle
  10
 227.81499999998
  20
 208.99345886280
  30
0.0
  40
 0.12500000000000
 100
AcDbArc
  50
 180.00000000018
  51
 241.65063568189
   0
LINE
   5
251
 100
AcDbEntity
   8
LEVEL001
 370
30
 100
AcDbLine
   6
CONTINUOUS
  62
7
  10
 231.80999999998
  20
 209.30473827188
  30
0.0
  11
 231.80999999998
  21
 209.03849555216
  31
0.0
   0
ARC
   5
252
 100
AcDbEntity
   8
LEVEL001
 370
30
   6
CONTINUOUS
  62
7
 100
AcDbCircle
  10
 229.74999999998
  20
 212.57973827188
  30
0.0
  40
 4.2000000000000
 100
AcDbArc
  50
 241.56310985114
  51
 297.71022204924
   0
ARC
   5
253
 100
AcDbEntity
   8
LEVEL001
 370
30
   6
CONTINUOUS
  62
7
 100
AcDbCircle
  10
 231.60999999998
  20
 209.03849555216
  30
0.0
  40
 0.20000000000000
 100
AcDbArc
  50
 297.71022204926
  51
 0.81422199845471E-10
   0
ARC
   5
254
 100
AcDbEntity
   8
LEVEL001
 370
30
   6
CONTINUOUS
  62
7
 100
AcDbCircle
  10
 229.74999999998
  20
 212.57973827188
  30
0.0
  40
 5.0000000000000
 100
AcDbArc
  50
 247.12565221863
  51
 292.87434778158
   0
ARC
   5
255
 100
AcDbEntity
   8
LEVEL001
 370
30
   6
CONTINUOUS
  62
7
 100
AcDbCircle
  10
 261.81499999998
  20
 209.30473827188
  30
0.0
  40
 1.8750000000000
 100
AcDbArc
  50
0.0
  51
 90.000000000000
   0
ARC
   5
256
 100
AcDbEntity
   8
LEVEL001
 370
30
   6
CONTINUOUS
  62
7
 100
AcDbCircle
  10
 261.81499999998
  20
 209.30473827188
  30
0.0
  40
 1.0750000000000
 100
AcDbArc
  50
 1.1179871328281
  51
 89.999999999997
   0
ARC
   5
257
 100
AcDbEntity
   8
LEVEL001
 370
30
   6
CONTINUOUS
  62
7
 100
AcDbCircle
  10
 264.38950981296
  20
 209.35497991644
  30
0.0
  40
 1.5000000000000
 100
AcDbArc
  50
 181.11798713159
  51
 247.12565221811
   0
ARC
   5
258
 100
AcDbEntity
   8
LEVEL001
 370
30
   6
CONTINUOUS
  62
7
 100
AcDbCircle
  10
 267.11049018700
  20
 209.35497991644
  30
0.0
  40
 1.5000000000000
 100
AcDbArc
  50
 292.87434778256
  51
 358.88201286891
   0
ARC
   5
259
 100
AcDbEntity
   8
LEVEL001
 370
30
   6
CONTINUOUS
  62
7
 100
AcDbCircle
  10
 269.68499999998
  20
 209.30473827188
  30
0.0
  40
 1.8750000000000
 100
AcDbArc
  50
 90.000000000000
  51
 180.00000000000
   0
ARC
   5
25A
 100
AcDbEntity
   8
LEVEL001
 370
30
   6
CONTINUOUS
  62
7
 100
AcDbCircle
  10
 269.68499999998
  20
 209.30473827188
  30
0.0
  40
 1.0750000000000
 100
AcDbArc
  50
 90.000000000012
  51
 178.88201286644
   0
LINE
   5
25B
 100
AcDbEntity
   8
LEVEL001
 370
30
 100
AcDbLine
   6
CONTINUOUS
  62
7
  10
 263.68999999998
  20
 208.99345886280
  30
0.0
  11
 263.68999999998
  21
 209.30473827188
  31
0.0
   0
ARC
   5
25C
 100
AcDbEntity
   8
LEVEL001
 370
30
   6
CONTINUOUS
  62
7
 100
AcDbCircle
  10
 263.81499999998
  20
 208.99345886280
  30
0.0
  40
 0.12500000000000
 100
AcDbArc
  50
 180.00000000018
  51
 241.65063568189
   0
LINE
   5
25D
 100
AcDbEntity
   8
LEVEL001
 370
30
 100
AcDbLine
   6
CONTINUOUS
  62
7
  10
 267.80999999998
  20
 209.30473827188
  30
0.0
  11
 267.80999999998
  21
 209.03849555216
  31
0.0
   0
ARC
   5
25E
 100
AcDbEntity
   8
LEVEL001
 370
30
   6
CONTINUOUS
  62
7
 100
AcDbCircle
  10
 265.74999999998
  20
 212.57973827188
  30
0.0
  40
 4.2000000000000
 100
AcDbArc
  50
 241.56310985114
  51
 297.71022204924
   0
ARC
   5
25F
 100
AcDbEntity
   8
LEVEL001
 370
30
   6
CONTINUOUS
  62
7
 100
AcDbCircle
  10
 267.60999999998
  20
 209.03849555216
  30
0.0
  40
 0.20000000000000
 100
AcDbArc
  50
 297.71022204926
  51
 0.81422199845471E-10
   0
ARC
   5
260
 100
AcDbEntity
   8
LEVEL001
 370
30
   6
CONTINUOUS
  62
7
 100
AcDbCircle
  10
 265.74999999998
  20
 212.57973827188
  30
0.0
  40
 5.0000000000000
 100
AcDbArc
  50
 247.12565221863
  51
 292.87434778158
   0
LINE
   5
261
 100
AcDbEntity
   8
LEVEL001
 370
30
 100
AcDbLine
   6
CONTINUOUS
  62
7
  10
 203.20940692197
  20
 211.17973827188
  30
0.0
  11
 225.81499999998
  21
 211.17973827188
  31
0.0
   0
LINE
   5
262
 100
AcDbEntity
   8
LEVEL001
 370
30
 100
AcDbLine
   6
CONTINUOUS
  62
7
  10
 203.40886932422
  20
 210.37973827188
  30
0.0
  11
 225.81499999998
  21
 210.37973827188
  31
0.0
   0
LINE
   5
263
 100
AcDbEntity
   8
LEVEL001
 370
30
 100
AcDbLine
   6
CONTINUOUS
  62
7
  10
 292.29059307799
  20
 211.17973827188
  30
0.0
  11
 269.68499999998
  21
 211.17973827188
  31
0.0
   0
LINE
   5
264
 100
AcDbEntity
   8
LEVEL001
 370
30
 100
AcDbLine
   6
CONTINUOUS
  62
7
  10
 292.09113067574
  20
 210.37973827188
  30
0.0
  11
 269.68499999998
  21
 210.37973827188
  31
0.0
   0
LINE
   5
265
 100
AcDbEntity
   8
LEVEL001
 370
30
 100
AcDbLine
   6
CONTINUOUS
  62
7
  10
 233.68499999998
  20
 211.17973827188
  30
0.0
  11
 261.81499999998
  21
 211.17973827188
  31
0.0
   0
LINE
   5
266
 100
AcDbEntity
   8
LEVEL001
 370
30
 100
AcDbLine
   6
CONTINUOUS
  62
7
  10
 261.81499999998
  20
 210.37973827188
  30
0.0
  11
 233.68499999998
  21
 210.37973827188
  31
0.0
   0
ARC
   5
267
 100
AcDbEntity
   8
LEVEL001
 370
30
   6
CONTINUOUS
  62
7
 100
AcDbCircle
  10
 99.314999999958
  20
 477.30473827182
  30
0.0
  40
 1.8750000000000
 100
AcDbArc
  50
0.0
  51
 90.000000000000
   0
ARC
   5
268
 100
AcDbEntity
   8
LEVEL001
 370
30
   6
CONTINUOUS
  62
7
 100
AcDbCircle
  10
 99.314999999958
  20
 477.30473827182
  30
0.0
  40
 1.0750000000000
 100
AcDbArc
  50
 1.1179871328766
  51
 89.999999999998
   0
ARC
   5
269
 100
AcDbEntity
   8
LEVEL001
 370
30
   6
CONTINUOUS
  62
7
 100
AcDbCircle
  10
 101.88950981294
  20
 477.35497991638
  30
0.0
  40
 1.5000000000000
 100
AcDbArc
  50
 181.11798713156
  51
 247.12565221813
   0
ARC
   5
26A
 100
AcDbEntity
   8
LEVEL001
 370
30
   6
CONTINUOUS
  62
7
 100
AcDbCircle
  10
 104.61049018697
  20
 477.35497991638
  30
0.0
  40
 1.5000000000000
 100
AcDbArc
  50
 292.87434778258
  51
 358.88201286892
   0
ARC
   5
26B
 100
AcDbEntity
   8
LEVEL001
 370
30
   6
CONTINUOUS
  62
7
 100
AcDbCircle
  10
 107.18499999996
  20
 477.30473827182
  30
0.0
  40
 1.8750000000000
 100
AcDbArc
  50
 90.000000000000
  51
 180.00000000000
   0
ARC
   5
26C
 100
AcDbEntity
   8
LEVEL001
 370
30
   6
CONTINUOUS
  62
7
 100
AcDbCircle
  10
 107.18499999996
  20
 477.30473827182
  30
0.0
  40
 1.0750000000000
 100
AcDbArc
  50
 90.000000000013
  51
 178.88201286644
   0
LINE
   5
26D
 100
AcDbEntity
   8
LEVEL001
 370
30
 100
AcDbLine
   6
CONTINUOUS
  62
7
  10
 101.18999999996
  20
 476.99345886274
  30
0.0
  11
 101.18999999996
  21
 477.30473827182
  31
0.0
   0
ARC
   5
26E
 100
AcDbEntity
   8
LEVEL001
 370
30
   6
CONTINUOUS
  62
7
 100
AcDbCircle
  10
 101.31499999996
  20
 476.99345886274
  30
0.0
  40
 0.12500000000000
 100
AcDbArc
  50
 180.00000000018
  51
 241.65063568189
   0
LINE
   5
26F
 100
AcDbEntity
   8
LEVEL001
 370
30
 100
AcDbLine
   6
CONTINUOUS
  62
7
  10
 105.30999999996
  20
 477.30473827182
  30
0.0
  11
 105.30999999996
  21
 477.03849555210
  31
0.0
   0
ARC
   5
270
 100
AcDbEntity
   8
LEVEL001
 370
30
   6
CONTINUOUS
  62
7
 100
AcDbCircle
  10
 103.24999999996
  20
 480.57973827182
  30
0.0
  40
 4.2000000000000
 100
AcDbArc
  50
 241.56310985115
  51
 297.71022204926
   0
ARC
   5
271
 100
AcDbEntity
   8
LEVEL001
 370
30
   6
CONTINUOUS
  62
7
 100
AcDbCircle
  10
 105.10999999996
  20
 477.03849555210
  30
0.0
  40
 0.20000000000000
 100
AcDbArc
  50
 297.71022204926
  51
 0.81422199845465E-10
   0
ARC
   5
272
 100
AcDbEntity
   8
LEVEL001
 370
30
   6
CONTINUOUS
  62
7
 100
AcDbCircle
  10
 103.24999999996
  20
 480.57973827182
  30
0.0
  40
 5.0000000000000
 100
AcDbArc
  50
 247.12565221863
  51
 292.87434778158
   0
LINE
   5
273
 100
AcDbEntity
   8
LEVEL001
 370
30
 100
AcDbLine
   6
CONTINUOUS
  62
7
  10
 90.249999999958
  20
 475.57973827183
  30
0.0
  11
 90.249999999958
  21
 476.37973827182
  31
0.0
   0
LINE
   5
274
 100
AcDbEntity
   8
LEVEL001
 370
30
 100
AcDbLine
   6
CONTINUOUS
  62
7
  10
 85.049999999958
  20
 476.37973827182
  30
0.0
  11
 90.249999999958
  21
 476.37973827182
  31
0.0
   0
LINE
   5
275
 100
AcDbEntity
   8
LEVEL001
 370
30
 100
AcDbLine
   6
CONTINUOUS
  62
7
  10
 85.049999999958
  20
 475.57973827183
  30
0.0
  11
 90.249999999958
  21
 475.57973827183
  31
0.0
   0
ARC
   5
276
 100
AcDbEntity
   8
LEVEL001
 370
30
   6
CONTINUOUS
  62
7
 100
AcDbCircle
  10
 85.049999999958
  20
 477.37973827182
  30
0.0
  40
 0.99999999999995
 100
AcDbArc
  50
 90.000000000000
  51
 270.00000000000
   0
ARC
   5
277
 100
AcDbEntity
   8
LEVEL001
 370
30
   6
CONTINUOUS
  62
7
 100
AcDbCircle
  10
 85.049999999958
  20
 477.37973827182
  30
0.0
  40
 1.8000000000000
 100
AcDbArc
  50
 90.000000000000
  51
 270.00000000000
   0
LINE
   5
278
 100
AcDbEntity
   8
LEVEL001
 370
30
 100
AcDbLine
   6
CONTINUOUS
  62
7
  10
 116.24999999996
  20
 475.57973827183
  30
0.0
  11
 116.24999999996
  21
 476.37973827182
  31
0.0
   0
LINE
   5
279
 100
AcDbEntity
   8
LEVEL001
 370
30
 100
AcDbLine
   6
CONTINUOUS
  62
7
  10
 121.44999999996
  20
 476.37973827182
  30
0.0
  11
 116.24999999996
  21
 476.37973827182
  31
0.0
   0
LINE
   5
27A
 100
AcDbEntity
   8
LEVEL001
 370
30
 100
AcDbLine
   6
CONTINUOUS
  62
7
  10
 121.44999999996
  20
 475.57973827183
  30
0.0
  11
 116.24999999996
  21
 475.57973827183
  31
0.0
   0
ARC
   5
27B
 100
AcDbEntity
   8
LEVEL001
 370
30
   6
CONTINUOUS
  62
7
 100
AcDbCircle
  10
 121.44999999996
  20
 477.37973827182
  30
0.0
  40
 0.99999999999995
 100
AcDbArc
  50
 270.00000000000
  51
 90.000000000000
   0
ARC
   5
27C
 100
AcDbEntity
   8
LEVEL001
 370
30
   6
CONTINUOUS
  62
7
 100
AcDbCircle
  10
 121.44999999996
  20
 477.37973827182
  30
0.0
  40
 1.8000000000000
 100
AcDbArc
  50
 270.00000000000
  51
 90.000000000000
   0
LINE
   5
27D
 100
AcDbEntity
   8
LEVEL001
 370
30
 100
AcDbLine
   6
CONTINUOUS
  62
7
  10
 85.049999999958
  20
 479.17973827182
  30
0.0
  11
 99.314999999958
  21
 479.17973827182
  31
0.0
   0
LINE
   5
27E
 100
AcDbEntity
   8
LEVEL001
 370
30
 100
AcDbLine
   6
CONTINUOUS
  62
7
  10
 85.049999999958
  20
 478.37973827182
  30
0.0
  11
 99.314999999958
  21
 478.37973827182
  31
0.0
   0
LINE
   5
27F
 100
AcDbEntity
   8
LEVEL001
 370
30
 100
AcDbLine
   6
CONTINUOUS
  62
7
  10
 121.44999999996
  20
 479.17973827182
  30
0.0
  11
 107.18499999996
  21
 479.17973827182
  31
0.0
   0
LINE
   5
280
 100
AcDbEntity
   8
LEVEL001
 370
30
 100
AcDbLine
   6
CONTINUOUS
  62
7
  10
 121.44999999996
  20
 478.37973827182
  30
0.0
  11
 107.18499999996
  21
 478.37973827182
  31
0.0
   0
ARC
   5
281
 100
AcDbEntity
   8
LEVEL001
 370
30
   6
CONTINUOUS
  62
7
 100
AcDbCircle
  10
 225.81499999998
  20
 477.30473827182
  30
0.0
  40
 1.8750000000000
 100
AcDbArc
  50
0.0
  51
 90.000000000000
   0
ARC
   5
282
 100
AcDbEntity
   8
LEVEL001
 370
30
   6
CONTINUOUS
  62
7
 100
AcDbCircle
  10
 225.81499999998
  20
 477.30473827182
  30
0.0
  40
 1.0750000000000
 100
AcDbArc
  50
 1.1179871328524
  51
 89.999999999997
   0
ARC
   5
283
 100
AcDbEntity
   8
LEVEL001
 370
30
   6
CONTINUOUS
  62
7
 100
AcDbCircle
  10
 228.38950981296
  20
 477.35497991638
  30
0.0
  40
 1.5000000000000
 100
AcDbArc
  50
 181.11798713157
  51
 247.12565221811
   0
ARC
   5
284
 100
AcDbEntity
   8
LEVEL001
 370
30
   6
CONTINUOUS
  62
7
 100
AcDbCircle
  10
 231.11049018700
  20
 477.35497991638
  30
0.0
  40
 1.5000000000000
 100
AcDbArc
  50
 292.87434778256
  51
 358.88201286891
   0
ARC
   5
285
 100
AcDbEntity
   8
LEVEL001
 370
30
   6
CONTINUOUS
  62
7
 100
AcDbCircle
  10
 233.68499999998
  20
 477.30473827182
  30
0.0
  40
 1.8750000000000
 100
AcDbArc
  50
 90.000000000000
  51
 180.00000000000
   0
ARC
   5
286
 100
AcDbEntity
   8
LEVEL001
 370
30
   6
CONTINUOUS
  62
7
 100
AcDbCircle
  10
 233.68499999998
  20
 477.30473827182
  30
0.0
  40
 1.0750000000000
 100
AcDbArc
  50
 90.000000000014
  51
 178.88201286644
   0
LINE
   5
287
 100
AcDbEntity
   8
LEVEL001
 370
30
 100
AcDbLine
   6
CONTINUOUS
  62
7
  10
 227.68999999998
  20
 476.99345886274
  30
0.0
  11
 227.68999999998
  21
 477.30473827182
  31
0.0
   0
ARC
   5
288
 100
AcDbEntity
   8
LEVEL001
 370
30
   6
CONTINUOUS
  62
7
 100
AcDbCircle
  10
 227.81499999998
  20
 476.99345886274
  30
0.0
  40
 0.12500000000000
 100
AcDbArc
  50
 180.00000000018
  51
 241.65063568189
   0
LINE
   5
289
 100
AcDbEntity
   8
LEVEL001
 370
30
 100
AcDbLine
   6
CONTINUOUS
  62
7
  10
 231.80999999998
  20
 477.30473827182
  30
0.0
  11
 231.80999999998
  21
 477.03849555210
  31
0.0
   0
ARC
   5
28A
 100
AcDbEntity
   8
LEVEL001
 370
30
   6
CONTINUOUS
  62
7
 100
AcDbCircle
  10
 229.74999999998
  20
 480.57973827182
  30
0.0
  40
 4.2000000000000
 100
AcDbArc
  50
 241.56310985114
  51
 297.71022204925
   0
ARC
   5
28B
 100
AcDbEntity
   8
LEVEL001
 370
30
   6
CONTINUOUS
  62
7
 100
AcDbCircle
  10
 231.60999999998
  20
 477.03849555210
  30
0.0
  40
 0.20000000000000
 100
AcDbArc
  50
 297.71022204926
  51
 0.81422199845471E-10
   0
ARC
   5
28C
 100
AcDbEntity
   8
LEVEL001
 370
30
   6
CONTINUOUS
  62
7
 100
AcDbCircle
  10
 229.74999999998
  20
 480.57973827182
  30
0.0
  40
 5.0000000000000
 100
AcDbArc
  50
 247.12565221863
  51
 292.87434778158
   0
ARC
   5
28D
 100
AcDbEntity
   8
LEVEL001
 370
30
   6
CONTINUOUS
  62
7
 100
AcDbCircle
  10
 261.81499999998
  20
 477.30473827182
  30
0.0
  40
 1.8750000000000
 100
AcDbArc
  50
0.0
  51
 90.000000000000
   0
ARC
   5
28E
 100
AcDbEntity
   8
LEVEL001
 370
30
   6
CONTINUOUS
  62
7
 100
AcDbCircle
  10
 261.81499999998
  20
 477.30473827182
  30
0.0
  40
 1.0750000000000
 100
AcDbArc
  50
 1.1179871328524
  51
 89.999999999997
   0
ARC
   5
28F
 100
AcDbEntity
   8
LEVEL001
 370
30
   6
CONTINUOUS
  62
7
 100
AcDbCircle
  10
 264.38950981296
  20
 477.35497991638
  30
0.0
  40
 1.5000000000000
 100
AcDbArc
  50
 181.11798713157
  51
 247.12565221811
   0
ARC
   5
290
 100
AcDbEntity
   8
LEVEL001
 370
30
   6
CONTINUOUS
  62
7
 100
AcDbCircle
  10
 267.11049018700
  20
 477.35497991638
  30
0.0
  40
 1.5000000000000
 100
AcDbArc
  50
 292.87434778256
  51
 358.88201286891
   0
ARC
   5
291
 100
AcDbEntity
   8
LEVEL001
 370
30
   6
CONTINUOUS
  62
7
 100
AcDbCircle
  10
 269.68499999998
  20
 477.30473827182
  30
0.0
  40
 1.8750000000000
 100
AcDbArc
  50
 90.000000000000
  51
 180.00000000000
   0
ARC
   5
292
 100
AcDbEntity
   8
LEVEL001
 370
30
   6
CONTINUOUS
  62
7
 100
AcDbCircle
  10
 269.68499999998
  20
 477.30473827182
  30
0.0
  40
 1.0750000000000
 100
AcDbArc
  50
 90.000000000012
  51
 178.88201286644
   0
LINE
   5
293
 100
AcDbEntity
   8
LEVEL001
 370
30
 100
AcDbLine
   6
CONTINUOUS
  62
7
  10
 263.68999999998
  20
 476.99345886274
  30
0.0
  11
 263.68999999998
  21
 477.30473827182
  31
0.0
   0
ARC
   5
294
 100
AcDbEntity
   8
LEVEL001
 370
30
   6
CONTINUOUS
  62
7
 100
AcDbCircle
  10
 263.81499999998
  20
 476.99345886274
  30
0.0
  40
 0.12500000000000
 100
AcDbArc
  50
 180.00000000018
  51
 241.65063568189
   0
LINE
   5
295
 100
AcDbEntity
   8
LEVEL001
 370
30
 100
AcDbLine
   6
CONTINUOUS
  62
7
  10
 267.80999999998
  20
 477.30473827182
  30
0.0
  11
 267.80999999998
  21
 477.03849555210
  31
0.0
   0
ARC
   5
296
 100
AcDbEntity
   8
LEVEL001
 370
30
   6
CONTINUOUS
  62
7
 100
AcDbCircle
  10
 265.74999999998
  20
 480.57973827182
  30
0.0
  40
 4.2000000000000
 100
AcDbArc
  50
 241.56310985114
  51
 297.71022204925
   0
ARC
   5
297
 100
AcDbEntity
   8
LEVEL001
 370
30
   6
CONTINUOUS
  62
7
 100
AcDbCircle
  10
 267.60999999998
  20
 477.03849555210
  30
0.0
  40
 0.20000000000000
 100
AcDbArc
  50
 297.71022204926
  51
 0.81422199845471E-10
   0
ARC
   5
298
 100
AcDbEntity
   8
LEVEL001
 370
30
   6
CONTINUOUS
  62
7
 100
AcDbCircle
  10
 265.74999999998
  20
 480.57973827182
  30
0.0
  40
 5.0000000000000
 100
AcDbArc
  50
 247.12565221863
  51
 292.87434778158
   0
LINE
   5
299
 100
AcDbEntity
   8
LEVEL001
 370
30
 100
AcDbLine
   6
CONTINUOUS
  62
7
  10
 233.68499999998
  20
 479.17973827182
  30
0.0
  11
 261.81499999998
  21
 479.17973827182
  31
0.0
   0
LINE
   5
29A
 100
AcDbEntity
   8
LEVEL001
 370
30
 100
AcDbLine
   6
CONTINUOUS
  62
7
  10
 261.81499999998
  20
 478.37973827182
  30
0.0
  11
 233.68499999998
  21
 478.37973827182
  31
0.0
   0
LINE
   5
29B
 100
AcDbEntity
   8
LEVEL001
 370
30
 100
AcDbLine
   6
CONTINUOUS
  62
7
  10
 204.74999999998
  20
 475.57973827183
  30
0.0
  11
 204.74999999998
  21
 476.37973827182
  31
0.0
   0
LINE
   5
29C
 100
AcDbEntity
   8
LEVEL001
 370
30
 100
AcDbLine
   6
CONTINUOUS
  62
7
  10
 199.54999999998
  20
 476.37973827182
  30
0.0
  11
 204.74999999998
  21
 476.37973827182
  31
0.0
   0
LINE
   5
29D
 100
AcDbEntity
   8
LEVEL001
 370
30
 100
AcDbLine
   6
CONTINUOUS
  62
7
  10
 199.54999999998
  20
 475.57973827183
  30
0.0
  11
 204.74999999998
  21
 475.57973827183
  31
0.0
   0
ARC
   5
29E
 100
AcDbEntity
   8
LEVEL001
 370
30
   6
CONTINUOUS
  62
7
 100
AcDbCircle
  10
 199.54999999998
  20
 477.37973827182
  30
0.0
  40
 0.99999999999995
 100
AcDbArc
  50
 90.000000000000
  51
 270.00000000000
   0
ARC
   5
29F
 100
AcDbEntity
   8
LEVEL001
 370
30
   6
CONTINUOUS
  62
7
 100
AcDbCircle
  10
 199.54999999998
  20
 477.37973827182
  30
0.0
  40
 1.8000000000000
 100
AcDbArc
  50
 90.000000000000
  51
 270.00000000000
   0
LINE
   5
2A0
 100
AcDbEntity
   8
LEVEL001
 370
30
 100
AcDbLine
   6
CONTINUOUS
  62
7
  10
 199.54999999998
  20
 479.17973827182
  30
0.0
  11
 225.81499999998
  21
 479.17973827182
  31
0.0
   0
LINE
   5
2A1
 100
AcDbEntity
   8
LEVEL001
 370
30
 100
AcDbLine
   6
CONTINUOUS
  62
7
  10
 199.54999999998
  20
 478.37973827182
  30
0.0
  11
 225.81499999998
  21
 478.37973827182
  31
0.0
   0
LINE
   5
2A2
 100
AcDbEntity
   8
LEVEL001
 370
30
 100
AcDbLine
   6
CONTINUOUS
  62
7
  10
 290.74999999998
  20
 475.57973827183
  30
0.0
  11
 290.74999999998
  21
 476.37973827182
  31
0.0
   0
LINE
   5
2A3
 100
AcDbEntity
   8
LEVEL001
 370
30
 100
AcDbLine
   6
CONTINUOUS
  62
7
  10
 295.94999999998
  20
 476.37973827182
  30
0.0
  11
 290.74999999998
  21
 476.37973827182
  31
0.0
   0
LINE
   5
2A4
 100
AcDbEntity
   8
LEVEL001
 370
30
 100
AcDbLine
   6
CONTINUOUS
  62
7
  10
 295.94999999998
  20
 475.57973827183
  30
0.0
  11
 290.74999999998
  21
 475.57973827183
  31
0.0
   0
ARC
   5
2A5
 100
AcDbEntity
   8
LEVEL001
 370
30
   6
CONTINUOUS
  62
7
 100
AcDbCircle
  10
 295.94999999998
  20
 477.37973827182
  30
0.0
  40
 0.99999999999995
 100
AcDbArc
  50
 270.00000000000
  51
 90.000000000000
   0
ARC
   5
2A6
 100
AcDbEntity
   8
LEVEL001
 370
30
   6
CONTINUOUS
  62
7
 100
AcDbCircle
  10
 295.94999999998
  20
 477.37973827182
  30
0.0
  40
 1.8000000000000
 100
AcDbArc
  50
 270.00000000000
  51
 90.000000000000
   0
LINE
   5
2A7
 100
AcDbEntity
   8
LEVEL001
 370
30
 100
AcDbLine
   6
CONTINUOUS
  62
7
  10
 295.94999999998
  20
 479.17973827182
  30
0.0
  11
 269.68499999998
  21
 479.17973827182
  31
0.0
   0
LINE
   5
2A8
 100
AcDbEntity
   8
LEVEL001
 370
30
 100
AcDbLine
   6
CONTINUOUS
  62
7
  10
 295.94999999998
  20
 478.37973827182
  30
0.0
  11
 269.68499999998
  21
 478.37973827182
  31
0.0
   0
MTEXT
   5
2AA
 100
AcDbEntity
   8
LEVEL002
 370
15
  62
8
 100
AcDbMText
  10
 31.599999999900
  20
 287.00000000002
  30
0.0
  40
 6.0000000000000
  41
0.0
  71
4
  72
1
   1
\T1.000000;　ＹＦＳ４０Ｐ２
   7
GMM001
  44
 0.79999984000003
   0
MTEXT
   5
2AC
 100
AcDbEntity
   8
LEVEL002
 370
15
  62
8
 100
AcDbMText
  10
 758.99999999990
  20
 40.166666666690
  30
0.0
  40
 5.0000000000000
  41
0.0
  71
5
  72
1
   1
\T1.000000;パルステン敷居レール－ＹＦ型
   7
GMM001
  44
 0.79999984000003
   0
MTEXT
   5
2AE
 100
AcDbEntity
   8
LEVEL002
 370
15
  62
8
 100
AcDbMText
  10
 608.99999999990
  20
 429.00000000000
  30
0.0
  40
 6.0000000000000
  41
0.0
  71
1
  72
1
   3
{\W1.000000;\T1.000000;仕様}\P{\W1.000000;\T1.000000;　材質：ステンレス製}\P{\W1.000000;\T1.000000;　　　　\W0.500000;\T1.000000;(\W1.000000;\T1.000000;ＳＵＳ３０４／\W0.500000;\T1.000000;t\W1.000000;\T1.000000;０\W0.500000;\T1.000000;.\W1.000000;\T1
   3
.000000;８\W0.500000;\T1.000000;)}\P{\W1.000000;\T1.000000;　仕上：ＨＬ}\P{\W1.000000;\T1.000000;　}\P{\W1.000000;\T1.000000;　用途：Ｎ２・Ｐ２＝コンクリート用・木製兼用}\P\P{\W1.000000;\T1.000000;　ＹＦＳ４０Ｎ２／ＹＦＷ１００Ｎ２}\P{\W1.000000;\T1.
   3
000000;　　　　ネジ止め－下穴%%c５／皿%%c７\W0.500000;\T1.000000;.\W1.000000;\T1.000000;５}\P{\W1.000000;\T1.000000;　ＹＦＳ４０Ｐ２／ＹＦＷ１００Ｐ２}\P{\W1.000000;\T1.000000;　　　　接着}\P\P{\W1.000000;\T1.000000;　長さ（定尺）：１８２０\W0.500000
   3
;\T1.000000;mm}\P{\W1.000000;\T1.000000;　　　　　　　　２７３０\W0.500000;\T1.000000;mm}\P{\W1.000000;\T1.000000;　　　　　　　　３６４０\W0.500000;\T1.000000;mm}\P{\W1.000000;\T1.000000;　　　　　　　　２０００\W0.500000;\T1.000000;mm}\P{\W1.000000
   1
;\T1.000000;　　　　　　　　３０００\W0.500000;\T1.000000;mm}\P{\W1.000000;\T1.000000;　　　　　　　　４０００\W0.500000;\T1.000000;mm}\P{\W1.000000;\T1.000000;　　}
   7
GMM001
  44
 0.79999984000003
   0
MTEXT
   5
2B0
 100
AcDbEntity
   8
LEVEL002
 370
15
  62
8
 100
AcDbMText
  10
 621.59999999990
  20
 506.00000000000
  30
0.0
  40
 6.0000000000000
  41
0.0
  71
5
  72
1
   1
\T1.000000;商品名：
   7
GMM001
  44
 0.79999984000003
   0
ENDSEC
  0
SECTION
  2
OBJECTS
  0
DICTIONARY
  5
C
100
AcDbDictionary
  3
ACAD_GROUP
350
D
  3
ACAD_MLINESTYLE
350
1B
  3
DWGPROPS
350
1C
  0
DICTIONARY
  5
D
102
{ACAD_REACTORS
330
C
102
}
100
AcDbDictionary
  0
DICTIONARY
  5
1B
102
{ACAD_REACTORS
330
C
102
}
100
AcDbDictionary
  3
STANDARD
350
1D
  0
MLINESTYLE
  5
1D
102
{ACAD_REACTORS
330
1B
102
}
100
AcDbMlineStyle
  2
STANDARD
 70
     0
  3

 62
   256
 51
90.0
 52
90.0
 71
     2
 49
0.5
 62
   256
  6
BYLAYER
 49
-0.5
 62
   256
  6
BYLAYER
   0
XRECORD
   5
1C
 102
{ACAD_REACTORS
 330
C
 102
}
 330
C
 100
AcDbXrecord
 280
1
   1
DWGPROPS COOKIE
   2
 
   3
 
   4
haruna
   6
 
   7
8-敷居ﾚｰﾙ(YF型)
   8
haruna
   9

 300
 = 
 301
 = 
 302
 = 
 303
 = 
 304
 = 
 305
 = 
 306
 = 
 307
 = 
 308
 = 
 309
 = 
  40
0.0
  41
 2459590.5000000
  42
 2459970.5000000
   1

  90
10
   0
ENDSEC
   0
EOF
